  0
SECTION
  2
HEADER
  9
$ACADVER
  1
AC1027
  9
$ACADMAINTVER
 70
   105
  9
$DWGCODEPAGE
  3
ANSI_1252
  9
$COMMENTS
  1
File was created by Cadenas
  9
$LASTSAVEDBY
  1
psAdmin
  9
$CUSTOMPROPERTYTAG
  1
NB
  9
$CUSTOMPROPERTY
  1
01136
  9
$CUSTOMPROPERTYTAG
  1
NN
  9
$CUSTOMPROPERTY
  1
Covers and compartments
  9
$CUSTOMPROPERTYTAG
  1
NT
  9
$CUSTOMPROPERTY
  1

  9
$CUSTOMPROPERTYTAG
  1
NBSYN
  9
$CUSTOMPROPERTY
  1
$ARTNR.
  9
$CUSTOMPROPERTYTAG
  1
LINA
  9
$CUSTOMPROPERTY
  1
01136000
  9
$CUSTOMPROPERTYTAG
  1
CATALOG
  9
$CUSTOMPROPERTY
  1
Wöhner
  9
$CUSTOMPROPERTYTAG
  1
ARTNR
  9
$CUSTOMPROPERTY
  1
01136
  9
$CUSTOMPROPERTYTAG
  1
TYPE
  9
$CUSTOMPROPERTY
  1
TC60-L
  9
$CUSTOMPROPERTYTAG
  1
QNT
  9
$CUSTOMPROPERTY
  1
1
  9
$CUSTOMPROPERTYTAG
  1
W
  9
$CUSTOMPROPERTY
  1
28
  9
$CUSTOMPROPERTYTAG
  1
H
  9
$CUSTOMPROPERTY
  1
204
  9
$CUSTOMPROPERTYTAG
  1
D
  9
$CUSTOMPROPERTY
  1
92
  9
$CUSTOMPROPERTYTAG
  1
LINK
  9
$CUSTOMPROPERTY
  1
Product link
  9
$CUSTOMPROPERTYTAG
  1
COMPANY
  9
$CUSTOMPROPERTY
  1
woehner
  9
$REQUIREDVERSIONS
160
                 0
  9
$INSBASE
 10
0.0
 20
0.0
 30
0.0
  9
$EXTMIN
 10
-84.0
 20
-102.0
 30
0.0
  9
$EXTMAX
 10
74.45238095238093
 20
172.2
 30
0.0
  9
$LIMMIN
 10
0.0
 20
0.0
  9
$LIMMAX
 10
420.0
 20
297.0
  9
$ORTHOMODE
 70
     0
  9
$REGENMODE
 70
     1
  9
$FILLMODE
 70
     1
  9
$QTEXTMODE
 70
     0
  9
$MIRRTEXT
 70
     1
  9
$LTSCALE
 40
1.0
  9
$ATTMODE
 70
     1
  9
$TEXTSIZE
 40
2.5
  9
$TRACEWID
 40
1.0
  9
$TEXTSTYLE
  7
Standard
  9
$CLAYER
  8
0
  9
$CELTYPE
  6
ByLayer
  9
$CECOLOR
 62
   256
  9
$CELTSCALE
 40
1.0
  9
$DISPSILH
 70
     0
  9
$DIMSCALE
 40
1.0
  9
$DIMASZ
 40
2.5
  9
$DIMEXO
 40
0.625
  9
$DIMDLI
 40
3.75
  9
$DIMRND
 40
0.0
  9
$DIMDLE
 40
0.0
  9
$DIMEXE
 40
1.25
  9
$DIMTP
 40
0.0
  9
$DIMTM
 40
0.0
  9
$DIMTXT
 40
2.5
  9
$DIMCEN
 40
2.5
  9
$DIMTSZ
 40
0.0
  9
$DIMTOL
 70
     0
  9
$DIMLIM
 70
     0
  9
$DIMTIH
 70
     0
  9
$DIMTOH
 70
     0
  9
$DIMSE1
 70
     0
  9
$DIMSE2
 70
     0
  9
$DIMTAD
 70
     1
  9
$DIMZIN
 70
     8
  9
$DIMBLK
  1

  9
$DIMASO
 70
     1
  9
$DIMSHO
 70
     1
  9
$DIMPOST
  1

  9
$DIMAPOST
  1

  9
$DIMALT
 70
     0
  9
$DIMALTD
 70
     3
  9
$DIMALTF
 40
0.03937007874016
  9
$DIMLFAC
 40
1.0
  9
$DIMTOFL
 70
     1
  9
$DIMTVP
 40
0.0
  9
$DIMTIX
 70
     0
  9
$DIMSOXD
 70
     0
  9
$DIMSAH
 70
     0
  9
$DIMBLK1
  1

  9
$DIMBLK2
  1

  9
$DIMSTYLE
  2
ISO-25
  9
$DIMCLRD
 70
     0
  9
$DIMCLRE
 70
     0
  9
$DIMCLRT
 70
     0
  9
$DIMTFAC
 40
1.0
  9
$DIMGAP
 40
0.625
  9
$DIMJUST
 70
     0
  9
$DIMSD1
 70
     0
  9
$DIMSD2
 70
     0
  9
$DIMTOLJ
 70
     0
  9
$DIMTZIN
 70
     8
  9
$DIMALTZ
 70
     0
  9
$DIMALTTZ
 70
     0
  9
$DIMUPT
 70
     0
  9
$DIMDEC
 70
     2
  9
$DIMTDEC
 70
     2
  9
$DIMALTU
 70
     2
  9
$DIMALTTD
 70
     3
  9
$DIMTXSTY
  7
Standard
  9
$DIMAUNIT
 70
     0
  9
$DIMADEC
 70
     0
  9
$DIMALTRND
 40
0.0
  9
$DIMAZIN
 70
     0
  9
$DIMDSEP
 70
    44
  9
$DIMATFIT
 70
     3
  9
$DIMFRAC
 70
     0
  9
$DIMLDRBLK
  1

  9
$DIMLUNIT
 70
     2
  9
$DIMLWD
 70
    -2
  9
$DIMLWE
 70
    -2
  9
$DIMTMOVE
 70
     0
  9
$DIMFXL
 40
1.0
  9
$DIMFXLON
 70
     0
  9
$DIMJOGANG
 40
0.7853981633974483
  9
$DIMTFILL
 70
     0
  9
$DIMTFILLCLR
 70
     0
  9
$DIMARCSYM
 70
     0
  9
$DIMLTYPE
  6

  9
$DIMLTEX1
  6

  9
$DIMLTEX2
  6

  9
$DIMTXTDIRECTION
 70
     0
  9
$LUNITS
 70
     2
  9
$LUPREC
 70
     4
  9
$SKETCHINC
 40
1.0
  9
$FILLETRAD
 40
0.0
  9
$AUNITS
 70
     0
  9
$AUPREC
 70
     0
  9
$MENU
  1
.
  9
$ELEVATION
 40
0.0
  9
$PELEVATION
 40
0.0
  9
$THICKNESS
 40
0.0
  9
$LIMCHECK
 70
     0
  9
$CHAMFERA
 40
0.0
  9
$CHAMFERB
 40
0.0
  9
$CHAMFERC
 40
0.0
  9
$CHAMFERD
 40
0.0
  9
$SKPOLY
 70
     0
  9
$TDCREATE
 40
2460343.388960209
  9
$TDUCREATE
 40
2460343.347293542
  9
$TDUPDATE
 40
2460343.388960394
  9
$TDUUPDATE
 40
2460343.347293727
  9
$TDINDWG
 40
0.0000000116
  9
$TDUSRTIMER
 40
0.0000000116
  9
$USRTIMER
 70
     1
  9
$ANGBASE
 50
0.0
  9
$ANGDIR
 70
     0
  9
$PDMODE
 70
     0
  9
$PDSIZE
 40
0.0
  9
$PLINEWID
 40
0.0
  9
$SPLFRAME
 70
     0
  9
$SPLINETYPE
 70
     6
  9
$SPLINESEGS
 70
     8
  9
$HANDSEED
  5
214
  9
$SURFTAB1
 70
     6
  9
$SURFTAB2
 70
     6
  9
$SURFTYPE
 70
     6
  9
$SURFU
 70
     6
  9
$SURFV
 70
     6
  9
$UCSBASE
  2

  9
$UCSNAME
  2

  9
$UCSORG
 10
0.0
 20
0.0
 30
0.0
  9
$UCSXDIR
 10
1.0
 20
0.0
 30
0.0
  9
$UCSYDIR
 10
0.0
 20
1.0
 30
0.0
  9
$UCSORTHOREF
  2

  9
$UCSORTHOVIEW
 70
     0
  9
$UCSORGTOP
 10
0.0
 20
0.0
 30
0.0
  9
$UCSORGBOTTOM
 10
0.0
 20
0.0
 30
0.0
  9
$UCSORGLEFT
 10
0.0
 20
0.0
 30
0.0
  9
$UCSORGRIGHT
 10
0.0
 20
0.0
 30
0.0
  9
$UCSORGFRONT
 10
0.0
 20
0.0
 30
0.0
  9
$UCSORGBACK
 10
0.0
 20
0.0
 30
0.0
  9
$PUCSBASE
  2

  9
$PUCSNAME
  2

  9
$PUCSORG
 10
0.0
 20
0.0
 30
0.0
  9
$PUCSXDIR
 10
1.0
 20
0.0
 30
0.0
  9
$PUCSYDIR
 10
0.0
 20
1.0
 30
0.0
  9
$PUCSORTHOREF
  2

  9
$PUCSORTHOVIEW
 70
     0
  9
$PUCSORGTOP
 10
0.0
 20
0.0
 30
0.0
  9
$PUCSORGBOTTOM
 10
0.0
 20
0.0
 30
0.0
  9
$PUCSORGLEFT
 10
0.0
 20
0.0
 30
0.0
  9
$PUCSORGRIGHT
 10
0.0
 20
0.0
 30
0.0
  9
$PUCSORGFRONT
 10
0.0
 20
0.0
 30
0.0
  9
$PUCSORGBACK
 10
0.0
 20
0.0
 30
0.0
  9
$USERI1
 70
     0
  9
$USERI2
 70
     0
  9
$USERI3
 70
     0
  9
$USERI4
 70
     0
  9
$USERI5
 70
     0
  9
$USERR1
 40
0.0
  9
$USERR2
 40
0.0
  9
$USERR3
 40
0.0
  9
$USERR4
 40
0.0
  9
$USERR5
 40
0.0
  9
$WORLDVIEW
 70
     1
  9
$SHADEDGE
 70
     3
  9
$SHADEDIF
 70
    70
  9
$TILEMODE
 70
     1
  9
$MAXACTVP
 70
    64
  9
$PINSBASE
 10
0.0
 20
0.0
 30
0.0
  9
$PLIMCHECK
 70
     0
  9
$PEXTMIN
 10
1.000000000000000E+20
 20
1.000000000000000E+20
 30
1.000000000000000E+20
  9
$PEXTMAX
 10
-1.000000000000000E+20
 20
-1.000000000000000E+20
 30
-1.000000000000000E+20
  9
$PLIMMIN
 10
0.0
 20
0.0
  9
$PLIMMAX
 10
420.0
 20
297.0
  9
$UNITMODE
 70
     0
  9
$VISRETAIN
 70
     1
  9
$PLINEGEN
 70
     0
  9
$PSLTSCALE
 70
     1
  9
$TREEDEPTH
 70
  3020
  9
$CMLSTYLE
  2
Standard
  9
$CMLJUST
 70
     0
  9
$CMLSCALE
 40
20.0
  9
$PROXYGRAPHICS
 70
     1
  9
$MEASUREMENT
 70
     1
  9
$CELWEIGHT
370
    -1
  9
$ENDCAPS
280
     0
  9
$JOINSTYLE
280
     0
  9
$LWDISPLAY
290
     0
  9
$INSUNITS
 70
     4
  9
$HYPERLINKBASE
  1

  9
$STYLESHEET
  1

  9
$XEDIT
290
     1
  9
$CEPSNTYPE
380
     0
  9
$PSTYLEMODE
290
     1
  9
$FINGERPRINTGUID
  2
{39e69ac2-d16d-4a75-a413-fe380a2cfdc2}
  9
$VERSIONGUID
  2
{FAEB1C32-E019-11D5-929B-00C0DF256EC4}
  9
$EXTNAMES
290
     1
  9
$PSVPSCALE
 40
0.0
  9
$OLESTARTUP
290
     0
  9
$SORTENTS
280
   127
  9
$INDEXCTL
280
     0
  9
$HIDETEXT
280
     1
  9
$XCLIPFRAME
280
     2
  9
$HALOGAP
280
     0
  9
$OBSCOLOR
 70
   257
  9
$OBSLTYPE
280
     0
  9
$INTERSECTIONDISPLAY
280
     0
  9
$INTERSECTIONCOLOR
 70
   257
  9
$DIMASSOC
280
     2
  9
$PROJECTNAME
  1

  9
$CAMERADISPLAY
290
     0
  9
$LENSLENGTH
 40
50.0
  9
$CAMERAHEIGHT
 40
0.0
  9
$STEPSPERSEC
 40
2.0
  9
$STEPSIZE
 40
6.0
  9
$3DDWFPREC
 40
2.0
  9
$PSOLWIDTH
 40
5.0
  9
$PSOLHEIGHT
 40
80.0
  9
$LOFTANG1
 40
1.570796326794897
  9
$LOFTANG2
 40
1.570796326794897
  9
$LOFTMAG1
 40
0.0
  9
$LOFTMAG2
 40
0.0
  9
$LOFTPARAM
 70
     7
  9
$LOFTNORMALS
280
     1
  9
$LATITUDE
 40
37.795
  9
$LONGITUDE
 40
-122.394
  9
$NORTHDIRECTION
 40
0.0
  9
$TIMEZONE
 70
 -8000
  9
$LIGHTGLYPHDISPLAY
280
     1
  9
$TILEMODELIGHTSYNCH
280
     1
  9
$CMATERIAL
347
44
  9
$SOLIDHIST
280
     0
  9
$SHOWHIST
280
     1
  9
$DWFFRAME
280
     2
  9
$DGNFRAME
280
     2
  9
$REALWORLDSCALE
290
     1
  9
$INTERFERECOLOR
 62
   256
  9
$CSHADOW
280
     0
  9
$SHADOWPLANELOCATION
 40
0.0
  0
ENDSEC
  0
SECTION
  2
CLASSES
  0
CLASS
  1
ACDBDICTIONARYWDFLT
  2
AcDbDictionaryWithDefault
  3
ObjectDBX Classes
 90
        0
 91
        3
280
     0
281
     0
  0
CLASS
  1
VISUALSTYLE
  2
AcDbVisualStyle
  3
ObjectDBX Classes
 90
     4095
 91
        3
280
     0
281
     0
  0
CLASS
  1
MATERIAL
  2
AcDbMaterial
  3
ObjectDBX Classes
 90
     1153
 91
        3
280
     0
281
     0
  0
CLASS
  1
SCALE
  2
AcDbScale
  3
ObjectDBX Classes
 90
     1153
 91
        3
280
     0
281
     0
  0
CLASS
  1
TABLESTYLE
  2
AcDbTableStyle
  3
ObjectDBX Classes
 90
     4095
 91
        3
280
     0
281
     0
  0
CLASS
  1
MLEADERSTYLE
  2
AcDbMLeaderStyle
  3
ACDB_MLEADERSTYLE_CLASS
 90
     4095
 91
        3
280
     0
281
     0
  0
CLASS
  1
SUN
  2
AcDbSun
  3
SCENEOE
 90
     1153
 91
        3
280
     0
281
     0
  0
CLASS
  1
DICTIONARYVAR
  2
AcDbDictionaryVar
  3
ObjectDBX Classes
 90
        0
 91
        3
280
     0
281
     0
  0
CLASS
  1
CELLSTYLEMAP
  2
AcDbCellStyleMap
  3
ObjectDBX Classes
 90
     1152
 91
        3
280
     0
281
     0
  0
ENDSEC
  0
SECTION
  2
TABLES
  0
TABLE
  2
VPORT
  5
8
330
0
100
AcDbSymbolTable
 70
     1
  0
VPORT
  5
29
330
8
100
AcDbSymbolTableRecord
100
AcDbViewportTableRecord
  2
*Active
 70
     0
 10
0.0
 20
0.0
 11
1.0
 21
1.0
 12
-4.773809523809518
 22
35.09999999999999
 13
0.0
 23
0.0
 14
10.0
 24
10.0
 15
10.0
 25
10.0
 16
0.0
 26
0.0
 36
1.0
 17
0.0
 27
0.0
 37
0.0
 40
279.684
 41
0.5778715570838111
 42
50.0
 43
0.0
 44
0.0
 50
0.0
 51
0.0
 71
     0
 72
   100
 73
     1
 74
     3
 75
     0
 76
     0
 77
     0
 78
     0
281
     0
 65
     1
110
0.0
120
0.0
130
0.0
111
1.0
121
0.0
131
0.0
112
0.0
122
1.0
132
0.0
 79
     0
146
0.0
348
2F
 60
     3
 61
     5
292
     1
282
     1
141
0.0
142
0.0
 63
   250
361
5D
  0
ENDTAB
  0
TABLE
  2
LTYPE
  5
5
330
0
100
AcDbSymbolTable
 70
     2
  0
LTYPE
  5
14
330
5
100
AcDbSymbolTableRecord
100
AcDbLinetypeTableRecord
  2
ByBlock
 70
     0
  3

 72
    65
 73
     0
 40
0.0
  0
LTYPE
  5
15
330
5
100
AcDbSymbolTableRecord
100
AcDbLinetypeTableRecord
  2
ByLayer
 70
     0
  3

 72
    65
 73
     0
 40
0.0
  0
LTYPE
  5
16
330
5
100
AcDbSymbolTableRecord
100
AcDbLinetypeTableRecord
  2
Continuous
 70
     0
  3
Solid line
 72
    65
 73
     0
 40
0.0
  0
LTYPE
  5
90
330
5
100
AcDbSymbolTableRecord
100
AcDbLinetypeTableRecord
  2
Dashed
 70
     0
  3

 72
    65
 73
     2
 40
2.0
 49
1.0
 74
     0
 49
-1.0
 74
     0
  0
ENDTAB
  0
TABLE
  2
LAYER
  5
2
330
0
100
AcDbSymbolTable
 70
     8
  0
LAYER
  5
10
330
2
100
AcDbSymbolTableRecord
100
AcDbLayerTableRecord
  2
0
 70
     0
 62
     7
  6
Continuous
370
    -3
390
F
347
46
348
0
  0
LAYER
  5
5E
330
2
100
AcDbSymbolTableRecord
100
AcDbLayerTableRecord
  2
attrib
 70
     0
 62
    -2
  6
Continuous
370
    35
390
F
347
46
348
0
  0
LAYER
  5
91
330
2
100
AcDbSymbolTableRecord
100
AcDbLayerTableRecord
  2
hidden
 70
     0
 62
    -6
  6
Dashed
370
    25
390
F
347
46
348
0
  0
LAYER
  5
DF
330
2
100
AcDbSymbolTableRecord
100
AcDbLayerTableRecord
  2
bold
 70
     0
 62
     7
  6
Continuous
370
    50
390
F
347
46
348
0
  0
LAYER
  5
11F
330
2
100
AcDbSymbolTableRecord
100
AcDbLayerTableRecord
  2
light
 70
     0
 62
    -3
  6
Continuous
370
    25
390
F
347
46
348
0
  0
LAYER
  5
1D1
330
2
100
AcDbSymbolTableRecord
100
AcDbLayerTableRecord
  2
dimension
 70
     0
 62
    -5
  6
Continuous
370
    25
390
F
347
46
348
0
  0
LAYER
  5
1D3
330
2
100
AcDbSymbolTableRecord
100
AcDbLayerTableRecord
  2
Defpoints
 70
     0
 62
     7
  6
Continuous
290
     0
370
    -3
390
F
347
46
348
0
  0
LAYER
  5
201
330
2
100
AcDbSymbolTableRecord
100
AcDbLayerTableRecord
  2
connection
 70
     0
 62
    -7
  6
Continuous
370
    50
390
F
347
46
348
0
  0
ENDTAB
  0
TABLE
  2
STYLE
  5
3
330
0
100
AcDbSymbolTable
 70
     1
  0
STYLE
  5
11
330
3
100
AcDbSymbolTableRecord
100
AcDbTextStyleTableRecord
  2
Standard
 70
     0
 40
0.0
 41
1.0
 50
0.0
 71
     0
 42
2.5
  3
txt
  4

  0
ENDTAB
  0
TABLE
  2
VIEW
  5
6
330
0
100
AcDbSymbolTable
 70
     0
  0
ENDTAB
  0
TABLE
  2
UCS
  5
7
330
0
100
AcDbSymbolTable
 70
     0
  0
ENDTAB
  0
TABLE
  2
APPID
  5
9
330
0
100
AcDbSymbolTable
 70
     1
  0
APPID
  5
12
330
9
100
AcDbSymbolTableRecord
100
AcDbRegAppTableRecord
  2
ACAD
 70
     0
  0
ENDTAB
  0
TABLE
  2
DIMSTYLE
  5
A
330
0
100
AcDbSymbolTable
 70
     1
100
AcDbDimStyleTable
  0
DIMSTYLE
105
27
102
{ACAD_REACTORS
330
1D2
330
1E1
330
1F1
102
}
330
A
100
AcDbSymbolTableRecord
100
AcDbDimStyleTableRecord
  2
ISO-25
 70
     0
 41
2.5
 42
0.625
 43
3.75
 44
1.25
 73
     0
 74
     0
 77
     1
 78
     8
140
2.5
141
2.5
143
0.03937007874016
147
0.625
171
     3
172
     1
178
     0
271
     2
272
     2
274
     3
278
    44
283
     0
284
     8
340
11
  0
ENDTAB
  0
TABLE
  2
BLOCK_RECORD
  5
1
330
0
100
AcDbSymbolTable
 70
     8
  0
BLOCK_RECORD
  5
1F
330
1
100
AcDbSymbolTableRecord
100
AcDbBlockTableRecord
  2
*Model_Space
340
22
 70
     0
280
     1
281
     0
  0
BLOCK_RECORD
  5
1B
330
1
100
AcDbSymbolTableRecord
100
AcDbBlockTableRecord
  2
*Paper_Space
340
1E
 70
     0
280
     1
281
     0
  0
BLOCK_RECORD
  5
23
330
1
100
AcDbSymbolTableRecord
100
AcDbBlockTableRecord
  2
*Paper_Space0
340
26
 70
     0
280
     1
281
     0
  0
BLOCK_RECORD
  5
72
330
1
100
AcDbSymbolTableRecord
100
AcDbBlockTableRecord
  2
1_01137000_lever_right_0_in_01136_0
340
0
102
{BLKREFS
331
73
102
}
 70
     0
280
     1
281
     0
  0
BLOCK_RECORD
  5
E2
330
1
100
AcDbSymbolTableRecord
100
AcDbBlockTableRecord
  2
2_01136b2_0_in_01136_0
340
0
102
{BLKREFS
331
E3
102
}
 70
     0
280
     1
281
     0
  0
BLOCK_RECORD
  5
123
330
1
100
AcDbSymbolTableRecord
100
AcDbBlockTableRecord
  2
3_01137000_lever_left_0_in_01136_0
340
0
102
{BLKREFS
331
124
102
}
 70
     0
280
     1
281
     0
  0
BLOCK_RECORD
  5
190
330
1
100
AcDbSymbolTableRecord
100
AcDbBlockTableRecord
  2
4_0113630b_0_in_01136_0
340
0
102
{BLKREFS
331
191
102
}
 70
     0
280
     1
281
     0
  0
BLOCK_RECORD
  5
1D4
330
1
100
AcDbSymbolTableRecord
100
AcDbBlockTableRecord
  2
*D5
340
0
 70
     0
280
     1
281
     0
  0
BLOCK_RECORD
  5
1E2
330
1
100
AcDbSymbolTableRecord
100
AcDbBlockTableRecord
  2
*D6
340
0
 70
     0
280
     1
281
     0
  0
BLOCK_RECORD
  5
1F2
330
1
100
AcDbSymbolTableRecord
100
AcDbBlockTableRecord
  2
*D7
340
0
 70
     0
280
     1
281
     0
  0
ENDTAB
  0
ENDSEC
  0
SECTION
  2
BLOCKS
  0
BLOCK
  5
20
330
1F
100
AcDbEntity
  8
0
100
AcDbBlockBegin
  2
*Model_Space
 70
     2
 10
0.0
 20
0.0
 30
0.0
  3
*Model_Space
  1

  0
ENDBLK
  5
21
330
1F
100
AcDbEntity
  8
0
100
AcDbBlockEnd
  0
BLOCK
  5
1C
330
1B
100
AcDbEntity
 67
     1
  8
0
100
AcDbBlockBegin
  2
*Paper_Space
 70
     0
 10
0.0
 20
0.0
 30
0.0
  3
*Paper_Space
  1

  0
ENDBLK
  5
1D
330
1B
100
AcDbEntity
 67
     1
  8
0
100
AcDbBlockEnd
  0
BLOCK
  5
24
330
23
100
AcDbEntity
  8
0
100
AcDbBlockBegin
  2
*Paper_Space0
 70
     0
 10
0.0
 20
0.0
 30
0.0
  3
*Paper_Space0
  1

  0
ENDBLK
  5
25
330
23
100
AcDbEntity
  8
0
100
AcDbBlockEnd
  0
BLOCK
  5
74
330
72
100
AcDbEntity
  8
0
100
AcDbBlockBegin
  2
1_01137000_lever_right_0_in_01136_0
 70
     2
 10
0.0
 20
0.0
 30
0.0
  3
1_01137000_lever_right_0_in_01136_0
  1

  0
ATTDEF
  5
76
330
72
100
AcDbEntity
  8
attrib
100
AcDbText
 10
68.99999999999997
 20
18.70439691894667
 30
0.0
 40
0.5
  1
01137000_lever_right
100
AcDbAttributeDefinition
  3

  2
NB
 70
     8
280
     0
  0
ATTDEF
  5
77
330
72
100
AcDbEntity
  8
attrib
100
AcDbText
 10
68.99999999999997
 20
18.20439691894667
 30
0.0
 40
0.5
  1
Covers / compartments b
100
AcDbAttributeDefinition
  3

  2
NN
 70
     8
280
     0
  0
ATTDEF
  5
78
330
72
100
AcDbEntity
  8
attrib
100
AcDbText
 10
68.99999999999997
 20
17.70439691894667
 30
0.0
 40
0.5
  1

100
AcDbAttributeDefinition
  3

  2
NT
 70
     8
280
     0
  0
ATTDEF
  5
79
330
72
100
AcDbEntity
  8
attrib
100
AcDbText
 10
68.99999999999997
 20
17.20439691894667
 30
0.0
 40
0.5
  1
$BOM.
100
AcDbAttributeDefinition
  3

  2
NBSYN
 70
     8
280
     0
  0
ATTDEF
  5
7A
330
72
100
AcDbEntity
  8
attrib
100
AcDbText
 10
68.99999999999997
 20
16.70439691894667
 30
0.0
 40
0.5
  1
01137000_lever_right
100
AcDbAttributeDefinition
  3

  2
LINA
 70
     8
280
     0
  0
ATTDEF
  5
7B
330
72
100
AcDbEntity
  8
attrib
100
AcDbText
 10
68.99999999999997
 20
16.20439691894667
 30
0.0
 40
0.5
  1
Wöhner
100
AcDbAttributeDefinition
  3

  2
CATALOG
 70
     8
280
     0
  0
ATTDEF
  5
7C
330
72
100
AcDbEntity
  8
attrib
100
AcDbText
 10
68.99999999999997
 20
15.70439691894667
 30
0.0
 40
0.5
  1
01137000_lever_right
100
AcDbAttributeDefinition
  3

  2
BOM
 70
     8
280
     0
  0
ATTDEF
  5
7D
330
72
100
AcDbEntity
  8
attrib
100
AcDbText
 10
68.99999999999997
 20
15.20439691894667
 30
0.0
 40
0.5
  1
01137
100
AcDbAttributeDefinition
  3

  2
ARTNR
 70
     8
280
     0
  0
ATTDEF
  5
7E
330
72
100
AcDbEntity
  8
attrib
100
AcDbText
 10
68.99999999999997
 20
14.70439691894667
 30
0.0
 40
0.5
  1

100
AcDbAttributeDefinition
  3

  2
BUSB
 70
     8
280
     0
  0
ATTDEF
  5
7F
330
72
100
AcDbEntity
  8
attrib
100
AcDbText
 10
68.99999999999997
 20
14.20439691894667
 30
0.0
 40
0.5
  1

100
AcDbAttributeDefinition
  3

  2
POF
 70
     8
280
     0
  0
ATTDEF
  5
80
330
72
100
AcDbEntity
  8
attrib
100
AcDbText
 10
68.99999999999997
 20
13.70439691894667
 30
0.0
 40
0.5
  1
R
100
AcDbAttributeDefinition
  3

  2
TYPE
 70
     8
280
     0
  0
ATTDEF
  5
81
330
72
100
AcDbEntity
  8
attrib
100
AcDbText
 10
68.99999999999997
 20
13.20439691894667
 30
0.0
 40
0.5
  1
5
100
AcDbAttributeDefinition
  3

  2
QNT
 70
     8
280
     0
  0
ATTDEF
  5
82
330
72
100
AcDbEntity
  8
attrib
100
AcDbText
 10
68.99999999999997
 20
12.70439691894667
 30
0.0
 40
0.5
  1
10
100
AcDbAttributeDefinition
  3

  2
WX
 70
     8
280
     0
  0
ATTDEF
  5
83
330
72
100
AcDbEntity
  8
attrib
100
AcDbText
 10
68.99999999999997
 20
12.20439691894667
 30
0.0
 40
0.5
  1
226
100
AcDbAttributeDefinition
  3

  2
H
 70
     8
280
     0
  0
ATTDEF
  5
84
330
72
100
AcDbEntity
  8
attrib
100
AcDbText
 10
68.99999999999997
 20
11.70439691894667
 30
0.0
 40
0.5
  1
31
100
AcDbAttributeDefinition
  3

  2
D
 70
     8
280
     0
  0
ATTDEF
  5
85
330
72
100
AcDbEntity
  8
attrib
100
AcDbText
 10
68.99999999999997
 20
11.20439691894667
 30
0.0
 40
0.5
  1

100
AcDbAttributeDefinition
  3

  2
CONCA
 70
     8
280
     0
  0
ATTDEF
  5
86
330
72
100
AcDbEntity
  8
attrib
100
AcDbText
 10
68.99999999999997
 20
10.70439691894667
 30
0.0
 40
0.5
  1

100
AcDbAttributeDefinition
  3

  2
SCR
 70
     8
280
     0
  0
ATTDEF
  5
87
330
72
100
AcDbEntity
  8
attrib
100
AcDbText
 10
68.99999999999997
 20
10.20439691894667
 30
0.0
 40
0.5
  1

100
AcDbAttributeDefinition
  3

  2
IPR
 70
     8
280
     0
  0
ATTDEF
  5
88
330
72
100
AcDbEntity
  8
attrib
100
AcDbText
 10
68.99999999999997
 20
9.704396918946667
 30
0.0
 40
0.5
  1

100
AcDbAttributeDefinition
  3

  2
IPRF
 70
     8
280
     0
  0
ATTDEF
  5
89
330
72
100
AcDbEntity
  8
attrib
100
AcDbText
 10
68.99999999999997
 20
9.204396918946667
 30
0.0
 40
0.5
  1

100
AcDbAttributeDefinition
  3

  2
SEARCH
 70
     8
280
     0
  0
ATTDEF
  5
8A
330
72
100
AcDbEntity
  8
attrib
100
AcDbText
 10
68.99999999999997
 20
8.704396918946667
 30
0.0
 40
0.5
  1

100
AcDbAttributeDefinition
  3

  2
EDZ
 70
     8
280
     0
  0
ATTDEF
  5
8B
330
72
100
AcDbEntity
  8
attrib
100
AcDbText
 10
68.99999999999997
 20
8.204396918946667
 30
0.0
 40
0.5
  1

100
AcDbAttributeDefinition
  3

  2
IODD
 70
     8
280
     0
  0
ATTDEF
  5
8C
330
72
100
AcDbEntity
  8
attrib
100
AcDbText
 10
68.99999999999997
 20
7.704396918946667
 30
0.0
 40
0.5
  1
woehner
100
AcDbAttributeDefinition
  3

  2
COMPANY
 70
     8
280
     0
  0
ATTDEF
  5
8D
330
72
100
AcDbEntity
  8
attrib
100
AcDbText
 10
68.99999999999997
 20
7.204396918946667
 30
0.0
 40
0.5
  1
{$CADENAS_DATA/23d-libs/woehner/sys_60classic/busbar_supp_and_covers/parts/covers_compartments_body_4.prj},198 {VTYP=3D},{NB=01137000_lever_right},{LINA=01137000_lever_right},{NN=Covers / compartments b},{DATE=26.01.2024 06:53:53},{GEOMDATE=22.01.2024 11:
100
AcDbAttributeDefinition
  3

  2
PSOL_0
 70
     9
280
     0
  0
ATTDEF
  5
8E
330
72
100
AcDbEntity
  8
attrib
100
AcDbText
 10
68.99999999999997
 20
6.704396918946667
 30
0.0
 40
0.5
  1
44:00},{VERSION=},{LINEID=480},{WBVAR=},{WBNUMERIC=}  {NB=01137000_lever_right},{LINA=01137000_lever_right},{KT=DUMMY},{BOM=01137000_lever_right},{ARTNR=01137},{BUSB=},{POF=},{TYPE=R},{QNT=5},{WX=10},{H=226},{D=31},{CONCA=},{SCR=},{IPR=},{IPRF=},{SEARCH=}
100
AcDbAttributeDefinition
  3

  2
PSOL_1
 70
     9
280
     0
  0
ATTDEF
  5
8F
330
72
100
AcDbEntity
  8
attrib
100
AcDbText
 10
68.99999999999997
 20
6.204396918946667
 30
0.0
 40
0.5
  1
,{EDZ=},{IODD=},{DIST=8.0},{LINK=Product link},{LINKX=https://www.woehner.de/de/produkte/01137.html}
100
AcDbAttributeDefinition
  3

  2
PSOL_2
 70
     9
280
     0
  0
LINE
  5
92
330
72
100
AcDbEntity
  8
hidden
100
AcDbLine
 10
61.99999999999997
 20
-23.89999999999999
 30
0.0
 11
63.99999999999997
 21
-23.89999999999999
 31
0.0
  0
LINE
  5
93
330
72
100
AcDbEntity
  8
hidden
100
AcDbLine
 10
61.99999999999997
 20
-15.89999999999999
 30
0.0
 11
63.99999999999997
 21
-15.89999999999999
 31
0.0
  0
LINE
  5
94
330
72
100
AcDbEntity
  8
hidden
100
AcDbLine
 10
61.99999999999997
 20
-20.89999999999999
 30
0.0
 11
63.99999999999997
 21
-20.89999999999999
 31
0.0
  0
LINE
  5
95
330
72
100
AcDbEntity
  8
hidden
100
AcDbLine
 10
61.99999999999997
 20
-36.89999999999999
 30
0.0
 11
63.99999999999997
 21
-36.89999999999999
 31
0.0
  0
LINE
  5
96
330
72
100
AcDbEntity
  8
hidden
100
AcDbLine
 10
61.99999999999997
 20
14.15000000000001
 30
0.0
 11
63.99999999999997
 21
14.15000000000001
 31
0.0
  0
LINE
  5
97
330
72
100
AcDbEntity
  8
hidden
100
AcDbLine
 10
61.99999999999997
 20
-54.14999999999999
 30
0.0
 11
63.99999999999997
 21
-54.14999999999999
 31
0.0
  0
LINE
  5
98
330
72
100
AcDbEntity
  8
hidden
100
AcDbLine
 10
61.99999999999997
 20
-42.89999999999998
 30
0.0
 11
63.99999999999997
 21
-42.89999999999998
 31
0.0
  0
LINE
  5
99
330
72
100
AcDbEntity
  8
hidden
100
AcDbLine
 10
61.99999999999997
 20
-32.89999999999998
 30
0.0
 11
63.99999999999997
 21
-32.89999999999998
 31
0.0
  0
LINE
  5
9A
330
72
100
AcDbEntity
  8
hidden
100
AcDbLine
 10
61.99999999999997
 20
-32.49999999999999
 30
0.0
 11
63.99999999999997
 21
-32.49999999999999
 31
0.0
  0
LINE
  5
9B
330
72
100
AcDbEntity
  8
hidden
100
AcDbLine
 10
61.99999999999997
 20
14.10000000000001
 30
0.0
 11
63.99999999999997
 21
14.10000000000001
 31
0.0
  0
LINE
  5
9C
330
72
100
AcDbEntity
  8
hidden
100
AcDbLine
 10
61.99999999999997
 20
-47.49999999999999
 30
0.0
 11
63.99999999999997
 21
-47.49999999999999
 31
0.0
  0
LINE
  5
9D
330
72
100
AcDbEntity
  8
hidden
100
AcDbLine
 10
61.99999999999997
 20
-47.89999999999998
 30
0.0
 11
63.99999999999997
 21
-47.89999999999998
 31
0.0
  0
LINE
  5
9E
330
72
100
AcDbEntity
  8
hidden
100
AcDbLine
 10
61.99999999999997
 20
-16.85
 30
0.0
 11
63.99999999999997
 21
-16.85
 31
0.0
  0
LINE
  5
9F
330
72
100
AcDbEntity
  8
hidden
100
AcDbLine
 10
61.99999999999997
 20
-17.25
 30
0.0
 11
63.99999999999997
 21
-17.25
 31
0.0
  0
LINE
  5
A0
330
72
100
AcDbEntity
  8
hidden
100
AcDbLine
 10
61.99999999999997
 20
16.90000000000001
 30
0.0
 11
63.99999999999997
 21
16.90000000000001
 31
0.0
  0
LINE
  5
A1
330
72
100
AcDbEntity
  8
hidden
100
AcDbLine
 10
61.99999999999997
 20
14.50000000000001
 30
0.0
 11
63.99999999999997
 21
14.50000000000001
 31
0.0
  0
LINE
  5
A2
330
72
100
AcDbEntity
  8
hidden
100
AcDbLine
 10
61.99999999999997
 20
-14.94999999999999
 30
0.0
 11
63.99999999999997
 21
-14.94999999999999
 31
0.0
  0
LINE
  5
A3
330
72
100
AcDbEntity
  8
hidden
100
AcDbLine
 10
61.99999999999997
 20
-42.49999999999999
 30
0.0
 11
63.99999999999997
 21
-42.49999999999999
 31
0.0
  0
LINE
  5
A4
330
72
100
AcDbEntity
  8
hidden
100
AcDbLine
 10
61.99999999999997
 20
-28.69999999999999
 30
0.0
 11
63.99999999999997
 21
-28.69999999999999
 31
0.0
  0
LINE
  5
A5
330
72
100
AcDbEntity
  8
hidden
100
AcDbLine
 10
61.99999999999997
 20
-29.09999999999999
 30
0.0
 11
63.99999999999997
 21
-29.09999999999999
 31
0.0
  0
LINE
  5
A6
330
72
100
AcDbEntity
  8
hidden
100
AcDbLine
 10
61.99999999999997
 20
-9.949999999999992
 30
0.0
 11
63.99999999999997
 21
-9.949999999999992
 31
0.0
  0
LINE
  5
A7
330
72
100
AcDbEntity
  8
hidden
100
AcDbLine
 10
61.99999999999997
 20
-9.549999999999985
 30
0.0
 11
63.99999999999997
 21
-9.549999999999985
 31
0.0
  0
LINE
  5
A8
330
72
100
AcDbEntity
  8
hidden
100
AcDbLine
 10
61.99999999999997
 20
-8.849999999999996
 30
0.0
 11
63.99999999999997
 21
-8.849999999999996
 31
0.0
  0
LINE
  5
A9
330
72
100
AcDbEntity
  8
hidden
100
AcDbLine
 10
61.99999999999997
 20
-9.250000000000004
 30
0.0
 11
63.99999999999997
 21
-9.250000000000004
 31
0.0
  0
LINE
  5
AA
330
72
100
AcDbEntity
  8
hidden
100
AcDbLine
 10
61.99999999999997
 20
-52.7
 30
0.0
 11
63.99999999999997
 21
-52.7
 31
0.0
  0
LINE
  5
AB
330
72
100
AcDbEntity
  8
hidden
100
AcDbLine
 10
61.99999999999997
 20
-6.949999999999991
 30
0.0
 11
63.99999999999997
 21
-6.949999999999991
 31
0.0
  0
LINE
  5
AC
330
72
100
AcDbEntity
  8
hidden
100
AcDbLine
 10
61.99999999999997
 20
-50.89999999999998
 30
0.0
 11
63.99999999999997
 21
-50.89999999999998
 31
0.0
  0
LINE
  5
AD
330
72
100
AcDbEntity
  8
hidden
100
AcDbLine
 10
61.99999999999997
 20
-3.849999999999996
 30
0.0
 11
63.99999999999997
 21
-3.849999999999996
 31
0.0
  0
LINE
  5
AE
330
72
100
AcDbEntity
  8
hidden
100
AcDbLine
 10
61.99999999999997
 20
-49.7
 30
0.0
 11
63.99999999999997
 21
-49.7
 31
0.0
  0
LINE
  5
AF
330
72
100
AcDbEntity
  8
hidden
100
AcDbLine
 10
61.99999999999997
 20
-1.94999999999999
 30
0.0
 11
63.99999999999997
 21
-1.94999999999999
 31
0.0
  0
LINE
  5
B0
330
72
100
AcDbEntity
  8
hidden
100
AcDbLine
 10
61.99999999999997
 20
-1.549999999999985
 30
0.0
 11
63.99999999999997
 21
-1.549999999999985
 31
0.0
  0
LINE
  5
B1
330
72
100
AcDbEntity
  8
hidden
100
AcDbLine
 10
61.99999999999997
 20
1.150000000000002
 30
0.0
 11
63.99999999999997
 21
1.150000000000002
 31
0.0
  0
LINE
  5
B2
330
72
100
AcDbEntity
  8
hidden
100
AcDbLine
 10
61.99999999999997
 20
0.7499999999999972
 30
0.0
 11
63.99999999999997
 21
0.7499999999999972
 31
0.0
  0
LINE
  5
B3
330
72
100
AcDbEntity
  8
hidden
100
AcDbLine
 10
61.99999999999997
 20
-44.69999999999999
 30
0.0
 11
63.99999999999997
 21
-44.69999999999999
 31
0.0
  0
LINE
  5
B4
330
72
100
AcDbEntity
  8
hidden
100
AcDbLine
 10
61.99999999999997
 20
-45.09999999999999
 30
0.0
 11
63.99999999999997
 21
-45.09999999999999
 31
0.0
  0
LINE
  5
B5
330
72
100
AcDbEntity
  8
hidden
100
AcDbLine
 10
61.99999999999997
 20
3.050000000000007
 30
0.0
 11
63.99999999999997
 21
3.050000000000007
 31
0.0
  0
LINE
  5
B6
330
72
100
AcDbEntity
  8
hidden
100
AcDbLine
 10
61.99999999999997
 20
3.450000000000016
 30
0.0
 11
63.99999999999997
 21
3.450000000000016
 31
0.0
  0
LINE
  5
B7
330
72
100
AcDbEntity
  8
hidden
100
AcDbLine
 10
61.99999999999997
 20
6.150000000000003
 30
0.0
 11
63.99999999999997
 21
6.150000000000003
 31
0.0
  0
LINE
  5
B8
330
72
100
AcDbEntity
  8
hidden
100
AcDbLine
 10
61.99999999999997
 20
5.749999999999998
 30
0.0
 11
63.99999999999997
 21
5.749999999999998
 31
0.0
  0
LINE
  5
B9
330
72
100
AcDbEntity
  8
hidden
100
AcDbLine
 10
61.99999999999997
 20
-39.7
 30
0.0
 11
63.99999999999997
 21
-39.7
 31
0.0
  0
LINE
  5
BA
330
72
100
AcDbEntity
  8
hidden
100
AcDbLine
 10
61.99999999999997
 20
-40.09999999999999
 30
0.0
 11
63.99999999999997
 21
-40.09999999999999
 31
0.0
  0
LINE
  5
BB
330
72
100
AcDbEntity
  8
hidden
100
AcDbLine
 10
61.99999999999997
 20
8.450000000000014
 30
0.0
 11
63.99999999999997
 21
8.450000000000014
 31
0.0
  0
LINE
  5
BC
330
72
100
AcDbEntity
  8
hidden
100
AcDbLine
 10
61.99999999999997
 20
8.050000000000008
 30
0.0
 11
63.99999999999997
 21
8.050000000000008
 31
0.0
  0
LINE
  5
BD
330
72
100
AcDbEntity
  8
hidden
100
AcDbLine
 10
61.99999999999997
 20
12.2
 30
0.0
 11
63.99999999999997
 21
12.2
 31
0.0
  0
LINE
  5
BE
330
72
100
AcDbEntity
  8
hidden
100
AcDbLine
 10
61.99999999999997
 20
11.8
 30
0.0
 11
63.99999999999997
 21
11.8
 31
0.0
  0
LINE
  5
BF
330
72
100
AcDbEntity
  8
hidden
100
AcDbLine
 10
61.99999999999997
 20
-37.89999999999999
 30
0.0
 11
63.99999999999997
 21
-37.89999999999999
 31
0.0
  0
LINE
  5
C0
330
72
100
AcDbEntity
  8
hidden
100
AcDbLine
 10
61.99999999999997
 20
-37.49999999999999
 30
0.0
 11
63.99999999999997
 21
-37.49999999999999
 31
0.0
  0
LINE
  5
C1
330
72
100
AcDbEntity
  8
hidden
100
AcDbLine
 10
61.99999999999997
 20
-34.7
 30
0.0
 11
63.99999999999997
 21
-34.7
 31
0.0
  0
LINE
  5
C2
330
72
100
AcDbEntity
  8
hidden
100
AcDbLine
 10
61.99999999999997
 20
-35.09999999999999
 30
0.0
 11
63.99999999999997
 21
-35.09999999999999
 31
0.0
  0
LINE
  5
C3
330
72
100
AcDbEntity
  8
hidden
100
AcDbLine
 10
61.99999999999997
 20
-4.250000000000004
 30
0.0
 11
63.99999999999997
 21
-4.250000000000004
 31
0.0
  0
LINE
  5
C4
330
72
100
AcDbEntity
  8
hidden
100
AcDbLine
 10
61.99999999999997
 20
-6.549999999999986
 30
0.0
 11
63.99999999999997
 21
-6.549999999999986
 31
0.0
  0
LINE
  5
C5
330
72
100
AcDbEntity
  8
hidden
100
AcDbLine
 10
61.99999999999997
 20
-11.85
 30
0.0
 11
63.99999999999997
 21
-11.85
 31
0.0
  0
LINE
  5
C6
330
72
100
AcDbEntity
  8
hidden
100
AcDbLine
 10
61.99999999999997
 20
-50.09999999999999
 30
0.0
 11
63.99999999999997
 21
-50.09999999999999
 31
0.0
  0
LINE
  5
C7
330
72
100
AcDbEntity
  8
hidden
100
AcDbLine
 10
61.99999999999997
 20
-50.49999999999999
 30
0.0
 11
63.99999999999997
 21
-50.49999999999999
 31
0.0
  0
LINE
  5
C8
330
72
100
AcDbEntity
  8
hidden
100
AcDbLine
 10
61.99999999999997
 20
-26.49999999999999
 30
0.0
 11
63.99999999999997
 21
-26.49999999999999
 31
0.0
  0
LINE
  5
C9
330
72
100
AcDbEntity
  8
hidden
100
AcDbLine
 10
61.99999999999997
 20
-26.89999999999999
 30
0.0
 11
63.99999999999997
 21
-26.89999999999999
 31
0.0
  0
LINE
  5
CA
330
72
100
AcDbEntity
  8
hidden
100
AcDbLine
 10
61.99999999999997
 20
-53.09999999999999
 30
0.0
 11
63.99999999999997
 21
-53.09999999999999
 31
0.0
  0
LINE
  5
CB
330
72
100
AcDbEntity
  8
hidden
100
AcDbLine
 10
61.99999999999997
 20
-56.89999999999999
 30
0.0
 11
63.99999999999997
 21
-56.89999999999999
 31
0.0
  0
LINE
  5
CC
330
72
100
AcDbEntity
  8
hidden
100
AcDbLine
 10
61.99999999999997
 20
-12.25
 30
0.0
 11
63.99999999999997
 21
-12.25
 31
0.0
  0
LINE
  5
CD
330
72
100
AcDbEntity
  8
hidden
100
AcDbLine
 10
61.99999999999997
 20
-14.54999999999999
 30
0.0
 11
63.99999999999997
 21
-14.54999999999999
 31
0.0
  0
LINE
  5
CE
330
72
100
AcDbEntity
  8
hidden
100
AcDbLine
 10
61.99999999999997
 20
-26.59999999999999
 30
0.0
 11
63.99999999999997
 21
-26.59999999999999
 31
0.0
  0
LINE
  5
CF
330
72
100
AcDbEntity
  8
hidden
100
AcDbLine
 10
61.99999999999997
 20
-17.09999999999999
 30
0.0
 11
63.99999999999997
 21
-17.09999999999999
 31
0.0
  0
LINE
  5
D0
330
72
100
AcDbEntity
  8
hidden
100
AcDbLine
 10
61.99999999999997
 20
16.90000000000001
 30
0.0
 11
61.99999999999997
 21
-56.89999999999999
 31
0.0
  0
LINE
  5
D1
330
72
100
AcDbEntity
  8
hidden
100
AcDbLine
 10
61.99999999999997
 20
-13.59999999999999
 30
0.0
 11
63.99999999999997
 21
-13.59999999999999
 31
0.0
  0
LINE
  5
D2
330
72
100
AcDbEntity
  8
hidden
100
AcDbLine
 10
60.49999999999997
 20
-15.59999999999999
 30
0.0
 11
63.99999999999997
 21
-15.59999999999999
 31
0.0
  0
LINE
  5
D3
330
72
100
AcDbEntity
  8
hidden
100
AcDbLine
 10
48.99999999999997
 20
11.40673281317012
 30
0.0
 11
63.99999999999997
 21
11.40673281317012
 31
0.0
  0
LINE
  5
D4
330
72
100
AcDbEntity
  8
hidden
100
AcDbLine
 10
48.99999999999997
 20
-54.6067328131701
 30
0.0
 11
63.99999999999997
 21
-54.6067328131701
 31
0.0
  0
LINE
  5
D5
330
72
100
AcDbEntity
  8
hidden
100
AcDbLine
 10
63.99999999999997
 20
-15.09999999999999
 30
0.0
 11
60.49999999999997
 21
-15.09999999999999
 31
0.0
  0
LINE
  5
D6
330
72
100
AcDbEntity
  8
hidden
100
AcDbLine
 10
63.99999999999997
 20
-28.09999999999999
 30
0.0
 11
60.49999999999997
 21
-28.09999999999999
 31
0.0
  0
LINE
  5
D7
330
72
100
AcDbEntity
  8
hidden
100
AcDbLine
 10
60.49999999999997
 20
-28.09999999999999
 30
0.0
 11
60.49999999999997
 21
-15.09999999999999
 31
0.0
  0
LINE
  5
D8
330
72
100
AcDbEntity
  8
hidden
100
AcDbLine
 10
62.49999999999997
 20
-15.09999999999999
 30
0.0
 11
62.49999999999997
 21
-28.09999999999999
 31
0.0
  0
LINE
  5
D9
330
72
100
AcDbEntity
  8
hidden
100
AcDbLine
 10
63.99999999999997
 20
-60.82324902401631
 30
0.0
 11
63.99999999999997
 21
-61.90439691894664
 31
0.0
  0
LINE
  5
DA
330
72
100
AcDbEntity
  8
hidden
100
AcDbLine
 10
63.99999999999997
 20
18.70439691894667
 30
0.0
 11
63.99999999999997
 21
17.62324902401632
 31
0.0
  0
LINE
  5
DB
330
72
100
AcDbEntity
  8
hidden
100
AcDbLine
 10
48.99999999999997
 20
18.70439691894667
 30
0.0
 11
63.99999999999997
 21
18.70439691894667
 31
0.0
  0
LINE
  5
DC
330
72
100
AcDbEntity
  8
hidden
100
AcDbLine
 10
48.99999999999997
 20
-60.82324902401631
 30
0.0
 11
48.99999999999997
 21
-61.90439691894664
 31
0.0
  0
LINE
  5
DD
330
72
100
AcDbEntity
  8
hidden
100
AcDbLine
 10
48.99999999999997
 20
18.70439691894667
 30
0.0
 11
48.99999999999997
 21
17.62324902401632
 31
0.0
  0
LINE
  5
DE
330
72
100
AcDbEntity
  8
hidden
100
AcDbLine
 10
48.99999999999997
 20
-61.90439691894664
 30
0.0
 11
63.99999999999997
 21
-61.90439691894664
 31
0.0
  0
LINE
  5
E0
330
72
100
AcDbEntity
  8
bold
100
AcDbLine
 10
63.99999999999997
 20
17.62324902401632
 30
0.0
 11
63.99999999999997
 21
-60.82324902401631
 31
0.0
  0
LINE
  5
E1
330
72
100
AcDbEntity
  8
bold
100
AcDbLine
 10
48.99999999999997
 20
17.62324902401632
 30
0.0
 11
48.99999999999997
 21
-60.82324902401631
 31
0.0
  0
ENDBLK
  5
75
330
72
100
AcDbEntity
  8
0
100
AcDbBlockEnd
  0
BLOCK
  5
E4
330
E2
100
AcDbEntity
  8
0
100
AcDbBlockBegin
  2
2_01136b2_0_in_01136_0
 70
     2
 10
0.0
 20
0.0
 30
0.0
  3
2_01136b2_0_in_01136_0
  1

  0
ATTDEF
  5
E6
330
E2
100
AcDbEntity
  8
attrib
100
AcDbText
 10
70.99999999999999
 20
102.0
 30
0.0
 40
0.5
  1
01136b2
100
AcDbAttributeDefinition
  3

  2
NB
 70
     8
280
     0
  0
ATTDEF
  5
E7
330
E2
100
AcDbEntity
  8
attrib
100
AcDbText
 10
70.99999999999999
 20
101.5
 30
0.0
 40
0.5
  1
Covers / compartments b
100
AcDbAttributeDefinition
  3

  2
NN
 70
     8
280
     0
  0
ATTDEF
  5
E8
330
E2
100
AcDbEntity
  8
attrib
100
AcDbText
 10
70.99999999999999
 20
101.0
 30
0.0
 40
0.5
  1

100
AcDbAttributeDefinition
  3

  2
NT
 70
     8
280
     0
  0
ATTDEF
  5
E9
330
E2
100
AcDbEntity
  8
attrib
100
AcDbText
 10
70.99999999999999
 20
100.5
 30
0.0
 40
0.5
  1
$ARTNR.b2
100
AcDbAttributeDefinition
  3

  2
NBSYN
 70
     8
280
     0
  0
ATTDEF
  5
EA
330
E2
100
AcDbEntity
  8
attrib
100
AcDbText
 10
70.99999999999999
 20
100.0
 30
0.0
 40
0.5
  1
77042000
100
AcDbAttributeDefinition
  3

  2
LINA
 70
     8
280
     0
  0
ATTDEF
  5
EB
330
E2
100
AcDbEntity
  8
attrib
100
AcDbText
 10
70.99999999999999
 20
99.50000000000001
 30
0.0
 40
0.5
  1
Wöhner
100
AcDbAttributeDefinition
  3

  2
CATALOG
 70
     8
280
     0
  0
ATTDEF
  5
EC
330
E2
100
AcDbEntity
  8
attrib
100
AcDbText
 10
70.99999999999999
 20
99.00000000000001
 30
0.0
 40
0.5
  1
77042000
100
AcDbAttributeDefinition
  3

  2
BOM
 70
     8
280
     0
  0
ATTDEF
  5
ED
330
E2
100
AcDbEntity
  8
attrib
100
AcDbText
 10
70.99999999999999
 20
98.50000000000001
 30
0.0
 40
0.5
  1
01136
100
AcDbAttributeDefinition
  3

  2
ARTNR
 70
     8
280
     0
  0
ATTDEF
  5
EE
330
E2
100
AcDbEntity
  8
attrib
100
AcDbText
 10
70.99999999999999
 20
98.00000000000001
 30
0.0
 40
0.5
  1

100
AcDbAttributeDefinition
  3

  2
BUSB
 70
     8
280
     0
  0
ATTDEF
  5
EF
330
E2
100
AcDbEntity
  8
attrib
100
AcDbText
 10
70.99999999999999
 20
97.50000000000001
 30
0.0
 40
0.5
  1

100
AcDbAttributeDefinition
  3

  2
POF
 70
     8
280
     0
  0
ATTDEF
  5
F0
330
E2
100
AcDbEntity
  8
attrib
100
AcDbText
 10
70.99999999999999
 20
97.00000000000001
 30
0.0
 40
0.5
  1

100
AcDbAttributeDefinition
  3

  2
TYPE
 70
     8
280
     0
  0
ATTDEF
  5
F1
330
E2
100
AcDbEntity
  8
attrib
100
AcDbText
 10
70.99999999999999
 20
96.50000000000001
 30
0.0
 40
0.5
  1

100
AcDbAttributeDefinition
  3

  2
QNT
 70
     8
280
     0
  0
ATTDEF
  5
F2
330
E2
100
AcDbEntity
  8
attrib
100
AcDbText
 10
70.99999999999999
 20
96.00000000000001
 30
0.0
 40
0.5
  1

100
AcDbAttributeDefinition
  3

  2
WX
 70
     8
280
     0
  0
ATTDEF
  5
F3
330
E2
100
AcDbEntity
  8
attrib
100
AcDbText
 10
70.99999999999999
 20
95.50000000000001
 30
0.0
 40
0.5
  1

100
AcDbAttributeDefinition
  3

  2
H
 70
     8
280
     0
  0
ATTDEF
  5
F4
330
E2
100
AcDbEntity
  8
attrib
100
AcDbText
 10
70.99999999999999
 20
95.00000000000001
 30
0.0
 40
0.5
  1

100
AcDbAttributeDefinition
  3

  2
D
 70
     8
280
     0
  0
ATTDEF
  5
F5
330
E2
100
AcDbEntity
  8
attrib
100
AcDbText
 10
70.99999999999999
 20
94.50000000000001
 30
0.0
 40
0.5
  1

100
AcDbAttributeDefinition
  3

  2
CONCA
 70
     8
280
     0
  0
ATTDEF
  5
F6
330
E2
100
AcDbEntity
  8
attrib
100
AcDbText
 10
70.99999999999999
 20
94.00000000000001
 30
0.0
 40
0.5
  1

100
AcDbAttributeDefinition
  3

  2
SCR
 70
     8
280
     0
  0
ATTDEF
  5
F7
330
E2
100
AcDbEntity
  8
attrib
100
AcDbText
 10
70.99999999999999
 20
93.50000000000001
 30
0.0
 40
0.5
  1

100
AcDbAttributeDefinition
  3

  2
IPR
 70
     8
280
     0
  0
ATTDEF
  5
F8
330
E2
100
AcDbEntity
  8
attrib
100
AcDbText
 10
70.99999999999999
 20
93.00000000000001
 30
0.0
 40
0.5
  1

100
AcDbAttributeDefinition
  3

  2
IPRF
 70
     8
280
     0
  0
ATTDEF
  5
F9
330
E2
100
AcDbEntity
  8
attrib
100
AcDbText
 10
70.99999999999999
 20
92.50000000000001
 30
0.0
 40
0.5
  1

100
AcDbAttributeDefinition
  3

  2
SEARCH
 70
     8
280
     0
  0
ATTDEF
  5
FA
330
E2
100
AcDbEntity
  8
attrib
100
AcDbText
 10
70.99999999999999
 20
92.00000000000001
 30
0.0
 40
0.5
  1

100
AcDbAttributeDefinition
  3

  2
EDZ
 70
     8
280
     0
  0
ATTDEF
  5
FB
330
E2
100
AcDbEntity
  8
attrib
100
AcDbText
 10
70.99999999999999
 20
91.50000000000001
 30
0.0
 40
0.5
  1

100
AcDbAttributeDefinition
  3

  2
IODD
 70
     8
280
     0
  0
ATTDEF
  5
FC
330
E2
100
AcDbEntity
  8
attrib
100
AcDbText
 10
70.99999999999999
 20
91.00000000000001
 30
0.0
 40
0.5
  1
woehner
100
AcDbAttributeDefinition
  3

  2
COMPANY
 70
     8
280
     0
  0
ATTDEF
  5
FD
330
E2
100
AcDbEntity
  8
attrib
100
AcDbText
 10
70.99999999999999
 20
90.50000000000001
 30
0.0
 40
0.5
  1
{$CADENAS_DATA/23d-libs/woehner/sys_60classic/busbar_supp_and_covers/parts/covers_compartments_body_2.prj},173 {VTYP=3D},{NB=01136b2},{LINA=77042000},{NN=Covers / compartments b},{DATE=26.01.2024 06:39:57},{GEOMDATE=02.06.2023 07:41:00},{VERSION=},{LINEID
100
AcDbAttributeDefinition
  3

  2
PSOL_0
 70
     9
280
     0
  0
ATTDEF
  5
FE
330
E2
100
AcDbEntity
  8
attrib
100
AcDbText
 10
70.99999999999999
 20
90.00000000000001
 30
0.0
 40
0.5
  1
=450},{WBVAR=},{WBNUMERIC=}  {NB=01136b2},{LINA=77042000},{KT=DUMMY},{BOM=77042000},{ARTNR=01136},{BUSB=},{POF=},{TYPE=},{QNT=MIN},{WX=},{H=MIN},{D=MIN},{CONCA=},{SCR=},{IPR=},{IPRF=},{SEARCH=},{EDZ=},{IODD=},{DIST=8.0},{LINK=Product link},{LINKX=https://
100
AcDbAttributeDefinition
  3

  2
PSOL_1
 70
     9
280
     0
  0
ATTDEF
  5
FF
330
E2
100
AcDbEntity
  8
attrib
100
AcDbText
 10
70.99999999999999
 20
89.50000000000001
 30
0.0
 40
0.5
  1
www.woehner.de/de/produkte/01136.html}
100
AcDbAttributeDefinition
  3

  2
PSOL_2
 70
     9
280
     0
  0
LINE
  5
100
330
E2
100
AcDbEntity
  8
hidden
100
AcDbLine
 10
65.99999999999997
 20
-84.99999999999999
 30
0.0
 11
63.99999999999997
 21
-84.99999999999999
 31
0.0
  0
LINE
  5
101
330
E2
100
AcDbEntity
  8
hidden
100
AcDbLine
 10
65.99999999999999
 20
66.0
 30
0.0
 11
63.99999999999999
 21
66.0
 31
0.0
  0
LINE
  5
102
330
E2
100
AcDbEntity
  8
hidden
100
AcDbLine
 10
63.99999999999999
 20
98.0
 30
0.0
 11
47.99999999999999
 21
98.0
 31
0.0
  0
LINE
  5
103
330
E2
100
AcDbEntity
  8
hidden
100
AcDbLine
 10
63.99999999999997
 20
-98.0
 30
0.0
 11
47.99999999999997
 21
-98.0
 31
0.0
  0
LINE
  5
104
330
E2
100
AcDbEntity
  8
hidden
100
AcDbLine
 10
47.99999999999999
 20
93.0
 30
0.0
 11
47.99999999999999
 21
97.0
 31
0.0
  0
LINE
  5
105
330
E2
100
AcDbEntity
  8
hidden
100
AcDbLine
 10
47.99999999999999
 20
-97.0
 30
0.0
 11
47.99999999999999
 21
-93.0
 31
0.0
  0
LINE
  5
106
330
E2
100
AcDbEntity
  8
hidden
100
AcDbLine
 10
63.99999999999997
 20
-82.99999999999999
 30
0.0
 11
40.99999999999998
 21
-82.99999999999999
 31
0.0
  0
LINE
  5
107
330
E2
100
AcDbEntity
  8
hidden
100
AcDbLine
 10
63.99999999999997
 20
-93.0
 30
0.0
 11
39.99999999999997
 21
-93.0
 31
0.0
  0
LINE
  5
108
330
E2
100
AcDbEntity
  8
hidden
100
AcDbLine
 10
63.99999999999999
 20
83.0
 30
0.0
 11
41.0
 21
83.0
 31
0.0
  0
LINE
  5
109
330
E2
100
AcDbEntity
  8
hidden
100
AcDbLine
 10
63.99999999999999
 20
93.0
 30
0.0
 11
39.99999999999999
 21
93.0
 31
0.0
  0
LINE
  5
10A
330
E2
100
AcDbEntity
  8
hidden
100
AcDbLine
 10
63.99999999999997
 20
-61.90439691894663
 30
0.0
 11
63.99999999999997
 21
-98.0
 31
0.0
  0
LINE
  5
10B
330
E2
100
AcDbEntity
  8
hidden
100
AcDbLine
 10
63.99999999999999
 20
98.0
 30
0.0
 11
63.99999999999997
 21
18.70439691894667
 31
0.0
  0
LINE
  5
10C
330
E2
100
AcDbEntity
  8
hidden
100
AcDbLine
 10
60.49999999999999
 20
-33.5
 30
0.0
 11
63.99999999999999
 21
-33.5
 31
0.0
  0
LINE
  5
10D
330
E2
100
AcDbEntity
  8
hidden
100
AcDbLine
 10
60.49999999999999
 20
-28.09999999999998
 30
0.0
 11
60.49999999999999
 21
-33.5
 31
0.0
  0
LINE
  5
10E
330
E2
100
AcDbEntity
  8
hidden
100
AcDbLine
 10
60.49999999999999
 20
7.500000000000007
 30
0.0
 11
60.49999999999999
 21
-15.09999999999999
 31
0.0
  0
LINE
  5
10F
330
E2
100
AcDbEntity
  8
hidden
100
AcDbLine
 10
63.99999999999999
 20
7.500000000000007
 30
0.0
 11
60.49999999999999
 21
7.500000000000007
 31
0.0
  0
LINE
  5
110
330
E2
100
AcDbEntity
  8
bold
100
AcDbLine
 10
65.99999999999999
 20
102.0
 30
0.0
 11
65.99999999999997
 21
-102.0
 31
0.0
  0
LINE
  5
111
330
E2
100
AcDbEntity
  8
bold
100
AcDbLine
 10
47.99999999999999
 20
97.0
 30
0.0
 11
47.99999999999999
 21
102.0
 31
0.0
  0
LINE
  5
112
330
E2
100
AcDbEntity
  8
bold
100
AcDbLine
 10
65.99999999999999
 20
102.0
 30
0.0
 11
47.99999999999999
 21
102.0
 31
0.0
  0
LINE
  5
113
330
E2
100
AcDbEntity
  8
bold
100
AcDbLine
 10
47.99999999999999
 20
-102.0
 30
0.0
 11
47.99999999999999
 21
-97.0
 31
0.0
  0
LINE
  5
114
330
E2
100
AcDbEntity
  8
bold
100
AcDbLine
 10
65.99999999999997
 20
-102.0
 30
0.0
 11
47.99999999999999
 21
-102.0
 31
0.0
  0
LINE
  5
115
330
E2
100
AcDbEntity
  8
bold
100
AcDbLine
 10
39.99999999999999
 20
-83.99999999999999
 30
0.0
 11
39.99999999999997
 21
-97.00000000000006
 31
0.0
  0
LINE
  5
116
330
E2
100
AcDbEntity
  8
bold
100
AcDbLine
 10
65.99999999999997
 20
-97.00000000000006
 30
0.0
 11
39.99999999999997
 21
-97.00000000000006
 31
0.0
  0
LINE
  5
117
330
E2
100
AcDbEntity
  8
bold
100
AcDbLine
 10
63.99999999999999
 20
-33.5
 30
0.0
 11
65.99999999999997
 21
-33.5
 31
0.0
  0
LINE
  5
118
330
E2
100
AcDbEntity
  8
bold
100
AcDbLine
 10
65.99999999999999
 20
7.500000000000007
 30
0.0
 11
63.99999999999999
 21
7.500000000000007
 31
0.0
  0
LINE
  5
119
330
E2
100
AcDbEntity
  8
bold
100
AcDbLine
 10
39.99999999999999
 20
97.0
 30
0.0
 11
39.99999999999999
 21
84.00000000000001
 31
0.0
  0
LINE
  5
11A
330
E2
100
AcDbEntity
  8
bold
100
AcDbLine
 10
47.0
 20
77.00000000000001
 30
0.0
 11
39.99999999999999
 21
84.00000000000001
 31
0.0
  0
LINE
  5
11B
330
E2
100
AcDbEntity
  8
bold
100
AcDbLine
 10
47.99999999999999
 20
77.00000000000001
 30
0.0
 11
47.0
 21
77.00000000000001
 31
0.0
  0
LINE
  5
11C
330
E2
100
AcDbEntity
  8
bold
100
AcDbLine
 10
47.99999999999997
 20
-76.99999999999999
 30
0.0
 11
47.99999999999999
 21
77.00000000000001
 31
0.0
  0
LINE
  5
11D
330
E2
100
AcDbEntity
  8
bold
100
AcDbLine
 10
46.99999999999998
 20
-76.99999999999999
 30
0.0
 11
47.99999999999997
 21
-76.99999999999999
 31
0.0
  0
LINE
  5
11E
330
E2
100
AcDbEntity
  8
bold
100
AcDbLine
 10
39.99999999999999
 20
-83.99999999999999
 30
0.0
 11
46.99999999999998
 21
-76.99999999999999
 31
0.0
  0
LINE
  5
120
330
E2
100
AcDbEntity
  8
light
100
AcDbLine
 10
65.99999999999997
 20
-87.0
 30
0.0
 11
39.99999999999997
 21
-87.0
 31
0.0
  0
LINE
  5
121
330
E2
100
AcDbEntity
  8
light
100
AcDbLine
 10
65.99999999999999
 20
87.00000000000001
 30
0.0
 11
39.99999999999999
 21
87.00000000000001
 31
0.0
  0
LINE
  5
122
330
E2
100
AcDbEntity
  8
bold
100
AcDbLine
 10
65.99999999999999
 20
97.0
 30
0.0
 11
39.99999999999999
 21
97.0
 31
0.0
  0
ENDBLK
  5
E5
330
E2
100
AcDbEntity
  8
0
100
AcDbBlockEnd
  0
BLOCK
  5
125
330
123
100
AcDbEntity
  8
0
100
AcDbBlockBegin
  2
3_01137000_lever_left_0_in_01136_0
 70
     2
 10
0.0
 20
0.0
 30
0.0
  3
3_01137000_lever_left_0_in_01136_0
  1

  0
ATTDEF
  5
127
330
123
100
AcDbEntity
  8
attrib
100
AcDbText
 10
-43.99999999999999
 20
18.70439691894665
 30
0.0
 40
0.5
  1
01137000_lever_left
100
AcDbAttributeDefinition
  3

  2
NB
 70
     8
280
     0
  0
ATTDEF
  5
128
330
123
100
AcDbEntity
  8
attrib
100
AcDbText
 10
-43.99999999999999
 20
18.20439691894665
 30
0.0
 40
0.5
  1
Covers / compartments b
100
AcDbAttributeDefinition
  3

  2
NN
 70
     8
280
     0
  0
ATTDEF
  5
129
330
123
100
AcDbEntity
  8
attrib
100
AcDbText
 10
-43.99999999999999
 20
17.70439691894665
 30
0.0
 40
0.5
  1

100
AcDbAttributeDefinition
  3

  2
NT
 70
     8
280
     0
  0
ATTDEF
  5
12A
330
123
100
AcDbEntity
  8
attrib
100
AcDbText
 10
-43.99999999999999
 20
17.20439691894665
 30
0.0
 40
0.5
  1
$BOM.
100
AcDbAttributeDefinition
  3

  2
NBSYN
 70
     8
280
     0
  0
ATTDEF
  5
12B
330
123
100
AcDbEntity
  8
attrib
100
AcDbText
 10
-43.99999999999999
 20
16.70439691894665
 30
0.0
 40
0.5
  1
01137000_lever_left
100
AcDbAttributeDefinition
  3

  2
LINA
 70
     8
280
     0
  0
ATTDEF
  5
12C
330
123
100
AcDbEntity
  8
attrib
100
AcDbText
 10
-43.99999999999999
 20
16.20439691894665
 30
0.0
 40
0.5
  1
Wöhner
100
AcDbAttributeDefinition
  3

  2
CATALOG
 70
     8
280
     0
  0
ATTDEF
  5
12D
330
123
100
AcDbEntity
  8
attrib
100
AcDbText
 10
-43.99999999999999
 20
15.70439691894665
 30
0.0
 40
0.5
  1
01137000_lever_left
100
AcDbAttributeDefinition
  3

  2
BOM
 70
     8
280
     0
  0
ATTDEF
  5
12E
330
123
100
AcDbEntity
  8
attrib
100
AcDbText
 10
-43.99999999999999
 20
15.20439691894665
 30
0.0
 40
0.5
  1
01137
100
AcDbAttributeDefinition
  3

  2
ARTNR
 70
     8
280
     0
  0
ATTDEF
  5
12F
330
123
100
AcDbEntity
  8
attrib
100
AcDbText
 10
-43.99999999999999
 20
14.70439691894665
 30
0.0
 40
0.5
  1

100
AcDbAttributeDefinition
  3

  2
BUSB
 70
     8
280
     0
  0
ATTDEF
  5
130
330
123
100
AcDbEntity
  8
attrib
100
AcDbText
 10
-43.99999999999999
 20
14.20439691894665
 30
0.0
 40
0.5
  1

100
AcDbAttributeDefinition
  3

  2
POF
 70
     8
280
     0
  0
ATTDEF
  5
131
330
123
100
AcDbEntity
  8
attrib
100
AcDbText
 10
-43.99999999999999
 20
13.70439691894665
 30
0.0
 40
0.5
  1
L
100
AcDbAttributeDefinition
  3

  2
TYPE
 70
     8
280
     0
  0
ATTDEF
  5
132
330
123
100
AcDbEntity
  8
attrib
100
AcDbText
 10
-43.99999999999999
 20
13.20439691894665
 30
0.0
 40
0.5
  1
5
100
AcDbAttributeDefinition
  3

  2
QNT
 70
     8
280
     0
  0
ATTDEF
  5
133
330
123
100
AcDbEntity
  8
attrib
100
AcDbText
 10
-43.99999999999999
 20
12.70439691894665
 30
0.0
 40
0.5
  1
10
100
AcDbAttributeDefinition
  3

  2
WX
 70
     8
280
     0
  0
ATTDEF
  5
134
330
123
100
AcDbEntity
  8
attrib
100
AcDbText
 10
-43.99999999999999
 20
12.20439691894665
 30
0.0
 40
0.5
  1
226
100
AcDbAttributeDefinition
  3

  2
H
 70
     8
280
     0
  0
ATTDEF
  5
135
330
123
100
AcDbEntity
  8
attrib
100
AcDbText
 10
-43.99999999999999
 20
11.70439691894665
 30
0.0
 40
0.5
  1
31
100
AcDbAttributeDefinition
  3

  2
D
 70
     8
280
     0
  0
ATTDEF
  5
136
330
123
100
AcDbEntity
  8
attrib
100
AcDbText
 10
-43.99999999999999
 20
11.20439691894665
 30
0.0
 40
0.5
  1

100
AcDbAttributeDefinition
  3

  2
CONCA
 70
     8
280
     0
  0
ATTDEF
  5
137
330
123
100
AcDbEntity
  8
attrib
100
AcDbText
 10
-43.99999999999999
 20
10.70439691894665
 30
0.0
 40
0.5
  1

100
AcDbAttributeDefinition
  3

  2
SCR
 70
     8
280
     0
  0
ATTDEF
  5
138
330
123
100
AcDbEntity
  8
attrib
100
AcDbText
 10
-43.99999999999999
 20
10.20439691894665
 30
0.0
 40
0.5
  1

100
AcDbAttributeDefinition
  3

  2
IPR
 70
     8
280
     0
  0
ATTDEF
  5
139
330
123
100
AcDbEntity
  8
attrib
100
AcDbText
 10
-43.99999999999999
 20
9.704396918946653
 30
0.0
 40
0.5
  1

100
AcDbAttributeDefinition
  3

  2
IPRF
 70
     8
280
     0
  0
ATTDEF
  5
13A
330
123
100
AcDbEntity
  8
attrib
100
AcDbText
 10
-43.99999999999999
 20
9.204396918946653
 30
0.0
 40
0.5
  1

100
AcDbAttributeDefinition
  3

  2
SEARCH
 70
     8
280
     0
  0
ATTDEF
  5
13B
330
123
100
AcDbEntity
  8
attrib
100
AcDbText
 10
-43.99999999999999
 20
8.704396918946653
 30
0.0
 40
0.5
  1

100
AcDbAttributeDefinition
  3

  2
EDZ
 70
     8
280
     0
  0
ATTDEF
  5
13C
330
123
100
AcDbEntity
  8
attrib
100
AcDbText
 10
-43.99999999999999
 20
8.204396918946653
 30
0.0
 40
0.5
  1

100
AcDbAttributeDefinition
  3

  2
IODD
 70
     8
280
     0
  0
ATTDEF
  5
13D
330
123
100
AcDbEntity
  8
attrib
100
AcDbText
 10
-43.99999999999999
 20
7.704396918946653
 30
0.0
 40
0.5
  1
woehner
100
AcDbAttributeDefinition
  3

  2
COMPANY
 70
     8
280
     0
  0
ATTDEF
  5
13E
330
123
100
AcDbEntity
  8
attrib
100
AcDbText
 10
-43.99999999999999
 20
7.204396918946653
 30
0.0
 40
0.5
  1
{$CADENAS_DATA/23d-libs/woehner/sys_60classic/busbar_supp_and_covers/parts/covers_compartments_body_4.prj},196 {VTYP=3D},{NB=01137000_lever_left},{LINA=01137000_lever_left},{NN=Covers / compartments b},{DATE=26.01.2024 06:53:53},{GEOMDATE=22.01.2024 11:44
100
AcDbAttributeDefinition
  3

  2
PSOL_0
 70
     9
280
     0
  0
ATTDEF
  5
13F
330
123
100
AcDbEntity
  8
attrib
100
AcDbText
 10
-43.99999999999999
 20
6.704396918946653
 30
0.0
 40
0.5
  1
:00},{VERSION=},{LINEID=470},{WBVAR=},{WBNUMERIC=}  {NB=01137000_lever_left},{LINA=01137000_lever_left},{KT=DUMMY},{BOM=01137000_lever_left},{ARTNR=01137},{BUSB=},{POF=},{TYPE=L},{QNT=5},{WX=10},{H=226},{D=31},{CONCA=},{SCR=},{IPR=},{IPRF=},{SEARCH=},{EDZ
100
AcDbAttributeDefinition
  3

  2
PSOL_1
 70
     9
280
     0
  0
ATTDEF
  5
140
330
123
100
AcDbEntity
  8
attrib
100
AcDbText
 10
-43.99999999999999
 20
6.204396918946653
 30
0.0
 40
0.5
  1
=},{IODD=},{DIST=8.0},{LINK=Product link},{LINKX=https://www.woehner.de/de/produkte/01137.html}
100
AcDbAttributeDefinition
  3

  2
PSOL_2
 70
     9
280
     0
  0
LINE
  5
141
330
123
100
AcDbEntity
  8
hidden
100
AcDbLine
 10
-61.99999999999999
 20
-23.89999999999999
 30
0.0
 11
-63.99999999999999
 21
-23.89999999999999
 31
0.0
  0
LINE
  5
142
330
123
100
AcDbEntity
  8
hidden
100
AcDbLine
 10
-61.99999999999999
 20
-15.89999999999999
 30
0.0
 11
-63.99999999999999
 21
-15.89999999999999
 31
0.0
  0
LINE
  5
143
330
123
100
AcDbEntity
  8
hidden
100
AcDbLine
 10
-61.99999999999999
 20
-20.89999999999999
 30
0.0
 11
-63.99999999999999
 21
-20.89999999999999
 31
0.0
  0
LINE
  5
144
330
123
100
AcDbEntity
  8
hidden
100
AcDbLine
 10
-61.99999999999999
 20
-54.14999999999999
 30
0.0
 11
-63.99999999999999
 21
-54.14999999999999
 31
0.0
  0
LINE
  5
145
330
123
100
AcDbEntity
  8
hidden
100
AcDbLine
 10
-61.99999999999999
 20
-36.89999999999999
 30
0.0
 11
-63.99999999999999
 21
-36.89999999999999
 31
0.0
  0
LINE
  5
146
330
123
100
AcDbEntity
  8
hidden
100
AcDbLine
 10
-61.99999999999999
 20
14.15000000000001
 30
0.0
 11
-63.99999999999999
 21
14.15000000000001
 31
0.0
  0
LINE
  5
147
330
123
100
AcDbEntity
  8
hidden
100
AcDbLine
 10
-61.99999999999999
 20
3.050000000000007
 30
0.0
 11
-63.99999999999999
 21
3.050000000000007
 31
0.0
  0
LINE
  5
148
330
123
100
AcDbEntity
  8
hidden
100
AcDbLine
 10
-61.99999999999999
 20
-1.94999999999999
 30
0.0
 11
-63.99999999999999
 21
-1.94999999999999
 31
0.0
  0
LINE
  5
149
330
123
100
AcDbEntity
  8
hidden
100
AcDbLine
 10
-61.99999999999999
 20
-6.949999999999991
 30
0.0
 11
-63.99999999999999
 21
-6.949999999999991
 31
0.0
  0
LINE
  5
14A
330
123
100
AcDbEntity
  8
hidden
100
AcDbLine
 10
-61.99999999999999
 20
-14.94999999999999
 30
0.0
 11
-63.99999999999999
 21
-14.94999999999999
 31
0.0
  0
LINE
  5
14B
330
123
100
AcDbEntity
  8
hidden
100
AcDbLine
 10
-61.99999999999999
 20
-47.89999999999998
 30
0.0
 11
-63.99999999999999
 21
-47.89999999999998
 31
0.0
  0
LINE
  5
14C
330
123
100
AcDbEntity
  8
hidden
100
AcDbLine
 10
-61.99999999999999
 20
-50.89999999999998
 30
0.0
 11
-63.99999999999999
 21
-50.89999999999998
 31
0.0
  0
LINE
  5
14D
330
123
100
AcDbEntity
  8
hidden
100
AcDbLine
 10
-61.99999999999999
 20
-6.549999999999986
 30
0.0
 11
-63.99999999999999
 21
-6.549999999999986
 31
0.0
  0
LINE
  5
14E
330
123
100
AcDbEntity
  8
hidden
100
AcDbLine
 10
-61.99999999999999
 20
-11.85
 30
0.0
 11
-63.99999999999999
 21
-11.85
 31
0.0
  0
LINE
  5
14F
330
123
100
AcDbEntity
  8
hidden
100
AcDbLine
 10
-61.99999999999999
 20
-42.89999999999998
 30
0.0
 11
-63.99999999999999
 21
-42.89999999999998
 31
0.0
  0
LINE
  5
150
330
123
100
AcDbEntity
  8
hidden
100
AcDbLine
 10
-61.99999999999999
 20
-1.549999999999985
 30
0.0
 11
-63.99999999999999
 21
-1.549999999999985
 31
0.0
  0
LINE
  5
151
330
123
100
AcDbEntity
  8
hidden
100
AcDbLine
 10
-61.99999999999999
 20
-26.89999999999999
 30
0.0
 11
-63.99999999999999
 21
-26.89999999999999
 31
0.0
  0
LINE
  5
152
330
123
100
AcDbEntity
  8
hidden
100
AcDbLine
 10
-61.99999999999999
 20
-26.49999999999999
 30
0.0
 11
-63.99999999999999
 21
-26.49999999999999
 31
0.0
  0
LINE
  5
153
330
123
100
AcDbEntity
  8
hidden
100
AcDbLine
 10
-61.99999999999999
 20
-9.949999999999992
 30
0.0
 11
-63.99999999999999
 21
-9.949999999999992
 31
0.0
  0
LINE
  5
154
330
123
100
AcDbEntity
  8
hidden
100
AcDbLine
 10
-61.99999999999999
 20
-9.549999999999985
 30
0.0
 11
-63.99999999999999
 21
-9.549999999999985
 31
0.0
  0
LINE
  5
155
330
123
100
AcDbEntity
  8
hidden
100
AcDbLine
 10
-61.99999999999999
 20
-50.49999999999999
 30
0.0
 11
-63.99999999999999
 21
-50.49999999999999
 31
0.0
  0
LINE
  5
156
330
123
100
AcDbEntity
  8
hidden
100
AcDbLine
 10
-61.99999999999999
 20
-32.89999999999998
 30
0.0
 11
-63.99999999999999
 21
-32.89999999999998
 31
0.0
  0
LINE
  5
157
330
123
100
AcDbEntity
  8
hidden
100
AcDbLine
 10
-61.99999999999999
 20
-32.49999999999999
 30
0.0
 11
-63.99999999999999
 21
-32.49999999999999
 31
0.0
  0
LINE
  5
158
330
123
100
AcDbEntity
  8
hidden
100
AcDbLine
 10
-61.99999999999999
 20
3.450000000000016
 30
0.0
 11
-63.99999999999999
 21
3.450000000000016
 31
0.0
  0
LINE
  5
159
330
123
100
AcDbEntity
  8
hidden
100
AcDbLine
 10
-61.99999999999999
 20
-56.89999999999999
 30
0.0
 11
-63.99999999999999
 21
-56.89999999999999
 31
0.0
  0
LINE
  5
15A
330
123
100
AcDbEntity
  8
hidden
100
AcDbLine
 10
-61.99999999999999
 20
14.10000000000001
 30
0.0
 11
-63.99999999999999
 21
14.10000000000001
 31
0.0
  0
LINE
  5
15B
330
123
100
AcDbEntity
  8
hidden
100
AcDbLine
 10
-61.99999999999999
 20
-37.89999999999999
 30
0.0
 11
-63.99999999999999
 21
-37.89999999999999
 31
0.0
  0
LINE
  5
15C
330
123
100
AcDbEntity
  8
hidden
100
AcDbLine
 10
-61.99999999999999
 20
-37.49999999999999
 30
0.0
 11
-63.99999999999999
 21
-37.49999999999999
 31
0.0
  0
LINE
  5
15D
330
123
100
AcDbEntity
  8
hidden
100
AcDbLine
 10
-61.99999999999999
 20
11.8
 30
0.0
 11
-63.99999999999999
 21
11.8
 31
0.0
  0
LINE
  5
15E
330
123
100
AcDbEntity
  8
hidden
100
AcDbLine
 10
-61.99999999999999
 20
12.2
 30
0.0
 11
-63.99999999999999
 21
12.2
 31
0.0
  0
LINE
  5
15F
330
123
100
AcDbEntity
  8
hidden
100
AcDbLine
 10
-61.99999999999999
 20
8.050000000000008
 30
0.0
 11
-63.99999999999999
 21
8.050000000000008
 31
0.0
  0
LINE
  5
160
330
123
100
AcDbEntity
  8
hidden
100
AcDbLine
 10
-61.99999999999999
 20
8.450000000000014
 30
0.0
 11
-63.99999999999999
 21
8.450000000000014
 31
0.0
  0
LINE
  5
161
330
123
100
AcDbEntity
  8
hidden
100
AcDbLine
 10
-61.99999999999999
 20
-14.54999999999999
 30
0.0
 11
-63.99999999999999
 21
-14.54999999999999
 31
0.0
  0
LINE
  5
162
330
123
100
AcDbEntity
  8
hidden
100
AcDbLine
 10
-61.99999999999999
 20
-12.25
 30
0.0
 11
-63.99999999999999
 21
-12.25
 31
0.0
  0
LINE
  5
163
330
123
100
AcDbEntity
  8
hidden
100
AcDbLine
 10
-61.99999999999999
 20
-39.7
 30
0.0
 11
-63.99999999999999
 21
-39.7
 31
0.0
  0
LINE
  5
164
330
123
100
AcDbEntity
  8
hidden
100
AcDbLine
 10
-61.99999999999999
 20
-4.250000000000004
 30
0.0
 11
-63.99999999999999
 21
-4.250000000000004
 31
0.0
  0
LINE
  5
165
330
123
100
AcDbEntity
  8
hidden
100
AcDbLine
 10
-61.99999999999999
 20
-3.849999999999996
 30
0.0
 11
-63.99999999999999
 21
-3.849999999999996
 31
0.0
  0
LINE
  5
166
330
123
100
AcDbEntity
  8
hidden
100
AcDbLine
 10
-61.99999999999999
 20
5.749999999999998
 30
0.0
 11
-63.99999999999999
 21
5.749999999999998
 31
0.0
  0
LINE
  5
167
330
123
100
AcDbEntity
  8
hidden
100
AcDbLine
 10
-61.99999999999999
 20
6.150000000000003
 30
0.0
 11
-63.99999999999999
 21
6.150000000000003
 31
0.0
  0
LINE
  5
168
330
123
100
AcDbEntity
  8
hidden
100
AcDbLine
 10
-61.99999999999999
 20
-47.49999999999999
 30
0.0
 11
-63.99999999999999
 21
-47.49999999999999
 31
0.0
  0
LINE
  5
169
330
123
100
AcDbEntity
  8
hidden
100
AcDbLine
 10
-61.99999999999999
 20
-45.09999999999999
 30
0.0
 11
-63.99999999999999
 21
-45.09999999999999
 31
0.0
  0
LINE
  5
16A
330
123
100
AcDbEntity
  8
hidden
100
AcDbLine
 10
-61.99999999999999
 20
-44.69999999999999
 30
0.0
 11
-63.99999999999999
 21
-44.69999999999999
 31
0.0
  0
LINE
  5
16B
330
123
100
AcDbEntity
  8
hidden
100
AcDbLine
 10
-61.99999999999999
 20
0.7499999999999972
 30
0.0
 11
-63.99999999999999
 21
0.7499999999999972
 31
0.0
  0
LINE
  5
16C
330
123
100
AcDbEntity
  8
hidden
100
AcDbLine
 10
-61.99999999999999
 20
1.150000000000002
 30
0.0
 11
-63.99999999999999
 21
1.150000000000002
 31
0.0
  0
LINE
  5
16D
330
123
100
AcDbEntity
  8
hidden
100
AcDbLine
 10
-61.99999999999999
 20
-17.25
 30
0.0
 11
-63.99999999999999
 21
-17.25
 31
0.0
  0
LINE
  5
16E
330
123
100
AcDbEntity
  8
hidden
100
AcDbLine
 10
-61.99999999999999
 20
-16.85
 30
0.0
 11
-63.99999999999999
 21
-16.85
 31
0.0
  0
LINE
  5
16F
330
123
100
AcDbEntity
  8
hidden
100
AcDbLine
 10
-61.99999999999999
 20
-42.49999999999999
 30
0.0
 11
-63.99999999999999
 21
-42.49999999999999
 31
0.0
  0
LINE
  5
170
330
123
100
AcDbEntity
  8
hidden
100
AcDbLine
 10
-61.99999999999999
 20
-40.09999999999999
 30
0.0
 11
-63.99999999999999
 21
-40.09999999999999
 31
0.0
  0
LINE
  5
171
330
123
100
AcDbEntity
  8
hidden
100
AcDbLine
 10
-61.99999999999999
 20
-50.09999999999999
 30
0.0
 11
-63.99999999999999
 21
-50.09999999999999
 31
0.0
  0
LINE
  5
172
330
123
100
AcDbEntity
  8
hidden
100
AcDbLine
 10
-61.99999999999999
 20
-49.7
 30
0.0
 11
-63.99999999999999
 21
-49.7
 31
0.0
  0
LINE
  5
173
330
123
100
AcDbEntity
  8
hidden
100
AcDbLine
 10
-61.99999999999999
 20
-29.09999999999999
 30
0.0
 11
-63.99999999999999
 21
-29.09999999999999
 31
0.0
  0
LINE
  5
174
330
123
100
AcDbEntity
  8
hidden
100
AcDbLine
 10
-61.99999999999999
 20
-28.69999999999999
 30
0.0
 11
-63.99999999999999
 21
-28.69999999999999
 31
0.0
  0
LINE
  5
175
330
123
100
AcDbEntity
  8
hidden
100
AcDbLine
 10
-61.99999999999999
 20
-9.250000000000004
 30
0.0
 11
-63.99999999999999
 21
-9.250000000000004
 31
0.0
  0
LINE
  5
176
330
123
100
AcDbEntity
  8
hidden
100
AcDbLine
 10
-61.99999999999999
 20
-8.849999999999996
 30
0.0
 11
-63.99999999999999
 21
-8.849999999999996
 31
0.0
  0
LINE
  5
177
330
123
100
AcDbEntity
  8
hidden
100
AcDbLine
 10
-61.99999999999999
 20
-53.09999999999999
 30
0.0
 11
-63.99999999999999
 21
-53.09999999999999
 31
0.0
  0
LINE
  5
178
330
123
100
AcDbEntity
  8
hidden
100
AcDbLine
 10
-61.99999999999999
 20
-52.7
 30
0.0
 11
-63.99999999999999
 21
-52.7
 31
0.0
  0
LINE
  5
179
330
123
100
AcDbEntity
  8
hidden
100
AcDbLine
 10
-61.99999999999999
 20
-35.09999999999999
 30
0.0
 11
-63.99999999999999
 21
-35.09999999999999
 31
0.0
  0
LINE
  5
17A
330
123
100
AcDbEntity
  8
hidden
100
AcDbLine
 10
-61.99999999999999
 20
-34.7
 30
0.0
 11
-63.99999999999999
 21
-34.7
 31
0.0
  0
LINE
  5
17B
330
123
100
AcDbEntity
  8
hidden
100
AcDbLine
 10
-61.99999999999999
 20
14.50000000000001
 30
0.0
 11
-63.99999999999999
 21
14.50000000000001
 31
0.0
  0
LINE
  5
17C
330
123
100
AcDbEntity
  8
hidden
100
AcDbLine
 10
-61.99999999999999
 20
16.90000000000001
 30
0.0
 11
-63.99999999999999
 21
16.90000000000001
 31
0.0
  0
LINE
  5
17D
330
123
100
AcDbEntity
  8
hidden
100
AcDbLine
 10
-61.99999999999999
 20
-26.59999999999999
 30
0.0
 11
-63.99999999999999
 21
-26.59999999999999
 31
0.0
  0
LINE
  5
17E
330
123
100
AcDbEntity
  8
hidden
100
AcDbLine
 10
-61.99999999999999
 20
-17.09999999999999
 30
0.0
 11
-63.99999999999999
 21
-17.09999999999999
 31
0.0
  0
LINE
  5
17F
330
123
100
AcDbEntity
  8
hidden
100
AcDbLine
 10
-61.99999999999999
 20
-56.89999999999999
 30
0.0
 11
-61.99999999999999
 21
16.90000000000001
 31
0.0
  0
LINE
  5
180
330
123
100
AcDbEntity
  8
hidden
100
AcDbLine
 10
-61.99999999999999
 20
-13.59999999999999
 30
0.0
 11
-63.99999999999999
 21
-13.59999999999999
 31
0.0
  0
LINE
  5
181
330
123
100
AcDbEntity
  8
hidden
100
AcDbLine
 10
-60.49999999999999
 20
-15.59999999999999
 30
0.0
 11
-63.99999999999999
 21
-15.59999999999999
 31
0.0
  0
LINE
  5
182
330
123
100
AcDbEntity
  8
hidden
100
AcDbLine
 10
-48.99999999999999
 20
11.40673281317012
 30
0.0
 11
-63.99999999999999
 21
11.40673281317012
 31
0.0
  0
LINE
  5
183
330
123
100
AcDbEntity
  8
hidden
100
AcDbLine
 10
-48.99999999999999
 20
-54.60673281317012
 30
0.0
 11
-63.99999999999999
 21
-54.60673281317012
 31
0.0
  0
LINE
  5
184
330
123
100
AcDbEntity
  8
hidden
100
AcDbLine
 10
-63.99999999999999
 20
-28.09999999999999
 30
0.0
 11
-60.49999999999999
 21
-28.09999999999999
 31
0.0
  0
LINE
  5
185
330
123
100
AcDbEntity
  8
hidden
100
AcDbLine
 10
-63.99999999999999
 20
-15.09999999999999
 30
0.0
 11
-60.49999999999999
 21
-15.09999999999999
 31
0.0
  0
LINE
  5
186
330
123
100
AcDbEntity
  8
hidden
100
AcDbLine
 10
-62.49999999999999
 20
-28.09999999999999
 30
0.0
 11
-62.49999999999999
 21
-15.09999999999999
 31
0.0
  0
LINE
  5
187
330
123
100
AcDbEntity
  8
hidden
100
AcDbLine
 10
-60.49999999999999
 20
-15.09999999999999
 30
0.0
 11
-60.49999999999999
 21
-28.09999999999999
 31
0.0
  0
LINE
  5
188
330
123
100
AcDbEntity
  8
hidden
100
AcDbLine
 10
-63.99999999999999
 20
17.62324902401642
 30
0.0
 11
-63.99999999999999
 21
18.70439691894665
 31
0.0
  0
LINE
  5
189
330
123
100
AcDbEntity
  8
hidden
100
AcDbLine
 10
-63.99999999999999
 20
-61.90439691894665
 30
0.0
 11
-63.99999999999999
 21
-60.8232490240164
 31
0.0
  0
LINE
  5
18A
330
123
100
AcDbEntity
  8
hidden
100
AcDbLine
 10
-48.99999999999999
 20
-61.90439691894665
 30
0.0
 11
-63.99999999999999
 21
-61.90439691894665
 31
0.0
  0
LINE
  5
18B
330
123
100
AcDbEntity
  8
hidden
100
AcDbLine
 10
-48.99999999999999
 20
17.62324902401642
 30
0.0
 11
-48.99999999999999
 21
18.70439691894665
 31
0.0
  0
LINE
  5
18C
330
123
100
AcDbEntity
  8
hidden
100
AcDbLine
 10
-48.99999999999999
 20
-61.90439691894665
 30
0.0
 11
-48.99999999999999
 21
-60.8232490240164
 31
0.0
  0
LINE
  5
18D
330
123
100
AcDbEntity
  8
hidden
100
AcDbLine
 10
-48.99999999999999
 20
18.70439691894665
 30
0.0
 11
-63.99999999999999
 21
18.70439691894665
 31
0.0
  0
LINE
  5
18E
330
123
100
AcDbEntity
  8
bold
100
AcDbLine
 10
-63.99999999999999
 20
-60.8232490240164
 30
0.0
 11
-63.99999999999999
 21
17.62324902401642
 31
0.0
  0
LINE
  5
18F
330
123
100
AcDbEntity
  8
bold
100
AcDbLine
 10
-48.99999999999999
 20
-60.8232490240164
 30
0.0
 11
-48.99999999999999
 21
17.62324902401642
 31
0.0
  0
ENDBLK
  5
126
330
123
100
AcDbEntity
  8
0
100
AcDbBlockEnd
  0
BLOCK
  5
192
330
190
100
AcDbEntity
  8
0
100
AcDbBlockBegin
  2
4_0113630b_0_in_01136_0
 70
     2
 10
0.0
 20
0.0
 30
0.0
  3
4_0113630b_0_in_01136_0
  1

  0
ATTDEF
  5
194
330
190
100
AcDbEntity
  8
attrib
100
AcDbText
 10
-34.99999999999999
 20
102.0
 30
0.0
 40
0.5
  1
0113630b
100
AcDbAttributeDefinition
  3

  2
NB
 70
     8
280
     0
  0
ATTDEF
  5
195
330
190
100
AcDbEntity
  8
attrib
100
AcDbText
 10
-34.99999999999999
 20
101.5
 30
0.0
 40
0.5
  1
Covers / compartments b
100
AcDbAttributeDefinition
  3

  2
NN
 70
     8
280
     0
  0
ATTDEF
  5
196
330
190
100
AcDbEntity
  8
attrib
100
AcDbText
 10
-34.99999999999999
 20
101.0
 30
0.0
 40
0.5
  1

100
AcDbAttributeDefinition
  3

  2
NT
 70
     8
280
     0
  0
ATTDEF
  5
197
330
190
100
AcDbEntity
  8
attrib
100
AcDbText
 10
-34.99999999999999
 20
100.5
 30
0.0
 40
0.5
  1
$ARTNR.$W.b
100
AcDbAttributeDefinition
  3

  2
NBSYN
 70
     8
280
     0
  0
ATTDEF
  5
198
330
190
100
AcDbEntity
  8
attrib
100
AcDbText
 10
-34.99999999999999
 20
100.0
 30
0.0
 40
0.5
  1
77043000
100
AcDbAttributeDefinition
  3

  2
LINA
 70
     8
280
     0
  0
ATTDEF
  5
199
330
190
100
AcDbEntity
  8
attrib
100
AcDbText
 10
-34.99999999999999
 20
99.50000000000001
 30
0.0
 40
0.5
  1
Wöhner
100
AcDbAttributeDefinition
  3

  2
CATALOG
 70
     8
280
     0
  0
ATTDEF
  5
19A
330
190
100
AcDbEntity
  8
attrib
100
AcDbText
 10
-34.99999999999999
 20
99.00000000000001
 30
0.0
 40
0.5
  1
77043000
100
AcDbAttributeDefinition
  3

  2
BOM
 70
     8
280
     0
  0
ATTDEF
  5
19B
330
190
100
AcDbEntity
  8
attrib
100
AcDbText
 10
-34.99999999999999
 20
98.50000000000001
 30
0.0
 40
0.5
  1
01136
100
AcDbAttributeDefinition
  3

  2
ARTNR
 70
     8
280
     0
  0
ATTDEF
  5
19C
330
190
100
AcDbEntity
  8
attrib
100
AcDbText
 10
-34.99999999999999
 20
98.00000000000001
 30
0.0
 40
0.5
  1
12, 15, 20, 25, 30 x 5, 10 and section busbars
100
AcDbAttributeDefinition
  3

  2
BUSB
 70
     8
280
     0
  0
ATTDEF
  5
19D
330
190
100
AcDbEntity
  8
attrib
100
AcDbText
 10
-34.99999999999999
 20
97.50000000000001
 30
0.0
 40
0.5
  1

100
AcDbAttributeDefinition
  3

  2
POF
 70
     8
280
     0
  0
ATTDEF
  5
19E
330
190
100
AcDbEntity
  8
attrib
100
AcDbText
 10
-34.99999999999999
 20
97.00000000000001
 30
0.0
 40
0.5
  1
TC60-L
100
AcDbAttributeDefinition
  3

  2
TYPE
 70
     8
280
     0
  0
ATTDEF
  5
19F
330
190
100
AcDbEntity
  8
attrib
100
AcDbText
 10
-34.99999999999999
 20
96.50000000000001
 30
0.0
 40
0.5
  1
1
100
AcDbAttributeDefinition
  3

  2
QNT
 70
     8
280
     0
  0
ATTDEF
  5
1A0
330
190
100
AcDbEntity
  8
attrib
100
AcDbText
 10
-34.99999999999999
 20
96.00000000000001
 30
0.0
 40
0.5
  1
30
100
AcDbAttributeDefinition
  3

  2
W
 70
     8
280
     0
  0
ATTDEF
  5
1A1
330
190
100
AcDbEntity
  8
attrib
100
AcDbText
 10
-34.99999999999999
 20
95.50000000000001
 30
0.0
 40
0.5
  1
30
100
AcDbAttributeDefinition
  3

  2
WX
 70
     8
280
     0
  0
ATTDEF
  5
1A2
330
190
100
AcDbEntity
  8
attrib
100
AcDbText
 10
-34.99999999999999
 20
95.00000000000001
 30
0.0
 40
0.5
  1
204
100
AcDbAttributeDefinition
  3

  2
H
 70
     8
280
     0
  0
ATTDEF
  5
1A3
330
190
100
AcDbEntity
  8
attrib
100
AcDbText
 10
-34.99999999999999
 20
94.50000000000001
 30
0.0
 40
0.5
  1
92
100
AcDbAttributeDefinition
  3

  2
D
 70
     8
280
     0
  0
ATTDEF
  5
1A4
330
190
100
AcDbEntity
  8
attrib
100
AcDbText
 10
-34.99999999999999
 20
94.00000000000001
 30
0.0
 40
0.5
  1

100
AcDbAttributeDefinition
  3

  2
CONCA
 70
     8
280
     0
  0
ATTDEF
  5
1A5
330
190
100
AcDbEntity
  8
attrib
100
AcDbText
 10
-34.99999999999999
 20
93.50000000000001
 30
0.0
 40
0.5
  1

100
AcDbAttributeDefinition
  3

  2
SCR
 70
     8
280
     0
  0
ATTDEF
  5
1A6
330
190
100
AcDbEntity
  8
attrib
100
AcDbText
 10
-34.99999999999999
 20
93.00000000000001
 30
0.0
 40
0.5
  1

100
AcDbAttributeDefinition
  3

  2
IPR
 70
     8
280
     0
  0
ATTDEF
  5
1A7
330
190
100
AcDbEntity
  8
attrib
100
AcDbText
 10
-34.99999999999999
 20
92.50000000000001
 30
0.0
 40
0.5
  1

100
AcDbAttributeDefinition
  3

  2
IPRF
 70
     8
280
     0
  0
ATTDEF
  5
1A8
330
190
100
AcDbEntity
  8
attrib
100
AcDbText
 10
-34.99999999999999
 20
92.00000000000001
 30
0.0
 40
0.5
  1

100
AcDbAttributeDefinition
  3

  2
SEARCH
 70
     8
280
     0
  0
ATTDEF
  5
1A9
330
190
100
AcDbEntity
  8
attrib
100
AcDbText
 10
-34.99999999999999
 20
91.50000000000001
 30
0.0
 40
0.5
  1

100
AcDbAttributeDefinition
  3

  2
EDZ
 70
     8
280
     0
  0
ATTDEF
  5
1AA
330
190
100
AcDbEntity
  8
attrib
100
AcDbText
 10
-34.99999999999999
 20
91.00000000000001
 30
0.0
 40
0.5
  1

100
AcDbAttributeDefinition
  3

  2
IODD
 70
     8
280
     0
  0
ATTDEF
  5
1AB
330
190
100
AcDbEntity
  8
attrib
100
AcDbText
 10
-34.99999999999999
 20
90.50000000000001
 30
0.0
 40
0.5
  1
woehner
100
AcDbAttributeDefinition
  3

  2
COMPANY
 70
     8
280
     0
  0
ATTDEF
  5
1AC
330
190
100
AcDbEntity
  8
attrib
100
AcDbText
 10
-34.99999999999999
 20
90.00000000000001
 30
0.0
 40
0.5
  1
{$CADENAS_DATA/23d-libs/woehner/sys_60classic/busbar_supp_and_covers/parts/covers_compartments_body.prj},189 {VTYP=3D},{NB=0113630b},{LINA=77043000},{NN=Covers / compartments b},{DATE=26.01.2024 06:54:31},{GEOMDATE=24.01.2024 11:21:00},{VERSION=v230929135
100
AcDbAttributeDefinition
  3

  2
PSOL_0
 70
     9
280
     0
  0
ATTDEF
  5
1AD
330
190
100
AcDbEntity
  8
attrib
100
AcDbText
 10
-34.99999999999999
 20
89.50000000000001
 30
0.0
 40
0.5
  1
048},{LINEID=470},{WBVAR=W},{WBNUMERIC=W}  {NB=0113630b},{LINA=77043000},{KT=DUMMY},{BOM=77043000},{ARTNR=01136},{BUSB=12, 15, 20, 25, 30 x 5, 10 and section busbars},{POF=},{TYPE=TC60-L},{QNT=1},{W=30},{WX=30},{H=204},{D=92},{CONCA=},{SCR=},{IPR=},{IPRF=
100
AcDbAttributeDefinition
  3

  2
PSOL_1
 70
     9
280
     0
  0
ATTDEF
  5
1AE
330
190
100
AcDbEntity
  8
attrib
100
AcDbText
 10
-34.99999999999999
 20
89.00000000000001
 30
0.0
 40
0.5
  1
},{SEARCH=},{EDZ=},{IODD=},{DIST=8.0},{LINK=Product link},{LINKX=https://www.woehner.de/de/produkte/01136.html}
100
AcDbAttributeDefinition
  3

  2
PSOL_2
 70
     9
280
     0
  0
LINE
  5
1AF
330
190
100
AcDbEntity
  8
hidden
100
AcDbLine
 10
-66.0
 20
66.0
 30
0.0
 11
-64.0
 21
66.0
 31
0.0
  0
LINE
  5
1B0
330
190
100
AcDbEntity
  8
hidden
100
AcDbLine
 10
-65.99999999999999
 20
-84.99999999999999
 30
0.0
 11
-63.99999999999999
 21
-84.99999999999999
 31
0.0
  0
LINE
  5
1B1
330
190
100
AcDbEntity
  8
hidden
100
AcDbLine
 10
-63.99999999999999
 20
-98.0
 30
0.0
 11
-47.99999999999999
 21
-98.0
 31
0.0
  0
LINE
  5
1B2
330
190
100
AcDbEntity
  8
hidden
100
AcDbLine
 10
-64.0
 20
98.0
 30
0.0
 11
-48.0
 21
98.0
 31
0.0
  0
LINE
  5
1B3
330
190
100
AcDbEntity
  8
hidden
100
AcDbLine
 10
-48.0
 20
-97.0
 30
0.0
 11
-48.0
 21
-93.0
 31
0.0
  0
LINE
  5
1B4
330
190
100
AcDbEntity
  8
hidden
100
AcDbLine
 10
-48.0
 20
93.0
 30
0.0
 11
-48.0
 21
97.0
 31
0.0
  0
LINE
  5
1B5
330
190
100
AcDbEntity
  8
hidden
100
AcDbLine
 10
-63.99999999999999
 20
-82.99999999999999
 30
0.0
 11
-40.99999999999999
 21
-82.99999999999999
 31
0.0
  0
LINE
  5
1B6
330
190
100
AcDbEntity
  8
hidden
100
AcDbLine
 10
-63.99999999999999
 20
-93.0
 30
0.0
 11
-39.99999999999999
 21
-93.0
 31
0.0
  0
LINE
  5
1B7
330
190
100
AcDbEntity
  8
hidden
100
AcDbLine
 10
-63.99999999999999
 20
-98.0
 30
0.0
 11
-63.99999999999999
 21
-61.90439691894665
 31
0.0
  0
LINE
  5
1B8
330
190
100
AcDbEntity
  8
hidden
100
AcDbLine
 10
-64.0
 20
18.70439691894665
 30
0.0
 11
-64.0
 21
98.0
 31
0.0
  0
LINE
  5
1B9
330
190
100
AcDbEntity
  8
hidden
100
AcDbLine
 10
-64.0
 20
83.00000000000001
 30
0.0
 11
-41.00000000000001
 21
83.00000000000001
 31
0.0
  0
LINE
  5
1BA
330
190
100
AcDbEntity
  8
hidden
100
AcDbLine
 10
-64.0
 20
93.00000000000001
 30
0.0
 11
-40.0
 21
93.00000000000001
 31
0.0
  0
LINE
  5
1BB
330
190
100
AcDbEntity
  8
hidden
100
AcDbLine
 10
-64.0
 20
-33.5
 30
0.0
 11
-60.5
 21
-33.5
 31
0.0
  0
LINE
  5
1BC
330
190
100
AcDbEntity
  8
hidden
100
AcDbLine
 10
-60.5
 20
7.500000000000007
 30
0.0
 11
-64.0
 21
7.500000000000007
 31
0.0
  0
LINE
  5
1BD
330
190
100
AcDbEntity
  8
hidden
100
AcDbLine
 10
-60.5
 20
-15.1
 30
0.0
 11
-60.5
 21
7.500000000000007
 31
0.0
  0
LINE
  5
1BE
330
190
100
AcDbEntity
  8
hidden
100
AcDbLine
 10
-60.5
 20
-33.5
 30
0.0
 11
-60.5
 21
-28.09999999999999
 31
0.0
  0
LINE
  5
1BF
330
190
100
AcDbEntity
  8
bold
100
AcDbLine
 10
-48.0
 20
-97.0
 30
0.0
 11
-48.0
 21
-102.0
 31
0.0
  0
LINE
  5
1C0
330
190
100
AcDbEntity
  8
bold
100
AcDbLine
 10
-65.99999999999999
 20
-102.0
 30
0.0
 11
-48.0
 21
-102.0
 31
0.0
  0
LINE
  5
1C1
330
190
100
AcDbEntity
  8
bold
100
AcDbLine
 10
-65.99999999999999
 20
-102.0
 30
0.0
 11
-66.0
 21
102.0
 31
0.0
  0
LINE
  5
1C2
330
190
100
AcDbEntity
  8
bold
100
AcDbLine
 10
-48.0
 20
102.0
 30
0.0
 11
-48.0
 21
97.0
 31
0.0
  0
LINE
  5
1C3
330
190
100
AcDbEntity
  8
bold
100
AcDbLine
 10
-66.0
 20
102.0
 30
0.0
 11
-48.0
 21
102.0
 31
0.0
  0
LINE
  5
1C4
330
190
100
AcDbEntity
  8
bold
100
AcDbLine
 10
-39.99999999999999
 20
-97.0
 30
0.0
 11
-40.0
 21
-83.99999999999999
 31
0.0
  0
LINE
  5
1C5
330
190
100
AcDbEntity
  8
bold
100
AcDbLine
 10
-65.99999999999999
 20
-97.0
 30
0.0
 11
-39.99999999999999
 21
-97.0
 31
0.0
  0
LINE
  5
1C6
330
190
100
AcDbEntity
  8
bold
100
AcDbLine
 10
-47.00000000000001
 20
77.00000000000001
 30
0.0
 11
-40.00000000000001
 21
84.0
 31
0.0
  0
LINE
  5
1C7
330
190
100
AcDbEntity
  8
bold
100
AcDbLine
 10
-66.0
 20
-33.5
 30
0.0
 11
-64.0
 21
-33.5
 31
0.0
  0
LINE
  5
1C8
330
190
100
AcDbEntity
  8
light
100
AcDbLine
 10
-65.99999999999999
 20
-87.0
 30
0.0
 11
-39.99999999999999
 21
-87.0
 31
0.0
  0
LINE
  5
1C9
330
190
100
AcDbEntity
  8
bold
100
AcDbLine
 10
-40.0
 20
-83.99999999999999
 30
0.0
 11
-46.99999999999999
 21
-76.99999999999999
 31
0.0
  0
LINE
  5
1CA
330
190
100
AcDbEntity
  8
bold
100
AcDbLine
 10
-46.99999999999999
 20
-76.99999999999999
 30
0.0
 11
-47.99999999999999
 21
-76.99999999999999
 31
0.0
  0
LINE
  5
1CB
330
190
100
AcDbEntity
  8
bold
100
AcDbLine
 10
-47.99999999999999
 20
-76.99999999999999
 30
0.0
 11
-48.0
 21
77.00000000000001
 31
0.0
  0
LINE
  5
1CC
330
190
100
AcDbEntity
  8
bold
100
AcDbLine
 10
-48.0
 20
77.00000000000001
 30
0.0
 11
-47.00000000000001
 21
77.00000000000001
 31
0.0
  0
LINE
  5
1CD
330
190
100
AcDbEntity
  8
bold
100
AcDbLine
 10
-40.00000000000001
 20
84.0
 30
0.0
 11
-40.0
 21
97.0
 31
0.0
  0
LINE
  5
1CE
330
190
100
AcDbEntity
  8
bold
100
AcDbLine
 10
-64.0
 20
7.500000000000007
 30
0.0
 11
-66.0
 21
7.500000000000007
 31
0.0
  0
LINE
  5
1CF
330
190
100
AcDbEntity
  8
bold
100
AcDbLine
 10
-66.0
 20
97.0
 30
0.0
 11
-40.0
 21
97.0
 31
0.0
  0
LINE
  5
1D0
330
190
100
AcDbEntity
  8
light
100
AcDbLine
 10
-66.0
 20
87.00000000000001
 30
0.0
 11
-40.0
 21
87.00000000000001
 31
0.0
  0
ENDBLK
  5
193
330
190
100
AcDbEntity
  8
0
100
AcDbBlockEnd
  0
BLOCK
  5
1D5
330
1D4
100
AcDbEntity
  8
0
100
AcDbBlockBegin
  2
*D5
 70
     1
 10
0.0
 20
0.0
 30
0.0
  3
*D5
  1

  0
LINE
  5
1D7
330
1D4
100
AcDbEntity
  8
dimension
 62
     0
370
    -2
100
AcDbLine
 10
-40.0
 20
97.0
 30
0.0
 11
-40.0
 21
160.5
 31
0.0
  0
LINE
  5
1D8
330
1D4
100
AcDbEntity
  8
dimension
 62
     0
370
    -2
100
AcDbLine
 10
-66.0
 20
102.0
 30
0.0
 11
-66.0
 21
160.5
 31
0.0
  0
LINE
  5
1D9
330
1D4
100
AcDbEntity
  8
dimension
 62
     0
370
    -2
100
AcDbLine
 10
-40.0
 20
160.5
 30
0.0
 11
5.214285714285712
 21
160.5
 31
0.0
  0
LINE
  5
1DA
330
1D4
100
AcDbEntity
  8
dimension
 62
     0
370
    -2
100
AcDbLine
 10
-49.0
 20
160.5
 30
0.0
 11
-57.0
 21
160.5
 31
0.0
  0
SOLID
  5
1DB
330
1D4
100
AcDbEntity
  8
dimension
 62
     0
100
AcDbTrace
 10
-49.0
 20
159.0
 30
0.0
 11
-49.0
 21
162.0
 31
0.0
 12
-40.0
 22
160.5
 32
0.0
 13
-40.0
 23
160.5
 33
0.0
  0
SOLID
  5
1DC
330
1D4
100
AcDbEntity
  8
dimension
 62
     0
100
AcDbTrace
 10
-57.0
 20
162.0
 30
0.0
 11
-57.0
 21
159.0
 31
0.0
 12
-66.0
 22
160.5
 32
0.0
 13
-66.0
 23
160.5
 33
0.0
  0
MTEXT
  5
1DD
330
1D4
100
AcDbEntity
  8
dimension
 62
     0
100
AcDbMText
 10
-11.2
 20
167.7
 30
0.0
 40
9.0
 41
0.0
 46
0.0
 71
     5
 72
     1
  1
27.5
 73
     1
 44
1.0
  0
POINT
  5
1DE
330
1D4
100
AcDbEntity
  8
Defpoints
 62
     0
100
AcDbPoint
 10
-40.0
 20
97.0
 30
0.0
  0
POINT
  5
1DF
330
1D4
100
AcDbEntity
  8
Defpoints
 62
     0
100
AcDbPoint
 10
-66.0
 20
102.0
 30
0.0
  0
POINT
  5
1E0
330
1D4
100
AcDbEntity
  8
Defpoints
 62
     0
100
AcDbPoint
 10
-66.0
 20
160.5
 30
0.0
  0
ENDBLK
  5
1D6
330
1D4
100
AcDbEntity
  8
0
100
AcDbBlockEnd
  0
BLOCK
  5
1E3
330
1E2
100
AcDbEntity
  8
0
100
AcDbBlockBegin
  2
*D6
 70
     1
 10
0.0
 20
0.0
 30
0.0
  3
*D6
  1

  0
LINE
  5
1E5
330
1E2
100
AcDbEntity
  8
dimension
 62
     0
370
    -2
100
AcDbLine
 10
-48.0
 20
102.0
 30
0.0
 11
-48.0
 21
133.5
 31
0.0
  0
LINE
  5
1E6
330
1E2
100
AcDbEntity
  8
dimension
 62
     0
370
    -2
100
AcDbLine
 10
-66.0
 20
102.0
 30
0.0
 11
-66.0
 21
133.5
 31
0.0
  0
LINE
  5
1E7
330
1E2
100
AcDbEntity
  8
dimension
 62
     0
370
    -2
100
AcDbLine
 10
-48.0
 20
133.5
 30
0.0
 11
1.542857142857143
 21
133.5
 31
0.0
  0
LINE
  5
1E8
330
1E2
100
AcDbEntity
  8
dimension
 62
     0
370
    -2
100
AcDbLine
 10
-48.0
 20
133.5
 30
0.0
 11
-66.0
 21
133.5
 31
0.0
  0
LINE
  5
1E9
330
1E2
100
AcDbEntity
  8
dimension
 62
     0
370
    -2
100
AcDbLine
 10
-39.0
 20
133.5
 30
0.0
 11
-30.0
 21
133.5
 31
0.0
  0
LINE
  5
1EA
330
1E2
100
AcDbEntity
  8
dimension
 62
     0
370
    -2
100
AcDbLine
 10
-75.0
 20
133.5
 30
0.0
 11
-84.0
 21
133.5
 31
0.0
  0
SOLID
  5
1EB
330
1E2
100
AcDbEntity
  8
dimension
 62
     0
100
AcDbTrace
 10
-39.0
 20
135.0
 30
0.0
 11
-39.0
 21
132.0
 31
0.0
 12
-48.0
 22
133.5
 32
0.0
 13
-48.0
 23
133.5
 33
0.0
  0
SOLID
  5
1EC
330
1E2
100
AcDbEntity
  8
dimension
 62
     0
100
AcDbTrace
 10
-75.0
 20
132.0
 30
0.0
 11
-75.0
 21
135.0
 31
0.0
 12
-66.0
 22
133.5
 32
0.0
 13
-66.0
 23
133.5
 33
0.0
  0
MTEXT
  5
1ED
330
1E2
100
AcDbEntity
  8
dimension
 62
     0
100
AcDbMText
 10
-14.22857142857143
 20
140.7
 30
0.0
 40
9.0
 41
0.0
 46
0.0
 71
     5
 72
     1
  1
17.5
 73
     1
 44
1.0
  0
POINT
  5
1EE
330
1E2
100
AcDbEntity
  8
Defpoints
 62
     0
100
AcDbPoint
 10
-48.0
 20
102.0
 30
0.0
  0
POINT
  5
1EF
330
1E2
100
AcDbEntity
  8
Defpoints
 62
     0
100
AcDbPoint
 10
-66.0
 20
102.0
 30
0.0
  0
POINT
  5
1F0
330
1E2
100
AcDbEntity
  8
Defpoints
 62
     0
100
AcDbPoint
 10
-66.0
 20
133.5
 30
0.0
  0
ENDBLK
  5
1E4
330
1E2
100
AcDbEntity
  8
0
100
AcDbBlockEnd
  0
BLOCK
  5
1F3
330
1F2
100
AcDbEntity
  8
0
100
AcDbBlockBegin
  2
*D7
 70
     1
 10
0.0
 20
0.0
 30
0.0
  3
*D7
  1

  0
LINE
  5
1F5
330
1F2
100
AcDbEntity
  8
dimension
 62
     0
370
    -2
100
AcDbLine
 10
-66.0
 20
22.0
 30
0.0
 11
-66.0
 21
26.5
 31
0.0
  0
LINE
  5
1F6
330
1F2
100
AcDbEntity
  8
dimension
 62
     0
370
    -2
100
AcDbLine
 10
-59.0
 20
7.5
 30
0.0
 11
-59.0
 21
26.5
 31
0.0
  0
LINE
  5
1F7
330
1F2
100
AcDbEntity
  8
dimension
 62
     0
370
    -2
100
AcDbLine
 10
-59.0
 20
26.5
 30
0.0
 11
-29.59999999999999
 21
26.5
 31
0.0
  0
LINE
  5
1F8
330
1F2
100
AcDbEntity
  8
dimension
 62
     0
370
    -2
100
AcDbLine
 10
-66.0
 20
26.5
 30
0.0
 11
-59.0
 21
26.5
 31
0.0
  0
LINE
  5
1F9
330
1F2
100
AcDbEntity
  8
dimension
 62
     0
370
    -2
100
AcDbLine
 10
-75.0
 20
26.5
 30
0.0
 11
-84.0
 21
26.5
 31
0.0
  0
LINE
  5
1FA
330
1F2
100
AcDbEntity
  8
dimension
 62
     0
370
    -2
100
AcDbLine
 10
-50.0
 20
26.5
 30
0.0
 11
-41.0
 21
26.5
 31
0.0
  0
SOLID
  5
1FB
330
1F2
100
AcDbEntity
  8
dimension
 62
     0
100
AcDbTrace
 10
-75.0
 20
25.0
 30
0.0
 11
-75.0
 21
28.0
 31
0.0
 12
-66.0
 22
26.5
 32
0.0
 13
-66.0
 23
26.5
 33
0.0
  0
SOLID
  5
1FC
330
1F2
100
AcDbEntity
  8
dimension
 62
     0
100
AcDbTrace
 10
-50.0
 20
28.0
 30
0.0
 11
-50.0
 21
25.0
 31
0.0
 12
-59.0
 22
26.5
 32
0.0
 13
-59.0
 23
26.5
 33
0.0
  0
MTEXT
  5
1FD
330
1F2
100
AcDbEntity
  8
dimension
 62
     0
100
AcDbMText
 10
-35.3
 20
33.7
 30
0.0
 40
9.0
 41
0.0
 46
0.0
 71
     5
 72
     1
  1
7
 73
     1
 44
1.0
  0
POINT
  5
1FE
330
1F2
100
AcDbEntity
  8
Defpoints
 62
     0
100
AcDbPoint
 10
-66.0
 20
22.0
 30
0.0
  0
POINT
  5
1FF
330
1F2
100
AcDbEntity
  8
Defpoints
 62
     0
100
AcDbPoint
 10
-59.0
 20
7.5
 30
0.0
  0
POINT
  5
200
330
1F2
100
AcDbEntity
  8
Defpoints
 62
     0
100
AcDbPoint
 10
-59.0
 20
26.5
 30
0.0
  0
ENDBLK
  5
1F4
330
1F2
100
AcDbEntity
  8
0
100
AcDbBlockEnd
  0
ENDSEC
  0
SECTION
  2
ENTITIES
  0
ATTDEF
  5
5F
330
1F
100
AcDbEntity
  8
attrib
100
AcDbText
 10
70.99999999999999
 20
102.0
 30
0.0
 40
0.5
  1
01136
100
AcDbAttributeDefinition
  3

  2
NB
 70
     8
280
     0
  0
ATTDEF
  5
60
330
1F
100
AcDbEntity
  8
attrib
100
AcDbText
 10
70.99999999999999
 20
101.5
 30
0.0
 40
0.5
  1
Covers and compartments
100
AcDbAttributeDefinition
  3

  2
NN
 70
     8
280
     0
  0
ATTDEF
  5
61
330
1F
100
AcDbEntity
  8
attrib
100
AcDbText
 10
70.99999999999999
 20
101.0
 30
0.0
 40
0.5
  1

100
AcDbAttributeDefinition
  3

  2
NT
 70
     8
280
     0
  0
ATTDEF
  5
62
330
1F
100
AcDbEntity
  8
attrib
100
AcDbText
 10
70.99999999999999
 20
100.5
 30
0.0
 40
0.5
  1
$ARTNR.
100
AcDbAttributeDefinition
  3

  2
NBSYN
 70
     8
280
     0
  0
ATTDEF
  5
63
330
1F
100
AcDbEntity
  8
attrib
100
AcDbText
 10
70.99999999999999
 20
100.0
 30
0.0
 40
0.5
  1
01136000
100
AcDbAttributeDefinition
  3

  2
LINA
 70
     8
280
     0
  0
ATTDEF
  5
64
330
1F
100
AcDbEntity
  8
attrib
100
AcDbText
 10
70.99999999999999
 20
99.50000000000001
 30
0.0
 40
0.5
  1
Wöhner
100
AcDbAttributeDefinition
  3

  2
CATALOG
 70
     8
280
     0
  0
ATTDEF
  5
65
330
1F
100
AcDbEntity
  8
attrib
100
AcDbText
 10
70.99999999999999
 20
99.00000000000001
 30
0.0
 40
0.5
  1
01136
100
AcDbAttributeDefinition
  3

  2
ARTNR
 70
     8
280
     0
  0
ATTDEF
  5
66
330
1F
100
AcDbEntity
  8
attrib
100
AcDbText
 10
70.99999999999999
 20
98.50000000000001
 30
0.0
 40
0.5
  1
TC60-L
100
AcDbAttributeDefinition
  3

  2
TYPE
 70
     8
280
     0
  0
ATTDEF
  5
67
330
1F
100
AcDbEntity
  8
attrib
100
AcDbText
 10
70.99999999999999
 20
98.00000000000001
 30
0.0
 40
0.5
  1
1
100
AcDbAttributeDefinition
  3

  2
QNT
 70
     8
280
     0
  0
ATTDEF
  5
68
330
1F
100
AcDbEntity
  8
attrib
100
AcDbText
 10
70.99999999999999
 20
97.50000000000001
 30
0.0
 40
0.5
  1
28
100
AcDbAttributeDefinition
  3

  2
W
 70
     8
280
     0
  0
ATTDEF
  5
69
330
1F
100
AcDbEntity
  8
attrib
100
AcDbText
 10
70.99999999999999
 20
97.00000000000001
 30
0.0
 40
0.5
  1
204
100
AcDbAttributeDefinition
  3

  2
H
 70
     8
280
     0
  0
ATTDEF
  5
6A
330
1F
100
AcDbEntity
  8
attrib
100
AcDbText
 10
70.99999999999999
 20
96.50000000000001
 30
0.0
 40
0.5
  1
92
100
AcDbAttributeDefinition
  3

  2
D
 70
     8
280
     0
  0
ATTDEF
  5
6B
330
1F
100
AcDbEntity
  8
attrib
100
AcDbText
 10
70.99999999999999
 20
96.00000000000001
 30
0.0
 40
0.5
  1
Product link
100
AcDbAttributeDefinition
  3

  2
LINK
 70
     8
280
     0
  0
ATTDEF
  5
6C
330
1F
100
AcDbEntity
  8
attrib
100
AcDbText
 10
70.99999999999999
 20
95.50000000000001
 30
0.0
 40
0.5
  1
woehner
100
AcDbAttributeDefinition
  3

  2
COMPANY
 70
     8
280
     0
  0
ATTDEF
  5
6D
330
1F
100
AcDbEntity
  8
attrib
100
AcDbText
 10
70.99999999999999
 20
95.00000000000001
 30
0.0
 40
0.5
  1
{$CADENAS_DATA/23d-libs/woehner/sys_60classic/busbar_supp_and_covers/covers_and_compartments_asmtab.prj},204 {VTYP=3D},{STYP=ASSTAB},{NB=01136},{LINA=01136000},{NN=Abdeckungen und Abschottungen},{DATE=26.01.2024 06:39:57},{GEOMDATE=29.09.2023 13:50:48},{V
100
AcDbAttributeDefinition
  3

  2
PSOL_0
 70
     9
280
     0
  0
ATTDEF
  5
6E
330
1F
100
AcDbEntity
  8
attrib
100
AcDbText
 10
70.99999999999999
 20
94.50000000000001
 30
0.0
 40
0.5
  1
ERSION=v230929135048},{LINEID=460},{WBVAR=},{WBNUMERIC=}  {NB=01136},{LINA=01136000},{KT=DUMMY},{SYSTEM303POLE=0},{LINKVIS=1},{BOM=01136000},{ARTNR=01136},{BUSB=12, 15, 20, 25, 30 x 5, 10 and section busbars},{POF=},{TYPE=TC60-L},{QNT=1},{W=28},{H=204},{D
100
AcDbAttributeDefinition
  3

  2
PSOL_1
 70
     9
280
     0
  0
ATTDEF
  5
6F
330
1F
100
AcDbEntity
  8
attrib
100
AcDbText
 10
70.99999999999999
 20
94.00000000000001
 30
0.0
 40
0.5
  1
=92},{CONCA=},{SCR=},{IPR=},{IPRF=},{SEARCH=},{EDZ=},{IODD=},{DIST=9.0},{LINK=Product link},{LINKX=https://www.woehner.de/de/produkte/01136.html},{PPATH=parts/covers_and_compartments_asmtpl.prj},{SHORTEN=0},{WSHORTEN=28},{SHORTENDIM=0},{AAO677=Wöhner},{MA
100
AcDbAttributeDefinition
  3

  2
PSOL_2
 70
     9
280
     0
  0
ATTDEF
  5
70
330
1F
100
AcDbEntity
  8
attrib
100
AcDbText
 10
70.99999999999999
 20
93.50000000000001
 30
0.0
 40
0.5
  1
NUFACTURER_URL=www.woehner.de},{AAQ326=www.woehner.de/de/produkte/01136.html },{AAO676=01136},{TC=TC60-L},{EAN=4021267011369},{CTN=85472000},{MASS=0,180},{DESCRIPTION_LONG=set of holders for cover sections, for 3-pole busbar systems, set consisting of lef
100
AcDbAttributeDefinition
  3

  2
PSOL_3
 70
     9
280
     0
  0
ATTDEF
  5
71
330
1F
100
AcDbEntity
  8
attrib
100
AcDbText
 10
70.99999999999999
 20
93.00000000000001
 30
0.0
 40
0.5
  1
t and right holder, for covers 01554, 01555 and 01417},{DESCRIPTION_SHORT=set of holders for cover sections}
100
AcDbAttributeDefinition
  3

  2
PSOL_4
 70
     9
280
     0
  0
INSERT
  5
73
330
1F
100
AcDbEntity
  8
0
100
AcDbBlockReference
  2
1_01137000_lever_right_0_in_01136_0
 10
0.0
 20
0.0
 30
0.0
  0
INSERT
  5
E3
330
1F
100
AcDbEntity
  8
0
100
AcDbBlockReference
  2
2_01136b2_0_in_01136_0
 10
0.0
 20
0.0
 30
0.0
  0
INSERT
  5
124
330
1F
100
AcDbEntity
  8
0
100
AcDbBlockReference
  2
3_01137000_lever_left_0_in_01136_0
 10
0.0
 20
0.0
 30
0.0
  0
INSERT
  5
191
330
1F
100
AcDbEntity
  8
0
100
AcDbBlockReference
  2
4_0113630b_0_in_01136_0
 10
0.0
 20
0.0
 30
0.0
  0
DIMENSION
  5
1D2
330
1F
100
AcDbEntity
  8
dimension
100
AcDbDimension
280
     0
  2
*D5
 10
-66.0
 20
160.5
 30
0.0
 11
-11.2
 21
160.5
 31
0.0
 70
   160
  1
27.5
 71
     5
 42
26.0
 73
     0
 74
     0
 75
     0
  3
ISO-25
100
AcDbAlignedDimension
 13
-40.0
 23
97.0
 33
0.0
 14
-66.0
 24
102.0
 34
0.0
100
AcDbRotatedDimension
1001
ACAD
1000
DSTYLE
1002
{
1070
   147
1040
2.7
1070
    42
1040
0.0
1070
    44
1040
0.0
1070
    41
1040
9.0
1070
   140
1040
9.0
1002
}
  0
DIMENSION
  5
1E1
330
1F
100
AcDbEntity
  8
dimension
100
AcDbDimension
280
     0
  2
*D6
 10
-66.0
 20
133.5
 30
0.0
 11
-14.22857142857143
 21
133.5
 31
0.0
 70
   160
  1
17.5
 71
     5
 42
18.0
 73
     0
 74
     0
 75
     0
  3
ISO-25
100
AcDbAlignedDimension
 13
-48.0
 23
102.0
 33
0.0
 14
-66.0
 24
102.0
 34
0.0
100
AcDbRotatedDimension
1001
ACAD
1000
DSTYLE
1002
{
1070
   147
1040
2.7
1070
    42
1040
0.0
1070
    44
1040
0.0
1070
    41
1040
9.0
1070
   140
1040
9.0
1002
}
  0
DIMENSION
  5
1F1
330
1F
100
AcDbEntity
  8
dimension
100
AcDbDimension
280
     0
  2
*D7
 10
-59.0
 20
26.5
 30
0.0
 11
-35.3
 21
26.5
 31
0.0
 70
   160
  1
7
 71
     5
 42
7.0
 73
     0
 74
     0
 75
     0
  3
ISO-25
100
AcDbAlignedDimension
 13
-66.0
 23
22.0
 33
0.0
 14
-59.0
 24
7.5
 34
0.0
100
AcDbRotatedDimension
1001
ACAD
1000
DSTYLE
1002
{
1070
   147
1040
2.7
1070
    42
1040
0.0
1070
    44
1040
0.0
1070
    41
1040
9.0
1070
   140
1040
9.0
1002
}
  0
POINT
  5
202
330
1F
100
AcDbEntity
  8
connection
100
AcDbPoint
 10
63.99999999999998
 20
-21.59999999999999
 30
0.0
  0
POINT
  5
203
330
1F
100
AcDbEntity
  8
connection
100
AcDbPoint
 10
-0.0000000000000142
 20
0.0
 30
0.0
  0
POINT
  5
204
330
1F
100
AcDbEntity
  8
connection
100
AcDbPoint
 10
-63.99999999999999
 20
-21.59999999999999
 30
0.0
  0
POINT
  5
205
330
1F
100
AcDbEntity
  8
connection
100
AcDbPoint
 10
-63.99999999999999
 20
-21.59999999999999
 30
0.0
  0
POINT
  5
206
330
1F
100
AcDbEntity
  8
connection
100
AcDbPoint
 10
0.0
 20
0.0
 30
0.0
  0
POINT
  5
207
330
1F
100
AcDbEntity
  8
connection
100
AcDbPoint
 10
-66.0
 20
0.0
 30
0.0
  0
POINT
  5
208
330
1F
100
AcDbEntity
  8
connection
100
AcDbPoint
 10
-66.0
 20
102.0
 30
0.0
  0
ENDSEC
  0
SECTION
  2
OBJECTS
  0
DICTIONARY
  5
C
330
0
100
AcDbDictionary
281
     1
  3
ACAD_DETAILVIEWSTYLE
350
210
  3
ACAD_GROUP
350
D
  3
ACAD_LAYOUT
350
1A
  3
ACAD_MATERIAL
350
43
  3
ACAD_MLEADERSTYLE
350
5B
  3
ACAD_MLINESTYLE
350
17
  3
ACAD_PLOTSETTINGS
350
19
  3
ACAD_PLOTSTYLENAME
350
E
  3
ACAD_SCALELIST
350
47
  3
ACAD_SECTIONVIEWSTYLE
350
211
  3
ACAD_TABLESTYLE
350
59
  3
ACAD_VISUALSTYLE
350
2A
  3
ACDB_RECOMPOSE_DATA
350
20D
  3
AcDbVariableDictionary
350
209
  0
SUN
  5
5D
330
29
100
AcDbSun
 90
        1
290
     0
 63
     7
421
 16777215
 40
1.0
291
     1
 91
  2455826
 92
 54000000
292
     0
 70
     2
 71
   256
280
     1
  0
DICTIONARY
  5
210
102
{ACAD_REACTORS
330
C
102
}
330
C
100
AcDbDictionary
281
     1
  0
DICTIONARY
  5
D
102
{ACAD_REACTORS
330
C
102
}
330
C
100
AcDbDictionary
281
     1
  0
DICTIONARY
  5
1A
102
{ACAD_REACTORS
330
C
102
}
330
C
100
AcDbDictionary
281
     1
  3
Layout1
350
1E
  3
Layout2
350
26
  3
Model
350
22
  0
DICTIONARY
  5
43
102
{ACAD_REACTORS
330
C
102
}
330
C
100
AcDbDictionary
281
     1
  3
ByBlock
350
45
  3
ByLayer
350
44
  3
Global
350
46
  0
DICTIONARY
  5
5B
102
{ACAD_REACTORS
330
C
102
}
330
C
100
AcDbDictionary
281
     1
  3
Standard
350
5C
  0
DICTIONARY
  5
17
102
{ACAD_REACTORS
330
C
102
}
330
C
100
AcDbDictionary
281
     1
  3
Standard
350
18
  0
DICTIONARY
  5
19
102
{ACAD_REACTORS
330
C
102
}
330
C
100
AcDbDictionary
281
     1
  0
ACDBDICTIONARYWDFLT
  5
E
102
{ACAD_REACTORS
330
C
102
}
330
C
100
AcDbDictionary
281
     1
  3
Normal
350
F
100
AcDbDictionaryWithDefault
340
F
  0
DICTIONARY
  5
47
102
{ACAD_REACTORS
330
C
102
}
330
C
100
AcDbDictionary
281
     1
  3
A0
350
48
  3
A1
350
49
  3
A2
350
4A
  3
A3
350
4B
  3
A4
350
4C
  3
A5
350
4D
  3
A6
350
4E
  3
A7
350
4F
  3
A8
350
50
  3
A9
350
51
  3
B0
350
52
  3
B1
350
53
  3
B2
350
54
  3
B3
350
55
  3
B4
350
56
  3
B5
350
57
  3
B6
350
58
  0
DICTIONARY
  5
211
102
{ACAD_REACTORS
330
C
102
}
330
C
100
AcDbDictionary
281
     1
  0
DICTIONARY
  5
59
102
{ACAD_REACTORS
330
C
102
}
330
C
100
AcDbDictionary
281
     1
  3
Standard
350
5A
  0
DICTIONARY
  5
2A
102
{ACAD_REACTORS
330
C
102
}
330
C
100
AcDbDictionary
281
     1
  3
2dWireframe
350
2F
  3
Basic
350
32
  3
Brighten
350
36
  3
ColorChange
350
3A
  3
Conceptual
350
34
  3
Dim
350
35
  3
EdgeColorOff
350
3D
  3
Facepattern
350
39
  3
Flat
350
2B
  3
FlatWithEdges
350
2C
  3
Gouraud
350
2D
  3
GouraudWithEdges
350
2E
  3
Hidden
350
31
  3
JitterOff
350
3B
  3
Linepattern
350
38
  3
OverhangOff
350
3C
  3
Realistic
350
33
  3
Shaded
350
42
  3
Shaded with edges
350
41
  3
Shades of Gray
350
3E
  3
Sketchy
350
3F
  3
Thicken
350
37
  3
Wireframe
350
30
  3
X-Ray
350
40
  0
XRECORD
  5
20D
102
{ACAD_REACTORS
330
C
102
}
330
C
100
AcDbXrecord
280
     1
 90
        1
330
5A
  0
DICTIONARY
  5
209
102
{ACAD_REACTORS
330
C
102
}
330
C
100
AcDbDictionary
281
     1
  3
CANNOSCALE
350
20A
  3
CENTEREXE
350
212
  3
CENTERLTYPEFILE
350
213
  3
CMLEADERSTYLE
350
20F
  3
CTABLESTYLE
350
20E
  0
LAYOUT
  5
1E
102
{ACAD_REACTORS
330
1A
102
}
330
1A
100
AcDbPlotSettings
  1

  2
none_device
  4

  6

 40
0.0
 41
0.0
 42
0.0
 43
0.0
 44
0.0
 45
0.0
 46
0.0
 47
0.0
 48
0.0
 49
0.0
140
0.0
141
0.0
142
1.0
143
1.0
 70
   688
 72
     1
 73
     0
 74
     5
  7

 75
    16
 76
     0
 77
     2
 78
   300
147
1.0
148
0.0
149
0.0
100
AcDbLayout
  1
Layout1
 70
     1
 71
     1
 10
0.0
 20
0.0
 11
420.0
 21
297.0
 12
0.0
 22
0.0
 32
0.0
 14
1.000000000000000E+20
 24
1.000000000000000E+20
 34
1.000000000000000E+20
 15
-1.000000000000000E+20
 25
-1.000000000000000E+20
 35
-1.000000000000000E+20
146
0.0
 13
0.0
 23
0.0
 33
0.0
 16
1.0
 26
0.0
 36
0.0
 17
0.0
 27
1.0
 37
0.0
 76
     0
330
1B
  0
LAYOUT
  5
26
102
{ACAD_REACTORS
330
1A
102
}
330
1A
100
AcDbPlotSettings
  1

  2
none_device
  4

  6

 40
0.0
 41
0.0
 42
0.0
 43
0.0
 44
0.0
 45
0.0
 46
0.0
 47
0.0
 48
0.0
 49
0.0
140
0.0
141
0.0
142
1.0
143
1.0
 70
   688
 72
     1
 73
     0
 74
     5
  7

 75
    16
 76
     0
 77
     2
 78
   300
147
1.0
148
0.0
149
0.0
100
AcDbLayout
  1
Layout2
 70
     1
 71
     2
 10
0.0
 20
0.0
 11
0.0
 21
0.0
 12
0.0
 22
0.0
 32
0.0
 14
0.0
 24
0.0
 34
0.0
 15
0.0
 25
0.0
 35
0.0
146
0.0
 13
0.0
 23
0.0
 33
0.0
 16
1.0
 26
0.0
 36
0.0
 17
0.0
 27
1.0
 37
0.0
 76
     0
330
23
  0
LAYOUT
  5
22
102
{ACAD_REACTORS
330
1A
102
}
330
1A
100
AcDbPlotSettings
  1

  2
none_device
  4
Letter_(8.50_x_11.00_Inches)
  6

 40
6.35
 41
6.35
 42
6.35000508
 43
6.35000508
 44
215.9
 45
279.4
 46
0.0
 47
0.0
 48
0.0
 49
0.0
140
0.0
141
0.0
142
1.0
143
1.0
 70
  1712
 72
     1
 73
     0
 74
     0
  7

 75
     0
 76
     0
 77
     2
 78
   300
147
1.0
148
0.0
149
0.0
100
AcDbLayout
  1
Model
 70
     1
 71
     0
 10
0.0
 20
0.0
 11
420.0
 21
297.0
 12
0.0
 22
0.0
 32
0.0
 14
-84.0
 24
-102.0
 34
0.0
 15
74.45238095238093
 25
172.2
 35
0.0
146
0.0
 13
0.0
 23
0.0
 33
0.0
 16
1.0
 26
0.0
 36
0.0
 17
0.0
 27
1.0
 37
0.0
 76
     0
330
1F
331
29
  0
MATERIAL
  5
45
102
{ACAD_REACTORS
330
43
102
}
330
43
100
AcDbMaterial
  1
ByBlock
 72
     1
 94
      127
  0
MATERIAL
  5
44
102
{ACAD_REACTORS
330
43
102
}
330
43
100
AcDbMaterial
  1
ByLayer
 72
     1
 94
      127
  0
MATERIAL
  5
46
102
{ACAD_REACTORS
330
43
102
}
330
43
100
AcDbMaterial
  1
Global
 72
     1
 94
      127
  0
MLEADERSTYLE
  5
5C
102
{ACAD_REACTORS
330
5B
102
}
330
5B
100
AcDbMLeaderStyle
179
     2
170
     2
171
     1
172
     0
 90
        2
 40
0.0
 41
0.0
173
     1
 91
-1056964608
340
14
 92
       -2
290
     1
 42
2.0
291
     1
 43
8.0
  3
Standard
341
0
 44
4.0
300

342
11
174
     1
178
     6
175
     1
176
     0
 93
-1056964608
 45
4.0
292
     0
297
     0
 46
4.0
343
0
 94
-1056964608
 47
1.0
 49
1.0
140
1.0
293
     1
141
0.0
294
     1
177
     0
142
1.0
295
     0
296
     0
143
3.75
271
     0
272
     9
273
     9
298
     0
  0
MLINESTYLE
  5
18
102
{ACAD_REACTORS
330
17
102
}
330
17
100
AcDbMlineStyle
  2
Standard
 70
     0
  3

 62
   256
 51
90.0
 52
90.0
 71
     2
 49
0.5
 62
   256
  6
BYLAYER
 49
-0.5
 62
   256
  6
BYLAYER
  0
ACDBPLACEHOLDER
  5
F
102
{ACAD_REACTORS
330
E
102
}
330
E
  0
SCALE
  5
48
102
{ACAD_REACTORS
330
47
102
}
330
47
100
AcDbScale
 70
     0
300
1:1
140
1.0
141
1.0
290
     1
  0
SCALE
  5
49
102
{ACAD_REACTORS
330
47
102
}
330
47
100
AcDbScale
 70
     0
300
1:2
140
1.0
141
2.0
290
     0
  0
SCALE
  5
4A
102
{ACAD_REACTORS
330
47
102
}
330
47
100
AcDbScale
 70
     0
300
1:4
140
1.0
141
4.0
290
     0
  0
SCALE
  5
4B
102
{ACAD_REACTORS
330
47
102
}
330
47
100
AcDbScale
 70
     0
300
1:5
140
1.0
141
5.0
290
     0
  0
SCALE
  5
4C
102
{ACAD_REACTORS
330
47
102
}
330
47
100
AcDbScale
 70
     0
300
1:8
140
1.0
141
8.0
290
     0
  0
SCALE
  5
4D
102
{ACAD_REACTORS
330
47
102
}
330
47
100
AcDbScale
 70
     0
300
1:10
140
1.0
141
10.0
290
     0
  0
SCALE
  5
4E
102
{ACAD_REACTORS
330
47
102
}
330
47
100
AcDbScale
 70
     0
300
1:16
140
1.0
141
16.0
290
     0
  0
SCALE
  5
4F
102
{ACAD_REACTORS
330
47
102
}
330
47
100
AcDbScale
 70
     0
300
1:20
140
1.0
141
20.0
290
     0
  0
SCALE
  5
50
102
{ACAD_REACTORS
330
47
102
}
330
47
100
AcDbScale
 70
     0
300
1:30
140
1.0
141
30.0
290
     0
  0
SCALE
  5
51
102
{ACAD_REACTORS
330
47
102
}
330
47
100
AcDbScale
 70
     0
300
1:40
140
1.0
141
40.0
290
     0
  0
SCALE
  5
52
102
{ACAD_REACTORS
330
47
102
}
330
47
100
AcDbScale
 70
     0
300
1:50
140
1.0
141
50.0
290
     0
  0
SCALE
  5
53
102
{ACAD_REACTORS
330
47
102
}
330
47
100
AcDbScale
 70
     0
300
1:100
140
1.0
141
100.0
290
     0
  0
SCALE
  5
54
102
{ACAD_REACTORS
330
47
102
}
330
47
100
AcDbScale
 70
     0
300
2:1
140
2.0
141
1.0
290
     0
  0
SCALE
  5
55
102
{ACAD_REACTORS
330
47
102
}
330
47
100
AcDbScale
 70
     0
300
4:1
140
4.0
141
1.0
290
     0
  0
SCALE
  5
56
102
{ACAD_REACTORS
330
47
102
}
330
47
100
AcDbScale
 70
     0
300
8:1
140
8.0
141
1.0
290
     0
  0
SCALE
  5
57
102
{ACAD_REACTORS
330
47
102
}
330
47
100
AcDbScale
 70
     0
300
10:1
140
10.0
141
1.0
290
     0
  0
SCALE
  5
58
102
{ACAD_REACTORS
330
47
102
}
330
47
100
AcDbScale
 70
     0
300
100:1
140
100.0
141
1.0
290
     0
  0
TABLESTYLE
  5
5A
102
{ACAD_REACTORS
330
59
102
}
102
{ACAD_XDICTIONARY
360
20B
102
}
330
59
100
AcDbTableStyle
  3
Standard
 70
     0
 71
     0
 40
0.06
 41
0.06
280
     0
281
     0
  7
Standard
140
4.5
170
     2
 62
     0
 63
   257
283
     0
 90
        4
 91
        0
  1

274
    -2
284
     1
 64
     0
275
    -2
285
     1
 65
     0
276
    -2
286
     1
 66
     0
277
    -2
287
     1
 67
     0
278
    -2
288
     1
 68
     0
279
    -2
289
     1
 69
     0
  7
Standard
140
6.0
170
     5
 62
     0
 63
   257
283
     0
 90
        4
 91
        0
  1

274
    -2
284
     1
 64
     0
275
    -2
285
     1
 65
     0
276
    -2
286
     1
 66
     0
277
    -2
287
     1
 67
     0
278
    -2
288
     1
 68
     0
279
    -2
289
     1
 69
     0
  7
Standard
140
4.5
170
     5
 62
     0
 63
   257
283
     0
 90
        4
 91
        0
  1

274
    -2
284
     1
 64
     0
275
    -2
285
     1
 65
     0
276
    -2
286
     1
 66
     0
277
    -2
287
     1
 67
     0
278
    -2
288
     1
 68
     0
279
    -2
289
     1
 69
     0
  0
VISUALSTYLE
  5
2F
102
{ACAD_REACTORS
330
2A
102
}
330
2A
100
AcDbVisualStyle
  2
2dWireframe
 70
     4
177
     3
291
     0
 70
    58
 90
        0
176
     1
 90
        2
176
     1
 90
        0
176
     1
 90
        0
176
     1
 40
0.6
176
     1
 40
30.0
176
     1
 62
     7
420
 16777215
176
     1
 90
        1
176
     1
 90
        4
176
     1
 62
     7
176
     1
 62
   257
176
     1
 90
        1
176
     1
 90
        1
176
     1
 40
1.0
176
     1
 90
        0
176
     1
 62
   257
176
     1
 40
1.0
176
     1
 90
        1
176
     1
 90
        6
176
     1
 90
        2
176
     1
 62
     7
176
     1
 90
        5
176
     1
 90
        0
176
     1
 90
        0
176
     1
290
     0
176
     1
 90
        1
176
     1
 40
0.0
176
     1
 90
        0
176
     1
290
     1
176
     1
290
     1
176
     1
290
     0
176
     1
290
     0
176
     1
290
     0
176
     1
290
     0
176
     1
290
     0
176
     1
290
     0
176
     1
290
     0
176
     1
 90
       50
176
     1
 40
0.0
176
     1
 40
1.0
176
     1
 90
        0
176
     1
 62
    18
420
        0
176
     1
 90
       50
176
     1
 90
        3
176
     1
 62
     5
420
      255
176
     1
290
     0
176
     1
 90
       50
176
     1
 90
       50
176
     1
 90
       50
176
     1
290
     0
176
     1
 90
       50
176
     1
 62
   256
176
     0
 40
1.0
176
     0
 90
        2
176
     1
  1
strokes_ogs.tif
176
     1
290
     0
176
     1
 40
1.0
176
     1
 40
1.0
176
     1
  0
VISUALSTYLE
  5
32
102
{ACAD_REACTORS
330
2A
102
}
330
2A
100
AcDbVisualStyle
  2
Basic
 70
     7
177
     3
291
     1
 70
    58
 90
        1
176
     1
 90
        0
176
     1
 90
        1
176
     1
 90
        0
176
     1
 40
0.6
176
     1
 40
30.0
176
     1
 62
     7
420
 16777215
176
     1
 90
        0
176
     1
 90
        4
176
     1
 62
     7
176
     1
 62
   257
176
     1
 90
        1
176
     1
 90
        1
176
     1
 40
1.0
176
     1
 90
        8
176
     1
 62
     7
176
     1
 40
1.0
176
     1
 90
        1
176
     1
 90
        6
176
     1
 90
        2
176
     1
 62
     7
176
     1
 90
        5
176
     1
 90
        0
176
     1
 90
        0
176
     1
290
     0
176
     1
 90
        1
176
     1
 40
0.0
176
     1
 90
        0
176
     1
290
     0
176
     1
290
     1
176
     1
290
     1
176
     1
290
     0
176
     1
290
     0
176
     1
290
     0
176
     1
290
     0
176
     1
290
     0
176
     1
290
     0
176
     1
 90
       50
176
     1
 40
0.0
176
     1
 40
1.0
176
     1
 90
        0
176
     1
 62
    18
420
        0
176
     1
 90
       50
176
     1
 90
        3
176
     1
 62
     5
420
      255
176
     1
290
     0
176
     1
 90
       50
176
     1
 90
       50
176
     1
 90
       50
176
     1
290
     0
176
     1
 90
       50
176
     1
 62
   256
176
     0
 40
1.0
176
     0
 90
        2
176
     1
  1
strokes_ogs.tif
176
     1
290
     0
176
     1
 40
1.0
176
     1
 40
1.0
176
     1
  0
VISUALSTYLE
  5
36
102
{ACAD_REACTORS
330
2A
102
}
330
2A
100
AcDbVisualStyle
  2
Brighten
 70
    12
177
     3
291
     1
 70
    58
 90
        2
176
     1
 90
        2
176
     1
 90
        0
176
     1
 90
        0
176
     1
 40
0.6
176
     1
 40
30.0
176
     1
 62
     7
420
 16777215
176
     1
 90
        1
176
     1
 90
        4
176
     1
 62
     7
176
     1
 62
   257
176
     1
 90
        1
176
     1
 90
        1
176
     1
 40
1.0
176
     1
 90
        8
176
     1
 62
     7
176
     1
 40
1.0
176
     1
 90
        1
176
     1
 90
        6
176
     1
 90
        2
176
     1
 62
     7
176
     1
 90
        5
176
     1
 90
        0
176
     1
 90
        0
176
     1
290
     0
176
     1
 90
        1
176
     1
 40
50.0
176
     1
 90
        0
176
     1
290
     0
176
     1
290
     1
176
     1
290
     1
176
     1
290
     0
176
     1
290
     0
176
     1
290
     0
176
     1
290
     0
176
     1
290
     0
176
     1
290
     0
176
     1
 90
       50
176
     1
 40
0.0
176
     1
 40
1.0
176
     1
 90
        0
176
     1
 62
    18
420
        0
176
     1
 90
       50
176
     1
 90
        3
176
     1
 62
     5
420
      255
176
     1
290
     0
176
     1
 90
       50
176
     1
 90
       50
176
     1
 90
       50
176
     1
290
     0
176
     1
 90
       50
176
     1
 62
   256
176
     0
 40
1.0
176
     0
 90
        2
176
     1
  1
strokes_ogs.tif
176
     1
290
     0
176
     1
 40
1.0
176
     1
 40
1.0
176
     1
  0
VISUALSTYLE
  5
3A
102
{ACAD_REACTORS
330
2A
102
}
330
2A
100
AcDbVisualStyle
  2
ColorChange
 70
    16
177
     3
291
     1
 70
    58
 90
        2
176
     1
 90
        2
176
     1
 90
        3
176
     1
 90
        0
176
     1
 40
0.6
176
     1
 40
30.0
176
     1
 62
     8
420
  8421504
176
     1
 90
        1
176
     1
 90
        4
176
     1
 62
     7
176
     1
 62
   257
176
     1
 90
        1
176
     1
 90
        1
176
     1
 40
1.0
176
     1
 90
        8
176
     1
 62
     8
420
  8421504
176
     1
 40
1.0
176
     1
 90
        1
176
     1
 90
        6
176
     1
 90
        2
176
     1
 62
     7
176
     1
 90
        5
176
     1
 90
        0
176
     1
 90
        0
176
     1
290
     0
176
     1
 90
        1
176
     1
 40
0.0
176
     1
 90
        0
176
     1
290
     0
176
     1
290
     1
176
     1
290
     1
176
     1
290
     0
176
     1
290
     0
176
     1
290
     0
176
     1
290
     0
176
     1
290
     0
176
     1
290
     0
176
     1
 90
       50
176
     1
 40
0.0
176
     1
 40
1.0
176
     1
 90
        0
176
     1
 62
    18
420
        0
176
     1
 90
       50
176
     1
 90
        3
176
     1
 62
     5
420
      255
176
     1
290
     0
176
     1
 90
       50
176
     1
 90
       50
176
     1
 90
       50
176
     1
290
     0
176
     1
 90
       50
176
     1
 62
   256
176
     0
 40
1.0
176
     0
 90
        2
176
     1
  1
strokes_ogs.tif
176
     1
290
     0
176
     1
 40
1.0
176
     1
 40
1.0
176
     1
  0
VISUALSTYLE
  5
34
102
{ACAD_REACTORS
330
2A
102
}
330
2A
100
AcDbVisualStyle
  2
Conceptual
 70
     9
177
     3
291
     0
 70
    58
 90
        3
176
     1
 90
        2
176
     1
 90
        0
176
     1
 90
        0
176
     1
 40
0.6
176
     1
 40
30.0
176
     1
 62
     7
420
 16777215
176
     1
 90
        2
176
     1
 90
        2
176
     1
 62
     7
176
     1
 62
   257
176
     1
 90
        1
176
     1
 90
        1
176
     1
 40
179.0
176
     1
 90
        8
176
     1
 62
     7
176
     1
 40
1.0
176
     1
 90
        1
176
     1
 90
        6
176
     1
 90
        2
176
     1
 62
     7
176
     1
 90
        3
176
     1
 90
        0
176
     1
 90
        0
176
     1
290
     0
176
     1
 90
        1
176
     1
 40
0.0
176
     1
 90
        0
176
     1
290
     0
176
     1
290
     1
176
     1
290
     1
176
     1
290
     0
176
     1
290
     0
176
     1
290
     0
176
     1
290
     0
176
     1
290
     0
176
     1
290
     0
176
     1
 90
       50
176
     1
 40
0.0
176
     1
 40
1.0
176
     1
 90
        0
176
     1
 62
    18
420
        0
176
     1
 90
       50
176
     1
 90
        3
176
     1
 62
     5
420
      255
176
     1
290
     0
176
     1
 90
       50
176
     1
 90
       50
176
     1
 90
       50
176
     1
290
     0
176
     1
 90
       50
176
     1
 62
   256
176
     0
 40
1.0
176
     0
 90
        2
176
     1
  1
strokes_ogs.tif
176
     1
290
     0
176
     1
 40
1.0
176
     1
 40
1.0
176
     1
  0
VISUALSTYLE
  5
35
102
{ACAD_REACTORS
330
2A
102
}
330
2A
100
AcDbVisualStyle
  2
Dim
 70
    11
177
     3
291
     1
 70
    58
 90
        2
176
     1
 90
        2
176
     1
 90
        0
176
     1
 90
        0
176
     1
 40
0.6
176
     1
 40
30.0
176
     1
 62
     7
420
 16777215
176
     1
 90
        1
176
     1
 90
        4
176
     1
 62
     7
176
     1
 62
   257
176
     1
 90
        1
176
     1
 90
        1
176
     1
 40
1.0
176
     1
 90
        8
176
     1
 62
     7
176
     1
 40
1.0
176
     1
 90
        1
176
     1
 90
        6
176
     1
 90
        2
176
     1
 62
     7
176
     1
 90
        5
176
     1
 90
        0
176
     1
 90
        0
176
     1
290
     0
176
     1
 90
        1
176
     1
 40
-50.0
176
     1
 90
        0
176
     1
290
     0
176
     1
290
     1
176
     1
290
     1
176
     1
290
     0
176
     1
290
     0
176
     1
290
     0
176
     1
290
     0
176
     1
290
     0
176
     1
290
     0
176
     1
 90
       50
176
     1
 40
0.0
176
     1
 40
1.0
176
     1
 90
        0
176
     1
 62
    18
420
        0
176
     1
 90
       50
176
     1
 90
        3
176
     1
 62
     5
420
      255
176
     1
290
     0
176
     1
 90
       50
176
     1
 90
       50
176
     1
 90
       50
176
     1
290
     0
176
     1
 90
       50
176
     1
 62
   256
176
     0
 40
1.0
176
     0
 90
        2
176
     1
  1
strokes_ogs.tif
176
     1
290
     0
176
     1
 40
1.0
176
     1
 40
1.0
176
     1
  0
VISUALSTYLE
  5
3D
102
{ACAD_REACTORS
330
2A
102
}
330
2A
100
AcDbVisualStyle
  2
EdgeColorOff
 70
    22
177
     3
291
     1
 70
    58
 90
        2
176
     0
 90
        2
176
     0
 90
        0
176
     0
 90
        0
176
     0
 40
0.6
176
     0
 40
30.0
176
     0
 62
     7
420
 16777215
176
     0
 90
        1
176
     0
 90
        4
176
     0
 62
     7
176
     0
 62
   257
176
     0
 90
        1
176
     0
 90
        1
176
     0
 40
1.0
176
     0
 90
        8
176
     2
 62
     7
176
     0
 40
1.0
176
     0
 90
        1
176
     0
 90
        6
176
     0
 90
        2
176
     0
 62
     7
176
     0
 90
        5
176
     0
 90
        0
176
     0
 90
        0
176
     0
290
     0
176
     0
 90
        1
176
     0
 40
0.0
176
     0
 90
        0
176
     0
290
     0
176
     0
290
     1
176
     0
290
     1
176
     0
290
     0
176
     0
290
     0
176
     0
290
     0
176
     0
290
     0
176
     0
290
     0
176
     0
290
     0
176
     0
 90
       50
176
     0
 40
0.0
176
     0
 40
1.0
176
     0
 90
        0
176
     0
 62
    18
420
        0
176
     0
 90
       50
176
     0
 90
        3
176
     0
 62
     5
420
      255
176
     0
290
     0
176
     0
 90
       50
176
     0
 90
       50
176
     0
 90
       50
176
     0
290
     0
176
     0
 90
       50
176
     0
 62
   256
176
     0
 40
1.0
176
     0
 90
        2
176
     0
  1
strokes_ogs.tif
176
     0
290
     0
176
     0
 40
1.0
176
     0
 40
1.0
176
     0
  0
VISUALSTYLE
  5
39
102
{ACAD_REACTORS
330
2A
102
}
330
2A
100
AcDbVisualStyle
  2
Facepattern
 70
    15
177
     3
291
     1
 70
    58
 90
        2
176
     1
 90
        2
176
     1
 90
        0
176
     1
 90
        0
176
     1
 40
0.6
176
     1
 40
30.0
176
     1
 62
     7
420
 16777215
176
     1
 90
        1
176
     1
 90
        4
176
     1
 62
     7
176
     1
 62
   257
176
     1
 90
        1
176
     1
 90
        1
176
     1
 40
1.0
176
     1
 90
        8
176
     1
 62
     7
176
     1
 40
1.0
176
     1
 90
        1
176
     1
 90
        6
176
     1
 90
        2
176
     1
 62
     7
176
     1
 90
        5
176
     1
 90
        0
176
     1
 90
        0
176
     1
290
     0
176
     1
 90
        1
176
     1
 40
0.0
176
     1
 90
        0
176
     1
290
     0
176
     1
290
     1
176
     1
290
     1
176
     1
290
     0
176
     1
290
     0
176
     1
290
     0
176
     1
290
     0
176
     1
290
     0
176
     1
290
     0
176
     1
 90
       50
176
     1
 40
0.0
176
     1
 40
1.0
176
     1
 90
        0
176
     1
 62
    18
420
        0
176
     1
 90
       50
176
     1
 90
        3
176
     1
 62
     5
420
      255
176
     1
290
     0
176
     1
 90
       50
176
     1
 90
       50
176
     1
 90
       50
176
     1
290
     0
176
     1
 90
       50
176
     1
 62
   256
176
     0
 40
1.0
176
     0
 90
        2
176
     1
  1
strokes_ogs.tif
176
     1
290
     0
176
     1
 40
1.0
176
     1
 40
1.0
176
     1
  0
VISUALSTYLE
  5
2B
102
{ACAD_REACTORS
330
2A
102
}
330
2A
100
AcDbVisualStyle
  2
Flat
 70
     0
177
     3
291
     1
 70
    58
 90
        2
176
     1
 90
        1
176
     1
 90
        1
176
     1
 90
        2
176
     1
 40
0.6
176
     1
 40
30.0
176
     1
 62
     7
420
 16777215
176
     1
 90
        0
176
     1
 90
        0
176
     1
 62
     7
176
     1
 62
   257
176
     1
 90
        1
176
     1
 90
        1
176
     1
 40
1.0
176
     1
 90
        8
176
     1
 62
     7
176
     1
 40
1.0
176
     1
 90
        1
176
     1
 90
        6
176
     1
 90
        2
176
     1
 62
     7
176
     1
 90
        5
176
     1
 90
        0
176
     1
 90
        0
176
     1
290
     0
176
     1
 90
       13
176
     1
 40
0.0
176
     1
 90
        0
176
     1
290
     0
176
     1
290
     1
176
     1
290
     1
176
     1
290
     0
176
     1
290
     0
176
     1
290
     0
176
     1
290
     0
176
     1
290
     0
176
     1
290
     0
176
     1
 90
       50
176
     1
 40
0.0
176
     1
 40
1.0
176
     1
 90
        0
176
     1
 62
    18
420
        0
176
     1
 90
       50
176
     1
 90
        3
176
     1
 62
     5
420
      255
176
     1
290
     0
176
     1
 90
       50
176
     1
 90
       50
176
     1
 90
       50
176
     1
290
     0
176
     1
 90
       50
176
     1
 62
   256
176
     0
 40
1.0
176
     0
 90
        2
176
     1
  1
strokes_ogs.tif
176
     1
290
     0
176
     1
 40
1.0
176
     1
 40
1.0
176
     1
  0
VISUALSTYLE
  5
2C
102
{ACAD_REACTORS
330
2A
102
}
330
2A
100
AcDbVisualStyle
  2
FlatWithEdges
 70
     1
177
     3
291
     1
 70
    58
 90
        2
176
     1
 90
        1
176
     1
 90
        1
176
     1
 90
        2
176
     1
 40
0.6
176
     1
 40
30.0
176
     1
 62
     7
420
 16777215
176
     1
 90
        1
176
     1
 90
        0
176
     1
 62
     7
176
     1
 62
   257
176
     1
 90
        1
176
     1
 90
        1
176
     1
 40
1.0
176
     1
 90
        0
176
     1
 62
   257
176
     1
 40
1.0
176
     1
 90
        1
176
     1
 90
        6
176
     1
 90
        2
176
     1
 62
     7
176
     1
 90
        5
176
     1
 90
        0
176
     1
 90
        0
176
     1
290
     0
176
     1
 90
       13
176
     1
 40
0.0
176
     1
 90
        0
176
     1
290
     0
176
     1
290
     1
176
     1
290
     1
176
     1
290
     0
176
     1
290
     0
176
     1
290
     0
176
     1
290
     0
176
     1
290
     0
176
     1
290
     0
176
     1
 90
       50
176
     1
 40
0.0
176
     1
 40
1.0
176
     1
 90
        0
176
     1
 62
    18
420
        0
176
     1
 90
       50
176
     1
 90
        3
176
     1
 62
     5
420
      255
176
     1
290
     0
176
     1
 90
       50
176
     1
 90
       50
176
     1
 90
       50
176
     1
290
     0
176
     1
 90
       50
176
     1
 62
   256
176
     0
 40
1.0
176
     0
 90
        2
176
     1
  1
strokes_ogs.tif
176
     1
290
     0
176
     1
 40
1.0
176
     1
 40
1.0
176
     1
  0
VISUALSTYLE
  5
2D
102
{ACAD_REACTORS
330
2A
102
}
330
2A
100
AcDbVisualStyle
  2
Gouraud
 70
     2
177
     3
291
     1
 70
    58
 90
        2
176
     1
 90
        2
176
     1
 90
        1
176
     1
 90
        2
176
     1
 40
0.6
176
     1
 40
30.0
176
     1
 62
     7
420
 16777215
176
     1
 90
        0
176
     1
 90
        0
176
     1
 62
     7
176
     1
 62
   257
176
     1
 90
        1
176
     1
 90
        1
176
     1
 40
1.0
176
     1
 90
        0
176
     1
 62
     7
176
     1
 40
1.0
176
     1
 90
        1
176
     1
 90
        6
176
     1
 90
        2
176
     1
 62
     7
176
     1
 90
        5
176
     1
 90
        0
176
     1
 90
        0
176
     1
290
     0
176
     1
 90
       13
176
     1
 40
0.0
176
     1
 90
        0
176
     1
290
     0
176
     1
290
     1
176
     1
290
     1
176
     1
290
     0
176
     1
290
     0
176
     1
290
     0
176
     1
290
     0
176
     1
290
     0
176
     1
290
     0
176
     1
 90
       50
176
     1
 40
0.0
176
     1
 40
1.0
176
     1
 90
        0
176
     1
 62
    18
420
        0
176
     1
 90
       50
176
     1
 90
        3
176
     1
 62
     5
420
      255
176
     1
290
     0
176
     1
 90
       50
176
     1
 90
       50
176
     1
 90
       50
176
     1
290
     0
176
     1
 90
       50
176
     1
 62
   256
176
     0
 40
1.0
176
     0
 90
        2
176
     1
  1
strokes_ogs.tif
176
     1
290
     0
176
     1
 40
1.0
176
     1
 40
1.0
176
     1
  0
VISUALSTYLE
  5
2E
102
{ACAD_REACTORS
330
2A
102
}
330
2A
100
AcDbVisualStyle
  2
GouraudWithEdges
 70
     3
177
     3
291
     1
 70
    58
 90
        2
176
     1
 90
        2
176
     1
 90
        1
176
     1
 90
        2
176
     1
 40
0.6
176
     1
 40
30.0
176
     1
 62
     7
420
 16777215
176
     1
 90
        1
176
     1
 90
        0
176
     1
 62
     7
176
     1
 62
   257
176
     1
 90
        1
176
     1
 90
        1
176
     1
 40
1.0
176
     1
 90
        0
176
     1
 62
   257
176
     1
 40
1.0
176
     1
 90
        1
176
     1
 90
        6
176
     1
 90
        2
176
     1
 62
     7
176
     1
 90
        5
176
     1
 90
        0
176
     1
 90
        0
176
     1
290
     0
176
     1
 90
       13
176
     1
 40
0.0
176
     1
 90
        0
176
     1
290
     0
176
     1
290
     1
176
     1
290
     1
176
     1
290
     0
176
     1
290
     0
176
     1
290
     0
176
     1
290
     0
176
     1
290
     0
176
     1
290
     0
176
     1
 90
       50
176
     1
 40
0.0
176
     1
 40
1.0
176
     1
 90
        0
176
     1
 62
    18
420
        0
176
     1
 90
       50
176
     1
 90
        3
176
     1
 62
     5
420
      255
176
     1
290
     0
176
     1
 90
       50
176
     1
 90
       50
176
     1
 90
       50
176
     1
290
     0
176
     1
 90
       50
176
     1
 62
   256
176
     0
 40
1.0
176
     0
 90
        2
176
     1
  1
strokes_ogs.tif
176
     1
290
     0
176
     1
 40
1.0
176
     1
 40
1.0
176
     1
  0
VISUALSTYLE
  5
31
102
{ACAD_REACTORS
330
2A
102
}
330
2A
100
AcDbVisualStyle
  2
Hidden
 70
     6
177
     3
291
     0
 70
    58
 90
        1
176
     1
 90
        2
176
     1
 90
        2
176
     1
 90
        0
176
     1
 40
0.6
176
     1
 40
30.0
176
     1
 62
     7
420
 16777215
176
     1
 90
        2
176
     1
 90
        2
176
     1
 62
     7
176
     1
 62
   257
176
     1
 90
        2
176
     1
 90
        1
176
     1
 40
40.0
176
     1
 90
        0
176
     1
 62
   257
176
     1
 40
1.0
176
     1
 90
        1
176
     1
 90
        6
176
     1
 90
        2
176
     1
 62
     7
176
     1
 90
        3
176
     1
 90
        0
176
     1
 90
        0
176
     1
290
     0
176
     1
 90
        1
176
     1
 40
0.0
176
     1
 90
        0
176
     1
290
     0
176
     1
290
     1
176
     1
290
     1
176
     1
290
     0
176
     1
290
     0
176
     1
290
     0
176
     1
290
     0
176
     1
290
     0
176
     1
290
     0
176
     1
 90
       50
176
     1
 40
0.0
176
     1
 40
1.0
176
     1
 90
        0
176
     1
 62
    18
420
        0
176
     1
 90
       50
176
     1
 90
        3
176
     1
 62
     5
420
      255
176
     1
290
     0
176
     1
 90
       50
176
     1
 90
       50
176
     1
 90
       50
176
     1
290
     0
176
     1
 90
       50
176
     1
 62
   256
176
     0
 40
1.0
176
     0
 90
        2
176
     1
  1
strokes_ogs.tif
176
     1
290
     0
176
     1
 40
1.0
176
     1
 40
1.0
176
     1
  0
VISUALSTYLE
  5
3B
102
{ACAD_REACTORS
330
2A
102
}
330
2A
100
AcDbVisualStyle
  2
JitterOff
 70
    20
177
     3
291
     1
 70
    58
 90
        2
176
     0
 90
        2
176
     0
 90
        0
176
     0
 90
        0
176
     0
 40
0.6
176
     0
 40
30.0
176
     0
 62
     7
420
 16777215
176
     0
 90
        1
176
     0
 90
        4
176
     0
 62
     7
176
     0
 62
   257
176
     0
 90
        1
176
     0
 90
        1
176
     0
 40
1.0
176
     0
 90
       10
176
     2
 62
     7
176
     0
 40
1.0
176
     0
 90
        1
176
     0
 90
        6
176
     0
 90
        2
176
     0
 62
     7
176
     0
 90
        5
176
     0
 90
        0
176
     0
 90
        0
176
     0
290
     0
176
     0
 90
        1
176
     0
 40
0.0
176
     0
 90
        0
176
     0
290
     0
176
     0
290
     1
176
     0
290
     1
176
     0
290
     0
176
     0
290
     0
176
     0
290
     0
176
     0
290
     0
176
     0
290
     0
176
     0
290
     0
176
     0
 90
       50
176
     0
 40
0.0
176
     0
 40
1.0
176
     0
 90
        0
176
     0
 62
    18
420
        0
176
     0
 90
       50
176
     0
 90
        3
176
     0
 62
     5
420
      255
176
     0
290
     0
176
     0
 90
       50
176
     0
 90
       50
176
     0
 90
       50
176
     0
290
     0
176
     0
 90
       50
176
     0
 62
   256
176
     0
 40
1.0
176
     0
 90
        2
176
     0
  1
strokes_ogs.tif
176
     0
290
     0
176
     0
 40
1.0
176
     0
 40
1.0
176
     0
  0
VISUALSTYLE
  5
38
102
{ACAD_REACTORS
330
2A
102
}
330
2A
100
AcDbVisualStyle
  2
Linepattern
 70
    14
177
     3
291
     1
 70
    58
 90
        2
176
     1
 90
        2
176
     1
 90
        0
176
     1
 90
        0
176
     1
 40
0.6
176
     1
 40
30.0
176
     1
 62
     7
420
 16777215
176
     1
 90
        1
176
     1
 90
        4
176
     1
 62
     7
176
     1
 62
   257
176
     1
 90
        7
176
     1
 90
        7
176
     1
 40
1.0
176
     1
 90
        8
176
     1
 62
     7
176
     1
 40
1.0
176
     1
 90
        1
176
     1
 90
        6
176
     1
 90
        2
176
     1
 62
     7
176
     1
 90
        5
176
     1
 90
        0
176
     1
 90
        0
176
     1
290
     0
176
     1
 90
        1
176
     1
 40
0.0
176
     1
 90
        0
176
     1
290
     0
176
     1
290
     1
176
     1
290
     1
176
     1
290
     0
176
     1
290
     0
176
     1
290
     0
176
     1
290
     0
176
     1
290
     0
176
     1
290
     0
176
     1
 90
       50
176
     1
 40
0.0
176
     1
 40
1.0
176
     1
 90
        0
176
     1
 62
    18
420
        0
176
     1
 90
       50
176
     1
 90
        3
176
     1
 62
     5
420
      255
176
     1
290
     0
176
     1
 90
       50
176
     1
 90
       50
176
     1
 90
       50
176
     1
290
     0
176
     1
 90
       50
176
     1
 62
   256
176
     0
 40
1.0
176
     0
 90
        2
176
     1
  1
strokes_ogs.tif
176
     1
290
     0
176
     1
 40
1.0
176
     1
 40
1.0
176
     1
  0
VISUALSTYLE
  5
3C
102
{ACAD_REACTORS
330
2A
102
}
330
2A
100
AcDbVisualStyle
  2
OverhangOff
 70
    21
177
     3
291
     1
 70
    58
 90
        2
176
     0
 90
        2
176
     0
 90
        0
176
     0
 90
        0
176
     0
 40
0.6
176
     0
 40
30.0
176
     0
 62
     7
420
 16777215
176
     0
 90
        1
176
     0
 90
        4
176
     0
 62
     7
176
     0
 62
   257
176
     0
 90
        1
176
     0
 90
        1
176
     0
 40
1.0
176
     0
 90
        9
176
     2
 62
     7
176
     0
 40
1.0
176
     0
 90
        1
176
     0
 90
        6
176
     0
 90
        2
176
     0
 62
     7
176
     0
 90
        5
176
     0
 90
        0
176
     0
 90
        0
176
     0
290
     0
176
     0
 90
        1
176
     0
 40
0.0
176
     0
 90
        0
176
     0
290
     0
176
     0
290
     1
176
     0
290
     1
176
     0
290
     0
176
     0
290
     0
176
     0
290
     0
176
     0
290
     0
176
     0
290
     0
176
     0
290
     0
176
     0
 90
       50
176
     0
 40
0.0
176
     0
 40
1.0
176
     0
 90
        0
176
     0
 62
    18
420
        0
176
     0
 90
       50
176
     0
 90
        3
176
     0
 62
     5
420
      255
176
     0
290
     0
176
     0
 90
       50
176
     0
 90
       50
176
     0
 90
       50
176
     0
290
     0
176
     0
 90
       50
176
     0
 62
   256
176
     0
 40
1.0
176
     0
 90
        2
176
     0
  1
strokes_ogs.tif
176
     0
290
     0
176
     0
 40
1.0
176
     0
 40
1.0
176
     0
  0
VISUALSTYLE
  5
33
102
{ACAD_REACTORS
330
2A
102
}
330
2A
100
AcDbVisualStyle
  2
Realistic
 70
     8
177
     3
291
     0
 70
    58
 90
        2
176
     1
 90
        3
176
     1
 90
        0
176
     1
 90
        2
176
     1
 40
0.6
176
     1
 40
30.0
176
     1
 62
     7
420
 16777215
176
     1
 90
        0
176
     1
 90
        0
176
     1
 62
     7
176
     1
 62
   257
176
     1
 90
        1
176
     1
 90
        1
176
     1
 40
1.0
176
     1
 90
        8
176
     1
 62
   257
176
     1
 40
1.0
176
     1
 90
        1
176
     1
 90
        6
176
     1
 90
        2
176
     1
 62
     7
176
     1
 90
        3
176
     1
 90
        0
176
     1
 90
        0
176
     1
290
     0
176
     1
 90
       13
176
     1
 40
0.0
176
     1
 90
        0
176
     1
290
     0
176
     1
290
     1
176
     1
290
     1
176
     1
290
     0
176
     1
290
     0
176
     1
290
     0
176
     1
290
     0
176
     1
290
     0
176
     1
290
     0
176
     1
 90
       50
176
     1
 40
0.0
176
     1
 40
1.0
176
     1
 90
        0
176
     1
 62
    18
420
        0
176
     1
 90
       50
176
     1
 90
        3
176
     1
 62
     5
420
      255
176
     1
290
     0
176
     1
 90
       50
176
     1
 90
       50
176
     1
 90
       50
176
     1
290
     0
176
     1
 90
       50
176
     1
 62
   256
176
     0
 40
1.0
176
     0
 90
        2
176
     1
  1
strokes_ogs.tif
176
     1
290
     0
176
     1
 40
1.0
176
     1
 40
1.0
176
     1
  0
VISUALSTYLE
  5
42
102
{ACAD_REACTORS
330
2A
102
}
330
2A
100
AcDbVisualStyle
  2
Shaded
 70
    27
177
     3
291
     0
 70
    58
 90
        2
176
     1
 90
        2
176
     1
 90
        1
176
     1
 90
        2
176
     1
 40
0.6
176
     1
 40
30.0
176
     1
 62
     7
420
 16777215
176
     1
 90
        0
176
     1
 90
        4
176
     1
 62
     7
176
     1
 62
   257
176
     1
 90
        1
176
     1
 90
        1
176
     1
 40
1.0
176
     1
 90
        8
176
     1
 62
   257
176
     1
 40
1.0
176
     1
 90
        1
176
     1
 90
        6
176
     1
 90
        2
176
     1
 62
     8
420
  7895160
176
     1
 90
        3
176
     1
 90
        0
176
     1
 90
        0
176
     1
290
     0
176
     1
 90
        5
176
     1
 40
0.0
176
     1
 90
        0
176
     1
290
     0
176
     1
290
     1
176
     1
290
     1
176
     1
290
     0
176
     1
290
     0
176
     1
290
     0
176
     1
290
     0
176
     1
290
     0
176
     1
290
     0
176
     1
 90
       50
176
     1
 40
0.0
176
     1
 40
1.0
176
     1
 90
        0
176
     1
 62
    18
420
        0
176
     1
 90
       50
176
     1
 90
        3
176
     1
 62
     5
420
      255
176
     1
290
     0
176
     1
 90
       50
176
     1
 90
       50
176
     1
 90
       50
176
     1
290
     0
176
     1
 90
       50
176
     1
 62
   256
176
     0
 40
1.0
176
     0
 90
        2
176
     1
  1
strokes_ogs.tif
176
     1
290
     0
176
     1
 40
1.0
176
     1
 40
1.0
176
     1
  0
VISUALSTYLE
  5
41
102
{ACAD_REACTORS
330
2A
102
}
330
2A
100
AcDbVisualStyle
  2
Shaded with edges
 70
    26
177
     3
291
     0
 70
    58
 90
        2
176
     1
 90
        2
176
     1
 90
        1
176
     1
 90
        2
176
     1
 40
0.6
176
     1
 40
30.0
176
     1
 62
     7
420
 16777215
176
     1
 90
        1
176
     1
 90
       10
176
     1
 62
     7
176
     1
 62
   257
176
     1
 90
        2
176
     1
 90
        1
176
     1
 40
1.0
176
     1
 90
        8
176
     1
 62
   257
176
     1
 40
1.0
176
     1
 90
        1
176
     1
 90
        6
176
     1
 90
        2
176
     1
 62
     7
176
     1
 90
        3
176
     1
 90
        0
176
     1
 90
        0
176
     1
290
     0
176
     1
 90
        5
176
     1
 40
0.0
176
     1
 90
        0
176
     1
290
     0
176
     1
290
     1
176
     1
290
     1
176
     1
290
     0
176
     1
290
     0
176
     1
290
     0
176
     1
290
     0
176
     1
290
     0
176
     1
290
     0
176
     1
 90
       50
176
     1
 40
0.0
176
     1
 40
1.0
176
     1
 90
        0
176
     1
 62
    18
420
        0
176
     1
 90
       50
176
     1
 90
        3
176
     1
 62
     5
420
      255
176
     1
290
     0
176
     1
 90
       50
176
     1
 90
       50
176
     1
 90
       50
176
     1
290
     0
176
     1
 90
       50
176
     1
 62
   256
176
     0
 40
1.0
176
     0
 90
        2
176
     1
  1
strokes_ogs.tif
176
     1
290
     0
176
     1
 40
1.0
176
     1
 40
1.0
176
     1
  0
VISUALSTYLE
  5
3E
102
{ACAD_REACTORS
330
2A
102
}
330
2A
100
AcDbVisualStyle
  2
Shades of Gray
 70
    23
177
     3
291
     0
 70
    58
 90
        2
176
     1
 90
        2
176
     1
 90
        3
176
     1
 90
        0
176
     1
 40
0.6
176
     1
 40
30.0
176
     1
 62
     7
420
 16777215
176
     1
 90
        2
176
     1
 90
        2
176
     1
 62
     7
176
     1
 62
     7
176
     1
 90
        1
176
     1
 90
        1
176
     1
 40
40.0
176
     1
 90
        8
176
     1
 62
     7
176
     1
 40
1.0
176
     1
 90
        1
176
     1
 90
        6
176
     1
 90
        2
176
     1
 62
     7
176
     1
 90
        3
176
     1
 90
        0
176
     1
 90
        0
176
     1
290
     0
176
     1
 90
        1
176
     1
 40
0.0
176
     1
 90
        0
176
     1
290
     0
176
     1
290
     1
176
     1
290
     1
176
     1
290
     0
176
     1
290
     0
176
     1
290
     0
176
     1
290
     0
176
     1
290
     0
176
     1
290
     0
176
     1
 90
       50
176
     1
 40
0.0
176
     1
 40
1.0
176
     1
 90
        0
176
     1
 62
    18
420
        0
176
     1
 90
       50
176
     1
 90
        3
176
     1
 62
     5
420
      255
176
     1
290
     0
176
     1
 90
       50
176
     1
 90
       50
176
     1
 90
       50
176
     1
290
     0
176
     1
 90
       50
176
     1
 62
   256
176
     0
 40
1.0
176
     0
 90
        2
176
     1
  1
strokes_ogs.tif
176
     1
290
     0
176
     1
 40
1.0
176
     1
 40
1.0
176
     1
  0
VISUALSTYLE
  5
3F
102
{ACAD_REACTORS
330
2A
102
}
330
2A
100
AcDbVisualStyle
  2
Sketchy
 70
    24
177
     3
291
     0
 70
    58
 90
        1
176
     1
 90
        2
176
     1
 90
        2
176
     1
 90
        0
176
     1
 40
0.6
176
     1
 40
30.0
176
     1
 62
     7
420
 16777215
176
     1
 90
        2
176
     1
 90
        2
176
     1
 62
     7
176
     1
 62
     7
176
     1
 90
        1
176
     1
 90
        1
176
     1
 40
40.0
176
     1
 90
       11
176
     1
 62
     7
176
     1
 40
1.0
176
     1
 90
        1
176
     1
 90
        6
176
     1
 90
        2
176
     1
 62
     7
176
     1
 90
        6
176
     1
 90
        0
176
     1
 90
        0
176
     1
290
     0
176
     1
 90
        1
176
     1
 40
0.0
176
     1
 90
        0
176
     1
290
     0
176
     1
290
     1
176
     1
290
     1
176
     1
290
     0
176
     1
290
     0
176
     1
290
     0
176
     1
290
     0
176
     1
290
     0
176
     1
290
     0
176
     1
 90
       50
176
     1
 40
0.0
176
     1
 40
1.0
176
     1
 90
        0
176
     1
 62
    18
420
        0
176
     1
 90
       50
176
     1
 90
        3
176
     1
 62
     5
420
      255
176
     1
290
     0
176
     1
 90
       50
176
     1
 90
       50
176
     1
 90
       50
176
     1
290
     0
176
     1
 90
       50
176
     1
 62
   256
176
     0
 40
1.0
176
     0
 90
        2
176
     1
  1
strokes_ogs.tif
176
     1
290
     0
176
     1
 40
1.0
176
     1
 40
1.0
176
     1
  0
VISUALSTYLE
  5
37
102
{ACAD_REACTORS
330
2A
102
}
330
2A
100
AcDbVisualStyle
  2
Thicken
 70
    13
177
     3
291
     1
 70
    58
 90
        2
176
     1
 90
        2
176
     1
 90
        0
176
     1
 90
        0
176
     1
 40
0.6
176
     1
 40
30.0
176
     1
 62
     7
420
 16777215
176
     1
 90
        1
176
     1
 90
        4
176
     1
 62
     7
176
     1
 62
   257
176
     1
 90
        1
176
     1
 90
        1
176
     1
 40
1.0
176
     1
 90
       12
176
     1
 62
     7
176
     1
 40
1.0
176
     1
 90
        1
176
     1
 90
        6
176
     1
 90
        2
176
     1
 62
     7
176
     1
 90
        5
176
     1
 90
        0
176
     1
 90
        0
176
     1
290
     0
176
     1
 90
        1
176
     1
 40
0.0
176
     1
 90
        0
176
     1
290
     0
176
     1
290
     1
176
     1
290
     1
176
     1
290
     0
176
     1
290
     0
176
     1
290
     0
176
     1
290
     0
176
     1
290
     0
176
     1
290
     0
176
     1
 90
       50
176
     1
 40
0.0
176
     1
 40
1.0
176
     1
 90
        0
176
     1
 62
    18
420
        0
176
     1
 90
       50
176
     1
 90
        3
176
     1
 62
     5
420
      255
176
     1
290
     0
176
     1
 90
       50
176
     1
 90
       50
176
     1
 90
       50
176
     1
290
     0
176
     1
 90
       50
176
     1
 62
   256
176
     0
 40
1.0
176
     0
 90
        2
176
     1
  1
strokes_ogs.tif
176
     1
290
     0
176
     1
 40
1.0
176
     1
 40
1.0
176
     1
  0
VISUALSTYLE
  5
30
102
{ACAD_REACTORS
330
2A
102
}
330
2A
100
AcDbVisualStyle
  2
Wireframe
 70
     5
177
     3
291
     0
 70
    58
 90
        0
176
     1
 90
        2
176
     1
 90
        0
176
     1
 90
        0
176
     1
 40
0.6
176
     1
 40
30.0
176
     1
 62
     7
420
 16777215
176
     1
 90
        1
176
     1
 90
        4
176
     1
 62
     7
176
     1
 62
   257
176
     1
 90
        1
176
     1
 90
        1
176
     1
 40
1.0
176
     1
 90
        0
176
     1
 62
   257
176
     1
 40
1.0
176
     1
 90
        1
176
     1
 90
        6
176
     1
 90
        2
176
     1
 62
     7
176
     1
 90
        3
176
     1
 90
        0
176
     1
 90
        0
176
     1
290
     0
176
     1
 90
        1
176
     1
 40
0.0
176
     1
 90
        0
176
     1
290
     0
176
     1
290
     1
176
     1
290
     1
176
     1
290
     0
176
     1
290
     0
176
     1
290
     0
176
     1
290
     0
176
     1
290
     0
176
     1
290
     0
176
     1
 90
       50
176
     1
 40
0.0
176
     1
 40
1.0
176
     1
 90
        0
176
     1
 62
    18
420
        0
176
     1
 90
       50
176
     1
 90
        3
176
     1
 62
     5
420
      255
176
     1
290
     0
176
     1
 90
       50
176
     1
 90
       50
176
     1
 90
       50
176
     1
290
     0
176
     1
 90
       50
176
     1
 62
   256
176
     0
 40
1.0
176
     0
 90
        2
176
     1
  1
strokes_ogs.tif
176
     1
290
     0
176
     1
 40
1.0
176
     1
 40
1.0
176
     1
  0
VISUALSTYLE
  5
40
102
{ACAD_REACTORS
330
2A
102
}
330
2A
100
AcDbVisualStyle
  2
X-Ray
 70
    25
177
     3
291
     0
 70
    58
 90
        2
176
     1
 90
        2
176
     1
 90
        1
176
     1
 90
        1
176
     1
 40
0.5
176
     1
 40
30.0
176
     1
 62
     7
420
 16777215
176
     1
 90
        1
176
     1
 90
        0
176
     1
 62
     7
176
     1
 62
   257
176
     1
 90
        1
176
     1
 90
        1
176
     1
 40
1.0
176
     1
 90
        8
176
     1
 62
     7
176
     1
 40
1.0
176
     1
 90
        1
176
     1
 90
        6
176
     1
 90
        2
176
     1
 62
     7
176
     1
 90
        3
176
     1
 90
        0
176
     1
 90
        0
176
     1
290
     0
176
     1
 90
       13
176
     1
 40
0.0
176
     1
 90
        0
176
     1
290
     0
176
     1
290
     1
176
     1
290
     1
176
     1
290
     0
176
     1
290
     0
176
     1
290
     0
176
     1
290
     0
176
     1
290
     0
176
     1
290
     0
176
     1
 90
       50
176
     1
 40
0.0
176
     1
 40
1.0
176
     1
 90
        0
176
     1
 62
    18
420
        0
176
     1
 90
       50
176
     1
 90
        3
176
     1
 62
     5
420
      255
176
     1
290
     0
176
     1
 90
       50
176
     1
 90
       50
176
     1
 90
       50
176
     1
290
     0
176
     1
 90
       50
176
     1
 62
   256
176
     0
 40
1.0
176
     0
 90
        2
176
     1
  1
strokes_ogs.tif
176
     1
290
     0
176
     1
 40
1.0
176
     1
 40
1.0
176
     1
  0
DICTIONARYVAR
  5
20A
102
{ACAD_REACTORS
330
209
102
}
330
209
100
DictionaryVariables
280
     0
  1
1:1
  0
DICTIONARYVAR
  5
212
102
{ACAD_REACTORS
330
209
102
}
330
209
100
DictionaryVariables
280
     0
  1
3.500000
  0
DICTIONARYVAR
  5
213
102
{ACAD_REACTORS
330
209
102
}
330
209
100
DictionaryVariables
280
     0
  1
acadiso.lin
  0
DICTIONARYVAR
  5
20F
102
{ACAD_REACTORS
330
209
102
}
330
209
100
DictionaryVariables
280
     0
  1
Standard
  0
DICTIONARYVAR
  5
20E
102
{ACAD_REACTORS
330
209
102
}
330
209
100
DictionaryVariables
280
     0
  1
Standard
  0
DICTIONARY
  5
20B
330
5A
100
AcDbDictionary
280
     1
281
     1
  3
ACAD_ROUNDTRIP_2008_TABLESTYLE_CELLSTYLEMAP
360
20C
  0
CELLSTYLEMAP
  5
20C
102
{ACAD_REACTORS
330
20B
102
}
330
20B
100
AcDbCellStyleMap
 90
        3
300
CELLSTYLE
  1
TABLEFORMAT_BEGIN
 90
        5
170
     1
 91
        0
 92
    32768
 62
   257
 93
        1
300
CONTENTFORMAT
  1
CONTENTFORMAT_BEGIN
 90
        0
 91
        0
 92
        4
 93
        0
300

 40
0.0
140
1.0
 94
        5
 62
     0
340
11
144
6.0
309
CONTENTFORMAT_END
171
     1
301
MARGIN
  1
CELLMARGIN_BEGIN
 40
1.5
 40
1.5
 40
1.5
 40
1.5
 40
1.5
 40
1.5
309
CELLMARGIN_END
 94
        6
 95
        1
302
GRIDFORMAT
  1
GRIDFORMAT_BEGIN
 90
        0
 91
        1
 62
     0
 92
       -2
340
14
 93
        0
 40
0.045
309
GRIDFORMAT_END
 95
        2
302
GRIDFORMAT
  1
GRIDFORMAT_BEGIN
 90
        0
 91
        1
 62
     0
 92
       -2
340
14
 93
        0
 40
0.045
309
GRIDFORMAT_END
 95
        4
302
GRIDFORMAT
  1
GRIDFORMAT_BEGIN
 90
        0
 91
        1
 62
     0
 92
       -2
340
14
 93
        0
 40
0.045
309
GRIDFORMAT_END
 95
        8
302
GRIDFORMAT
  1
GRIDFORMAT_BEGIN
 90
        0
 91
        1
 62
     0
 92
       -2
340
14
 93
        0
 40
0.045
309
GRIDFORMAT_END
 95
       16
302
GRIDFORMAT
  1
GRIDFORMAT_BEGIN
 90
        0
 91
        1
 62
     0
 92
       -2
340
14
 93
        0
 40
0.045
309
GRIDFORMAT_END
 95
       32
302
GRIDFORMAT
  1
GRIDFORMAT_BEGIN
 90
        0
 91
        1
 62
     0
 92
       -2
340
14
 93
        0
 40
0.045
309
GRIDFORMAT_END
309
TABLEFORMAT_END
  1
CELLSTYLE_BEGIN
 90
        1
 91
        1
300
_TITLE
309
CELLSTYLE_END
300
CELLSTYLE
  1
TABLEFORMAT_BEGIN
 90
        5
170
     1
 91
        0
 92
        0
 62
   257
 93
        1
300
CONTENTFORMAT
  1
CONTENTFORMAT_BEGIN
 90
        0
 91
        0
 92
        4
 93
        0
300

 40
0.0
140
1.0
 94
        5
 62
     0
340
11
144
4.5
309
CONTENTFORMAT_END
171
     1
301
MARGIN
  1
CELLMARGIN_BEGIN
 40
1.5
 40
1.5
 40
1.5
 40
1.5
 40
1.5
 40
1.5
309
CELLMARGIN_END
 94
        6
 95
        1
302
GRIDFORMAT
  1
GRIDFORMAT_BEGIN
 90
        0
 91
        1
 62
     0
 92
       -2
340
14
 93
        0
 40
0.045
309
GRIDFORMAT_END
 95
        2
302
GRIDFORMAT
  1
GRIDFORMAT_BEGIN
 90
        0
 91
        1
 62
     0
 92
       -2
340
14
 93
        0
 40
0.045
309
GRIDFORMAT_END
 95
        4
302
GRIDFORMAT
  1
GRIDFORMAT_BEGIN
 90
        0
 91
        1
 62
     0
 92
       -2
340
14
 93
        0
 40
0.045
309
GRIDFORMAT_END
 95
        8
302
GRIDFORMAT
  1
GRIDFORMAT_BEGIN
 90
        0
 91
        1
 62
     0
 92
       -2
340
14
 93
        0
 40
0.045
309
GRIDFORMAT_END
 95
       16
302
GRIDFORMAT
  1
GRIDFORMAT_BEGIN
 90
        0
 91
        1
 62
     0
 92
       -2
340
14
 93
        0
 40
0.045
309
GRIDFORMAT_END
 95
       32
302
GRIDFORMAT
  1
GRIDFORMAT_BEGIN
 90
        0
 91
        1
 62
     0
 92
       -2
340
14
 93
        0
 40
0.045
309
GRIDFORMAT_END
309
TABLEFORMAT_END
  1
CELLSTYLE_BEGIN
 90
        2
 91
        1
300
_HEADER
309
CELLSTYLE_END
300
CELLSTYLE
  1
TABLEFORMAT_BEGIN
 90
        5
170
     1
 91
        0
 92
        0
 62
   257
 93
        1
300
CONTENTFORMAT
  1
CONTENTFORMAT_BEGIN
 90
        0
 91
        0
 92
        4
 93
        0
300

 40
0.0
140
1.0
 94
        2
 62
     0
340
11
144
4.5
309
CONTENTFORMAT_END
171
     1
301
MARGIN
  1
CELLMARGIN_BEGIN
 40
1.5
 40
1.5
 40
1.5
 40
1.5
 40
1.5
 40
1.5
309
CELLMARGIN_END
 94
        6
 95
        1
302
GRIDFORMAT
  1
GRIDFORMAT_BEGIN
 90
        0
 91
        1
 62
     0
 92
       -2
340
14
 93
        0
 40
0.045
309
GRIDFORMAT_END
 95
        2
302
GRIDFORMAT
  1
GRIDFORMAT_BEGIN
 90
        0
 91
        1
 62
     0
 92
       -2
340
14
 93
        0
 40
0.045
309
GRIDFORMAT_END
 95
        4
302
GRIDFORMAT
  1
GRIDFORMAT_BEGIN
 90
        0
 91
        1
 62
     0
 92
       -2
340
14
 93
        0
 40
0.045
309
GRIDFORMAT_END
 95
        8
302
GRIDFORMAT
  1
GRIDFORMAT_BEGIN
 90
        0
 91
        1
 62
     0
 92
       -2
340
14
 93
        0
 40
0.045
309
GRIDFORMAT_END
 95
       16
302
GRIDFORMAT
  1
GRIDFORMAT_BEGIN
 90
        0
 91
        1
 62
     0
 92
       -2
340
14
 93
        0
 40
0.045
309
GRIDFORMAT_END
 95
       32
302
GRIDFORMAT
  1
GRIDFORMAT_BEGIN
 90
        0
 91
        1
 62
     0
 92
       -2
340
14
 93
        0
 40
0.045
309
GRIDFORMAT_END
309
TABLEFORMAT_END
  1
CELLSTYLE_BEGIN
 90
        3
 91
        2
300
_DATA
309
CELLSTYLE_END
  0
ENDSEC
  0
EOF
