  0
SECTION
  2
HEADER
  9
$ACADVER
  1
AC1027
  9
$ACADMAINTVER
 70
   105
  9
$DWGCODEPAGE
  3
ANSI_1252
  9
$COMMENTS
  1
File was created by Cadenas
  9
$LASTSAVEDBY
  1
psAdmin
  9
$CUSTOMPROPERTYTAG
  1
NB
  9
$CUSTOMPROPERTY
  1
01401
  9
$CUSTOMPROPERTYTAG
  1
NN
  9
$CUSTOMPROPERTY
  1
Terminal plates up to 50 mm² (AWG 2/0)
  9
$CUSTOMPROPERTYTAG
  1
NT
  9
$CUSTOMPROPERTY
  1

  9
$CUSTOMPROPERTYTAG
  1
NBSYN
  9
$CUSTOMPROPERTY
  1
$ARTNR.
  9
$CUSTOMPROPERTYTAG
  1
LINA
  9
$CUSTOMPROPERTY
  1
01401000
  9
$CUSTOMPROPERTYTAG
  1
CATALOG
  9
$CUSTOMPROPERTY
  1
Wöhner
  9
$CUSTOMPROPERTYTAG
  1
ARTNR
  9
$CUSTOMPROPERTY
  1
01401
  9
$CUSTOMPROPERTYTAG
  1
BUSB
  9
$CUSTOMPROPERTY
  1
12 x 5, 10
  9
$CUSTOMPROPERTYTAG
  1
POF
  9
$CUSTOMPROPERTY
  1
CRITO®30Compact
  9
$CUSTOMPROPERTYTAG
  1
TYPE
  9
$CUSTOMPROPERTY
  1
240C-L
  9
$CUSTOMPROPERTYTAG
  1
QNT
  9
$CUSTOMPROPERTY
  1
1
  9
$CUSTOMPROPERTYTAG
  1
W
  9
$CUSTOMPROPERTY
  1
54
  9
$CUSTOMPROPERTYTAG
  1
H
  9
$CUSTOMPROPERTY
  1
160
  9
$CUSTOMPROPERTYTAG
  1
D
  9
$CUSTOMPROPERTY
  1
84
  9
$CUSTOMPROPERTYTAG
  1
LINK
  9
$CUSTOMPROPERTY
  1
Product link
  9
$CUSTOMPROPERTYTAG
  1
COMPANY
  9
$CUSTOMPROPERTY
  1
woehner
  9
$REQUIREDVERSIONS
160
                 0
  9
$INSBASE
 10
0.0
 20
0.0
 30
0.0
  9
$EXTMIN
 10
-69.22857142857144
 20
-29.33333333333333
 30
0.0
  9
$EXTMAX
 10
69.22857142857143
 20
198.65
 30
0.0
  9
$LIMMIN
 10
0.0
 20
0.0
  9
$LIMMAX
 10
420.0
 20
297.0
  9
$ORTHOMODE
 70
     0
  9
$REGENMODE
 70
     1
  9
$FILLMODE
 70
     1
  9
$QTEXTMODE
 70
     0
  9
$MIRRTEXT
 70
     1
  9
$LTSCALE
 40
1.0
  9
$ATTMODE
 70
     1
  9
$TEXTSIZE
 40
2.5
  9
$TRACEWID
 40
1.0
  9
$TEXTSTYLE
  7
Standard
  9
$CLAYER
  8
0
  9
$CELTYPE
  6
ByLayer
  9
$CECOLOR
 62
   256
  9
$CELTSCALE
 40
1.0
  9
$DISPSILH
 70
     0
  9
$DIMSCALE
 40
1.0
  9
$DIMASZ
 40
2.5
  9
$DIMEXO
 40
0.625
  9
$DIMDLI
 40
3.75
  9
$DIMRND
 40
0.0
  9
$DIMDLE
 40
0.0
  9
$DIMEXE
 40
1.25
  9
$DIMTP
 40
0.0
  9
$DIMTM
 40
0.0
  9
$DIMTXT
 40
2.5
  9
$DIMCEN
 40
2.5
  9
$DIMTSZ
 40
0.0
  9
$DIMTOL
 70
     0
  9
$DIMLIM
 70
     0
  9
$DIMTIH
 70
     0
  9
$DIMTOH
 70
     0
  9
$DIMSE1
 70
     0
  9
$DIMSE2
 70
     0
  9
$DIMTAD
 70
     1
  9
$DIMZIN
 70
     8
  9
$DIMBLK
  1

  9
$DIMASO
 70
     1
  9
$DIMSHO
 70
     1
  9
$DIMPOST
  1

  9
$DIMAPOST
  1

  9
$DIMALT
 70
     0
  9
$DIMALTD
 70
     3
  9
$DIMALTF
 40
0.03937007874016
  9
$DIMLFAC
 40
1.0
  9
$DIMTOFL
 70
     1
  9
$DIMTVP
 40
0.0
  9
$DIMTIX
 70
     0
  9
$DIMSOXD
 70
     0
  9
$DIMSAH
 70
     0
  9
$DIMBLK1
  1

  9
$DIMBLK2
  1

  9
$DIMSTYLE
  2
ISO-25
  9
$DIMCLRD
 70
     0
  9
$DIMCLRE
 70
     0
  9
$DIMCLRT
 70
     0
  9
$DIMTFAC
 40
1.0
  9
$DIMGAP
 40
0.625
  9
$DIMJUST
 70
     0
  9
$DIMSD1
 70
     0
  9
$DIMSD2
 70
     0
  9
$DIMTOLJ
 70
     0
  9
$DIMTZIN
 70
     8
  9
$DIMALTZ
 70
     0
  9
$DIMALTTZ
 70
     0
  9
$DIMUPT
 70
     0
  9
$DIMDEC
 70
     2
  9
$DIMTDEC
 70
     2
  9
$DIMALTU
 70
     2
  9
$DIMALTTD
 70
     3
  9
$DIMTXSTY
  7
Standard
  9
$DIMAUNIT
 70
     0
  9
$DIMADEC
 70
     0
  9
$DIMALTRND
 40
0.0
  9
$DIMAZIN
 70
     0
  9
$DIMDSEP
 70
    44
  9
$DIMATFIT
 70
     3
  9
$DIMFRAC
 70
     0
  9
$DIMLDRBLK
  1

  9
$DIMLUNIT
 70
     2
  9
$DIMLWD
 70
    -2
  9
$DIMLWE
 70
    -2
  9
$DIMTMOVE
 70
     0
  9
$DIMFXL
 40
1.0
  9
$DIMFXLON
 70
     0
  9
$DIMJOGANG
 40
0.7853981633974483
  9
$DIMTFILL
 70
     0
  9
$DIMTFILLCLR
 70
     0
  9
$DIMARCSYM
 70
     0
  9
$DIMLTYPE
  6

  9
$DIMLTEX1
  6

  9
$DIMLTEX2
  6

  9
$DIMTXTDIRECTION
 70
     0
  9
$LUNITS
 70
     2
  9
$LUPREC
 70
     4
  9
$SKETCHINC
 40
1.0
  9
$FILLETRAD
 40
10.0
  9
$AUNITS
 70
     0
  9
$AUPREC
 70
     0
  9
$MENU
  1
.
  9
$ELEVATION
 40
0.0
  9
$PELEVATION
 40
0.0
  9
$THICKNESS
 40
0.0
  9
$LIMCHECK
 70
     0
  9
$CHAMFERA
 40
0.0
  9
$CHAMFERB
 40
0.0
  9
$CHAMFERC
 40
0.0
  9
$CHAMFERD
 40
0.0
  9
$SKPOLY
 70
     0
  9
$TDCREATE
 40
2460299.549487662
  9
$TDUCREATE
 40
2460299.507820996
  9
$TDUPDATE
 40
2460299.549488021
  9
$TDUUPDATE
 40
2460299.507821354
  9
$TDINDWG
 40
0.0000000116
  9
$TDUSRTIMER
 40
0.0000000116
  9
$USRTIMER
 70
     1
  9
$ANGBASE
 50
0.0
  9
$ANGDIR
 70
     0
  9
$PDMODE
 70
     0
  9
$PDSIZE
 40
0.0
  9
$PLINEWID
 40
0.0
  9
$SPLFRAME
 70
     0
  9
$SPLINETYPE
 70
     6
  9
$SPLINESEGS
 70
     8
  9
$HANDSEED
  5
237
  9
$SURFTAB1
 70
     6
  9
$SURFTAB2
 70
     6
  9
$SURFTYPE
 70
     6
  9
$SURFU
 70
     6
  9
$SURFV
 70
     6
  9
$UCSBASE
  2

  9
$UCSNAME
  2

  9
$UCSORG
 10
0.0
 20
0.0
 30
0.0
  9
$UCSXDIR
 10
1.0
 20
0.0
 30
0.0
  9
$UCSYDIR
 10
0.0
 20
1.0
 30
0.0
  9
$UCSORTHOREF
  2

  9
$UCSORTHOVIEW
 70
     0
  9
$UCSORGTOP
 10
0.0
 20
0.0
 30
0.0
  9
$UCSORGBOTTOM
 10
0.0
 20
0.0
 30
0.0
  9
$UCSORGLEFT
 10
0.0
 20
0.0
 30
0.0
  9
$UCSORGRIGHT
 10
0.0
 20
0.0
 30
0.0
  9
$UCSORGFRONT
 10
0.0
 20
0.0
 30
0.0
  9
$UCSORGBACK
 10
0.0
 20
0.0
 30
0.0
  9
$PUCSBASE
  2

  9
$PUCSNAME
  2

  9
$PUCSORG
 10
0.0
 20
0.0
 30
0.0
  9
$PUCSXDIR
 10
1.0
 20
0.0
 30
0.0
  9
$PUCSYDIR
 10
0.0
 20
1.0
 30
0.0
  9
$PUCSORTHOREF
  2

  9
$PUCSORTHOVIEW
 70
     0
  9
$PUCSORGTOP
 10
0.0
 20
0.0
 30
0.0
  9
$PUCSORGBOTTOM
 10
0.0
 20
0.0
 30
0.0
  9
$PUCSORGLEFT
 10
0.0
 20
0.0
 30
0.0
  9
$PUCSORGRIGHT
 10
0.0
 20
0.0
 30
0.0
  9
$PUCSORGFRONT
 10
0.0
 20
0.0
 30
0.0
  9
$PUCSORGBACK
 10
0.0
 20
0.0
 30
0.0
  9
$USERI1
 70
     0
  9
$USERI2
 70
     0
  9
$USERI3
 70
     0
  9
$USERI4
 70
     0
  9
$USERI5
 70
     0
  9
$USERR1
 40
0.0
  9
$USERR2
 40
0.0
  9
$USERR3
 40
0.0
  9
$USERR4
 40
0.0
  9
$USERR5
 40
0.0
  9
$WORLDVIEW
 70
     1
  9
$SHADEDGE
 70
     3
  9
$SHADEDIF
 70
    70
  9
$TILEMODE
 70
     1
  9
$MAXACTVP
 70
    64
  9
$PINSBASE
 10
0.0
 20
0.0
 30
0.0
  9
$PLIMCHECK
 70
     0
  9
$PEXTMIN
 10
1.000000000000000E+20
 20
1.000000000000000E+20
 30
1.000000000000000E+20
  9
$PEXTMAX
 10
-1.000000000000000E+20
 20
-1.000000000000000E+20
 30
-1.000000000000000E+20
  9
$PLIMMIN
 10
0.0
 20
0.0
  9
$PLIMMAX
 10
420.0
 20
297.0
  9
$UNITMODE
 70
     0
  9
$VISRETAIN
 70
     1
  9
$PLINEGEN
 70
     0
  9
$PSLTSCALE
 70
     1
  9
$TREEDEPTH
 70
  3020
  9
$CMLSTYLE
  2
Standard
  9
$CMLJUST
 70
     0
  9
$CMLSCALE
 40
20.0
  9
$PROXYGRAPHICS
 70
     1
  9
$MEASUREMENT
 70
     1
  9
$CELWEIGHT
370
    -1
  9
$ENDCAPS
280
     0
  9
$JOINSTYLE
280
     0
  9
$LWDISPLAY
290
     0
  9
$INSUNITS
 70
     4
  9
$HYPERLINKBASE
  1

  9
$STYLESHEET
  1

  9
$XEDIT
290
     1
  9
$CEPSNTYPE
380
     0
  9
$PSTYLEMODE
290
     1
  9
$FINGERPRINTGUID
  2
{f9bcf499-22ed-4a4f-be2f-8f92ad65b6f0}
  9
$VERSIONGUID
  2
{FAEB1C32-E019-11D5-929B-00C0DF256EC4}
  9
$EXTNAMES
290
     1
  9
$PSVPSCALE
 40
0.0
  9
$OLESTARTUP
290
     0
  9
$SORTENTS
280
   127
  9
$INDEXCTL
280
     0
  9
$HIDETEXT
280
     1
  9
$XCLIPFRAME
280
     2
  9
$HALOGAP
280
     0
  9
$OBSCOLOR
 70
   257
  9
$OBSLTYPE
280
     0
  9
$INTERSECTIONDISPLAY
280
     0
  9
$INTERSECTIONCOLOR
 70
   257
  9
$DIMASSOC
280
     2
  9
$PROJECTNAME
  1

  9
$CAMERADISPLAY
290
     0
  9
$LENSLENGTH
 40
50.0
  9
$CAMERAHEIGHT
 40
0.0
  9
$STEPSPERSEC
 40
2.0
  9
$STEPSIZE
 40
6.0
  9
$3DDWFPREC
 40
2.0
  9
$PSOLWIDTH
 40
5.0
  9
$PSOLHEIGHT
 40
80.0
  9
$LOFTANG1
 40
1.570796326794897
  9
$LOFTANG2
 40
1.570796326794897
  9
$LOFTMAG1
 40
0.0
  9
$LOFTMAG2
 40
0.0
  9
$LOFTPARAM
 70
     7
  9
$LOFTNORMALS
280
     1
  9
$LATITUDE
 40
37.795
  9
$LONGITUDE
 40
-122.394
  9
$NORTHDIRECTION
 40
0.0
  9
$TIMEZONE
 70
 -8000
  9
$LIGHTGLYPHDISPLAY
280
     1
  9
$TILEMODELIGHTSYNCH
280
     1
  9
$CMATERIAL
347
44
  9
$SOLIDHIST
280
     0
  9
$SHOWHIST
280
     1
  9
$DWFFRAME
280
     2
  9
$DGNFRAME
280
     2
  9
$REALWORLDSCALE
290
     1
  9
$INTERFERECOLOR
 62
   256
  9
$CSHADOW
280
     0
  9
$SHADOWPLANELOCATION
 40
0.0
  0
ENDSEC
  0
SECTION
  2
CLASSES
  0
CLASS
  1
ACDBDICTIONARYWDFLT
  2
AcDbDictionaryWithDefault
  3
ObjectDBX Classes
 90
        0
 91
        3
280
     0
281
     0
  0
CLASS
  1
VISUALSTYLE
  2
AcDbVisualStyle
  3
ObjectDBX Classes
 90
     4095
 91
        3
280
     0
281
     0
  0
CLASS
  1
MATERIAL
  2
AcDbMaterial
  3
ObjectDBX Classes
 90
     1153
 91
        3
280
     0
281
     0
  0
CLASS
  1
SCALE
  2
AcDbScale
  3
ObjectDBX Classes
 90
     1153
 91
        3
280
     0
281
     0
  0
CLASS
  1
TABLESTYLE
  2
AcDbTableStyle
  3
ObjectDBX Classes
 90
     4095
 91
        3
280
     0
281
     0
  0
CLASS
  1
MLEADERSTYLE
  2
AcDbMLeaderStyle
  3
ACDB_MLEADERSTYLE_CLASS
 90
     4095
 91
        3
280
     0
281
     0
  0
CLASS
  1
SUN
  2
AcDbSun
  3
SCENEOE
 90
     1153
 91
        3
280
     0
281
     0
  0
CLASS
  1
DICTIONARYVAR
  2
AcDbDictionaryVar
  3
ObjectDBX Classes
 90
        0
 91
        3
280
     0
281
     0
  0
CLASS
  1
CELLSTYLEMAP
  2
AcDbCellStyleMap
  3
ObjectDBX Classes
 90
     1152
 91
        3
280
     0
281
     0
  0
ENDSEC
  0
SECTION
  2
TABLES
  0
TABLE
  2
VPORT
  5
8
330
0
100
AcDbSymbolTable
 70
     1
  0
VPORT
  5
29
330
8
100
AcDbSymbolTableRecord
100
AcDbViewportTableRecord
  2
*Active
 70
     0
 10
0.0
 20
0.0
 11
1.0
 21
1.0
 12
0.0
 22
84.65833333333336
 13
0.0
 23
0.0
 14
10.0
 24
10.0
 15
10.0
 25
10.0
 16
0.0
 26
0.0
 36
1.0
 17
0.0
 27
0.0
 37
0.0
 40
232.543
 41
0.6073125646193855
 42
50.0
 43
0.0
 44
0.0
 50
0.0
 51
0.0
 71
     0
 72
   100
 73
     1
 74
     3
 75
     0
 76
     0
 77
     0
 78
     0
281
     0
 65
     1
110
0.0
120
0.0
130
0.0
111
1.0
121
0.0
131
0.0
112
0.0
122
1.0
132
0.0
 79
     0
146
0.0
348
2F
 60
     3
 61
     5
292
     1
282
     1
141
0.0
142
0.0
 63
   250
361
5D
  0
ENDTAB
  0
TABLE
  2
LTYPE
  5
5
330
0
100
AcDbSymbolTable
 70
     3
  0
LTYPE
  5
14
330
5
100
AcDbSymbolTableRecord
100
AcDbLinetypeTableRecord
  2
ByBlock
 70
     0
  3

 72
    65
 73
     0
 40
0.0
  0
LTYPE
  5
15
330
5
100
AcDbSymbolTableRecord
100
AcDbLinetypeTableRecord
  2
ByLayer
 70
     0
  3

 72
    65
 73
     0
 40
0.0
  0
LTYPE
  5
16
330
5
100
AcDbSymbolTableRecord
100
AcDbLinetypeTableRecord
  2
Continuous
 70
     0
  3
Solid line
 72
    65
 73
     0
 40
0.0
  0
LTYPE
  5
86
330
5
100
AcDbSymbolTableRecord
100
AcDbLinetypeTableRecord
  2
Dashed
 70
     0
  3

 72
    65
 73
     2
 40
2.0
 49
1.0
 74
     0
 49
-1.0
 74
     0
  0
LTYPE
  5
AE
330
5
100
AcDbSymbolTableRecord
100
AcDbLinetypeTableRecord
  2
Center
 70
     0
  3

 72
    65
 73
     4
 40
1.5
 49
0.45
 74
     0
 49
-0.5
 74
     0
 49
0.05
 74
     0
 49
-0.5
 74
     0
  0
ENDTAB
  0
TABLE
  2
LAYER
  5
2
330
0
100
AcDbSymbolTable
 70
     8
  0
LAYER
  5
10
330
2
100
AcDbSymbolTableRecord
100
AcDbLayerTableRecord
  2
0
 70
     0
 62
     7
  6
Continuous
370
    -3
390
F
347
46
348
0
  0
LAYER
  5
5E
330
2
100
AcDbSymbolTableRecord
100
AcDbLayerTableRecord
  2
attrib
 70
     0
 62
    -2
  6
Continuous
370
    35
390
F
347
46
348
0
  0
LAYER
  5
87
330
2
100
AcDbSymbolTableRecord
100
AcDbLayerTableRecord
  2
hidden
 70
     0
 62
    -6
  6
Dashed
370
    25
390
F
347
46
348
0
  0
LAYER
  5
AF
330
2
100
AcDbSymbolTableRecord
100
AcDbLayerTableRecord
  2
center
 70
     0
 62
    -7
  6
Center
370
    25
390
F
347
46
348
0
  0
LAYER
  5
147
330
2
100
AcDbSymbolTableRecord
100
AcDbLayerTableRecord
  2
bold
 70
     0
 62
     7
  6
Continuous
370
    50
390
F
347
46
348
0
  0
LAYER
  5
1D6
330
2
100
AcDbSymbolTableRecord
100
AcDbLayerTableRecord
  2
dimension
 70
     0
 62
    -5
  6
Continuous
370
    25
390
F
347
46
348
0
  0
LAYER
  5
1D8
330
2
100
AcDbSymbolTableRecord
100
AcDbLayerTableRecord
  2
Defpoints
 70
     0
 62
     7
  6
Continuous
290
     0
370
    -3
390
F
347
46
348
0
  0
LAYER
  5
221
330
2
100
AcDbSymbolTableRecord
100
AcDbLayerTableRecord
  2
connection
 70
     0
 62
    -7
  6
Continuous
370
    50
390
F
347
46
348
0
  0
ENDTAB
  0
TABLE
  2
STYLE
  5
3
330
0
100
AcDbSymbolTable
 70
     1
  0
STYLE
  5
11
330
3
100
AcDbSymbolTableRecord
100
AcDbTextStyleTableRecord
  2
Standard
 70
     0
 40
0.0
 41
1.0
 50
0.0
 71
     0
 42
2.5
  3
txt
  4

  0
ENDTAB
  0
TABLE
  2
VIEW
  5
6
330
0
100
AcDbSymbolTable
 70
     0
  0
ENDTAB
  0
TABLE
  2
UCS
  5
7
330
0
100
AcDbSymbolTable
 70
     0
  0
ENDTAB
  0
TABLE
  2
APPID
  5
9
330
0
100
AcDbSymbolTable
 70
     1
  0
APPID
  5
12
330
9
100
AcDbSymbolTableRecord
100
AcDbRegAppTableRecord
  2
ACAD
 70
     0
  0
ENDTAB
  0
TABLE
  2
DIMSTYLE
  5
A
330
0
100
AcDbSymbolTable
 70
     1
100
AcDbDimStyleTable
  0
DIMSTYLE
105
27
102
{ACAD_REACTORS
330
1D7
330
1E5
330
1F5
330
205
330
213
102
}
330
A
100
AcDbSymbolTableRecord
100
AcDbDimStyleTableRecord
  2
ISO-25
 70
     0
 41
2.5
 42
0.625
 43
3.75
 44
1.25
 73
     0
 74
     0
 77
     1
 78
     8
140
2.5
141
2.5
143
0.03937007874016
147
0.625
171
     3
172
     1
178
     0
271
     2
272
     2
274
     3
278
    44
283
     0
284
     8
340
11
  0
ENDTAB
  0
TABLE
  2
BLOCK_RECORD
  5
1
330
0
100
AcDbSymbolTable
 70
    12
  0
BLOCK_RECORD
  5
1F
330
1
100
AcDbSymbolTableRecord
100
AcDbBlockTableRecord
  2
*Model_Space
340
22
 70
     0
280
     1
281
     0
  0
BLOCK_RECORD
  5
1B
330
1
100
AcDbSymbolTableRecord
100
AcDbBlockTableRecord
  2
*Paper_Space
340
1E
 70
     0
280
     1
281
     0
  0
BLOCK_RECORD
  5
23
330
1
100
AcDbSymbolTableRecord
100
AcDbBlockTableRecord
  2
*Paper_Space0
340
26
 70
     0
280
     1
281
     0
  0
BLOCK_RECORD
  5
72
330
1
100
AcDbSymbolTableRecord
100
AcDbBlockTableRecord
  2
1_30134000_01401_1_0_in_01401_0
340
0
102
{BLKREFS
331
73
102
}
 70
     0
280
     1
281
     0
  0
BLOCK_RECORD
  5
B2
330
1
100
AcDbSymbolTableRecord
100
AcDbBlockTableRecord
  2
2_30134000_01401_2_0_in_01401_0
340
0
102
{BLKREFS
331
B3
102
}
 70
     0
280
     1
281
     0
  0
BLOCK_RECORD
  5
EF
330
1
100
AcDbSymbolTableRecord
100
AcDbBlockTableRecord
  2
3_30134000_01401_3_0_in_01401_0
340
0
102
{BLKREFS
331
F0
102
}
 70
     0
280
     1
281
     0
  0
BLOCK_RECORD
  5
12B
330
1
100
AcDbSymbolTableRecord
100
AcDbBlockTableRecord
  2
4_77082000_0_in_01401_0
340
0
102
{BLKREFS
331
12C
102
}
 70
     0
280
     1
281
     0
  0
BLOCK_RECORD
  5
164
330
1
100
AcDbSymbolTableRecord
100
AcDbBlockTableRecord
  2
5_77176000_0_in_01401_0
340
0
102
{BLKREFS
331
165
102
}
 70
     0
280
     1
281
     0
  0
BLOCK_RECORD
  5
19D
330
1
100
AcDbSymbolTableRecord
100
AcDbBlockTableRecord
  2
6_77175000_0_in_01401_0
340
0
102
{BLKREFS
331
19E
102
}
 70
     0
280
     1
281
     0
  0
BLOCK_RECORD
  5
1D9
330
1
100
AcDbSymbolTableRecord
100
AcDbBlockTableRecord
  2
*D7
340
0
 70
     0
280
     1
281
     0
  0
BLOCK_RECORD
  5
1E6
330
1
100
AcDbSymbolTableRecord
100
AcDbBlockTableRecord
  2
*D8
340
0
 70
     0
280
     1
281
     0
  0
BLOCK_RECORD
  5
1F6
330
1
100
AcDbSymbolTableRecord
100
AcDbBlockTableRecord
  2
*D9
340
0
 70
     0
280
     1
281
     0
  0
BLOCK_RECORD
  5
206
330
1
100
AcDbSymbolTableRecord
100
AcDbBlockTableRecord
  2
*D10
340
0
 70
     0
280
     1
281
     0
  0
BLOCK_RECORD
  5
214
330
1
100
AcDbSymbolTableRecord
100
AcDbBlockTableRecord
  2
*D11
340
0
 70
     0
280
     1
281
     0
  0
ENDTAB
  0
ENDSEC
  0
SECTION
  2
BLOCKS
  0
BLOCK
  5
20
330
1F
100
AcDbEntity
  8
0
100
AcDbBlockBegin
  2
*Model_Space
 70
     2
 10
0.0
 20
0.0
 30
0.0
  3
*Model_Space
  1

  0
ENDBLK
  5
21
330
1F
100
AcDbEntity
  8
0
100
AcDbBlockEnd
  0
BLOCK
  5
1C
330
1B
100
AcDbEntity
 67
     1
  8
0
100
AcDbBlockBegin
  2
*Paper_Space
 70
     0
 10
0.0
 20
0.0
 30
0.0
  3
*Paper_Space
  1

  0
ENDBLK
  5
1D
330
1B
100
AcDbEntity
 67
     1
  8
0
100
AcDbBlockEnd
  0
BLOCK
  5
24
330
23
100
AcDbEntity
  8
0
100
AcDbBlockBegin
  2
*Paper_Space0
 70
     0
 10
0.0
 20
0.0
 30
0.0
  3
*Paper_Space0
  1

  0
ENDBLK
  5
25
330
23
100
AcDbEntity
  8
0
100
AcDbBlockEnd
  0
BLOCK
  5
74
330
72
100
AcDbEntity
  8
0
100
AcDbBlockBegin
  2
1_30134000_01401_1_0_in_01401_0
 70
     2
 10
0.0
 20
0.0
 30
0.0
  3
1_30134000_01401_1_0_in_01401_0
  1

  0
ATTDEF
  5
76
330
72
100
AcDbEntity
  8
attrib
100
AcDbText
 10
30.99999999999999
 20
34.0
 30
0.0
 40
0.5
  1
30134000 01401
100
AcDbAttributeDefinition
  3

  2
NB
 70
     8
280
     0
  0
ATTDEF
  5
77
330
72
100
AcDbEntity
  8
attrib
100
AcDbText
 10
30.99999999999999
 20
33.5
 30
0.0
 40
0.5
  1
Terminal plates cap
100
AcDbAttributeDefinition
  3

  2
NN
 70
     8
280
     0
  0
ATTDEF
  5
78
330
72
100
AcDbEntity
  8
attrib
100
AcDbText
 10
30.99999999999999
 20
33.0
 30
0.0
 40
0.5
  1

100
AcDbAttributeDefinition
  3

  2
NT
 70
     8
280
     0
  0
ATTDEF
  5
79
330
72
100
AcDbEntity
  8
attrib
100
AcDbText
 10
30.99999999999999
 20
32.5
 30
0.0
 40
0.5
  1
$BOM. $ARTNR.
100
AcDbAttributeDefinition
  3

  2
NBSYN
 70
     8
280
     0
  0
ATTDEF
  5
7A
330
72
100
AcDbEntity
  8
attrib
100
AcDbText
 10
30.99999999999999
 20
32.0
 30
0.0
 40
0.5
  1
30134000
100
AcDbAttributeDefinition
  3

  2
LINA
 70
     8
280
     0
  0
ATTDEF
  5
7B
330
72
100
AcDbEntity
  8
attrib
100
AcDbText
 10
30.99999999999999
 20
31.5
 30
0.0
 40
0.5
  1
Wöhner
100
AcDbAttributeDefinition
  3

  2
CATALOG
 70
     8
280
     0
  0
ATTDEF
  5
7C
330
72
100
AcDbEntity
  8
attrib
100
AcDbText
 10
30.99999999999999
 20
31.0
 30
0.0
 40
0.5
  1
01401
100
AcDbAttributeDefinition
  3

  2
ARTNR
 70
     8
280
     0
  0
ATTDEF
  5
7D
330
72
100
AcDbEntity
  8
attrib
100
AcDbText
 10
30.99999999999999
 20
30.5
 30
0.0
 40
0.5
  1
1
100
AcDbAttributeDefinition
  3

  2
QNT
 70
     8
280
     0
  0
ATTDEF
  5
7E
330
72
100
AcDbEntity
  8
attrib
100
AcDbText
 10
30.99999999999999
 20
30.0
 30
0.0
 40
0.5
  1
54
100
AcDbAttributeDefinition
  3

  2
W
 70
     8
280
     0
  0
ATTDEF
  5
7F
330
72
100
AcDbEntity
  8
attrib
100
AcDbText
 10
30.99999999999999
 20
29.5
 30
0.0
 40
0.5
  1
160
100
AcDbAttributeDefinition
  3

  2
H
 70
     8
280
     0
  0
ATTDEF
  5
80
330
72
100
AcDbEntity
  8
attrib
100
AcDbText
 10
30.99999999999999
 20
29.0
 30
0.0
 40
0.5
  1
84
100
AcDbAttributeDefinition
  3

  2
D
 70
     8
280
     0
  0
ATTDEF
  5
81
330
72
100
AcDbEntity
  8
attrib
100
AcDbText
 10
30.99999999999999
 20
28.5
 30
0.0
 40
0.5
  1
Product link
100
AcDbAttributeDefinition
  3

  2
LINK
 70
     8
280
     0
  0
ATTDEF
  5
82
330
72
100
AcDbEntity
  8
attrib
100
AcDbText
 10
30.99999999999999
 20
28.0
 30
0.0
 40
0.5
  1
woehner
100
AcDbAttributeDefinition
  3

  2
COMPANY
 70
     8
280
     0
  0
ATTDEF
  5
83
330
72
100
AcDbEntity
  8
attrib
100
AcDbText
 10
30.99999999999999
 20
27.5
 30
0.0
 40
0.5
  1
{$CADENAS_DATA/23d-libs/woehner/sys_30_c_3pole/connection_technology_and_covers/parts/terminal_plates_clamp.prj},176 {VTYP=3D},{NB=30134000 01401},{LINA=30134000},{NN=Terminal plates cap},{DATE=04.11.2022 07:06:04},{GEOMDATE=15.09.2022 10:38:00},{VERSION=
100
AcDbAttributeDefinition
  3

  2
PSOL_0
 70
     9
280
     0
  0
ATTDEF
  5
84
330
72
100
AcDbEntity
  8
attrib
100
AcDbText
 10
30.99999999999999
 20
27.0
 30
0.0
 40
0.5
  1
},{LINEID=360},{WBVAR=},{WBNUMERIC=}  {NB=30134000 01401},{LINA=30134000},{KT=DUMMY},{SYSTEM185=1},{BOM=30134000},{ARTNR=01401},{BUSB=12 x 5, 10},{POF=CRITO®30Compact},{TYPE=240C-L},{QNT=1},{W=54},{H=160},{D=84},{CONCA=},{SCR=},{IPR=},{SEARCH=},{EDZ=},{IO
100
AcDbAttributeDefinition
  3

  2
PSOL_1
 70
     9
280
     0
  0
ATTDEF
  5
85
330
72
100
AcDbEntity
  8
attrib
100
AcDbText
 10
30.99999999999999
 20
26.5
 30
0.0
 40
0.5
  1
DD=},{DIST=4},{LINK=Product link},{LINKX=https://www.woehner.de/de/produkte/01401.html}
100
AcDbAttributeDefinition
  3

  2
PSOL_2
 70
     9
280
     0
  0
LINE
  5
88
330
72
100
AcDbEntity
  8
hidden
100
AcDbLine
 10
7.999999999999989
 20
32.0
 30
0.0
 11
11.03449999999999
 21
32.0
 31
0.0
  0
LINE
  5
89
330
72
100
AcDbEntity
  8
hidden
100
AcDbLine
 10
7.999999999999989
 20
16.0
 30
0.0
 11
11.03449999999999
 21
16.0
 31
0.0
  0
LINE
  5
8A
330
72
100
AcDbEntity
  8
hidden
100
AcDbLine
 10
22.96549999999999
 20
16.0
 30
0.0
 11
25.99999999999999
 21
16.0
 31
0.0
  0
LINE
  5
8B
330
72
100
AcDbEntity
  8
hidden
100
AcDbLine
 10
22.96549999999999
 20
32.0
 30
0.0
 11
25.99999999999999
 21
32.0
 31
0.0
  0
LINE
  5
8C
330
72
100
AcDbEntity
  8
hidden
100
AcDbLine
 10
7.999999999999989
 20
14.0
 30
0.0
 11
11.03449999999999
 21
14.0
 31
0.0
  0
LINE
  5
8D
330
72
100
AcDbEntity
  8
hidden
100
AcDbLine
 10
22.96549999999999
 20
14.0
 30
0.0
 11
25.99999999999999
 21
14.0
 31
0.0
  0
LINE
  5
8E
330
72
100
AcDbEntity
  8
hidden
100
AcDbLine
 10
7.999999999999989
 20
22.0
 30
0.0
 11
11.03449999999999
 21
22.0
 31
0.0
  0
LINE
  5
8F
330
72
100
AcDbEntity
  8
hidden
100
AcDbLine
 10
7.999999999999989
 20
23.0
 30
0.0
 11
11.03449999999999
 21
23.0
 31
0.0
  0
LINE
  5
90
330
72
100
AcDbEntity
  8
hidden
100
AcDbLine
 10
22.96549999999999
 20
23.0
 30
0.0
 11
25.99999999999999
 21
23.0
 31
0.0
  0
LINE
  5
91
330
72
100
AcDbEntity
  8
hidden
100
AcDbLine
 10
22.96549999999999
 20
22.0
 30
0.0
 11
25.99999999999999
 21
22.0
 31
0.0
  0
LINE
  5
92
330
72
100
AcDbEntity
  8
hidden
100
AcDbLine
 10
7.999999999999989
 20
11.5
 30
0.0
 11
11.03449999999999
 21
11.5
 31
0.0
  0
LINE
  5
93
330
72
100
AcDbEntity
  8
hidden
100
AcDbLine
 10
22.96549999999999
 20
11.5
 30
0.0
 11
25.99999999999999
 21
11.5
 31
0.0
  0
LINE
  5
94
330
72
100
AcDbEntity
  8
hidden
100
AcDbLine
 10
11.03449999999999
 20
14.50683034310981
 30
0.0
 11
22.96549999999999
 21
14.50683034310981
 31
0.0
  0
LINE
  5
95
330
72
100
AcDbEntity
  8
hidden
100
AcDbLine
 10
11.03449999999999
 20
21.4931696568902
 30
0.0
 11
22.96549999999999
 21
21.4931696568902
 31
0.0
  0
LINE
  5
96
330
72
100
AcDbEntity
  8
hidden
100
AcDbLine
 10
11.03449999999999
 20
26.0
 30
0.0
 11
22.96549999999999
 21
26.0
 31
0.0
  0
LINE
  5
97
330
72
100
AcDbEntity
  8
hidden
100
AcDbLine
 10
11.03449999999999
 20
10.0
 30
0.0
 11
22.96549999999999
 21
10.0
 31
0.0
  0
LINE
  5
98
330
72
100
AcDbEntity
  8
hidden
100
AcDbLine
 10
13.03449999999999
 20
18.52422299644331
 30
0.0
 11
13.03449999999999
 21
34.0
 31
0.0
  0
LINE
  5
99
330
72
100
AcDbEntity
  8
hidden
100
AcDbLine
 10
13.03449999999999
 20
9.500000000000002
 30
0.0
 11
13.03449999999999
 21
17.47577700355669
 31
0.0
  0
LINE
  5
9A
330
72
100
AcDbEntity
  8
hidden
100
AcDbLine
 10
11.03449999999999
 20
9.500000000000002
 30
0.0
 11
11.03449999999999
 21
34.0
 31
0.0
  0
LINE
  5
9B
330
72
100
AcDbEntity
  8
hidden
100
AcDbLine
 10
20.96549999999999
 20
18.52422299644331
 30
0.0
 11
20.96549999999999
 21
34.0
 31
0.0
  0
LINE
  5
9C
330
72
100
AcDbEntity
  8
hidden
100
AcDbLine
 10
20.96549999999999
 20
9.500000000000002
 30
0.0
 11
20.96549999999999
 21
17.47577700355669
 31
0.0
  0
LINE
  5
9D
330
72
100
AcDbEntity
  8
hidden
100
AcDbLine
 10
20.99055750606327
 20
18.27468307338095
 30
0.0
 11
20.96549999999999
 21
18.52422299644331
 31
0.0
  0
LINE
  5
9E
330
72
100
AcDbEntity
  8
hidden
100
AcDbLine
 10
20.99999960847797
 20
17.99823020453608
 30
0.0
 11
20.99055750606327
 21
18.27468307338095
 31
0.0
  0
LWPOLYLINE
  5
9F
330
72
100
AcDbEntity
  8
hidden
100
AcDbPolyline
 90
        3
 70
     0
 43
0.0
 10
20.96549999999999
 20
17.47577700355669
 10
20.99999740032462
 20
17.99543958376808
 10
20.99999960847797
 20
17.99823020453608
  0
LINE
  5
A0
330
72
100
AcDbEntity
  8
hidden
100
AcDbLine
 10
22.96549999999999
 20
9.500000000000002
 30
0.0
 11
22.96549999999999
 21
34.0
 31
0.0
  0
LINE
  5
A1
330
72
100
AcDbEntity
  8
hidden
100
AcDbLine
 10
25.99999999999999
 20
34.0
 30
0.0
 11
7.999999999999989
 21
34.0
 31
0.0
  0
LINE
  5
A2
330
72
100
AcDbEntity
  8
hidden
100
AcDbLine
 10
7.999999999999989
 20
9.500000000000002
 30
0.0
 11
7.999999999999989
 21
10.62599999999999
 31
0.0
  0
LINE
  5
A3
330
72
100
AcDbEntity
  8
hidden
100
AcDbLine
 10
7.999999999999989
 20
9.500000000000002
 30
0.0
 11
25.99999999999999
 21
9.500000000000002
 31
0.0
  0
LINE
  5
A4
330
72
100
AcDbEntity
  8
hidden
100
AcDbLine
 10
25.99999999999999
 20
9.500000000000002
 30
0.0
 11
25.99999999999999
 21
34.0
 31
0.0
  0
LINE
  5
A5
330
72
100
AcDbEntity
  8
hidden
100
AcDbLine
 10
9.999999999999991
 20
9.500000000000002
 30
0.0
 11
9.999999999999991
 21
12.62599999999999
 31
0.0
  0
LINE
  5
A6
330
72
100
AcDbEntity
  8
hidden
100
AcDbLine
 10
23.99999999999999
 20
9.500000000000002
 30
0.0
 11
23.99999999999999
 21
34.0
 31
0.0
  0
LINE
  5
A7
330
72
100
AcDbEntity
  8
hidden
100
AcDbLine
 10
18.15470053837924
 20
16.0
 30
0.0
 11
19.30940107675849
 21
18.0
 31
0.0
  0
CIRCLE
  5
A8
330
72
100
AcDbEntity
  8
hidden
100
AcDbCircle
 10
16.99999999999999
 20
18.0
 30
0.0
 40
4.0
  0
LINE
  5
A9
330
72
100
AcDbEntity
  8
hidden
100
AcDbLine
 10
14.69059892324149
 20
18.0
 30
0.0
 11
15.84529946162074
 21
16.0
 31
0.0
  0
LINE
  5
AA
330
72
100
AcDbEntity
  8
hidden
100
AcDbLine
 10
15.84529946162074
 20
20.0
 30
0.0
 11
14.69059892324149
 21
18.0
 31
0.0
  0
LINE
  5
AB
330
72
100
AcDbEntity
  8
hidden
100
AcDbLine
 10
18.15470053837924
 20
20.0
 30
0.0
 11
15.84529946162074
 21
20.0
 31
0.0
  0
LINE
  5
AC
330
72
100
AcDbEntity
  8
hidden
100
AcDbLine
 10
19.30940107675849
 20
18.0
 30
0.0
 11
18.15470053837924
 21
20.0
 31
0.0
  0
LINE
  5
AD
330
72
100
AcDbEntity
  8
hidden
100
AcDbLine
 10
18.15470053837924
 20
16.0
 30
0.0
 11
15.84529946162074
 21
16.0
 31
0.0
  0
LINE
  5
B0
330
72
100
AcDbEntity
  8
center
100
AcDbLine
 10
12.79999999999999
 20
18.0
 30
0.0
 11
21.19999999999999
 21
18.0
 31
0.0
  0
LINE
  5
B1
330
72
100
AcDbEntity
  8
center
100
AcDbLine
 10
16.99999999999999
 20
13.8
 30
0.0
 11
16.99999999999999
 21
22.2
 31
0.0
  0
ENDBLK
  5
75
330
72
100
AcDbEntity
  8
0
100
AcDbBlockEnd
  0
BLOCK
  5
B4
330
B2
100
AcDbEntity
  8
0
100
AcDbBlockBegin
  2
2_30134000_01401_2_0_in_01401_0
 70
     2
 10
0.0
 20
0.0
 30
0.0
  3
2_30134000_01401_2_0_in_01401_0
  1

  0
ATTDEF
  5
B6
330
B2
100
AcDbEntity
  8
attrib
100
AcDbText
 10
13.99999999999999
 20
94.0
 30
0.0
 40
0.5
  1
30134000 01401
100
AcDbAttributeDefinition
  3

  2
NB
 70
     8
280
     0
  0
ATTDEF
  5
B7
330
B2
100
AcDbEntity
  8
attrib
100
AcDbText
 10
13.99999999999999
 20
93.5
 30
0.0
 40
0.5
  1
Terminal plates cap
100
AcDbAttributeDefinition
  3

  2
NN
 70
     8
280
     0
  0
ATTDEF
  5
B8
330
B2
100
AcDbEntity
  8
attrib
100
AcDbText
 10
13.99999999999999
 20
93.0
 30
0.0
 40
0.5
  1

100
AcDbAttributeDefinition
  3

  2
NT
 70
     8
280
     0
  0
ATTDEF
  5
B9
330
B2
100
AcDbEntity
  8
attrib
100
AcDbText
 10
13.99999999999999
 20
92.5
 30
0.0
 40
0.5
  1
$BOM. $ARTNR.
100
AcDbAttributeDefinition
  3

  2
NBSYN
 70
     8
280
     0
  0
ATTDEF
  5
BA
330
B2
100
AcDbEntity
  8
attrib
100
AcDbText
 10
13.99999999999999
 20
92.0
 30
0.0
 40
0.5
  1
30134000
100
AcDbAttributeDefinition
  3

  2
LINA
 70
     8
280
     0
  0
ATTDEF
  5
BB
330
B2
100
AcDbEntity
  8
attrib
100
AcDbText
 10
13.99999999999999
 20
91.5
 30
0.0
 40
0.5
  1
Wöhner
100
AcDbAttributeDefinition
  3

  2
CATALOG
 70
     8
280
     0
  0
ATTDEF
  5
BC
330
B2
100
AcDbEntity
  8
attrib
100
AcDbText
 10
13.99999999999999
 20
91.0
 30
0.0
 40
0.5
  1
01401
100
AcDbAttributeDefinition
  3

  2
ARTNR
 70
     8
280
     0
  0
ATTDEF
  5
BD
330
B2
100
AcDbEntity
  8
attrib
100
AcDbText
 10
13.99999999999999
 20
90.5
 30
0.0
 40
0.5
  1
1
100
AcDbAttributeDefinition
  3

  2
QNT
 70
     8
280
     0
  0
ATTDEF
  5
BE
330
B2
100
AcDbEntity
  8
attrib
100
AcDbText
 10
13.99999999999999
 20
90.0
 30
0.0
 40
0.5
  1
54
100
AcDbAttributeDefinition
  3

  2
W
 70
     8
280
     0
  0
ATTDEF
  5
BF
330
B2
100
AcDbEntity
  8
attrib
100
AcDbText
 10
13.99999999999999
 20
89.5
 30
0.0
 40
0.5
  1
160
100
AcDbAttributeDefinition
  3

  2
H
 70
     8
280
     0
  0
ATTDEF
  5
C0
330
B2
100
AcDbEntity
  8
attrib
100
AcDbText
 10
13.99999999999999
 20
89.0
 30
0.0
 40
0.5
  1
84
100
AcDbAttributeDefinition
  3

  2
D
 70
     8
280
     0
  0
ATTDEF
  5
C1
330
B2
100
AcDbEntity
  8
attrib
100
AcDbText
 10
13.99999999999999
 20
88.5
 30
0.0
 40
0.5
  1
Product link
100
AcDbAttributeDefinition
  3

  2
LINK
 70
     8
280
     0
  0
ATTDEF
  5
C2
330
B2
100
AcDbEntity
  8
attrib
100
AcDbText
 10
13.99999999999999
 20
88.0
 30
0.0
 40
0.5
  1
woehner
100
AcDbAttributeDefinition
  3

  2
COMPANY
 70
     8
280
     0
  0
ATTDEF
  5
C3
330
B2
100
AcDbEntity
  8
attrib
100
AcDbText
 10
13.99999999999999
 20
87.5
 30
0.0
 40
0.5
  1
{$CADENAS_DATA/23d-libs/woehner/sys_30_c_3pole/connection_technology_and_covers/parts/terminal_plates_clamp.prj},176 {VTYP=3D},{NB=30134000 01401},{LINA=30134000},{NN=Terminal plates cap},{DATE=04.11.2022 07:06:04},{GEOMDATE=15.09.2022 10:38:00},{VERSION=
100
AcDbAttributeDefinition
  3

  2
PSOL_0
 70
     9
280
     0
  0
ATTDEF
  5
C4
330
B2
100
AcDbEntity
  8
attrib
100
AcDbText
 10
13.99999999999999
 20
87.0
 30
0.0
 40
0.5
  1
},{LINEID=360},{WBVAR=},{WBNUMERIC=}  {NB=30134000 01401},{LINA=30134000},{KT=DUMMY},{SYSTEM185=1},{BOM=30134000},{ARTNR=01401},{BUSB=12 x 5, 10},{POF=CRITO®30Compact},{TYPE=240C-L},{QNT=1},{W=54},{H=160},{D=84},{CONCA=},{SCR=},{IPR=},{SEARCH=},{EDZ=},{IO
100
AcDbAttributeDefinition
  3

  2
PSOL_1
 70
     9
280
     0
  0
ATTDEF
  5
C5
330
B2
100
AcDbEntity
  8
attrib
100
AcDbText
 10
13.99999999999999
 20
86.5
 30
0.0
 40
0.5
  1
DD=},{DIST=4},{LINK=Product link},{LINKX=https://www.woehner.de/de/produkte/01401.html}
100
AcDbAttributeDefinition
  3

  2
PSOL_2
 70
     9
280
     0
  0
LINE
  5
C6
330
B2
100
AcDbEntity
  8
hidden
100
AcDbLine
 10
-9.00000000000001
 20
92.0
 30
0.0
 11
-5.965500000000009
 21
92.0
 31
0.0
  0
LINE
  5
C7
330
B2
100
AcDbEntity
  8
hidden
100
AcDbLine
 10
5.965499999999988
 20
76.0
 30
0.0
 11
8.999999999999991
 21
76.0
 31
0.0
  0
LINE
  5
C8
330
B2
100
AcDbEntity
  8
hidden
100
AcDbLine
 10
5.965499999999988
 20
92.0
 30
0.0
 11
8.999999999999991
 21
92.0
 31
0.0
  0
LINE
  5
C9
330
B2
100
AcDbEntity
  8
hidden
100
AcDbLine
 10
-9.00000000000001
 20
76.0
 30
0.0
 11
-5.965500000000009
 21
76.0
 31
0.0
  0
LINE
  5
CA
330
B2
100
AcDbEntity
  8
hidden
100
AcDbLine
 10
-9.00000000000001
 20
74.0
 30
0.0
 11
-5.965500000000009
 21
74.0
 31
0.0
  0
LINE
  5
CB
330
B2
100
AcDbEntity
  8
hidden
100
AcDbLine
 10
5.965499999999988
 20
74.0
 30
0.0
 11
8.999999999999991
 21
74.0
 31
0.0
  0
LINE
  5
CC
330
B2
100
AcDbEntity
  8
hidden
100
AcDbLine
 10
5.965499999999988
 20
82.0
 30
0.0
 11
8.999999999999991
 21
82.0
 31
0.0
  0
LINE
  5
CD
330
B2
100
AcDbEntity
  8
hidden
100
AcDbLine
 10
5.965499999999988
 20
83.0
 30
0.0
 11
8.999999999999991
 21
83.0
 31
0.0
  0
LINE
  5
CE
330
B2
100
AcDbEntity
  8
hidden
100
AcDbLine
 10
-9.00000000000001
 20
83.0
 30
0.0
 11
-5.965500000000009
 21
83.0
 31
0.0
  0
LINE
  5
CF
330
B2
100
AcDbEntity
  8
hidden
100
AcDbLine
 10
-9.00000000000001
 20
82.0
 30
0.0
 11
-5.965500000000009
 21
82.0
 31
0.0
  0
LINE
  5
D0
330
B2
100
AcDbEntity
  8
hidden
100
AcDbLine
 10
5.965499999999988
 20
71.50000000000001
 30
0.0
 11
8.999999999999991
 21
71.50000000000001
 31
0.0
  0
LINE
  5
D1
330
B2
100
AcDbEntity
  8
hidden
100
AcDbLine
 10
-9.00000000000001
 20
71.50000000000001
 30
0.0
 11
-5.965500000000009
 21
71.50000000000001
 31
0.0
  0
LINE
  5
D2
330
B2
100
AcDbEntity
  8
hidden
100
AcDbLine
 10
-5.96550000000001
 20
81.4931696568902
 30
0.0
 11
5.96549999999999
 21
81.4931696568902
 31
0.0
  0
LINE
  5
D3
330
B2
100
AcDbEntity
  8
hidden
100
AcDbLine
 10
-5.96550000000001
 20
74.50683034310981
 30
0.0
 11
5.965499999999989
 21
74.50683034310981
 31
0.0
  0
LINE
  5
D4
330
B2
100
AcDbEntity
  8
hidden
100
AcDbLine
 10
-5.96550000000001
 20
86.0
 30
0.0
 11
5.96549999999999
 21
86.0
 31
0.0
  0
LINE
  5
D5
330
B2
100
AcDbEntity
  8
hidden
100
AcDbLine
 10
-5.96550000000001
 20
70.0
 30
0.0
 11
5.965499999999989
 21
70.0
 31
0.0
  0
LINE
  5
D6
330
B2
100
AcDbEntity
  8
hidden
100
AcDbLine
 10
3.965499999999989
 20
78.52422299644331
 30
0.0
 11
3.965499999999989
 21
94.0
 31
0.0
  0
LINE
  5
D7
330
B2
100
AcDbEntity
  8
hidden
100
AcDbLine
 10
3.965499999999989
 20
69.5
 30
0.0
 11
3.965499999999989
 21
77.47577700355669
 31
0.0
  0
LINE
  5
D8
330
B2
100
AcDbEntity
  8
hidden
100
AcDbLine
 10
3.990557506063271
 20
78.27468307338096
 30
0.0
 11
3.965499999999989
 21
78.52422299644331
 31
0.0
  0
LINE
  5
D9
330
B2
100
AcDbEntity
  8
hidden
100
AcDbLine
 10
3.999999608477973
 20
77.99823020453609
 30
0.0
 11
3.990557506063271
 21
78.27468307338096
 31
0.0
  0
LINE
  5
DA
330
B2
100
AcDbEntity
  8
hidden
100
AcDbLine
 10
3.965499999999989
 20
77.47577700355669
 30
0.0
 11
3.99079340893747
 21
77.72876584436844
 31
0.0
  0
LINE
  5
DB
330
B2
100
AcDbEntity
  8
hidden
100
AcDbLine
 10
5.965499999999989
 20
69.5
 30
0.0
 11
5.965499999999989
 21
94.0
 31
0.0
  0
LINE
  5
DC
330
B2
100
AcDbEntity
  8
hidden
100
AcDbLine
 10
-3.96550000000001
 20
78.52422299644331
 30
0.0
 11
-3.96550000000001
 21
94.0
 31
0.0
  0
LINE
  5
DD
330
B2
100
AcDbEntity
  8
hidden
100
AcDbLine
 10
-3.96550000000001
 20
69.5
 30
0.0
 11
-3.96550000000001
 21
77.47577700355669
 31
0.0
  0
LINE
  5
DE
330
B2
100
AcDbEntity
  8
hidden
100
AcDbLine
 10
-5.96550000000001
 20
69.5
 30
0.0
 11
-5.96550000000001
 21
94.0
 31
0.0
  0
LINE
  5
DF
330
B2
100
AcDbEntity
  8
hidden
100
AcDbLine
 10
8.999999999999991
 20
69.5
 30
0.0
 11
8.999999999999991
 21
94.0
 31
0.0
  0
LINE
  5
E0
330
B2
100
AcDbEntity
  8
hidden
100
AcDbLine
 10
-9.00000000000001
 20
69.5
 30
0.0
 11
-9.00000000000001
 21
94.0
 31
0.0
  0
LINE
  5
E1
330
B2
100
AcDbEntity
  8
hidden
100
AcDbLine
 10
-9.00000000000001
 20
69.5
 30
0.0
 11
8.999999999999991
 21
69.5
 31
0.0
  0
LINE
  5
E2
330
B2
100
AcDbEntity
  8
hidden
100
AcDbLine
 10
8.999999999999991
 20
94.0
 30
0.0
 11
-9.00000000000001
 21
94.0
 31
0.0
  0
LINE
  5
E3
330
B2
100
AcDbEntity
  8
hidden
100
AcDbLine
 10
-7.000000000000011
 20
69.5
 30
0.0
 11
-7.000000000000011
 21
94.0
 31
0.0
  0
LINE
  5
E4
330
B2
100
AcDbEntity
  8
hidden
100
AcDbLine
 10
6.999999999999988
 20
69.5
 30
0.0
 11
6.99999999999999
 21
94.0
 31
0.0
  0
LINE
  5
E5
330
B2
100
AcDbEntity
  8
hidden
100
AcDbLine
 10
-1.00000000000001
 20
76.0
 30
0.0
 11
-1.154700538379262
 21
76.0
 31
0.0
  0
LINE
  5
E6
330
B2
100
AcDbEntity
  8
hidden
100
AcDbLine
 10
1.154700538379242
 20
76.0
 30
0.0
 11
0.9999999999999898
 21
75.99999999999999
 31
0.0
  0
LINE
  5
E7
330
B2
100
AcDbEntity
  8
hidden
100
AcDbLine
 10
2.309401076758493
 20
78.0
 30
0.0
 11
1.154700538379242
 21
80.0
 31
0.0
  0
LINE
  5
E8
330
B2
100
AcDbEntity
  8
hidden
100
AcDbLine
 10
1.154700538379242
 20
76.0
 30
0.0
 11
2.309401076758493
 21
78.0
 31
0.0
  0
LINE
  5
E9
330
B2
100
AcDbEntity
  8
hidden
100
AcDbLine
 10
-2.309401076758513
 20
78.0
 30
0.0
 11
-1.154700538379262
 21
76.0
 31
0.0
  0
CIRCLE
  5
EA
330
B2
100
AcDbEntity
  8
hidden
100
AcDbCircle
 10
-0.00000000000001
 20
78.0
 30
0.0
 40
4.0
  0
LINE
  5
EB
330
B2
100
AcDbEntity
  8
hidden
100
AcDbLine
 10
-1.154700538379262
 20
80.0
 30
0.0
 11
-2.309401076758513
 21
78.0
 31
0.0
  0
LINE
  5
EC
330
B2
100
AcDbEntity
  8
hidden
100
AcDbLine
 10
1.154700538379242
 20
80.0
 30
0.0
 11
-1.154700538379262
 21
80.0
 31
0.0
  0
LINE
  5
ED
330
B2
100
AcDbEntity
  8
center
100
AcDbLine
 10
-4.20000000000001
 20
78.0
 30
0.0
 11
4.19999999999999
 21
78.0
 31
0.0
  0
LINE
  5
EE
330
B2
100
AcDbEntity
  8
center
100
AcDbLine
 10
-0.00000000000001
 20
73.8
 30
0.0
 11
-0.00000000000001
 21
82.2
 31
0.0
  0
ENDBLK
  5
B5
330
B2
100
AcDbEntity
  8
0
100
AcDbBlockEnd
  0
BLOCK
  5
F1
330
EF
100
AcDbEntity
  8
0
100
AcDbBlockBegin
  2
3_30134000_01401_3_0_in_01401_0
 70
     2
 10
0.0
 20
0.0
 30
0.0
  3
3_30134000_01401_3_0_in_01401_0
  1

  0
ATTDEF
  5
F3
330
EF
100
AcDbEntity
  8
attrib
100
AcDbText
 10
-3.000000000000011
 20
154.0
 30
0.0
 40
0.5
  1
30134000 01401
100
AcDbAttributeDefinition
  3

  2
NB
 70
     8
280
     0
  0
ATTDEF
  5
F4
330
EF
100
AcDbEntity
  8
attrib
100
AcDbText
 10
-3.000000000000011
 20
153.5
 30
0.0
 40
0.5
  1
Terminal plates cap
100
AcDbAttributeDefinition
  3

  2
NN
 70
     8
280
     0
  0
ATTDEF
  5
F5
330
EF
100
AcDbEntity
  8
attrib
100
AcDbText
 10
-3.000000000000011
 20
153.0
 30
0.0
 40
0.5
  1

100
AcDbAttributeDefinition
  3

  2
NT
 70
     8
280
     0
  0
ATTDEF
  5
F6
330
EF
100
AcDbEntity
  8
attrib
100
AcDbText
 10
-3.000000000000011
 20
152.5
 30
0.0
 40
0.5
  1
$BOM. $ARTNR.
100
AcDbAttributeDefinition
  3

  2
NBSYN
 70
     8
280
     0
  0
ATTDEF
  5
F7
330
EF
100
AcDbEntity
  8
attrib
100
AcDbText
 10
-3.000000000000011
 20
152.0
 30
0.0
 40
0.5
  1
30134000
100
AcDbAttributeDefinition
  3

  2
LINA
 70
     8
280
     0
  0
ATTDEF
  5
F8
330
EF
100
AcDbEntity
  8
attrib
100
AcDbText
 10
-3.000000000000011
 20
151.5
 30
0.0
 40
0.5
  1
Wöhner
100
AcDbAttributeDefinition
  3

  2
CATALOG
 70
     8
280
     0
  0
ATTDEF
  5
F9
330
EF
100
AcDbEntity
  8
attrib
100
AcDbText
 10
-3.000000000000011
 20
151.0
 30
0.0
 40
0.5
  1
01401
100
AcDbAttributeDefinition
  3

  2
ARTNR
 70
     8
280
     0
  0
ATTDEF
  5
FA
330
EF
100
AcDbEntity
  8
attrib
100
AcDbText
 10
-3.000000000000011
 20
150.5
 30
0.0
 40
0.5
  1
1
100
AcDbAttributeDefinition
  3

  2
QNT
 70
     8
280
     0
  0
ATTDEF
  5
FB
330
EF
100
AcDbEntity
  8
attrib
100
AcDbText
 10
-3.000000000000011
 20
150.0
 30
0.0
 40
0.5
  1
54
100
AcDbAttributeDefinition
  3

  2
W
 70
     8
280
     0
  0
ATTDEF
  5
FC
330
EF
100
AcDbEntity
  8
attrib
100
AcDbText
 10
-3.000000000000011
 20
149.5
 30
0.0
 40
0.5
  1
160
100
AcDbAttributeDefinition
  3

  2
H
 70
     8
280
     0
  0
ATTDEF
  5
FD
330
EF
100
AcDbEntity
  8
attrib
100
AcDbText
 10
-3.000000000000011
 20
149.0
 30
0.0
 40
0.5
  1
84
100
AcDbAttributeDefinition
  3

  2
D
 70
     8
280
     0
  0
ATTDEF
  5
FE
330
EF
100
AcDbEntity
  8
attrib
100
AcDbText
 10
-3.000000000000011
 20
148.5
 30
0.0
 40
0.5
  1
Product link
100
AcDbAttributeDefinition
  3

  2
LINK
 70
     8
280
     0
  0
ATTDEF
  5
FF
330
EF
100
AcDbEntity
  8
attrib
100
AcDbText
 10
-3.000000000000011
 20
148.0
 30
0.0
 40
0.5
  1
woehner
100
AcDbAttributeDefinition
  3

  2
COMPANY
 70
     8
280
     0
  0
ATTDEF
  5
100
330
EF
100
AcDbEntity
  8
attrib
100
AcDbText
 10
-3.000000000000011
 20
147.5
 30
0.0
 40
0.5
  1
{$CADENAS_DATA/23d-libs/woehner/sys_30_c_3pole/connection_technology_and_covers/parts/terminal_plates_clamp.prj},176 {VTYP=3D},{NB=30134000 01401},{LINA=30134000},{NN=Terminal plates cap},{DATE=04.11.2022 07:06:04},{GEOMDATE=15.09.2022 10:38:00},{VERSION=
100
AcDbAttributeDefinition
  3

  2
PSOL_0
 70
     9
280
     0
  0
ATTDEF
  5
101
330
EF
100
AcDbEntity
  8
attrib
100
AcDbText
 10
-3.000000000000011
 20
147.0
 30
0.0
 40
0.5
  1
},{LINEID=360},{WBVAR=},{WBNUMERIC=}  {NB=30134000 01401},{LINA=30134000},{KT=DUMMY},{SYSTEM185=1},{BOM=30134000},{ARTNR=01401},{BUSB=12 x 5, 10},{POF=CRITO®30Compact},{TYPE=240C-L},{QNT=1},{W=54},{H=160},{D=84},{CONCA=},{SCR=},{IPR=},{SEARCH=},{EDZ=},{IO
100
AcDbAttributeDefinition
  3

  2
PSOL_1
 70
     9
280
     0
  0
ATTDEF
  5
102
330
EF
100
AcDbEntity
  8
attrib
100
AcDbText
 10
-3.000000000000011
 20
146.5
 30
0.0
 40
0.5
  1
DD=},{DIST=4},{LINK=Product link},{LINKX=https://www.woehner.de/de/produkte/01401.html}
100
AcDbAttributeDefinition
  3

  2
PSOL_2
 70
     9
280
     0
  0
LINE
  5
103
330
EF
100
AcDbEntity
  8
hidden
100
AcDbLine
 10
-11.03450000000001
 20
136.0
 30
0.0
 11
-8.00000000000001
 21
136.0
 31
0.0
  0
LINE
  5
104
330
EF
100
AcDbEntity
  8
hidden
100
AcDbLine
 10
-26.00000000000001
 20
136.0
 30
0.0
 11
-22.96550000000001
 21
136.0
 31
0.0
  0
LINE
  5
105
330
EF
100
AcDbEntity
  8
hidden
100
AcDbLine
 10
-26.00000000000001
 20
152.0
 30
0.0
 11
-22.96550000000001
 21
152.0
 31
0.0
  0
LINE
  5
106
330
EF
100
AcDbEntity
  8
hidden
100
AcDbLine
 10
-11.03450000000001
 20
152.0
 30
0.0
 11
-8.00000000000001
 21
152.0
 31
0.0
  0
LINE
  5
107
330
EF
100
AcDbEntity
  8
hidden
100
AcDbLine
 10
-11.03450000000001
 20
134.0
 30
0.0
 11
-8.00000000000001
 21
134.0
 31
0.0
  0
LINE
  5
108
330
EF
100
AcDbEntity
  8
hidden
100
AcDbLine
 10
-26.00000000000001
 20
134.0
 30
0.0
 11
-22.96550000000001
 21
134.0
 31
0.0
  0
LINE
  5
109
330
EF
100
AcDbEntity
  8
hidden
100
AcDbLine
 10
-11.03450000000001
 20
143.0
 30
0.0
 11
-8.00000000000001
 21
143.0
 31
0.0
  0
LINE
  5
10A
330
EF
100
AcDbEntity
  8
hidden
100
AcDbLine
 10
-11.03450000000001
 20
142.0
 30
0.0
 11
-8.00000000000001
 21
142.0
 31
0.0
  0
LINE
  5
10B
330
EF
100
AcDbEntity
  8
hidden
100
AcDbLine
 10
-26.00000000000001
 20
142.0
 30
0.0
 11
-22.96550000000001
 21
142.0
 31
0.0
  0
LINE
  5
10C
330
EF
100
AcDbEntity
  8
hidden
100
AcDbLine
 10
-26.00000000000001
 20
143.0
 30
0.0
 11
-22.96550000000001
 21
143.0
 31
0.0
  0
LINE
  5
10D
330
EF
100
AcDbEntity
  8
hidden
100
AcDbLine
 10
-11.03450000000001
 20
131.5
 30
0.0
 11
-8.00000000000001
 21
131.5
 31
0.0
  0
LINE
  5
10E
330
EF
100
AcDbEntity
  8
hidden
100
AcDbLine
 10
-26.00000000000001
 20
131.5
 30
0.0
 11
-22.96550000000001
 21
131.5
 31
0.0
  0
LINE
  5
10F
330
EF
100
AcDbEntity
  8
hidden
100
AcDbLine
 10
-22.96550000000001
 20
141.4931696568902
 30
0.0
 11
-11.03450000000001
 21
141.4931696568902
 31
0.0
  0
LINE
  5
110
330
EF
100
AcDbEntity
  8
hidden
100
AcDbLine
 10
-22.96550000000001
 20
134.5068303431098
 30
0.0
 11
-11.03450000000001
 21
134.5068303431098
 31
0.0
  0
LINE
  5
111
330
EF
100
AcDbEntity
  8
hidden
100
AcDbLine
 10
-22.96550000000001
 20
146.0
 30
0.0
 11
-11.03450000000001
 21
146.0
 31
0.0
  0
LINE
  5
112
330
EF
100
AcDbEntity
  8
hidden
100
AcDbLine
 10
-22.96550000000001
 20
130.0
 30
0.0
 11
-11.03450000000001
 21
130.0
 31
0.0
  0
LINE
  5
113
330
EF
100
AcDbEntity
  8
hidden
100
AcDbLine
 10
-13.00944249393673
 20
138.2746830733809
 30
0.0
 11
-13.03450000000001
 21
138.5242229964433
 31
0.0
  0
LINE
  5
114
330
EF
100
AcDbEntity
  8
hidden
100
AcDbLine
 10
-13.00000039152203
 20
137.9982302045361
 30
0.0
 11
-13.00944249393673
 21
138.2746830733809
 31
0.0
  0
LWPOLYLINE
  5
115
330
EF
100
AcDbEntity
  8
hidden
100
AcDbPolyline
 90
        3
 70
     0
 43
0.0
 10
-13.03450000000001
 20
137.4757770035567
 10
-13.00000259967538
 20
137.9954395837681
 10
-13.00000039152203
 20
137.9982302045361
  0
LINE
  5
116
330
EF
100
AcDbEntity
  8
hidden
100
AcDbLine
 10
-13.03450000000001
 20
129.5
 30
0.0
 11
-13.03450000000001
 21
137.4757770035567
 31
0.0
  0
LINE
  5
117
330
EF
100
AcDbEntity
  8
hidden
100
AcDbLine
 10
-13.03450000000001
 20
138.5242229964433
 30
0.0
 11
-13.03450000000001
 21
154.0
 31
0.0
  0
LINE
  5
118
330
EF
100
AcDbEntity
  8
hidden
100
AcDbLine
 10
-11.03450000000001
 20
129.5
 30
0.0
 11
-11.03450000000001
 21
154.0
 31
0.0
  0
LINE
  5
119
330
EF
100
AcDbEntity
  8
hidden
100
AcDbLine
 10
-20.96550000000001
 20
129.5
 30
0.0
 11
-20.96550000000001
 21
137.4757770035567
 31
0.0
  0
LINE
  5
11A
330
EF
100
AcDbEntity
  8
hidden
100
AcDbLine
 10
-20.96550000000001
 20
138.5242229964433
 30
0.0
 11
-20.96550000000001
 21
154.0
 31
0.0
  0
LINE
  5
11B
330
EF
100
AcDbEntity
  8
hidden
100
AcDbLine
 10
-22.96550000000001
 20
129.5
 30
0.0
 11
-22.96550000000001
 21
154.0
 31
0.0
  0
LINE
  5
11C
330
EF
100
AcDbEntity
  8
hidden
100
AcDbLine
 10
-26.00000000000001
 20
129.5
 30
0.0
 11
-8.00000000000001
 21
129.5
 31
0.0
  0
LINE
  5
11D
330
EF
100
AcDbEntity
  8
hidden
100
AcDbLine
 10
-8.00000000000001
 20
148.374
 30
0.0
 11
-8.00000000000001
 21
154.0
 31
0.0
  0
LINE
  5
11E
330
EF
100
AcDbEntity
  8
hidden
100
AcDbLine
 10
-8.00000000000001
 20
154.0
 30
0.0
 11
-26.00000000000001
 21
154.0
 31
0.0
  0
LINE
  5
11F
330
EF
100
AcDbEntity
  8
hidden
100
AcDbLine
 10
-26.00000000000001
 20
129.5
 30
0.0
 11
-26.00000000000001
 21
154.0
 31
0.0
  0
LINE
  5
120
330
EF
100
AcDbEntity
  8
hidden
100
AcDbLine
 10
-24.00000000000001
 20
129.5
 30
0.0
 11
-24.00000000000001
 21
154.0
 31
0.0
  0
LINE
  5
121
330
EF
100
AcDbEntity
  8
hidden
100
AcDbLine
 10
-10.00000000000001
 20
146.374
 30
0.0
 11
-10.00000000000001
 21
154.0
 31
0.0
  0
LINE
  5
122
330
EF
100
AcDbEntity
  8
hidden
100
AcDbLine
 10
-15.84529946162076
 20
136.0
 30
0.0
 11
-18.15470053837926
 21
136.0
 31
0.0
  0
LINE
  5
123
330
EF
100
AcDbEntity
  8
hidden
100
AcDbLine
 10
-14.69059892324151
 20
138.0
 30
0.0
 11
-15.84529946162076
 21
140.0
 31
0.0
  0
LINE
  5
124
330
EF
100
AcDbEntity
  8
hidden
100
AcDbLine
 10
-19.30940107675851
 20
138.0
 30
0.0
 11
-18.15470053837926
 21
136.0
 31
0.0
  0
LINE
  5
125
330
EF
100
AcDbEntity
  8
hidden
100
AcDbLine
 10
-15.84529946162076
 20
136.0
 30
0.0
 11
-14.69059892324151
 21
138.0
 31
0.0
  0
CIRCLE
  5
126
330
EF
100
AcDbEntity
  8
hidden
100
AcDbCircle
 10
-17.00000000000001
 20
138.0
 30
0.0
 40
4.0
  0
LINE
  5
127
330
EF
100
AcDbEntity
  8
hidden
100
AcDbLine
 10
-18.15470053837926
 20
140.0
 30
0.0
 11
-19.30940107675851
 21
138.0
 31
0.0
  0
LINE
  5
128
330
EF
100
AcDbEntity
  8
hidden
100
AcDbLine
 10
-15.84529946162076
 20
140.0
 30
0.0
 11
-18.15470053837926
 21
140.0
 31
0.0
  0
LINE
  5
129
330
EF
100
AcDbEntity
  8
center
100
AcDbLine
 10
-21.20000000000001
 20
138.0
 30
0.0
 11
-12.80000000000001
 21
138.0
 31
0.0
  0
LINE
  5
12A
330
EF
100
AcDbEntity
  8
center
100
AcDbLine
 10
-17.00000000000001
 20
133.8
 30
0.0
 11
-17.00000000000001
 21
142.2
 31
0.0
  0
ENDBLK
  5
F2
330
EF
100
AcDbEntity
  8
0
100
AcDbBlockEnd
  0
BLOCK
  5
12D
330
12B
100
AcDbEntity
  8
0
100
AcDbBlockBegin
  2
4_77082000_0_in_01401_0
 70
     2
 10
0.0
 20
0.0
 30
0.0
  3
4_77082000_0_in_01401_0
  1

  0
ATTDEF
  5
12F
330
12B
100
AcDbEntity
  8
attrib
100
AcDbText
 10
19.97480982242179
 20
96.42125546357526
 30
0.0
 40
0.5
  1
77082000
100
AcDbAttributeDefinition
  3

  2
NB
 70
     8
280
     0
  0
ATTDEF
  5
130
330
12B
100
AcDbEntity
  8
attrib
100
AcDbText
 10
19.97480982242179
 20
95.92125546357526
 30
0.0
 40
0.5
  1
Terminal plates cap
100
AcDbAttributeDefinition
  3

  2
NN
 70
     8
280
     0
  0
ATTDEF
  5
131
330
12B
100
AcDbEntity
  8
attrib
100
AcDbText
 10
19.97480982242179
 20
95.42125546357526
 30
0.0
 40
0.5
  1

100
AcDbAttributeDefinition
  3

  2
NT
 70
     8
280
     0
  0
ATTDEF
  5
132
330
12B
100
AcDbEntity
  8
attrib
100
AcDbText
 10
19.97480982242179
 20
94.92125546357526
 30
0.0
 40
0.5
  1
$BOM.
100
AcDbAttributeDefinition
  3

  2
NBSYN
 70
     8
280
     0
  0
ATTDEF
  5
133
330
12B
100
AcDbEntity
  8
attrib
100
AcDbText
 10
19.97480982242179
 20
94.42125546357526
 30
0.0
 40
0.5
  1
77082000
100
AcDbAttributeDefinition
  3

  2
LINA
 70
     8
280
     0
  0
ATTDEF
  5
134
330
12B
100
AcDbEntity
  8
attrib
100
AcDbText
 10
19.97480982242179
 20
93.92125546357526
 30
0.0
 40
0.5
  1
Wöhner
100
AcDbAttributeDefinition
  3

  2
CATALOG
 70
     8
280
     0
  0
ATTDEF
  5
135
330
12B
100
AcDbEntity
  8
attrib
100
AcDbText
 10
19.97480982242179
 20
93.42125546357526
 30
0.0
 40
0.5
  1
01401
100
AcDbAttributeDefinition
  3

  2
ARTNR
 70
     8
280
     0
  0
ATTDEF
  5
136
330
12B
100
AcDbEntity
  8
attrib
100
AcDbText
 10
19.97480982242179
 20
92.92125546357526
 30
0.0
 40
0.5
  1
1
100
AcDbAttributeDefinition
  3

  2
QNT
 70
     8
280
     0
  0
ATTDEF
  5
137
330
12B
100
AcDbEntity
  8
attrib
100
AcDbText
 10
19.97480982242179
 20
92.42125546357526
 30
0.0
 40
0.5
  1
54
100
AcDbAttributeDefinition
  3

  2
W
 70
     8
280
     0
  0
ATTDEF
  5
138
330
12B
100
AcDbEntity
  8
attrib
100
AcDbText
 10
19.97480982242179
 20
91.92125546357526
 30
0.0
 40
0.5
  1
160
100
AcDbAttributeDefinition
  3

  2
H
 70
     8
280
     0
  0
ATTDEF
  5
139
330
12B
100
AcDbEntity
  8
attrib
100
AcDbText
 10
19.97480982242179
 20
91.42125546357526
 30
0.0
 40
0.5
  1
84
100
AcDbAttributeDefinition
  3

  2
D
 70
     8
280
     0
  0
ATTDEF
  5
13A
330
12B
100
AcDbEntity
  8
attrib
100
AcDbText
 10
19.97480982242179
 20
90.92125546357526
 30
0.0
 40
0.5
  1
Product link
100
AcDbAttributeDefinition
  3

  2
LINK
 70
     8
280
     0
  0
ATTDEF
  5
13B
330
12B
100
AcDbEntity
  8
attrib
100
AcDbText
 10
19.97480982242179
 20
90.42125546357526
 30
0.0
 40
0.5
  1
woehner
100
AcDbAttributeDefinition
  3

  2
COMPANY
 70
     8
280
     0
  0
ATTDEF
  5
13C
330
12B
100
AcDbEntity
  8
attrib
100
AcDbText
 10
19.97480982242179
 20
89.92125546357526
 30
0.0
 40
0.5
  1
{$CADENAS_DATA/23d-libs/woehner/sys_30_c_3pole/connection_technology_and_covers/parts/terminal_plates_cap.prj},170 {VTYP=3D},{NB=77082000},{LINA=77082000},{NN=Terminal plates cap},{DATE=04.11.2022 07:06:04},{GEOMDATE=14.09.2022 13:47:22},{VERSION=},{LINEI
100
AcDbAttributeDefinition
  3

  2
PSOL_0
 70
     9
280
     0
  0
ATTDEF
  5
13D
330
12B
100
AcDbEntity
  8
attrib
100
AcDbText
 10
19.97480982242179
 20
89.42125546357526
 30
0.0
 40
0.5
  1
D=360},{WBVAR=},{WBNUMERIC=}  {NB=77082000},{LINA=77082000},{KT=DUMMY},{SYSTEM185=1},{BOM=77082000},{ARTNR=01401},{BUSB=12 x 5, 10},{POF=CRITO®30Compact},{TYPE=240C-L},{QNT=1},{W=54},{H=160},{D=84},{CONCA=},{SCR=},{IPR=},{SEARCH=},{EDZ=},{IODD=},{DIST=4},
100
AcDbAttributeDefinition
  3

  2
PSOL_1
 70
     9
280
     0
  0
ATTDEF
  5
13E
330
12B
100
AcDbEntity
  8
attrib
100
AcDbText
 10
19.97480982242179
 20
88.92125546357526
 30
0.0
 40
0.5
  1
{LINK=Product link},{LINKX=https://www.woehner.de/de/produkte/01401.html}
100
AcDbAttributeDefinition
  3

  2
PSOL_2
 70
     9
280
     0
  0
ELLIPSE
  5
13F
330
12B
100
AcDbEntity
  8
hidden
100
AcDbEllipse
 10
2.501959622433281
 20
79.99999999999974
 30
0.0
 11
-1.202739638691031E-13
 21
-18.79002957727655
 31
0.0
210
0.0
220
0.0
230
1.0
 40
0.9309283931169362
 41
3.650922308320791
 42
4.25073705618634
  0
ELLIPSE
  5
140
330
12B
100
AcDbEntity
  8
hidden
100
AcDbEllipse
 10
2.501959622433207
 20
80.00000000000024
 30
0.0
 11
4.137707969649479E-13
 21
-18.79002957727654
 31
0.0
210
0.0
220
0.0
230
1.0
 40
0.9309283931169339
 41
5.174040904583024
 42
5.773855652448573
  0
LINE
  5
141
330
12B
100
AcDbEntity
  8
hidden
100
AcDbLine
 10
-6.000000000000014
 20
63.92355158153731
 30
0.0
 11
-6.000000000000012
 21
63.92763505267504
 31
0.0
  0
LINE
  5
142
330
12B
100
AcDbEntity
  8
hidden
100
AcDbLine
 10
-6.000000000000012
 20
96.07236494732494
 30
0.0
 11
-6.000000000000017
 21
96.07644841846272
 31
0.0
  0
LINE
  5
143
330
12B
100
AcDbEntity
  8
hidden
100
AcDbLine
 10
5.999999999999993
 20
63.92355158153726
 30
0.0
 11
5.999999999999989
 21
63.92763505267504
 31
0.0
  0
ELLIPSE
  5
144
330
12B
100
AcDbEntity
  8
hidden
100
AcDbEllipse
 10
-2.501959622433327
 20
80.0000000000003
 30
0.0
 11
1.012839501352696E-13
 21
18.79002957727658
 31
0.0
210
0.0
220
0.0
230
1.0
 40
0.9309283931169363
 41
3.650922308320791
 42
4.250737056186339
  0
ELLIPSE
  5
145
330
12B
100
AcDbEntity
  8
hidden
100
AcDbEllipse
 10
-2.50195962243334
 20
79.99999999999969
 30
0.0
 11
-1.198439586475802E-13
 21
18.7900295772766
 31
0.0
210
0.0
220
0.0
230
1.0
 40
0.9309283931169358
 41
5.174040904583039
 42
5.773855652448585
  0
LINE
  5
146
330
12B
100
AcDbEntity
  8
hidden
100
AcDbLine
 10
5.999999999999989
 20
96.07236494732494
 30
0.0
 11
5.999999999999989
 21
96.07644841846275
 31
0.0
  0
LINE
  5
148
330
12B
100
AcDbEntity
  8
bold
100
AcDbLine
 10
-2.50000000000001
 20
78.0
 30
0.0
 11
-2.50000000000001
 21
82.0
 31
0.0
  0
LINE
  5
149
330
12B
100
AcDbEntity
  8
bold
100
AcDbLine
 10
0.99999999999999
 20
76.0
 30
0.0
 11
0.99999999999999
 21
84.0
 31
0.0
  0
LINE
  5
14A
330
12B
100
AcDbEntity
  8
bold
100
AcDbLine
 10
0.99999999999999
 20
84.0
 30
0.0
 11
-1.00000000000001
 21
84.0
 31
0.0
  0
LINE
  5
14B
330
12B
100
AcDbEntity
  8
bold
100
AcDbLine
 10
-1.00000000000001
 20
84.0
 30
0.0
 11
-1.00000000000001
 21
76.0
 31
0.0
  0
LINE
  5
14C
330
12B
100
AcDbEntity
  8
bold
100
AcDbLine
 10
-1.00000000000001
 20
76.0
 30
0.0
 11
0.99999999999999
 21
76.0
 31
0.0
  0
LINE
  5
14D
330
12B
100
AcDbEntity
  8
bold
100
AcDbLine
 10
-5.50000000000001
 20
78.0
 30
0.0
 11
-2.50000000000001
 21
78.0
 31
0.0
  0
LINE
  5
14E
330
12B
100
AcDbEntity
  8
bold
100
AcDbLine
 10
5.499999999999989
 20
78.0
 30
0.0
 11
5.499999999999989
 21
82.0
 31
0.0
  0
LINE
  5
14F
330
12B
100
AcDbEntity
  8
bold
100
AcDbLine
 10
5.499999999999989
 20
82.0
 30
0.0
 11
2.49999999999999
 21
82.0
 31
0.0
  0
LINE
  5
150
330
12B
100
AcDbEntity
  8
bold
100
AcDbLine
 10
2.49999999999999
 20
82.0
 30
0.0
 11
2.49999999999999
 21
78.0
 31
0.0
  0
LINE
  5
151
330
12B
100
AcDbEntity
  8
bold
100
AcDbLine
 10
2.49999999999999
 20
78.0
 30
0.0
 11
5.499999999999989
 21
78.0
 31
0.0
  0
LINE
  5
152
330
12B
100
AcDbEntity
  8
bold
100
AcDbLine
 10
-5.50000000000001
 20
82.0
 30
0.0
 11
-5.50000000000001
 21
78.0
 31
0.0
  0
LINE
  5
153
330
12B
100
AcDbEntity
  8
bold
100
AcDbLine
 10
-2.50000000000001
 20
82.0
 30
0.0
 11
-5.50000000000001
 21
82.0
 31
0.0
  0
ARC
  5
154
330
12B
100
AcDbEntity
  8
bold
100
AcDbCircle
 10
-0.0000000000000102
 20
80.0
 30
0.0
 40
10.0
100
AcDbArc
 50
53.13010235415599
 51
126.869897645844
  0
ARC
  5
155
330
12B
100
AcDbEntity
  8
bold
100
AcDbCircle
 10
-0.0000000000000018
 20
79.99999999999999
 30
0.0
 40
11.00000000000002
100
AcDbArc
 50
56.94426884914611
 51
123.055731150854
  0
ELLIPSE
  5
156
330
12B
100
AcDbEntity
  8
bold
100
AcDbEllipse
 10
2.501959622433192
 20
80.0
 30
0.0
 11
-3.451672436654335E-15
 21
-18.79002957727634
 31
0.0
210
0.0
220
0.0
230
1.0
 40
0.9309283931169338
 41
4.250737056186345
 42
5.174040904583035
  0
LINE
  5
157
330
12B
100
AcDbEntity
  8
bold
100
AcDbLine
 10
-6.000000000000011
 20
63.57874453642476
 30
0.0
 11
-6.000000000000012
 21
63.82111672580569
 31
0.0
  0
LINE
  5
158
330
12B
100
AcDbEntity
  8
bold
100
AcDbLine
 10
-6.000000000000012
 20
96.17888327419432
 30
0.0
 11
-6.000000000000018
 21
96.42125546357526
 31
0.0
  0
LINE
  5
159
330
12B
100
AcDbEntity
  8
bold
100
AcDbLine
 10
-6.000000000000012
 20
63.92763505267504
 30
0.0
 11
-6.000000000000012
 21
96.07236494732494
 31
0.0
  0
ARC
  5
15A
330
12B
100
AcDbEntity
  8
bold
100
AcDbCircle
 10
-0.0000000000000084
 20
79.99999999999991
 30
0.0
 40
14.49999999999991
100
AcDbArc
 50
245.5566645723025
 51
294.4433354276975
  0
ARC
  5
15B
330
12B
100
AcDbEntity
  8
bold
100
AcDbCircle
 10
-0.0000000000000102
 20
79.99999999999986
 30
0.0
 40
15.49999999999986
100
AcDbArc
 50
247.2260275993399
 51
292.7739724006601
  0
ARC
  5
15C
330
12B
100
AcDbEntity
  8
bold
100
AcDbCircle
 10
0.0000000000000044
 20
79.9999999999999
 30
0.0
 40
15.5000000000001
100
AcDbArc
 50
67.22602759934034
 51
112.7739724006598
  0
ARC
  5
15D
330
12B
100
AcDbEntity
  8
bold
100
AcDbCircle
 10
-0.0000000000000129
 20
80.0000000000001
 30
0.0
 40
14.4999999999999
100
AcDbArc
 50
65.55666457230244
 51
114.4433354276976
  0
ARC
  5
15E
330
12B
100
AcDbEntity
  8
bold
100
AcDbCircle
 10
-0.0000000000000071
 20
79.99999999999999
 30
0.0
 40
10.99999999999999
100
AcDbArc
 50
236.9442688491459
 51
303.0557311508541
  0
ARC
  5
15F
330
12B
100
AcDbEntity
  8
bold
100
AcDbCircle
 10
-0.0000000000000138
 20
79.99999999999993
 30
0.0
 40
9.999999999999929
100
AcDbArc
 50
233.1301023541557
 51
306.8698976458443
  0
LINE
  5
160
330
12B
100
AcDbEntity
  8
bold
100
AcDbLine
 10
5.999999999999989
 20
63.57874453642476
 30
0.0
 11
5.999999999999991
 21
63.82111672580569
 31
0.0
  0
ELLIPSE
  5
161
330
12B
100
AcDbEntity
  8
bold
100
AcDbEllipse
 10
-2.501959622433304
 20
80.00000000000001
 30
0.0
 11
1.150557478884785E-15
 21
18.79002957727644
 31
0.0
210
0.0
220
0.0
230
1.0
 40
0.9309283931169352
 41
4.250737056186347
 42
5.17404090458303
  0
LINE
  5
162
330
12B
100
AcDbEntity
  8
bold
100
AcDbLine
 10
5.999999999999991
 20
96.17888327419432
 30
0.0
 11
5.999999999999989
 21
96.42125546357525
 31
0.0
  0
LINE
  5
163
330
12B
100
AcDbEntity
  8
bold
100
AcDbLine
 10
5.999999999999989
 20
63.92763505267504
 30
0.0
 11
5.999999999999989
 21
96.07236494732494
 31
0.0
  0
ENDBLK
  5
12E
330
12B
100
AcDbEntity
  8
0
100
AcDbBlockEnd
  0
BLOCK
  5
166
330
164
100
AcDbEntity
  8
0
100
AcDbBlockBegin
  2
5_77176000_0_in_01401_0
 70
     2
 10
0.0
 20
0.0
 30
0.0
  3
5_77176000_0_in_01401_0
  1

  0
ATTDEF
  5
168
330
164
100
AcDbEntity
  8
attrib
100
AcDbText
 10
34.69999999999999
 20
160.25
 30
0.0
 40
0.5
  1
77176000
100
AcDbAttributeDefinition
  3

  2
NB
 70
     8
280
     0
  0
ATTDEF
  5
169
330
164
100
AcDbEntity
  8
attrib
100
AcDbText
 10
34.69999999999999
 20
159.75
 30
0.0
 40
0.5
  1
Terminal plates lid
100
AcDbAttributeDefinition
  3

  2
NN
 70
     8
280
     0
  0
ATTDEF
  5
16A
330
164
100
AcDbEntity
  8
attrib
100
AcDbText
 10
34.69999999999999
 20
159.25
 30
0.0
 40
0.5
  1

100
AcDbAttributeDefinition
  3

  2
NT
 70
     8
280
     0
  0
ATTDEF
  5
16B
330
164
100
AcDbEntity
  8
attrib
100
AcDbText
 10
34.69999999999999
 20
158.75
 30
0.0
 40
0.5
  1
$BOM.
100
AcDbAttributeDefinition
  3

  2
NBSYN
 70
     8
280
     0
  0
ATTDEF
  5
16C
330
164
100
AcDbEntity
  8
attrib
100
AcDbText
 10
34.69999999999999
 20
158.25
 30
0.0
 40
0.5
  1
77176000
100
AcDbAttributeDefinition
  3

  2
LINA
 70
     8
280
     0
  0
ATTDEF
  5
16D
330
164
100
AcDbEntity
  8
attrib
100
AcDbText
 10
34.69999999999999
 20
157.75
 30
0.0
 40
0.5
  1
Wöhner
100
AcDbAttributeDefinition
  3

  2
CATALOG
 70
     8
280
     0
  0
ATTDEF
  5
16E
330
164
100
AcDbEntity
  8
attrib
100
AcDbText
 10
34.69999999999999
 20
157.25
 30
0.0
 40
0.5
  1
01401
100
AcDbAttributeDefinition
  3

  2
ARTNR
 70
     8
280
     0
  0
ATTDEF
  5
16F
330
164
100
AcDbEntity
  8
attrib
100
AcDbText
 10
34.69999999999999
 20
156.75
 30
0.0
 40
0.5
  1
1
100
AcDbAttributeDefinition
  3

  2
QNT
 70
     8
280
     0
  0
ATTDEF
  5
170
330
164
100
AcDbEntity
  8
attrib
100
AcDbText
 10
34.69999999999999
 20
156.25
 30
0.0
 40
0.5
  1
54
100
AcDbAttributeDefinition
  3

  2
W
 70
     8
280
     0
  0
ATTDEF
  5
171
330
164
100
AcDbEntity
  8
attrib
100
AcDbText
 10
34.69999999999999
 20
155.75
 30
0.0
 40
0.5
  1
160
100
AcDbAttributeDefinition
  3

  2
H
 70
     8
280
     0
  0
ATTDEF
  5
172
330
164
100
AcDbEntity
  8
attrib
100
AcDbText
 10
34.69999999999999
 20
155.25
 30
0.0
 40
0.5
  1
84
100
AcDbAttributeDefinition
  3

  2
D
 70
     8
280
     0
  0
ATTDEF
  5
173
330
164
100
AcDbEntity
  8
attrib
100
AcDbText
 10
34.69999999999999
 20
154.75
 30
0.0
 40
0.5
  1
Product link
100
AcDbAttributeDefinition
  3

  2
LINK
 70
     8
280
     0
  0
ATTDEF
  5
174
330
164
100
AcDbEntity
  8
attrib
100
AcDbText
 10
34.69999999999999
 20
154.25
 30
0.0
 40
0.5
  1
woehner
100
AcDbAttributeDefinition
  3

  2
COMPANY
 70
     8
280
     0
  0
ATTDEF
  5
175
330
164
100
AcDbEntity
  8
attrib
100
AcDbText
 10
34.69999999999999
 20
153.75
 30
0.0
 40
0.5
  1
{$CADENAS_DATA/23d-libs/woehner/sys_30_c_3pole/connection_technology_and_covers/parts/terminal_plates_lid.prj},170 {VTYP=3D},{NB=77176000},{LINA=77176000},{NN=Terminal plates lid},{DATE=04.11.2022 07:06:04},{GEOMDATE=15.09.2022 10:27:00},{VERSION=},{LINEI
100
AcDbAttributeDefinition
  3

  2
PSOL_0
 70
     9
280
     0
  0
ATTDEF
  5
176
330
164
100
AcDbEntity
  8
attrib
100
AcDbText
 10
34.69999999999999
 20
153.25
 30
0.0
 40
0.5
  1
D=360},{WBVAR=},{WBNUMERIC=}  {NB=77176000},{LINA=77176000},{KT=DUMMY},{SYSTEM185=1},{BOM=77176000},{ARTNR=01401},{BUSB=12 x 5, 10},{POF=CRITO®30Compact},{TYPE=240C-L},{QNT=1},{W=54},{H=160},{D=84},{CONCA=},{SCR=},{IPR=},{SEARCH=},{EDZ=},{IODD=},{DIST=4},
100
AcDbAttributeDefinition
  3

  2
PSOL_1
 70
     9
280
     0
  0
ATTDEF
  5
177
330
164
100
AcDbEntity
  8
attrib
100
AcDbText
 10
34.69999999999999
 20
152.75
 30
0.0
 40
0.5
  1
{LINK=Product link},{LINKX=https://www.woehner.de/de/produkte/01401.html}
100
AcDbAttributeDefinition
  3

  2
PSOL_2
 70
     9
280
     0
  0
LINE
  5
178
330
164
100
AcDbEntity
  8
hidden
100
AcDbLine
 10
-27.00000000000001
 20
157.75
 30
0.0
 11
26.99999999999999
 21
157.75
 31
0.0
  0
LINE
  5
179
330
164
100
AcDbEntity
  8
hidden
100
AcDbLine
 10
-27.00000000000001
 20
157.25
 30
0.0
 11
26.99999999999999
 21
157.25
 31
0.0
  0
ELLIPSE
  5
17A
330
164
100
AcDbEntity
  8
hidden
100
AcDbEllipse
 10
-3.770310687082452
 20
80.0
 30
0.0
 11
-3.595597609772031E-15
 21
-19.57352172765474
 31
0.0
210
0.0
220
0.0
230
1.0
 40
0.9128301908109911
 41
1.245348716510756
 42
1.896243937079037
  0
ELLIPSE
  5
17B
330
164
100
AcDbEntity
  8
hidden
100
AcDbEllipse
 10
3.77031068708254
 20
80.0
 30
0.0
 11
1.198532536590684E-15
 21
19.57352172765485
 31
0.0
210
0.0
220
0.0
230
1.0
 40
0.9128301908109935
 41
1.245348716510756
 42
1.896243937079036
  0
LINE
  5
17C
330
164
100
AcDbEntity
  8
center
100
AcDbLine
 10
-29.70000000000001
 20
80.0
 30
0.0
 11
29.69999999999999
 21
80.0
 31
0.0
  0
LINE
  5
17D
330
164
100
AcDbEntity
  8
bold
100
AcDbLine
 10
-27.00000000000001
 20
160.25
 30
0.0
 11
26.99999999999999
 21
160.25
 31
0.0
  0
LINE
  5
17E
330
164
100
AcDbEntity
  8
bold
100
AcDbLine
 10
-27.00000000000001
 20
0.0
 30
0.0
 11
-27.00000000000001
 21
160.25
 31
0.0
  0
LINE
  5
17F
330
164
100
AcDbEntity
  8
bold
100
AcDbLine
 10
26.99999999999999
 20
0.0
 30
0.0
 11
26.99999999999999
 21
160.25
 31
0.0
  0
LINE
  5
180
330
164
100
AcDbEntity
  8
bold
100
AcDbLine
 10
-27.00000000000001
 20
0.0
 30
0.0
 11
26.99999999999999
 21
0.0
 31
0.0
  0
LINE
  5
181
330
164
100
AcDbEntity
  8
bold
100
AcDbLine
 10
-27.00000000000001
 20
157.5
 30
0.0
 11
26.99999999999999
 21
157.5
 31
0.0
  0
LINE
  5
182
330
164
100
AcDbEntity
  8
bold
100
AcDbLine
 10
26.99999999999999
 20
2.500000000000002
 30
0.0
 11
-27.00000000000001
 21
2.500000000000002
 31
0.0
  0
LINE
  5
183
330
164
100
AcDbEntity
  8
bold
100
AcDbLine
 10
-5.000000000000011
 20
64.59031383032476
 30
0.0
 11
-5.000000000000012
 21
2.500000000000002
 31
0.0
  0
LINE
  5
184
330
164
100
AcDbEntity
  8
bold
100
AcDbLine
 10
4.99999999999999
 20
157.5
 30
0.0
 11
4.999999999999989
 21
95.40968616967561
 31
0.0
  0
LINE
  5
185
330
164
100
AcDbEntity
  8
bold
100
AcDbLine
 10
5.000000000000033
 20
64.59031383032487
 30
0.0
 11
4.99999999999999
 21
2.50000000000003
 31
0.0
  0
LINE
  5
186
330
164
100
AcDbEntity
  8
bold
100
AcDbLine
 10
-5.000000000000012
 20
157.5
 30
0.0
 11
-5.000000000000011
 21
95.40968616967561
 31
0.0
  0
LINE
  5
187
330
164
100
AcDbEntity
  8
bold
100
AcDbLine
 10
-6.000000000000012
 20
157.5
 30
0.0
 11
-6.000000000000012
 21
96.42125546357526
 31
0.0
  0
LWPOLYLINE
  5
188
330
164
100
AcDbEntity
  8
bold
100
AcDbPolyline
 90
        4
 70
     0
 43
0.0
 10
-25.690434991682
 20
157.4999999999993
 10
-13.44656213419537
 20
127.8505042894875
 10
-7.03041356008749
 20
97.83683734840827
 10
-6.805946934270946
 20
95.7759976338568
  0
LWPOLYLINE
  5
189
330
164
100
AcDbEntity
  8
bold
100
AcDbPolyline
 90
        4
 70
     0
 43
0.0
 10
-6.805946934270612
 20
64.22400236614666
 10
-12.82112200221452
 20
34.19374854219653
 10
-24.6687813305928
 20
4.512107950411126
 10
-25.69043499168211
 20
2.500000000000544
  0
LINE
  5
18A
330
164
100
AcDbEntity
  8
bold
100
AcDbLine
 10
-6.000000000000012
 20
63.57874453642476
 30
0.0
 11
-6.000000000000012
 21
2.50000000000003
 31
0.0
  0
LINE
  5
18B
330
164
100
AcDbEntity
  8
bold
100
AcDbLine
 10
5.999999999999991
 20
63.57874453642476
 30
0.0
 11
5.999999999999991
 21
2.500000000000002
 31
0.0
  0
LWPOLYLINE
  5
18C
330
164
100
AcDbEntity
  8
bold
100
AcDbPolyline
 90
        4
 70
     0
 43
0.0
 10
25.69043499168178
 20
2.500000000000766
 10
13.44656213419515
 20
32.14949571051251
 10
7.030413560087267
 20
62.16316265159173
 10
6.80594693427039
 20
64.22400236614658
  0
LWPOLYLINE
  5
18D
330
164
100
AcDbEntity
  8
bold
100
AcDbPolyline
 90
        4
 70
     0
 43
0.0
 10
6.805946934270612
 20
95.77599763385581
 10
12.82112200221497
 20
125.8062514578059
 10
24.6687813305938
 20
155.4878920495913
 10
25.69043499168178
 20
157.4999999999991
  0
LINE
  5
18E
330
164
100
AcDbEntity
  8
bold
100
AcDbLine
 10
5.999999999999991
 20
157.5
 30
0.0
 11
5.999999999999991
 21
96.42125546357525
 31
0.0
  0
LWPOLYLINE
  5
18F
330
164
100
AcDbEntity
  8
bold
100
AcDbPolyline
 90
        9
 70
     0
 43
0.0
 10
5.000000000000033
 20
64.59031383032487
 10
3.654852848396397
 20
64.23090488858954
 10
2.284487664295819
 20
63.98427122694481
 10
0.8579099068464653
 20
63.85020112400127
 10
-0.5749154202559799
 20
63.83801231643499
 10
-1.687522182139593
 20
63.91319988292797
 10
-2.792677801107457
 20
64.06201158363974
 10
-3.905307497575128
 20
64.28875953982738
 10
-5.000000000000011
 20
64.59031383032476
  0
LINE
  5
190
330
164
100
AcDbEntity
  8
bold
100
AcDbLine
 10
4.999999999999989
 20
63.59781526408779
 30
0.0
 11
5.999999999999997
 21
63.92355158153726
 31
0.0
  0
LINE
  5
191
330
164
100
AcDbEntity
  8
bold
100
AcDbLine
 10
5.999999999999997
 20
63.92355158153726
 30
0.0
 11
6.805946934270557
 21
64.2240023661439
 31
0.0
  0
ELLIPSE
  5
192
330
164
100
AcDbEntity
  8
bold
100
AcDbEllipse
 10
-3.770310687082359
 20
80.00000000000058
 30
0.0
 11
4.831782310791841E-13
 21
-19.57352172765439
 31
0.0
210
0.0
220
0.0
230
1.0
 40
0.9128301908109958
 41
1.896243937078989
 42
2.508136770643321
  0
ELLIPSE
  5
193
330
164
100
AcDbEntity
  8
bold
100
AcDbEllipse
 10
-3.770310687085654
 20
80.00000000000144
 30
0.0
 11
-4.729846467027921E-13
 21
-19.57352172765846
 31
0.0
210
0.0
220
0.0
230
1.0
 40
0.9128301908109985
 41
0.6334558829465262
 42
1.245348716510765
  0
LINE
  5
194
330
164
100
AcDbEntity
  8
bold
100
AcDbLine
 10
6.805946934270866
 20
95.7759976338555
 30
0.0
 11
5.99999999999999
 21
96.07644841846275
 31
0.0
  0
LINE
  5
195
330
164
100
AcDbEntity
  8
bold
100
AcDbLine
 10
5.99999999999999
 20
96.07644841846275
 30
0.0
 11
4.999999999999998
 21
96.40218473591189
 31
0.0
  0
LWPOLYLINE
  5
196
330
164
100
AcDbEntity
  8
bold
100
AcDbPolyline
 90
        9
 70
     0
 43
0.0
 10
-5.000000000000011
 20
95.40968616967561
 10
-3.654852848396347
 20
95.76909511141069
 10
-2.284487664295745
 20
96.01572877305522
 10
-0.8579099068464381
 20
96.14979887599873
 10
0.5749154202559597
 20
96.161987683565
 10
1.68752218213957
 20
96.08680011707202
 10
2.79267780110743
 20
95.93798841636026
 10
3.905307497575105
 20
95.71124046017279
 10
4.999999999999989
 20
95.40968616967561
  0
LINE
  5
197
330
164
100
AcDbEntity
  8
bold
100
AcDbLine
 10
-5.000000000000013
 20
96.40218473591189
 30
0.0
 11
-6.000000000000021
 21
96.07644841846272
 31
0.0
  0
LINE
  5
198
330
164
100
AcDbEntity
  8
bold
100
AcDbLine
 10
-6.000000000000021
 20
96.07644841846272
 30
0.0
 11
-6.805946934271173
 21
95.77599763385527
 31
0.0
  0
ELLIPSE
  5
199
330
164
100
AcDbEntity
  8
bold
100
AcDbEllipse
 10
3.770310687086095
 20
80.00000000000173
 30
0.0
 11
-3.291122797881372E-13
 21
19.5735217276591
 31
0.0
210
0.0
220
0.0
230
1.0
 40
0.9128301908109955
 41
1.896243937079041
 42
2.508136770643246
  0
ELLIPSE
  5
19A
330
164
100
AcDbEntity
  8
bold
100
AcDbEllipse
 10
3.770310687082773
 20
80.0000000000003
 30
0.0
 11
2.228544723860317E-13
 21
19.57352172765489
 31
0.0
210
0.0
220
0.0
230
1.0
 40
0.912830190810999
 41
0.633455882946488
 42
1.245348716510783
  0
LINE
  5
19B
330
164
100
AcDbEntity
  8
bold
100
AcDbLine
 10
-6.805946934270837
 20
64.22400236614403
 30
0.0
 11
-6.000000000000015
 21
63.92355158153731
 31
0.0
  0
LINE
  5
19C
330
164
100
AcDbEntity
  8
bold
100
AcDbLine
 10
-6.000000000000015
 20
63.92355158153731
 30
0.0
 11
-5.000000000000011
 21
63.59781526408779
 31
0.0
  0
ENDBLK
  5
167
330
164
100
AcDbEntity
  8
0
100
AcDbBlockEnd
  0
BLOCK
  5
19F
330
19D
100
AcDbEntity
  8
0
100
AcDbBlockBegin
  2
6_77175000_0_in_01401_0
 70
     2
 10
0.0
 20
0.0
 30
0.0
  3
6_77175000_0_in_01401_0
  1

  0
ATTDEF
  5
1A1
330
19D
100
AcDbEntity
  8
attrib
100
AcDbText
 10
31.99999999999999
 20
160.0
 30
0.0
 40
0.5
  1
77175000
100
AcDbAttributeDefinition
  3

  2
NB
 70
     8
280
     0
  0
ATTDEF
  5
1A2
330
19D
100
AcDbEntity
  8
attrib
100
AcDbText
 10
31.99999999999999
 20
159.5
 30
0.0
 40
0.5
  1
Terminal plates bottom
100
AcDbAttributeDefinition
  3

  2
NN
 70
     8
280
     0
  0
ATTDEF
  5
1A3
330
19D
100
AcDbEntity
  8
attrib
100
AcDbText
 10
31.99999999999999
 20
159.0
 30
0.0
 40
0.5
  1

100
AcDbAttributeDefinition
  3

  2
NT
 70
     8
280
     0
  0
ATTDEF
  5
1A4
330
19D
100
AcDbEntity
  8
attrib
100
AcDbText
 10
31.99999999999999
 20
158.5
 30
0.0
 40
0.5
  1
$BOM.
100
AcDbAttributeDefinition
  3

  2
NBSYN
 70
     8
280
     0
  0
ATTDEF
  5
1A5
330
19D
100
AcDbEntity
  8
attrib
100
AcDbText
 10
31.99999999999999
 20
158.0
 30
0.0
 40
0.5
  1
77175000
100
AcDbAttributeDefinition
  3

  2
LINA
 70
     8
280
     0
  0
ATTDEF
  5
1A6
330
19D
100
AcDbEntity
  8
attrib
100
AcDbText
 10
31.99999999999999
 20
157.5
 30
0.0
 40
0.5
  1
Wöhner
100
AcDbAttributeDefinition
  3

  2
CATALOG
 70
     8
280
     0
  0
ATTDEF
  5
1A7
330
19D
100
AcDbEntity
  8
attrib
100
AcDbText
 10
31.99999999999999
 20
157.0
 30
0.0
 40
0.5
  1
01401
100
AcDbAttributeDefinition
  3

  2
ARTNR
 70
     8
280
     0
  0
ATTDEF
  5
1A8
330
19D
100
AcDbEntity
  8
attrib
100
AcDbText
 10
31.99999999999999
 20
156.5
 30
0.0
 40
0.5
  1
1
100
AcDbAttributeDefinition
  3

  2
QNT
 70
     8
280
     0
  0
ATTDEF
  5
1A9
330
19D
100
AcDbEntity
  8
attrib
100
AcDbText
 10
31.99999999999999
 20
156.0
 30
0.0
 40
0.5
  1
54
100
AcDbAttributeDefinition
  3

  2
W
 70
     8
280
     0
  0
ATTDEF
  5
1AA
330
19D
100
AcDbEntity
  8
attrib
100
AcDbText
 10
31.99999999999999
 20
155.5
 30
0.0
 40
0.5
  1
160
100
AcDbAttributeDefinition
  3

  2
H
 70
     8
280
     0
  0
ATTDEF
  5
1AB
330
19D
100
AcDbEntity
  8
attrib
100
AcDbText
 10
31.99999999999999
 20
155.0
 30
0.0
 40
0.5
  1
84
100
AcDbAttributeDefinition
  3

  2
D
 70
     8
280
     0
  0
ATTDEF
  5
1AC
330
19D
100
AcDbEntity
  8
attrib
100
AcDbText
 10
31.99999999999999
 20
154.5
 30
0.0
 40
0.5
  1
Product link
100
AcDbAttributeDefinition
  3

  2
LINK
 70
     8
280
     0
  0
ATTDEF
  5
1AD
330
19D
100
AcDbEntity
  8
attrib
100
AcDbText
 10
31.99999999999999
 20
154.0
 30
0.0
 40
0.5
  1
woehner
100
AcDbAttributeDefinition
  3

  2
COMPANY
 70
     8
280
     0
  0
ATTDEF
  5
1AE
330
19D
100
AcDbEntity
  8
attrib
100
AcDbText
 10
31.99999999999999
 20
153.5
 30
0.0
 40
0.5
  1
{$CADENAS_DATA/23d-libs/woehner/sys_30_c_3pole/connection_technology_and_covers/parts/terminal_plates_bottom.prj},173 {VTYP=3D},{NB=77175000},{LINA=77175000},{NN=Terminal plates bottom},{DATE=04.11.2022 07:06:04},{GEOMDATE=15.09.2022 10:46:00},{VERSION=},
100
AcDbAttributeDefinition
  3

  2
PSOL_0
 70
     9
280
     0
  0
ATTDEF
  5
1AF
330
19D
100
AcDbEntity
  8
attrib
100
AcDbText
 10
31.99999999999999
 20
153.0
 30
0.0
 40
0.5
  1
{LINEID=360},{WBVAR=},{WBNUMERIC=}  {NB=77175000},{LINA=77175000},{KT=DUMMY},{SYSTEM185=1},{BOM=77175000},{ARTNR=01401},{BUSB=12 x 5, 10},{POF=CRITO®30Compact},{TYPE=240C-L},{QNT=1},{W=54},{H=160},{D=84},{CONCA=},{SCR=},{IPR=},{SEARCH=},{EDZ=},{IODD=},{DI
100
AcDbAttributeDefinition
  3

  2
PSOL_1
 70
     9
280
     0
  0
ATTDEF
  5
1B0
330
19D
100
AcDbEntity
  8
attrib
100
AcDbText
 10
31.99999999999999
 20
152.5
 30
0.0
 40
0.5
  1
ST=4},{LINK=Product link},{LINKX=https://www.woehner.de/de/produkte/01401.html}
100
AcDbAttributeDefinition
  3

  2
PSOL_2
 70
     9
280
     0
  0
LINE
  5
1B1
330
19D
100
AcDbEntity
  8
hidden
100
AcDbLine
 10
-27.00000000000001
 20
146.0
 30
0.0
 11
-25.00000000000001
 21
146.0
 31
0.0
  0
LINE
  5
1B2
330
19D
100
AcDbEntity
  8
hidden
100
AcDbLine
 10
-27.00000000000001
 20
3.99999999999999
 30
0.0
 11
-25.00000000000001
 21
4.000000000000004
 31
0.0
  0
LINE
  5
1B3
330
19D
100
AcDbEntity
  8
hidden
100
AcDbLine
 10
24.99999999999999
 20
4.000000000000004
 30
0.0
 11
26.99999999999999
 21
3.99999999999999
 31
0.0
  0
LINE
  5
1B4
330
19D
100
AcDbEntity
  8
hidden
100
AcDbLine
 10
24.99999999999999
 20
146.0
 30
0.0
 11
26.99999999999999
 21
146.0
 31
0.0
  0
LINE
  5
1B5
330
19D
100
AcDbEntity
  8
hidden
100
AcDbLine
 10
6.49999999999999
 20
65.0
 30
0.0
 11
-6.500000000000011
 21
65.0
 31
0.0
  0
LINE
  5
1B6
330
19D
100
AcDbEntity
  8
hidden
100
AcDbLine
 10
23.99999999999999
 20
7.000000000000006
 30
0.0
 11
10.99999999999999
 21
7.000000000000006
 31
0.0
  0
LINE
  5
1B7
330
19D
100
AcDbEntity
  8
hidden
100
AcDbLine
 10
-25.00000000000001
 20
157.0
 30
0.0
 11
-12.00000000000001
 21
157.0
 31
0.0
  0
LINE
  5
1B8
330
19D
100
AcDbEntity
  8
hidden
100
AcDbLine
 10
-12.00000000000001
 20
157.0
 30
0.0
 11
-12.00000000000001
 21
127.0
 31
0.0
  0
LINE
  5
1B9
330
19D
100
AcDbEntity
  8
hidden
100
AcDbLine
 10
-12.00000000000001
 20
127.0
 30
0.0
 11
-25.00000000000001
 21
127.0
 31
0.0
  0
LINE
  5
1BA
330
19D
100
AcDbEntity
  8
hidden
100
AcDbLine
 10
-6.500000000000011
 20
95.0
 30
0.0
 11
6.49999999999999
 21
95.0
 31
0.0
  0
LINE
  5
1BB
330
19D
100
AcDbEntity
  8
hidden
100
AcDbLine
 10
6.49999999999999
 20
95.0
 30
0.0
 11
6.49999999999999
 21
65.0
 31
0.0
  0
LINE
  5
1BC
330
19D
100
AcDbEntity
  8
hidden
100
AcDbLine
 10
-6.500000000000011
 20
65.0
 30
0.0
 11
-6.500000000000011
 21
95.0
 31
0.0
  0
LINE
  5
1BD
330
19D
100
AcDbEntity
  8
hidden
100
AcDbLine
 10
10.99999999999999
 20
37.0
 30
0.0
 11
23.99999999999999
 21
37.0
 31
0.0
  0
LINE
  5
1BE
330
19D
100
AcDbEntity
  8
hidden
100
AcDbLine
 10
23.99999999999999
 20
9.499999999999995
 30
0.0
 11
23.99999999999999
 21
7.000000000000006
 31
0.0
  0
LINE
  5
1BF
330
19D
100
AcDbEntity
  8
hidden
100
AcDbLine
 10
23.99999999999999
 20
37.0
 30
0.0
 11
23.99999999999999
 21
34.0
 31
0.0
  0
LINE
  5
1C0
330
19D
100
AcDbEntity
  8
hidden
100
AcDbLine
 10
10.99999999999999
 20
7.000000000000006
 30
0.0
 11
10.99999999999999
 21
37.0
 31
0.0
  0
LINE
  5
1C1
330
19D
100
AcDbEntity
  8
hidden
100
AcDbLine
 10
9.999999999999991
 20
12.62599999999999
 30
0.0
 11
9.99999999999999
 21
107.0
 31
0.0
  0
LINE
  5
1C2
330
19D
100
AcDbEntity
  8
hidden
100
AcDbLine
 10
7.999999999999989
 20
10.62599999999999
 30
0.0
 11
7.999999999999989
 21
107.0
 31
0.0
  0
LINE
  5
1C3
330
19D
100
AcDbEntity
  8
hidden
100
AcDbLine
 10
7.999999999999989
 20
9.999999999999995
 30
0.0
 11
9.99999999999999
 21
9.999999999999995
 31
0.0
  0
LINE
  5
1C4
330
19D
100
AcDbEntity
  8
hidden
100
AcDbLine
 10
7.999999999999989
 20
107.0
 30
0.0
 11
9.99999999999999
 21
107.0
 31
0.0
  0
LINE
  5
1C5
330
19D
100
AcDbEntity
  8
hidden
100
AcDbLine
 10
-25.00000000000001
 20
2.000000000000002
 30
0.0
 11
24.99999999999999
 21
2.000000000000002
 31
0.0
  0
LINE
  5
1C6
330
19D
100
AcDbEntity
  8
hidden
100
AcDbLine
 10
22.99999999999999
 20
0.0
 30
0.0
 11
22.99999999999999
 21
2.000000000000002
 31
0.0
  0
LINE
  5
1C7
330
19D
100
AcDbEntity
  8
hidden
100
AcDbLine
 10
24.99999999999999
 20
2.000000000000002
 30
0.0
 11
24.99999999999999
 21
158.0
 31
0.0
  0
LINE
  5
1C8
330
19D
100
AcDbEntity
  8
hidden
100
AcDbLine
 10
22.99999999999999
 20
158.0
 30
0.0
 11
22.99999999999999
 21
160.0
 31
0.0
  0
LINE
  5
1C9
330
19D
100
AcDbEntity
  8
hidden
100
AcDbLine
 10
-10.00000000000001
 20
67.0
 30
0.0
 11
-10.00000000000001
 21
146.374
 31
0.0
  0
LINE
  5
1CA
330
19D
100
AcDbEntity
  8
hidden
100
AcDbLine
 10
-8.00000000000001
 20
67.0
 30
0.0
 11
-10.00000000000001
 21
67.0
 31
0.0
  0
LINE
  5
1CB
330
19D
100
AcDbEntity
  8
hidden
100
AcDbLine
 10
-8.00000000000001
 20
67.0
 30
0.0
 11
-8.00000000000001
 21
148.374
 31
0.0
  0
LINE
  5
1CC
330
19D
100
AcDbEntity
  8
hidden
100
AcDbLine
 10
-8.00000000000001
 20
75.0
 30
0.0
 11
-10.00000000000001
 21
75.0
 31
0.0
  0
LINE
  5
1CD
330
19D
100
AcDbEntity
  8
hidden
100
AcDbLine
 10
-8.00000000000001
 20
141.0
 30
0.0
 11
-10.00000000000001
 21
141.0
 31
0.0
  0
LINE
  5
1CE
330
19D
100
AcDbEntity
  8
hidden
100
AcDbLine
 10
-8.00000000000001
 20
149.0
 30
0.0
 11
-10.00000000000001
 21
149.0
 31
0.0
  0
LINE
  5
1CF
330
19D
100
AcDbEntity
  8
hidden
100
AcDbLine
 10
-23.00000000000001
 20
160.0
 30
0.0
 11
-23.00000000000001
 21
158.0
 31
0.0
  0
LINE
  5
1D0
330
19D
100
AcDbEntity
  8
hidden
100
AcDbLine
 10
-23.00000000000001
 20
2.000000000000002
 30
0.0
 11
-23.00000000000001
 21
0.0
 31
0.0
  0
LINE
  5
1D1
330
19D
100
AcDbEntity
  8
hidden
100
AcDbLine
 10
24.99999999999999
 20
158.0
 30
0.0
 11
-25.00000000000001
 21
158.0
 31
0.0
  0
LINE
  5
1D2
330
19D
100
AcDbEntity
  8
hidden
100
AcDbLine
 10
-27.00000000000001
 20
160.0
 30
0.0
 11
26.99999999999999
 21
160.0
 31
0.0
  0
LINE
  5
1D3
330
19D
100
AcDbEntity
  8
hidden
100
AcDbLine
 10
-25.00000000000001
 20
158.0
 30
0.0
 11
-25.00000000000001
 21
2.000000000000002
 31
0.0
  0
LINE
  5
1D4
330
19D
100
AcDbEntity
  8
hidden
100
AcDbLine
 10
7.999999999999989
 20
99.0
 30
0.0
 11
9.99999999999999
 21
99.0
 31
0.0
  0
LINE
  5
1D5
330
19D
100
AcDbEntity
  8
hidden
100
AcDbLine
 10
7.999999999999989
 20
18.0
 30
0.0
 11
9.99999999999999
 21
18.0
 31
0.0
  0
ENDBLK
  5
1A0
330
19D
100
AcDbEntity
  8
0
100
AcDbBlockEnd
  0
BLOCK
  5
1DA
330
1D9
100
AcDbEntity
  8
0
100
AcDbBlockBegin
  2
*D7
 70
     1
 10
0.0
 20
0.0
 30
0.0
  3
*D7
  1

  0
LINE
  5
1DC
330
1D9
100
AcDbEntity
  8
dimension
 62
     0
370
    -2
100
AcDbLine
 10
-27.00000000000001
 20
0.0
 30
0.0
 11
-27.00000000000001
 21
-28.0
 31
0.0
  0
LINE
  5
1DD
330
1D9
100
AcDbEntity
  8
dimension
 62
     0
370
    -2
100
AcDbLine
 10
26.99999999999999
 20
0.0
 30
0.0
 11
26.99999999999999
 21
-28.0
 31
0.0
  0
LINE
  5
1DE
330
1D9
100
AcDbEntity
  8
dimension
 62
     0
370
    -2
100
AcDbLine
 10
-19.00000000000001
 20
-28.0
 30
0.0
 11
18.99999999999999
 21
-28.0
 31
0.0
  0
SOLID
  5
1DF
330
1D9
100
AcDbEntity
  8
dimension
 62
     0
100
AcDbTrace
 10
-19.00000000000001
 20
-26.66666666666667
 30
0.0
 11
-19.00000000000001
 21
-29.33333333333333
 31
0.0
 12
-27.00000000000001
 22
-28.0
 32
0.0
 13
-27.00000000000001
 23
-28.0
 33
0.0
  0
SOLID
  5
1E0
330
1D9
100
AcDbEntity
  8
dimension
 62
     0
100
AcDbTrace
 10
18.99999999999999
 20
-29.33333333333333
 30
0.0
 11
18.99999999999999
 21
-26.66666666666667
 31
0.0
 12
26.99999999999999
 22
-28.0
 32
0.0
 13
26.99999999999999
 23
-28.0
 33
0.0
  0
MTEXT
  5
1E1
330
1D9
100
AcDbEntity
  8
dimension
 62
     0
100
AcDbMText
 10
-0.0000000000000107
 20
-21.6
 30
0.0
 40
8.0
 41
0.0
 46
0.0
 71
     5
 72
     1
  1
54
 73
     1
 44
1.0
  0
POINT
  5
1E2
330
1D9
100
AcDbEntity
  8
Defpoints
 62
     0
100
AcDbPoint
 10
-27.00000000000001
 20
0.0
 30
0.0
  0
POINT
  5
1E3
330
1D9
100
AcDbEntity
  8
Defpoints
 62
     0
100
AcDbPoint
 10
26.99999999999999
 20
0.0
 30
0.0
  0
POINT
  5
1E4
330
1D9
100
AcDbEntity
  8
Defpoints
 62
     0
100
AcDbPoint
 10
26.99999999999999
 20
-24.0
 30
0.0
  0
ENDBLK
  5
1DB
330
1D9
100
AcDbEntity
  8
0
100
AcDbBlockEnd
  0
BLOCK
  5
1E7
330
1E6
100
AcDbEntity
  8
0
100
AcDbBlockBegin
  2
*D8
 70
     1
 10
0.0
 20
0.0
 30
0.0
  3
*D8
  1

  0
LINE
  5
1E9
330
1E6
100
AcDbEntity
  8
dimension
 62
     0
370
    -2
100
AcDbLine
 10
16.99999999999999
 20
18.0
 30
0.0
 11
16.99999999999999
 21
188.25
 31
0.0
  0
LINE
  5
1EA
330
1E6
100
AcDbEntity
  8
dimension
 62
     0
370
    -2
100
AcDbLine
 10
-0.00000000000001
 20
78.0
 30
0.0
 11
-0.0000000000000086
 21
188.25
 31
0.0
  0
LINE
  5
1EB
330
1E6
100
AcDbEntity
  8
dimension
 62
     0
370
    -2
100
AcDbLine
 10
16.99999999999999
 20
188.25
 30
0.0
 11
69.22857142857143
 21
188.25
 31
0.0
  0
LINE
  5
1EC
330
1E6
100
AcDbEntity
  8
dimension
 62
     0
370
    -2
100
AcDbLine
 10
16.99999999999999
 20
188.25
 30
0.0
 11
-0.0000000000000086
 21
188.25
 31
0.0
  0
LINE
  5
1ED
330
1E6
100
AcDbEntity
  8
dimension
 62
     0
370
    -2
100
AcDbLine
 10
24.99999999999999
 20
188.25
 30
0.0
 11
32.99999999999999
 21
188.25
 31
0.0
  0
LINE
  5
1EE
330
1E6
100
AcDbEntity
  8
dimension
 62
     0
370
    -2
100
AcDbLine
 10
-8.000000000000009
 20
188.25
 30
0.0
 11
-16.00000000000001
 21
188.25
 31
0.0
  0
SOLID
  5
1EF
330
1E6
100
AcDbEntity
  8
dimension
 62
     0
100
AcDbTrace
 10
24.99999999999999
 20
189.5833333333333
 30
0.0
 11
24.99999999999999
 21
186.9166666666667
 31
0.0
 12
16.99999999999999
 22
188.25
 32
0.0
 13
16.99999999999999
 23
188.25
 33
0.0
  0
SOLID
  5
1F0
330
1E6
100
AcDbEntity
  8
dimension
 62
     0
100
AcDbTrace
 10
-8.000000000000009
 20
186.9166666666667
 30
0.0
 11
-8.000000000000009
 21
189.5833333333333
 31
0.0
 12
-0.0000000000000086
 22
188.25
 32
0.0
 13
-0.0000000000000086
 23
188.25
 33
0.0
  0
MTEXT
  5
1F1
330
1E6
100
AcDbEntity
  8
dimension
 62
     0
100
AcDbMText
 10
51.39999999999999
 20
194.65
 30
0.0
 40
8.0
 41
0.0
 46
0.0
 71
     5
 72
     1
  1
15.75
 73
     1
 44
1.0
  0
POINT
  5
1F2
330
1E6
100
AcDbEntity
  8
Defpoints
 62
     0
100
AcDbPoint
 10
16.99999999999999
 20
18.0
 30
0.0
  0
POINT
  5
1F3
330
1E6
100
AcDbEntity
  8
Defpoints
 62
     0
100
AcDbPoint
 10
-0.00000000000001
 20
78.0
 30
0.0
  0
POINT
  5
1F4
330
1E6
100
AcDbEntity
  8
Defpoints
 62
     0
100
AcDbPoint
 10
-0.00000000000001
 20
184.25
 30
0.0
  0
ENDBLK
  5
1E8
330
1E6
100
AcDbEntity
  8
0
100
AcDbBlockEnd
  0
BLOCK
  5
1F7
330
1F6
100
AcDbEntity
  8
0
100
AcDbBlockBegin
  2
*D9
 70
     1
 10
0.0
 20
0.0
 30
0.0
  3
*D9
  1

  0
LINE
  5
1F9
330
1F6
100
AcDbEntity
  8
dimension
 62
     0
370
    -2
100
AcDbLine
 10
-17.00000000000001
 20
138.0
 30
0.0
 11
-17.00000000000001
 21
188.25
 31
0.0
  0
LINE
  5
1FA
330
1F6
100
AcDbEntity
  8
dimension
 62
     0
370
    -2
100
AcDbLine
 10
-0.00000000000001
 20
78.0
 30
0.0
 11
-0.0000000000000086
 21
188.25
 31
0.0
  0
LINE
  5
1FB
330
1F6
100
AcDbEntity
  8
dimension
 62
     0
370
    -2
100
AcDbLine
 10
-17.00000000000001
 20
188.25
 30
0.0
 11
-69.22857142857144
 21
188.25
 31
0.0
  0
LINE
  5
1FC
330
1F6
100
AcDbEntity
  8
dimension
 62
     0
370
    -2
100
AcDbLine
 10
-17.00000000000001
 20
188.25
 30
0.0
 11
-0.0000000000000086
 21
188.25
 31
0.0
  0
LINE
  5
1FD
330
1F6
100
AcDbEntity
  8
dimension
 62
     0
370
    -2
100
AcDbLine
 10
-25.00000000000001
 20
188.25
 30
0.0
 11
-33.00000000000001
 21
188.25
 31
0.0
  0
LINE
  5
1FE
330
1F6
100
AcDbEntity
  8
dimension
 62
     0
370
    -2
100
AcDbLine
 10
7.999999999999991
 20
188.25
 30
0.0
 11
15.99999999999999
 21
188.25
 31
0.0
  0
SOLID
  5
1FF
330
1F6
100
AcDbEntity
  8
dimension
 62
     0
100
AcDbTrace
 10
-25.00000000000001
 20
186.9166666666667
 30
0.0
 11
-25.00000000000001
 21
189.5833333333333
 31
0.0
 12
-17.00000000000001
 22
188.25
 32
0.0
 13
-17.00000000000001
 23
188.25
 33
0.0
  0
SOLID
  5
200
330
1F6
100
AcDbEntity
  8
dimension
 62
     0
100
AcDbTrace
 10
7.999999999999991
 20
189.5833333333333
 30
0.0
 11
7.999999999999991
 21
186.9166666666667
 31
0.0
 12
-0.0000000000000086
 22
188.25
 32
0.0
 13
-0.0000000000000086
 23
188.25
 33
0.0
  0
MTEXT
  5
201
330
1F6
100
AcDbEntity
  8
dimension
 62
     0
100
AcDbMText
 10
-51.40000000000001
 20
194.65
 30
0.0
 40
8.0
 41
0.0
 46
0.0
 71
     5
 72
     1
  1
15.75
 73
     1
 44
1.0
  0
POINT
  5
202
330
1F6
100
AcDbEntity
  8
Defpoints
 62
     0
100
AcDbPoint
 10
-17.00000000000001
 20
138.0
 30
0.0
  0
POINT
  5
203
330
1F6
100
AcDbEntity
  8
Defpoints
 62
     0
100
AcDbPoint
 10
-0.00000000000001
 20
78.0
 30
0.0
  0
POINT
  5
204
330
1F6
100
AcDbEntity
  8
Defpoints
 62
     0
100
AcDbPoint
 10
-0.00000000000001
 20
184.25
 30
0.0
  0
ENDBLK
  5
1F8
330
1F6
100
AcDbEntity
  8
0
100
AcDbBlockEnd
  0
BLOCK
  5
207
330
206
100
AcDbEntity
  8
0
100
AcDbBlockBegin
  2
*D10
 70
     1
 10
0.0
 20
0.0
 30
0.0
  3
*D10
  1

  0
LINE
  5
209
330
206
100
AcDbEntity
  8
dimension
 62
     0
370
    -2
100
AcDbLine
 10
16.99999999999999
 20
18.0
 30
0.0
 11
54.99999999999999
 21
18.0
 31
0.0
  0
LINE
  5
20A
330
206
100
AcDbEntity
  8
dimension
 62
     0
370
    -2
100
AcDbLine
 10
-0.00000000000001
 20
78.0
 30
0.0
 11
54.99999999999999
 21
78.0
 31
0.0
  0
LINE
  5
20B
330
206
100
AcDbEntity
  8
dimension
 62
     0
370
    -2
100
AcDbLine
 10
54.99999999999999
 20
26.0
 30
0.0
 11
54.99999999999999
 21
39.31428571428572
 31
0.0
  0
LINE
  5
20C
330
206
100
AcDbEntity
  8
dimension
 62
     0
370
    -2
100
AcDbLine
 10
54.99999999999999
 20
70.0
 30
0.0
 11
54.99999999999999
 21
56.68571428571428
 31
0.0
  0
SOLID
  5
20D
330
206
100
AcDbEntity
  8
dimension
 62
     0
100
AcDbTrace
 10
53.66666666666665
 20
26.0
 30
0.0
 11
56.33333333333332
 21
26.0
 31
0.0
 12
54.99999999999999
 22
18.0
 32
0.0
 13
54.99999999999999
 23
18.0
 33
0.0
  0
SOLID
  5
20E
330
206
100
AcDbEntity
  8
dimension
 62
     0
100
AcDbTrace
 10
56.33333333333332
 20
70.0
 30
0.0
 11
53.66666666666665
 21
70.0
 31
0.0
 12
54.99999999999999
 22
78.0
 32
0.0
 13
54.99999999999999
 23
78.0
 33
0.0
  0
MTEXT
  5
20F
330
206
100
AcDbEntity
  8
dimension
 62
     0
100
AcDbMText
 10
54.99999999999999
 20
48.0
 30
0.0
 40
8.0
 41
0.0
 46
0.0
 71
     5
 72
     1
  1
60
 11
6.123233995736766E-17
 21
1.0
 31
0.0
 73
     1
 44
1.0
  0
POINT
  5
210
330
206
100
AcDbEntity
  8
Defpoints
 62
     0
100
AcDbPoint
 10
16.99999999999999
 20
18.0
 30
0.0
  0
POINT
  5
211
330
206
100
AcDbEntity
  8
Defpoints
 62
     0
100
AcDbPoint
 10
-0.00000000000001
 20
78.0
 30
0.0
  0
POINT
  5
212
330
206
100
AcDbEntity
  8
Defpoints
 62
     0
100
AcDbPoint
 10
50.99999999999999
 20
78.0
 30
0.0
  0
ENDBLK
  5
208
330
206
100
AcDbEntity
  8
0
100
AcDbBlockEnd
  0
BLOCK
  5
215
330
214
100
AcDbEntity
  8
0
100
AcDbBlockBegin
  2
*D11
 70
     1
 10
0.0
 20
0.0
 30
0.0
  3
*D11
  1

  0
LINE
  5
217
330
214
100
AcDbEntity
  8
dimension
 62
     0
370
    -2
100
AcDbLine
 10
-17.00000000000001
 20
138.0
 30
0.0
 11
54.99999999999999
 21
138.0
 31
0.0
  0
LINE
  5
218
330
214
100
AcDbEntity
  8
dimension
 62
     0
370
    -2
100
AcDbLine
 10
-0.00000000000001
 20
78.0
 30
0.0
 11
54.99999999999999
 21
78.0
 31
0.0
  0
LINE
  5
219
330
214
100
AcDbEntity
  8
dimension
 62
     0
370
    -2
100
AcDbLine
 10
54.99999999999999
 20
130.0
 30
0.0
 11
54.99999999999999
 21
116.6857142857143
 31
0.0
  0
LINE
  5
21A
330
214
100
AcDbEntity
  8
dimension
 62
     0
370
    -2
100
AcDbLine
 10
54.99999999999999
 20
86.0
 30
0.0
 11
54.99999999999999
 21
99.31428571428572
 31
0.0
  0
SOLID
  5
21B
330
214
100
AcDbEntity
  8
dimension
 62
     0
100
AcDbTrace
 10
56.33333333333332
 20
130.0
 30
0.0
 11
53.66666666666665
 21
130.0
 31
0.0
 12
54.99999999999999
 22
138.0
 32
0.0
 13
54.99999999999999
 23
138.0
 33
0.0
  0
SOLID
  5
21C
330
214
100
AcDbEntity
  8
dimension
 62
     0
100
AcDbTrace
 10
53.66666666666665
 20
86.0
 30
0.0
 11
56.33333333333332
 21
86.0
 31
0.0
 12
54.99999999999999
 22
78.0
 32
0.0
 13
54.99999999999999
 23
78.0
 33
0.0
  0
MTEXT
  5
21D
330
214
100
AcDbEntity
  8
dimension
 62
     0
100
AcDbMText
 10
54.99999999999999
 20
108.0
 30
0.0
 40
8.0
 41
0.0
 46
0.0
 71
     5
 72
     1
  1
60
 11
6.123233995736766E-17
 21
1.0
 31
0.0
 73
     1
 44
1.0
  0
POINT
  5
21E
330
214
100
AcDbEntity
  8
Defpoints
 62
     0
100
AcDbPoint
 10
-17.00000000000001
 20
138.0
 30
0.0
  0
POINT
  5
21F
330
214
100
AcDbEntity
  8
Defpoints
 62
     0
100
AcDbPoint
 10
-0.00000000000001
 20
78.0
 30
0.0
  0
POINT
  5
220
330
214
100
AcDbEntity
  8
Defpoints
 62
     0
100
AcDbPoint
 10
50.99999999999999
 20
78.0
 30
0.0
  0
ENDBLK
  5
216
330
214
100
AcDbEntity
  8
0
100
AcDbBlockEnd
  0
ENDSEC
  0
SECTION
  2
ENTITIES
  0
ATTDEF
  5
5F
330
1F
100
AcDbEntity
  8
attrib
100
AcDbText
 10
34.69999999999999
 20
160.25
 30
0.0
 40
0.5
  1
01401
100
AcDbAttributeDefinition
  3

  2
NB
 70
     8
280
     0
  0
ATTDEF
  5
60
330
1F
100
AcDbEntity
  8
attrib
100
AcDbText
 10
34.69999999999999
 20
159.75
 30
0.0
 40
0.5
  1
Terminal plates up to 50 mm² (AWG 2/0)
100
AcDbAttributeDefinition
  3

  2
NN
 70
     8
280
     0
  0
ATTDEF
  5
61
330
1F
100
AcDbEntity
  8
attrib
100
AcDbText
 10
34.69999999999999
 20
159.25
 30
0.0
 40
0.5
  1

100
AcDbAttributeDefinition
  3

  2
NT
 70
     8
280
     0
  0
ATTDEF
  5
62
330
1F
100
AcDbEntity
  8
attrib
100
AcDbText
 10
34.69999999999999
 20
158.75
 30
0.0
 40
0.5
  1
$ARTNR.
100
AcDbAttributeDefinition
  3

  2
NBSYN
 70
     8
280
     0
  0
ATTDEF
  5
63
330
1F
100
AcDbEntity
  8
attrib
100
AcDbText
 10
34.69999999999999
 20
158.25
 30
0.0
 40
0.5
  1
01401000
100
AcDbAttributeDefinition
  3

  2
LINA
 70
     8
280
     0
  0
ATTDEF
  5
64
330
1F
100
AcDbEntity
  8
attrib
100
AcDbText
 10
34.69999999999999
 20
157.75
 30
0.0
 40
0.5
  1
Wöhner
100
AcDbAttributeDefinition
  3

  2
CATALOG
 70
     8
280
     0
  0
ATTDEF
  5
65
330
1F
100
AcDbEntity
  8
attrib
100
AcDbText
 10
34.69999999999999
 20
157.25
 30
0.0
 40
0.5
  1
01401
100
AcDbAttributeDefinition
  3

  2
ARTNR
 70
     8
280
     0
  0
ATTDEF
  5
66
330
1F
100
AcDbEntity
  8
attrib
100
AcDbText
 10
34.69999999999999
 20
156.75
 30
0.0
 40
0.5
  1
12 x 5, 10
100
AcDbAttributeDefinition
  3

  2
BUSB
 70
     8
280
     0
  0
ATTDEF
  5
67
330
1F
100
AcDbEntity
  8
attrib
100
AcDbText
 10
34.69999999999999
 20
156.25
 30
0.0
 40
0.5
  1
CRITO®30Compact
100
AcDbAttributeDefinition
  3

  2
POF
 70
     8
280
     0
  0
ATTDEF
  5
68
330
1F
100
AcDbEntity
  8
attrib
100
AcDbText
 10
34.69999999999999
 20
155.75
 30
0.0
 40
0.5
  1
240C-L
100
AcDbAttributeDefinition
  3

  2
TYPE
 70
     8
280
     0
  0
ATTDEF
  5
69
330
1F
100
AcDbEntity
  8
attrib
100
AcDbText
 10
34.69999999999999
 20
155.25
 30
0.0
 40
0.5
  1
1
100
AcDbAttributeDefinition
  3

  2
QNT
 70
     8
280
     0
  0
ATTDEF
  5
6A
330
1F
100
AcDbEntity
  8
attrib
100
AcDbText
 10
34.69999999999999
 20
154.75
 30
0.0
 40
0.5
  1
54
100
AcDbAttributeDefinition
  3

  2
W
 70
     8
280
     0
  0
ATTDEF
  5
6B
330
1F
100
AcDbEntity
  8
attrib
100
AcDbText
 10
34.69999999999999
 20
154.25
 30
0.0
 40
0.5
  1
160
100
AcDbAttributeDefinition
  3

  2
H
 70
     8
280
     0
  0
ATTDEF
  5
6C
330
1F
100
AcDbEntity
  8
attrib
100
AcDbText
 10
34.69999999999999
 20
153.75
 30
0.0
 40
0.5
  1
84
100
AcDbAttributeDefinition
  3

  2
D
 70
     8
280
     0
  0
ATTDEF
  5
6D
330
1F
100
AcDbEntity
  8
attrib
100
AcDbText
 10
34.69999999999999
 20
153.25
 30
0.0
 40
0.5
  1
Product link
100
AcDbAttributeDefinition
  3

  2
LINK
 70
     8
280
     0
  0
ATTDEF
  5
6E
330
1F
100
AcDbEntity
  8
attrib
100
AcDbText
 10
34.69999999999999
 20
152.75
 30
0.0
 40
0.5
  1
woehner
100
AcDbAttributeDefinition
  3

  2
COMPANY
 70
     8
280
     0
  0
ATTDEF
  5
6F
330
1F
100
AcDbEntity
  8
attrib
100
AcDbText
 10
34.69999999999999
 20
152.25
 30
0.0
 40
0.5
  1
{$CADENAS_DATA/23d-libs/woehner/sys_30_c_3pole/connection_technology_and_covers/terminal_plates_50_asmtab.prj},206 {VTYP=3D},{STYP=ASSTAB},{NB=01401},{LINA=01401000},{NN=Anschlussklemmenplatten bis 50 mm² (AWG 2/0)},{DATE=04.11.2022 07:06:05},{GEOMDATE=15
100
AcDbAttributeDefinition
  3

  2
PSOL_0
 70
     9
280
     0
  0
ATTDEF
  5
70
330
1F
100
AcDbEntity
  8
attrib
100
AcDbText
 10
34.69999999999999
 20
151.75
 30
0.0
 40
0.5
  1
.09.2022 10:53:56},{VERSION=},{LINEID=360},{WBVAR=},{WBNUMERIC=}  {NB=01401},{LINA=01401000},{KT=DUMMY},{SYSTEM185=1},{BOM=01401000},{ARTNR=01401},{BUSB=12 x 5, 10},{POF=CRITO®30Compact},{TYPE=240C-L},{QNT=1},{W=54},{H=160},{D=84},{CONCA=},{SCR=},{IPR=},{
100
AcDbAttributeDefinition
  3

  2
PSOL_1
 70
     9
280
     0
  0
ATTDEF
  5
71
330
1F
100
AcDbEntity
  8
attrib
100
AcDbText
 10
34.69999999999999
 20
151.25
 30
0.0
 40
0.5
  1
SEARCH=},{EDZ=},{IODD=},{DIST=8},{LINK=Product link},{LINKX=https://www.woehner.de/de/produkte/01401.html},{PPATH=parts/terminal_plates_asmtpl.prj}
100
AcDbAttributeDefinition
  3

  2
PSOL_2
 70
     9
280
     0
  0
INSERT
  5
73
330
1F
100
AcDbEntity
  8
0
100
AcDbBlockReference
  2
1_30134000_01401_1_0_in_01401_0
 10
0.0
 20
0.0
 30
0.0
  0
INSERT
  5
B3
330
1F
100
AcDbEntity
  8
0
100
AcDbBlockReference
  2
2_30134000_01401_2_0_in_01401_0
 10
0.0
 20
0.0
 30
0.0
  0
INSERT
  5
F0
330
1F
100
AcDbEntity
  8
0
100
AcDbBlockReference
  2
3_30134000_01401_3_0_in_01401_0
 10
0.0
 20
0.0
 30
0.0
  0
INSERT
  5
12C
330
1F
100
AcDbEntity
  8
0
100
AcDbBlockReference
  2
4_77082000_0_in_01401_0
 10
0.0
 20
0.0
 30
0.0
  0
INSERT
  5
165
330
1F
100
AcDbEntity
  8
0
100
AcDbBlockReference
  2
5_77176000_0_in_01401_0
 10
0.0
 20
0.0
 30
0.0
  0
INSERT
  5
19E
330
1F
100
AcDbEntity
  8
0
100
AcDbBlockReference
  2
6_77175000_0_in_01401_0
 10
0.0
 20
0.0
 30
0.0
  0
DIMENSION
  5
1D7
330
1F
100
AcDbEntity
  8
dimension
100
AcDbDimension
280
     0
  2
*D7
 10
26.99999999999999
 20
-28.0
 30
0.0
 11
-0.0000000000000107
 21
-28.0
 31
0.0
 70
   160
  1
54
 71
     5
 42
54.0
 73
     0
 74
     0
 75
     0
  3
ISO-25
100
AcDbAlignedDimension
 13
-27.00000000000001
 23
0.0
 33
0.0
 14
26.99999999999999
 24
0.0
 34
0.0
100
AcDbRotatedDimension
1001
ACAD
1000
DSTYLE
1002
{
1070
   147
1040
2.4
1070
    42
1040
0.0
1070
    44
1040
0.0
1070
    41
1040
8.0
1070
   140
1040
8.0
1002
}
  0
DIMENSION
  5
1E5
330
1F
100
AcDbEntity
  8
dimension
100
AcDbDimension
280
     0
  2
*D8
 10
-0.0000000000000086
 20
188.25
 30
0.0
 11
51.39999999999999
 21
188.25
 31
0.0
 70
   160
  1
15.75
 71
     5
 42
17.0
 73
     0
 74
     0
 75
     0
  3
ISO-25
100
AcDbAlignedDimension
 13
16.99999999999999
 23
18.0
 33
0.0
 14
-0.00000000000001
 24
78.0
 34
0.0
100
AcDbRotatedDimension
1001
ACAD
1000
DSTYLE
1002
{
1070
   147
1040
2.4
1070
    42
1040
0.0
1070
    44
1040
0.0
1070
    41
1040
8.0
1070
   140
1040
8.0
1002
}
  0
DIMENSION
  5
1F5
330
1F
100
AcDbEntity
  8
dimension
100
AcDbDimension
280
     0
  2
*D9
 10
-0.0000000000000086
 20
188.25
 30
0.0
 11
-51.40000000000001
 21
188.25
 31
0.0
 70
   160
  1
15.75
 71
     5
 42
17.0
 73
     0
 74
     0
 75
     0
  3
ISO-25
100
AcDbAlignedDimension
 13
-17.00000000000001
 23
138.0
 33
0.0
 14
-0.00000000000001
 24
78.0
 34
0.0
100
AcDbRotatedDimension
1001
ACAD
1000
DSTYLE
1002
{
1070
   147
1040
2.4
1070
    42
1040
0.0
1070
    44
1040
0.0
1070
    41
1040
8.0
1070
   140
1040
8.0
1002
}
  0
DIMENSION
  5
205
330
1F
100
AcDbEntity
  8
dimension
100
AcDbDimension
280
     0
  2
*D10
 10
54.99999999999999
 20
78.0
 30
0.0
 11
54.99999999999999
 21
48.0
 31
0.0
 70
   160
  1
60
 71
     5
 42
60.0
 73
     0
 74
     0
 75
     0
 53
90.0
  3
ISO-25
100
AcDbAlignedDimension
 13
16.99999999999999
 23
18.0
 33
0.0
 14
-0.00000000000001
 24
78.0
 34
0.0
 50
90.0
100
AcDbRotatedDimension
1001
ACAD
1000
DSTYLE
1002
{
1070
   147
1040
2.4
1070
    42
1040
0.0
1070
    44
1040
0.0
1070
    41
1040
8.0
1070
   140
1040
8.0
1002
}
  0
DIMENSION
  5
213
330
1F
100
AcDbEntity
  8
dimension
100
AcDbDimension
280
     0
  2
*D11
 10
54.99999999999999
 20
78.0
 30
0.0
 11
54.99999999999999
 21
108.0
 31
0.0
 70
   160
  1
60
 71
     5
 42
60.0
 73
     0
 74
     0
 75
     0
 53
90.0
  3
ISO-25
100
AcDbAlignedDimension
 13
-17.00000000000001
 23
138.0
 33
0.0
 14
-0.00000000000001
 24
78.0
 34
0.0
 50
90.0
100
AcDbRotatedDimension
1001
ACAD
1000
DSTYLE
1002
{
1070
   147
1040
2.4
1070
    42
1040
0.0
1070
    44
1040
0.0
1070
    41
1040
8.0
1070
   140
1040
8.0
1002
}
  0
POINT
  5
222
330
1F
100
AcDbEntity
  8
connection
100
AcDbPoint
 10
-0.00000000000001
 20
78.0
 30
0.0
  0
POINT
  5
223
330
1F
100
AcDbEntity
  8
connection
100
AcDbPoint
 10
-17.00000000000001
 20
138.0
 30
0.0
  0
POINT
  5
224
330
1F
100
AcDbEntity
  8
connection
100
AcDbPoint
 10
-0.00000000000001
 20
80.0
 30
0.0
  0
POINT
  5
225
330
1F
100
AcDbEntity
  8
connection
100
AcDbPoint
 10
-0.00000000000001
 20
80.0
 30
0.0
  0
POINT
  5
226
330
1F
100
AcDbEntity
  8
connection
100
AcDbPoint
 10
-0.00000000000001
 20
80.0
 30
0.0
  0
POINT
  5
227
330
1F
100
AcDbEntity
  8
connection
100
AcDbPoint
 10
-17.00000000000001
 20
138.0
 30
0.0
  0
POINT
  5
228
330
1F
100
AcDbEntity
  8
connection
100
AcDbPoint
 10
-0.00000000000001
 20
78.0
 30
0.0
  0
POINT
  5
229
330
1F
100
AcDbEntity
  8
connection
100
AcDbPoint
 10
16.99999999999999
 20
18.0
 30
0.0
  0
POINT
  5
22A
330
1F
100
AcDbEntity
  8
connection
100
AcDbPoint
 10
-0.00000000000001
 20
0.0
 30
0.0
  0
POINT
  5
22B
330
1F
100
AcDbEntity
  8
connection
100
AcDbPoint
 10
-0.00000000000001
 20
80.0
 30
0.0
  0
ENDSEC
  0
SECTION
  2
OBJECTS
  0
DICTIONARY
  5
C
330
0
100
AcDbDictionary
281
     1
  3
ACAD_DETAILVIEWSTYLE
350
233
  3
ACAD_GROUP
350
D
  3
ACAD_LAYOUT
350
1A
  3
ACAD_MATERIAL
350
43
  3
ACAD_MLEADERSTYLE
350
5B
  3
ACAD_MLINESTYLE
350
17
  3
ACAD_PLOTSETTINGS
350
19
  3
ACAD_PLOTSTYLENAME
350
E
  3
ACAD_SCALELIST
350
47
  3
ACAD_SECTIONVIEWSTYLE
350
234
  3
ACAD_TABLESTYLE
350
59
  3
ACAD_VISUALSTYLE
350
2A
  3
ACDB_RECOMPOSE_DATA
350
230
  3
AcDbVariableDictionary
350
22C
  0
SUN
  5
5D
330
29
100
AcDbSun
 90
        1
290
     0
 63
     7
421
 16777215
 40
1.0
291
     1
 91
  2455826
 92
 54000000
292
     0
 70
     2
 71
   256
280
     1
  0
DICTIONARY
  5
233
102
{ACAD_REACTORS
330
C
102
}
330
C
100
AcDbDictionary
281
     1
  0
DICTIONARY
  5
D
102
{ACAD_REACTORS
330
C
102
}
330
C
100
AcDbDictionary
281
     1
  0
DICTIONARY
  5
1A
102
{ACAD_REACTORS
330
C
102
}
330
C
100
AcDbDictionary
281
     1
  3
Layout1
350
1E
  3
Layout2
350
26
  3
Model
350
22
  0
DICTIONARY
  5
43
102
{ACAD_REACTORS
330
C
102
}
330
C
100
AcDbDictionary
281
     1
  3
ByBlock
350
45
  3
ByLayer
350
44
  3
Global
350
46
  0
DICTIONARY
  5
5B
102
{ACAD_REACTORS
330
C
102
}
330
C
100
AcDbDictionary
281
     1
  3
Standard
350
5C
  0
DICTIONARY
  5
17
102
{ACAD_REACTORS
330
C
102
}
330
C
100
AcDbDictionary
281
     1
  3
Standard
350
18
  0
DICTIONARY
  5
19
102
{ACAD_REACTORS
330
C
102
}
330
C
100
AcDbDictionary
281
     1
  0
ACDBDICTIONARYWDFLT
  5
E
102
{ACAD_REACTORS
330
C
102
}
330
C
100
AcDbDictionary
281
     1
  3
Normal
350
F
100
AcDbDictionaryWithDefault
340
F
  0
DICTIONARY
  5
47
102
{ACAD_REACTORS
330
C
102
}
330
C
100
AcDbDictionary
281
     1
  3
A0
350
48
  3
A1
350
49
  3
A2
350
4A
  3
A3
350
4B
  3
A4
350
4C
  3
A5
350
4D
  3
A6
350
4E
  3
A7
350
4F
  3
A8
350
50
  3
A9
350
51
  3
B0
350
52
  3
B1
350
53
  3
B2
350
54
  3
B3
350
55
  3
B4
350
56
  3
B5
350
57
  3
B6
350
58
  0
DICTIONARY
  5
234
102
{ACAD_REACTORS
330
C
102
}
330
C
100
AcDbDictionary
281
     1
  0
DICTIONARY
  5
59
102
{ACAD_REACTORS
330
C
102
}
330
C
100
AcDbDictionary
281
     1
  3
Standard
350
5A
  0
DICTIONARY
  5
2A
102
{ACAD_REACTORS
330
C
102
}
330
C
100
AcDbDictionary
281
     1
  3
2dWireframe
350
2F
  3
Basic
350
32
  3
Brighten
350
36
  3
ColorChange
350
3A
  3
Conceptual
350
34
  3
Dim
350
35
  3
EdgeColorOff
350
3D
  3
Facepattern
350
39
  3
Flat
350
2B
  3
FlatWithEdges
350
2C
  3
Gouraud
350
2D
  3
GouraudWithEdges
350
2E
  3
Hidden
350
31
  3
JitterOff
350
3B
  3
Linepattern
350
38
  3
OverhangOff
350
3C
  3
Realistic
350
33
  3
Shaded
350
42
  3
Shaded with edges
350
41
  3
Shades of Gray
350
3E
  3
Sketchy
350
3F
  3
Thicken
350
37
  3
Wireframe
350
30
  3
X-Ray
350
40
  0
XRECORD
  5
230
102
{ACAD_REACTORS
330
C
102
}
330
C
100
AcDbXrecord
280
     1
 90
        1
330
5A
  0
DICTIONARY
  5
22C
102
{ACAD_REACTORS
330
C
102
}
330
C
100
AcDbDictionary
281
     1
  3
CANNOSCALE
350
22D
  3
CENTEREXE
350
235
  3
CENTERLTYPEFILE
350
236
  3
CMLEADERSTYLE
350
232
  3
CTABLESTYLE
350
231
  0
LAYOUT
  5
1E
102
{ACAD_REACTORS
330
1A
102
}
330
1A
100
AcDbPlotSettings
  1

  2
none_device
  4

  6

 40
0.0
 41
0.0
 42
0.0
 43
0.0
 44
0.0
 45
0.0
 46
0.0
 47
0.0
 48
0.0
 49
0.0
140
0.0
141
0.0
142
1.0
143
1.0
 70
   688
 72
     1
 73
     0
 74
     5
  7

 75
    16
 76
     0
 77
     2
 78
   300
147
1.0
148
0.0
149
0.0
100
AcDbLayout
  1
Layout1
 70
     1
 71
     1
 10
0.0
 20
0.0
 11
420.0
 21
297.0
 12
0.0
 22
0.0
 32
0.0
 14
1.000000000000000E+20
 24
1.000000000000000E+20
 34
1.000000000000000E+20
 15
-1.000000000000000E+20
 25
-1.000000000000000E+20
 35
-1.000000000000000E+20
146
0.0
 13
0.0
 23
0.0
 33
0.0
 16
1.0
 26
0.0
 36
0.0
 17
0.0
 27
1.0
 37
0.0
 76
     0
330
1B
  0
LAYOUT
  5
26
102
{ACAD_REACTORS
330
1A
102
}
330
1A
100
AcDbPlotSettings
  1

  2
none_device
  4

  6

 40
0.0
 41
0.0
 42
0.0
 43
0.0
 44
0.0
 45
0.0
 46
0.0
 47
0.0
 48
0.0
 49
0.0
140
0.0
141
0.0
142
1.0
143
1.0
 70
   688
 72
     1
 73
     0
 74
     5
  7

 75
    16
 76
     0
 77
     2
 78
   300
147
1.0
148
0.0
149
0.0
100
AcDbLayout
  1
Layout2
 70
     1
 71
     2
 10
0.0
 20
0.0
 11
0.0
 21
0.0
 12
0.0
 22
0.0
 32
0.0
 14
0.0
 24
0.0
 34
0.0
 15
0.0
 25
0.0
 35
0.0
146
0.0
 13
0.0
 23
0.0
 33
0.0
 16
1.0
 26
0.0
 36
0.0
 17
0.0
 27
1.0
 37
0.0
 76
     0
330
23
  0
LAYOUT
  5
22
102
{ACAD_REACTORS
330
1A
102
}
330
1A
100
AcDbPlotSettings
  1

  2
none_device
  4
Letter_(8.50_x_11.00_Inches)
  6

 40
6.35
 41
6.35
 42
6.35000508
 43
6.35000508
 44
215.9
 45
279.4
 46
0.0
 47
0.0
 48
0.0
 49
0.0
140
0.0
141
0.0
142
1.0
143
1.0
 70
  1712
 72
     1
 73
     0
 74
     0
  7

 75
     0
 76
     0
 77
     2
 78
   300
147
1.0
148
0.0
149
0.0
100
AcDbLayout
  1
Model
 70
     1
 71
     0
 10
0.0
 20
0.0
 11
420.0
 21
297.0
 12
0.0
 22
0.0
 32
0.0
 14
-69.22857142857144
 24
-29.33333333333333
 34
0.0
 15
69.22857142857143
 25
198.65
 35
0.0
146
0.0
 13
0.0
 23
0.0
 33
0.0
 16
1.0
 26
0.0
 36
0.0
 17
0.0
 27
1.0
 37
0.0
 76
     0
330
1F
331
29
  0
MATERIAL
  5
45
102
{ACAD_REACTORS
330
43
102
}
330
43
100
AcDbMaterial
  1
ByBlock
 72
     1
 94
      127
  0
MATERIAL
  5
44
102
{ACAD_REACTORS
330
43
102
}
330
43
100
AcDbMaterial
  1
ByLayer
 72
     1
 94
      127
  0
MATERIAL
  5
46
102
{ACAD_REACTORS
330
43
102
}
330
43
100
AcDbMaterial
  1
Global
 72
     1
 94
      127
  0
MLEADERSTYLE
  5
5C
102
{ACAD_REACTORS
330
5B
102
}
330
5B
100
AcDbMLeaderStyle
179
     2
170
     2
171
     1
172
     0
 90
        2
 40
0.0
 41
0.0
173
     1
 91
-1056964608
340
14
 92
       -2
290
     1
 42
2.0
291
     1
 43
8.0
  3
Standard
341
0
 44
4.0
300

342
11
174
     1
178
     6
175
     1
176
     0
 93
-1056964608
 45
4.0
292
     0
297
     0
 46
4.0
343
0
 94
-1056964608
 47
1.0
 49
1.0
140
1.0
293
     1
141
0.0
294
     1
177
     0
142
1.0
295
     0
296
     0
143
3.75
271
     0
272
     9
273
     9
298
     0
  0
MLINESTYLE
  5
18
102
{ACAD_REACTORS
330
17
102
}
330
17
100
AcDbMlineStyle
  2
Standard
 70
     0
  3

 62
   256
 51
90.0
 52
90.0
 71
     2
 49
0.5
 62
   256
  6
BYLAYER
 49
-0.5
 62
   256
  6
BYLAYER
  0
ACDBPLACEHOLDER
  5
F
102
{ACAD_REACTORS
330
E
102
}
330
E
  0
SCALE
  5
48
102
{ACAD_REACTORS
330
47
102
}
330
47
100
AcDbScale
 70
     0
300
1:1
140
1.0
141
1.0
290
     1
  0
SCALE
  5
49
102
{ACAD_REACTORS
330
47
102
}
330
47
100
AcDbScale
 70
     0
300
1:2
140
1.0
141
2.0
290
     0
  0
SCALE
  5
4A
102
{ACAD_REACTORS
330
47
102
}
330
47
100
AcDbScale
 70
     0
300
1:4
140
1.0
141
4.0
290
     0
  0
SCALE
  5
4B
102
{ACAD_REACTORS
330
47
102
}
330
47
100
AcDbScale
 70
     0
300
1:5
140
1.0
141
5.0
290
     0
  0
SCALE
  5
4C
102
{ACAD_REACTORS
330
47
102
}
330
47
100
AcDbScale
 70
     0
300
1:8
140
1.0
141
8.0
290
     0
  0
SCALE
  5
4D
102
{ACAD_REACTORS
330
47
102
}
330
47
100
AcDbScale
 70
     0
300
1:10
140
1.0
141
10.0
290
     0
  0
SCALE
  5
4E
102
{ACAD_REACTORS
330
47
102
}
330
47
100
AcDbScale
 70
     0
300
1:16
140
1.0
141
16.0
290
     0
  0
SCALE
  5
4F
102
{ACAD_REACTORS
330
47
102
}
330
47
100
AcDbScale
 70
     0
300
1:20
140
1.0
141
20.0
290
     0
  0
SCALE
  5
50
102
{ACAD_REACTORS
330
47
102
}
330
47
100
AcDbScale
 70
     0
300
1:30
140
1.0
141
30.0
290
     0
  0
SCALE
  5
51
102
{ACAD_REACTORS
330
47
102
}
330
47
100
AcDbScale
 70
     0
300
1:40
140
1.0
141
40.0
290
     0
  0
SCALE
  5
52
102
{ACAD_REACTORS
330
47
102
}
330
47
100
AcDbScale
 70
     0
300
1:50
140
1.0
141
50.0
290
     0
  0
SCALE
  5
53
102
{ACAD_REACTORS
330
47
102
}
330
47
100
AcDbScale
 70
     0
300
1:100
140
1.0
141
100.0
290
     0
  0
SCALE
  5
54
102
{ACAD_REACTORS
330
47
102
}
330
47
100
AcDbScale
 70
     0
300
2:1
140
2.0
141
1.0
290
     0
  0
SCALE
  5
55
102
{ACAD_REACTORS
330
47
102
}
330
47
100
AcDbScale
 70
     0
300
4:1
140
4.0
141
1.0
290
     0
  0
SCALE
  5
56
102
{ACAD_REACTORS
330
47
102
}
330
47
100
AcDbScale
 70
     0
300
8:1
140
8.0
141
1.0
290
     0
  0
SCALE
  5
57
102
{ACAD_REACTORS
330
47
102
}
330
47
100
AcDbScale
 70
     0
300
10:1
140
10.0
141
1.0
290
     0
  0
SCALE
  5
58
102
{ACAD_REACTORS
330
47
102
}
330
47
100
AcDbScale
 70
     0
300
100:1
140
100.0
141
1.0
290
     0
  0
TABLESTYLE
  5
5A
102
{ACAD_REACTORS
330
59
102
}
102
{ACAD_XDICTIONARY
360
22E
102
}
330
59
100
AcDbTableStyle
  3
Standard
 70
     0
 71
     0
 40
0.06
 41
0.06
280
     0
281
     0
  7
Standard
140
4.5
170
     2
 62
     0
 63
   257
283
     0
 90
        4
 91
        0
  1

274
    -2
284
     1
 64
     0
275
    -2
285
     1
 65
     0
276
    -2
286
     1
 66
     0
277
    -2
287
     1
 67
     0
278
    -2
288
     1
 68
     0
279
    -2
289
     1
 69
     0
  7
Standard
140
6.0
170
     5
 62
     0
 63
   257
283
     0
 90
        4
 91
        0
  1

274
    -2
284
     1
 64
     0
275
    -2
285
     1
 65
     0
276
    -2
286
     1
 66
     0
277
    -2
287
     1
 67
     0
278
    -2
288
     1
 68
     0
279
    -2
289
     1
 69
     0
  7
Standard
140
4.5
170
     5
 62
     0
 63
   257
283
     0
 90
        4
 91
        0
  1

274
    -2
284
     1
 64
     0
275
    -2
285
     1
 65
     0
276
    -2
286
     1
 66
     0
277
    -2
287
     1
 67
     0
278
    -2
288
     1
 68
     0
279
    -2
289
     1
 69
     0
  0
VISUALSTYLE
  5
2F
102
{ACAD_REACTORS
330
2A
102
}
330
2A
100
AcDbVisualStyle
  2
2dWireframe
 70
     4
177
     3
291
     0
 70
    58
 90
        0
176
     1
 90
        2
176
     1
 90
        0
176
     1
 90
        0
176
     1
 40
0.6
176
     1
 40
30.0
176
     1
 62
     7
420
 16777215
176
     1
 90
        1
176
     1
 90
        4
176
     1
 62
     7
176
     1
 62
   257
176
     1
 90
        1
176
     1
 90
        1
176
     1
 40
1.0
176
     1
 90
        0
176
     1
 62
   257
176
     1
 40
1.0
176
     1
 90
        1
176
     1
 90
        6
176
     1
 90
        2
176
     1
 62
     7
176
     1
 90
        5
176
     1
 90
        0
176
     1
 90
        0
176
     1
290
     0
176
     1
 90
        1
176
     1
 40
0.0
176
     1
 90
        0
176
     1
290
     1
176
     1
290
     1
176
     1
290
     0
176
     1
290
     0
176
     1
290
     0
176
     1
290
     0
176
     1
290
     0
176
     1
290
     0
176
     1
290
     0
176
     1
 90
       50
176
     1
 40
0.0
176
     1
 40
1.0
176
     1
 90
        0
176
     1
 62
    18
420
        0
176
     1
 90
       50
176
     1
 90
        3
176
     1
 62
     5
420
      255
176
     1
290
     0
176
     1
 90
       50
176
     1
 90
       50
176
     1
 90
       50
176
     1
290
     0
176
     1
 90
       50
176
     1
 62
   256
176
     0
 40
1.0
176
     0
 90
        2
176
     1
  1
strokes_ogs.tif
176
     1
290
     0
176
     1
 40
1.0
176
     1
 40
1.0
176
     1
  0
VISUALSTYLE
  5
32
102
{ACAD_REACTORS
330
2A
102
}
330
2A
100
AcDbVisualStyle
  2
Basic
 70
     7
177
     3
291
     1
 70
    58
 90
        1
176
     1
 90
        0
176
     1
 90
        1
176
     1
 90
        0
176
     1
 40
0.6
176
     1
 40
30.0
176
     1
 62
     7
420
 16777215
176
     1
 90
        0
176
     1
 90
        4
176
     1
 62
     7
176
     1
 62
   257
176
     1
 90
        1
176
     1
 90
        1
176
     1
 40
1.0
176
     1
 90
        8
176
     1
 62
     7
176
     1
 40
1.0
176
     1
 90
        1
176
     1
 90
        6
176
     1
 90
        2
176
     1
 62
     7
176
     1
 90
        5
176
     1
 90
        0
176
     1
 90
        0
176
     1
290
     0
176
     1
 90
        1
176
     1
 40
0.0
176
     1
 90
        0
176
     1
290
     0
176
     1
290
     1
176
     1
290
     1
176
     1
290
     0
176
     1
290
     0
176
     1
290
     0
176
     1
290
     0
176
     1
290
     0
176
     1
290
     0
176
     1
 90
       50
176
     1
 40
0.0
176
     1
 40
1.0
176
     1
 90
        0
176
     1
 62
    18
420
        0
176
     1
 90
       50
176
     1
 90
        3
176
     1
 62
     5
420
      255
176
     1
290
     0
176
     1
 90
       50
176
     1
 90
       50
176
     1
 90
       50
176
     1
290
     0
176
     1
 90
       50
176
     1
 62
   256
176
     0
 40
1.0
176
     0
 90
        2
176
     1
  1
strokes_ogs.tif
176
     1
290
     0
176
     1
 40
1.0
176
     1
 40
1.0
176
     1
  0
VISUALSTYLE
  5
36
102
{ACAD_REACTORS
330
2A
102
}
330
2A
100
AcDbVisualStyle
  2
Brighten
 70
    12
177
     3
291
     1
 70
    58
 90
        2
176
     1
 90
        2
176
     1
 90
        0
176
     1
 90
        0
176
     1
 40
0.6
176
     1
 40
30.0
176
     1
 62
     7
420
 16777215
176
     1
 90
        1
176
     1
 90
        4
176
     1
 62
     7
176
     1
 62
   257
176
     1
 90
        1
176
     1
 90
        1
176
     1
 40
1.0
176
     1
 90
        8
176
     1
 62
     7
176
     1
 40
1.0
176
     1
 90
        1
176
     1
 90
        6
176
     1
 90
        2
176
     1
 62
     7
176
     1
 90
        5
176
     1
 90
        0
176
     1
 90
        0
176
     1
290
     0
176
     1
 90
        1
176
     1
 40
50.0
176
     1
 90
        0
176
     1
290
     0
176
     1
290
     1
176
     1
290
     1
176
     1
290
     0
176
     1
290
     0
176
     1
290
     0
176
     1
290
     0
176
     1
290
     0
176
     1
290
     0
176
     1
 90
       50
176
     1
 40
0.0
176
     1
 40
1.0
176
     1
 90
        0
176
     1
 62
    18
420
        0
176
     1
 90
       50
176
     1
 90
        3
176
     1
 62
     5
420
      255
176
     1
290
     0
176
     1
 90
       50
176
     1
 90
       50
176
     1
 90
       50
176
     1
290
     0
176
     1
 90
       50
176
     1
 62
   256
176
     0
 40
1.0
176
     0
 90
        2
176
     1
  1
strokes_ogs.tif
176
     1
290
     0
176
     1
 40
1.0
176
     1
 40
1.0
176
     1
  0
VISUALSTYLE
  5
3A
102
{ACAD_REACTORS
330
2A
102
}
330
2A
100
AcDbVisualStyle
  2
ColorChange
 70
    16
177
     3
291
     1
 70
    58
 90
        2
176
     1
 90
        2
176
     1
 90
        3
176
     1
 90
        0
176
     1
 40
0.6
176
     1
 40
30.0
176
     1
 62
     8
420
  8421504
176
     1
 90
        1
176
     1
 90
        4
176
     1
 62
     7
176
     1
 62
   257
176
     1
 90
        1
176
     1
 90
        1
176
     1
 40
1.0
176
     1
 90
        8
176
     1
 62
     8
420
  8421504
176
     1
 40
1.0
176
     1
 90
        1
176
     1
 90
        6
176
     1
 90
        2
176
     1
 62
     7
176
     1
 90
        5
176
     1
 90
        0
176
     1
 90
        0
176
     1
290
     0
176
     1
 90
        1
176
     1
 40
0.0
176
     1
 90
        0
176
     1
290
     0
176
     1
290
     1
176
     1
290
     1
176
     1
290
     0
176
     1
290
     0
176
     1
290
     0
176
     1
290
     0
176
     1
290
     0
176
     1
290
     0
176
     1
 90
       50
176
     1
 40
0.0
176
     1
 40
1.0
176
     1
 90
        0
176
     1
 62
    18
420
        0
176
     1
 90
       50
176
     1
 90
        3
176
     1
 62
     5
420
      255
176
     1
290
     0
176
     1
 90
       50
176
     1
 90
       50
176
     1
 90
       50
176
     1
290
     0
176
     1
 90
       50
176
     1
 62
   256
176
     0
 40
1.0
176
     0
 90
        2
176
     1
  1
strokes_ogs.tif
176
     1
290
     0
176
     1
 40
1.0
176
     1
 40
1.0
176
     1
  0
VISUALSTYLE
  5
34
102
{ACAD_REACTORS
330
2A
102
}
330
2A
100
AcDbVisualStyle
  2
Conceptual
 70
     9
177
     3
291
     0
 70
    58
 90
        3
176
     1
 90
        2
176
     1
 90
        0
176
     1
 90
        0
176
     1
 40
0.6
176
     1
 40
30.0
176
     1
 62
     7
420
 16777215
176
     1
 90
        2
176
     1
 90
        2
176
     1
 62
     7
176
     1
 62
   257
176
     1
 90
        1
176
     1
 90
        1
176
     1
 40
179.0
176
     1
 90
        8
176
     1
 62
     7
176
     1
 40
1.0
176
     1
 90
        1
176
     1
 90
        6
176
     1
 90
        2
176
     1
 62
     7
176
     1
 90
        3
176
     1
 90
        0
176
     1
 90
        0
176
     1
290
     0
176
     1
 90
        1
176
     1
 40
0.0
176
     1
 90
        0
176
     1
290
     0
176
     1
290
     1
176
     1
290
     1
176
     1
290
     0
176
     1
290
     0
176
     1
290
     0
176
     1
290
     0
176
     1
290
     0
176
     1
290
     0
176
     1
 90
       50
176
     1
 40
0.0
176
     1
 40
1.0
176
     1
 90
        0
176
     1
 62
    18
420
        0
176
     1
 90
       50
176
     1
 90
        3
176
     1
 62
     5
420
      255
176
     1
290
     0
176
     1
 90
       50
176
     1
 90
       50
176
     1
 90
       50
176
     1
290
     0
176
     1
 90
       50
176
     1
 62
   256
176
     0
 40
1.0
176
     0
 90
        2
176
     1
  1
strokes_ogs.tif
176
     1
290
     0
176
     1
 40
1.0
176
     1
 40
1.0
176
     1
  0
VISUALSTYLE
  5
35
102
{ACAD_REACTORS
330
2A
102
}
330
2A
100
AcDbVisualStyle
  2
Dim
 70
    11
177
     3
291
     1
 70
    58
 90
        2
176
     1
 90
        2
176
     1
 90
        0
176
     1
 90
        0
176
     1
 40
0.6
176
     1
 40
30.0
176
     1
 62
     7
420
 16777215
176
     1
 90
        1
176
     1
 90
        4
176
     1
 62
     7
176
     1
 62
   257
176
     1
 90
        1
176
     1
 90
        1
176
     1
 40
1.0
176
     1
 90
        8
176
     1
 62
     7
176
     1
 40
1.0
176
     1
 90
        1
176
     1
 90
        6
176
     1
 90
        2
176
     1
 62
     7
176
     1
 90
        5
176
     1
 90
        0
176
     1
 90
        0
176
     1
290
     0
176
     1
 90
        1
176
     1
 40
-50.0
176
     1
 90
        0
176
     1
290
     0
176
     1
290
     1
176
     1
290
     1
176
     1
290
     0
176
     1
290
     0
176
     1
290
     0
176
     1
290
     0
176
     1
290
     0
176
     1
290
     0
176
     1
 90
       50
176
     1
 40
0.0
176
     1
 40
1.0
176
     1
 90
        0
176
     1
 62
    18
420
        0
176
     1
 90
       50
176
     1
 90
        3
176
     1
 62
     5
420
      255
176
     1
290
     0
176
     1
 90
       50
176
     1
 90
       50
176
     1
 90
       50
176
     1
290
     0
176
     1
 90
       50
176
     1
 62
   256
176
     0
 40
1.0
176
     0
 90
        2
176
     1
  1
strokes_ogs.tif
176
     1
290
     0
176
     1
 40
1.0
176
     1
 40
1.0
176
     1
  0
VISUALSTYLE
  5
3D
102
{ACAD_REACTORS
330
2A
102
}
330
2A
100
AcDbVisualStyle
  2
EdgeColorOff
 70
    22
177
     3
291
     1
 70
    58
 90
        2
176
     0
 90
        2
176
     0
 90
        0
176
     0
 90
        0
176
     0
 40
0.6
176
     0
 40
30.0
176
     0
 62
     7
420
 16777215
176
     0
 90
        1
176
     0
 90
        4
176
     0
 62
     7
176
     0
 62
   257
176
     0
 90
        1
176
     0
 90
        1
176
     0
 40
1.0
176
     0
 90
        8
176
     2
 62
     7
176
     0
 40
1.0
176
     0
 90
        1
176
     0
 90
        6
176
     0
 90
        2
176
     0
 62
     7
176
     0
 90
        5
176
     0
 90
        0
176
     0
 90
        0
176
     0
290
     0
176
     0
 90
        1
176
     0
 40
0.0
176
     0
 90
        0
176
     0
290
     0
176
     0
290
     1
176
     0
290
     1
176
     0
290
     0
176
     0
290
     0
176
     0
290
     0
176
     0
290
     0
176
     0
290
     0
176
     0
290
     0
176
     0
 90
       50
176
     0
 40
0.0
176
     0
 40
1.0
176
     0
 90
        0
176
     0
 62
    18
420
        0
176
     0
 90
       50
176
     0
 90
        3
176
     0
 62
     5
420
      255
176
     0
290
     0
176
     0
 90
       50
176
     0
 90
       50
176
     0
 90
       50
176
     0
290
     0
176
     0
 90
       50
176
     0
 62
   256
176
     0
 40
1.0
176
     0
 90
        2
176
     0
  1
strokes_ogs.tif
176
     0
290
     0
176
     0
 40
1.0
176
     0
 40
1.0
176
     0
  0
VISUALSTYLE
  5
39
102
{ACAD_REACTORS
330
2A
102
}
330
2A
100
AcDbVisualStyle
  2
Facepattern
 70
    15
177
     3
291
     1
 70
    58
 90
        2
176
     1
 90
        2
176
     1
 90
        0
176
     1
 90
        0
176
     1
 40
0.6
176
     1
 40
30.0
176
     1
 62
     7
420
 16777215
176
     1
 90
        1
176
     1
 90
        4
176
     1
 62
     7
176
     1
 62
   257
176
     1
 90
        1
176
     1
 90
        1
176
     1
 40
1.0
176
     1
 90
        8
176
     1
 62
     7
176
     1
 40
1.0
176
     1
 90
        1
176
     1
 90
        6
176
     1
 90
        2
176
     1
 62
     7
176
     1
 90
        5
176
     1
 90
        0
176
     1
 90
        0
176
     1
290
     0
176
     1
 90
        1
176
     1
 40
0.0
176
     1
 90
        0
176
     1
290
     0
176
     1
290
     1
176
     1
290
     1
176
     1
290
     0
176
     1
290
     0
176
     1
290
     0
176
     1
290
     0
176
     1
290
     0
176
     1
290
     0
176
     1
 90
       50
176
     1
 40
0.0
176
     1
 40
1.0
176
     1
 90
        0
176
     1
 62
    18
420
        0
176
     1
 90
       50
176
     1
 90
        3
176
     1
 62
     5
420
      255
176
     1
290
     0
176
     1
 90
       50
176
     1
 90
       50
176
     1
 90
       50
176
     1
290
     0
176
     1
 90
       50
176
     1
 62
   256
176
     0
 40
1.0
176
     0
 90
        2
176
     1
  1
strokes_ogs.tif
176
     1
290
     0
176
     1
 40
1.0
176
     1
 40
1.0
176
     1
  0
VISUALSTYLE
  5
2B
102
{ACAD_REACTORS
330
2A
102
}
330
2A
100
AcDbVisualStyle
  2
Flat
 70
     0
177
     3
291
     1
 70
    58
 90
        2
176
     1
 90
        1
176
     1
 90
        1
176
     1
 90
        2
176
     1
 40
0.6
176
     1
 40
30.0
176
     1
 62
     7
420
 16777215
176
     1
 90
        0
176
     1
 90
        0
176
     1
 62
     7
176
     1
 62
   257
176
     1
 90
        1
176
     1
 90
        1
176
     1
 40
1.0
176
     1
 90
        8
176
     1
 62
     7
176
     1
 40
1.0
176
     1
 90
        1
176
     1
 90
        6
176
     1
 90
        2
176
     1
 62
     7
176
     1
 90
        5
176
     1
 90
        0
176
     1
 90
        0
176
     1
290
     0
176
     1
 90
       13
176
     1
 40
0.0
176
     1
 90
        0
176
     1
290
     0
176
     1
290
     1
176
     1
290
     1
176
     1
290
     0
176
     1
290
     0
176
     1
290
     0
176
     1
290
     0
176
     1
290
     0
176
     1
290
     0
176
     1
 90
       50
176
     1
 40
0.0
176
     1
 40
1.0
176
     1
 90
        0
176
     1
 62
    18
420
        0
176
     1
 90
       50
176
     1
 90
        3
176
     1
 62
     5
420
      255
176
     1
290
     0
176
     1
 90
       50
176
     1
 90
       50
176
     1
 90
       50
176
     1
290
     0
176
     1
 90
       50
176
     1
 62
   256
176
     0
 40
1.0
176
     0
 90
        2
176
     1
  1
strokes_ogs.tif
176
     1
290
     0
176
     1
 40
1.0
176
     1
 40
1.0
176
     1
  0
VISUALSTYLE
  5
2C
102
{ACAD_REACTORS
330
2A
102
}
330
2A
100
AcDbVisualStyle
  2
FlatWithEdges
 70
     1
177
     3
291
     1
 70
    58
 90
        2
176
     1
 90
        1
176
     1
 90
        1
176
     1
 90
        2
176
     1
 40
0.6
176
     1
 40
30.0
176
     1
 62
     7
420
 16777215
176
     1
 90
        1
176
     1
 90
        0
176
     1
 62
     7
176
     1
 62
   257
176
     1
 90
        1
176
     1
 90
        1
176
     1
 40
1.0
176
     1
 90
        0
176
     1
 62
   257
176
     1
 40
1.0
176
     1
 90
        1
176
     1
 90
        6
176
     1
 90
        2
176
     1
 62
     7
176
     1
 90
        5
176
     1
 90
        0
176
     1
 90
        0
176
     1
290
     0
176
     1
 90
       13
176
     1
 40
0.0
176
     1
 90
        0
176
     1
290
     0
176
     1
290
     1
176
     1
290
     1
176
     1
290
     0
176
     1
290
     0
176
     1
290
     0
176
     1
290
     0
176
     1
290
     0
176
     1
290
     0
176
     1
 90
       50
176
     1
 40
0.0
176
     1
 40
1.0
176
     1
 90
        0
176
     1
 62
    18
420
        0
176
     1
 90
       50
176
     1
 90
        3
176
     1
 62
     5
420
      255
176
     1
290
     0
176
     1
 90
       50
176
     1
 90
       50
176
     1
 90
       50
176
     1
290
     0
176
     1
 90
       50
176
     1
 62
   256
176
     0
 40
1.0
176
     0
 90
        2
176
     1
  1
strokes_ogs.tif
176
     1
290
     0
176
     1
 40
1.0
176
     1
 40
1.0
176
     1
  0
VISUALSTYLE
  5
2D
102
{ACAD_REACTORS
330
2A
102
}
330
2A
100
AcDbVisualStyle
  2
Gouraud
 70
     2
177
     3
291
     1
 70
    58
 90
        2
176
     1
 90
        2
176
     1
 90
        1
176
     1
 90
        2
176
     1
 40
0.6
176
     1
 40
30.0
176
     1
 62
     7
420
 16777215
176
     1
 90
        0
176
     1
 90
        0
176
     1
 62
     7
176
     1
 62
   257
176
     1
 90
        1
176
     1
 90
        1
176
     1
 40
1.0
176
     1
 90
        0
176
     1
 62
     7
176
     1
 40
1.0
176
     1
 90
        1
176
     1
 90
        6
176
     1
 90
        2
176
     1
 62
     7
176
     1
 90
        5
176
     1
 90
        0
176
     1
 90
        0
176
     1
290
     0
176
     1
 90
       13
176
     1
 40
0.0
176
     1
 90
        0
176
     1
290
     0
176
     1
290
     1
176
     1
290
     1
176
     1
290
     0
176
     1
290
     0
176
     1
290
     0
176
     1
290
     0
176
     1
290
     0
176
     1
290
     0
176
     1
 90
       50
176
     1
 40
0.0
176
     1
 40
1.0
176
     1
 90
        0
176
     1
 62
    18
420
        0
176
     1
 90
       50
176
     1
 90
        3
176
     1
 62
     5
420
      255
176
     1
290
     0
176
     1
 90
       50
176
     1
 90
       50
176
     1
 90
       50
176
     1
290
     0
176
     1
 90
       50
176
     1
 62
   256
176
     0
 40
1.0
176
     0
 90
        2
176
     1
  1
strokes_ogs.tif
176
     1
290
     0
176
     1
 40
1.0
176
     1
 40
1.0
176
     1
  0
VISUALSTYLE
  5
2E
102
{ACAD_REACTORS
330
2A
102
}
330
2A
100
AcDbVisualStyle
  2
GouraudWithEdges
 70
     3
177
     3
291
     1
 70
    58
 90
        2
176
     1
 90
        2
176
     1
 90
        1
176
     1
 90
        2
176
     1
 40
0.6
176
     1
 40
30.0
176
     1
 62
     7
420
 16777215
176
     1
 90
        1
176
     1
 90
        0
176
     1
 62
     7
176
     1
 62
   257
176
     1
 90
        1
176
     1
 90
        1
176
     1
 40
1.0
176
     1
 90
        0
176
     1
 62
   257
176
     1
 40
1.0
176
     1
 90
        1
176
     1
 90
        6
176
     1
 90
        2
176
     1
 62
     7
176
     1
 90
        5
176
     1
 90
        0
176
     1
 90
        0
176
     1
290
     0
176
     1
 90
       13
176
     1
 40
0.0
176
     1
 90
        0
176
     1
290
     0
176
     1
290
     1
176
     1
290
     1
176
     1
290
     0
176
     1
290
     0
176
     1
290
     0
176
     1
290
     0
176
     1
290
     0
176
     1
290
     0
176
     1
 90
       50
176
     1
 40
0.0
176
     1
 40
1.0
176
     1
 90
        0
176
     1
 62
    18
420
        0
176
     1
 90
       50
176
     1
 90
        3
176
     1
 62
     5
420
      255
176
     1
290
     0
176
     1
 90
       50
176
     1
 90
       50
176
     1
 90
       50
176
     1
290
     0
176
     1
 90
       50
176
     1
 62
   256
176
     0
 40
1.0
176
     0
 90
        2
176
     1
  1
strokes_ogs.tif
176
     1
290
     0
176
     1
 40
1.0
176
     1
 40
1.0
176
     1
  0
VISUALSTYLE
  5
31
102
{ACAD_REACTORS
330
2A
102
}
330
2A
100
AcDbVisualStyle
  2
Hidden
 70
     6
177
     3
291
     0
 70
    58
 90
        1
176
     1
 90
        2
176
     1
 90
        2
176
     1
 90
        0
176
     1
 40
0.6
176
     1
 40
30.0
176
     1
 62
     7
420
 16777215
176
     1
 90
        2
176
     1
 90
        2
176
     1
 62
     7
176
     1
 62
   257
176
     1
 90
        2
176
     1
 90
        1
176
     1
 40
40.0
176
     1
 90
        0
176
     1
 62
   257
176
     1
 40
1.0
176
     1
 90
        1
176
     1
 90
        6
176
     1
 90
        2
176
     1
 62
     7
176
     1
 90
        3
176
     1
 90
        0
176
     1
 90
        0
176
     1
290
     0
176
     1
 90
        1
176
     1
 40
0.0
176
     1
 90
        0
176
     1
290
     0
176
     1
290
     1
176
     1
290
     1
176
     1
290
     0
176
     1
290
     0
176
     1
290
     0
176
     1
290
     0
176
     1
290
     0
176
     1
290
     0
176
     1
 90
       50
176
     1
 40
0.0
176
     1
 40
1.0
176
     1
 90
        0
176
     1
 62
    18
420
        0
176
     1
 90
       50
176
     1
 90
        3
176
     1
 62
     5
420
      255
176
     1
290
     0
176
     1
 90
       50
176
     1
 90
       50
176
     1
 90
       50
176
     1
290
     0
176
     1
 90
       50
176
     1
 62
   256
176
     0
 40
1.0
176
     0
 90
        2
176
     1
  1
strokes_ogs.tif
176
     1
290
     0
176
     1
 40
1.0
176
     1
 40
1.0
176
     1
  0
VISUALSTYLE
  5
3B
102
{ACAD_REACTORS
330
2A
102
}
330
2A
100
AcDbVisualStyle
  2
JitterOff
 70
    20
177
     3
291
     1
 70
    58
 90
        2
176
     0
 90
        2
176
     0
 90
        0
176
     0
 90
        0
176
     0
 40
0.6
176
     0
 40
30.0
176
     0
 62
     7
420
 16777215
176
     0
 90
        1
176
     0
 90
        4
176
     0
 62
     7
176
     0
 62
   257
176
     0
 90
        1
176
     0
 90
        1
176
     0
 40
1.0
176
     0
 90
       10
176
     2
 62
     7
176
     0
 40
1.0
176
     0
 90
        1
176
     0
 90
        6
176
     0
 90
        2
176
     0
 62
     7
176
     0
 90
        5
176
     0
 90
        0
176
     0
 90
        0
176
     0
290
     0
176
     0
 90
        1
176
     0
 40
0.0
176
     0
 90
        0
176
     0
290
     0
176
     0
290
     1
176
     0
290
     1
176
     0
290
     0
176
     0
290
     0
176
     0
290
     0
176
     0
290
     0
176
     0
290
     0
176
     0
290
     0
176
     0
 90
       50
176
     0
 40
0.0
176
     0
 40
1.0
176
     0
 90
        0
176
     0
 62
    18
420
        0
176
     0
 90
       50
176
     0
 90
        3
176
     0
 62
     5
420
      255
176
     0
290
     0
176
     0
 90
       50
176
     0
 90
       50
176
     0
 90
       50
176
     0
290
     0
176
     0
 90
       50
176
     0
 62
   256
176
     0
 40
1.0
176
     0
 90
        2
176
     0
  1
strokes_ogs.tif
176
     0
290
     0
176
     0
 40
1.0
176
     0
 40
1.0
176
     0
  0
VISUALSTYLE
  5
38
102
{ACAD_REACTORS
330
2A
102
}
330
2A
100
AcDbVisualStyle
  2
Linepattern
 70
    14
177
     3
291
     1
 70
    58
 90
        2
176
     1
 90
        2
176
     1
 90
        0
176
     1
 90
        0
176
     1
 40
0.6
176
     1
 40
30.0
176
     1
 62
     7
420
 16777215
176
     1
 90
        1
176
     1
 90
        4
176
     1
 62
     7
176
     1
 62
   257
176
     1
 90
        7
176
     1
 90
        7
176
     1
 40
1.0
176
     1
 90
        8
176
     1
 62
     7
176
     1
 40
1.0
176
     1
 90
        1
176
     1
 90
        6
176
     1
 90
        2
176
     1
 62
     7
176
     1
 90
        5
176
     1
 90
        0
176
     1
 90
        0
176
     1
290
     0
176
     1
 90
        1
176
     1
 40
0.0
176
     1
 90
        0
176
     1
290
     0
176
     1
290
     1
176
     1
290
     1
176
     1
290
     0
176
     1
290
     0
176
     1
290
     0
176
     1
290
     0
176
     1
290
     0
176
     1
290
     0
176
     1
 90
       50
176
     1
 40
0.0
176
     1
 40
1.0
176
     1
 90
        0
176
     1
 62
    18
420
        0
176
     1
 90
       50
176
     1
 90
        3
176
     1
 62
     5
420
      255
176
     1
290
     0
176
     1
 90
       50
176
     1
 90
       50
176
     1
 90
       50
176
     1
290
     0
176
     1
 90
       50
176
     1
 62
   256
176
     0
 40
1.0
176
     0
 90
        2
176
     1
  1
strokes_ogs.tif
176
     1
290
     0
176
     1
 40
1.0
176
     1
 40
1.0
176
     1
  0
VISUALSTYLE
  5
3C
102
{ACAD_REACTORS
330
2A
102
}
330
2A
100
AcDbVisualStyle
  2
OverhangOff
 70
    21
177
     3
291
     1
 70
    58
 90
        2
176
     0
 90
        2
176
     0
 90
        0
176
     0
 90
        0
176
     0
 40
0.6
176
     0
 40
30.0
176
     0
 62
     7
420
 16777215
176
     0
 90
        1
176
     0
 90
        4
176
     0
 62
     7
176
     0
 62
   257
176
     0
 90
        1
176
     0
 90
        1
176
     0
 40
1.0
176
     0
 90
        9
176
     2
 62
     7
176
     0
 40
1.0
176
     0
 90
        1
176
     0
 90
        6
176
     0
 90
        2
176
     0
 62
     7
176
     0
 90
        5
176
     0
 90
        0
176
     0
 90
        0
176
     0
290
     0
176
     0
 90
        1
176
     0
 40
0.0
176
     0
 90
        0
176
     0
290
     0
176
     0
290
     1
176
     0
290
     1
176
     0
290
     0
176
     0
290
     0
176
     0
290
     0
176
     0
290
     0
176
     0
290
     0
176
     0
290
     0
176
     0
 90
       50
176
     0
 40
0.0
176
     0
 40
1.0
176
     0
 90
        0
176
     0
 62
    18
420
        0
176
     0
 90
       50
176
     0
 90
        3
176
     0
 62
     5
420
      255
176
     0
290
     0
176
     0
 90
       50
176
     0
 90
       50
176
     0
 90
       50
176
     0
290
     0
176
     0
 90
       50
176
     0
 62
   256
176
     0
 40
1.0
176
     0
 90
        2
176
     0
  1
strokes_ogs.tif
176
     0
290
     0
176
     0
 40
1.0
176
     0
 40
1.0
176
     0
  0
VISUALSTYLE
  5
33
102
{ACAD_REACTORS
330
2A
102
}
330
2A
100
AcDbVisualStyle
  2
Realistic
 70
     8
177
     3
291
     0
 70
    58
 90
        2
176
     1
 90
        3
176
     1
 90
        0
176
     1
 90
        2
176
     1
 40
0.6
176
     1
 40
30.0
176
     1
 62
     7
420
 16777215
176
     1
 90
        0
176
     1
 90
        0
176
     1
 62
     7
176
     1
 62
   257
176
     1
 90
        1
176
     1
 90
        1
176
     1
 40
1.0
176
     1
 90
        8
176
     1
 62
   257
176
     1
 40
1.0
176
     1
 90
        1
176
     1
 90
        6
176
     1
 90
        2
176
     1
 62
     7
176
     1
 90
        3
176
     1
 90
        0
176
     1
 90
        0
176
     1
290
     0
176
     1
 90
       13
176
     1
 40
0.0
176
     1
 90
        0
176
     1
290
     0
176
     1
290
     1
176
     1
290
     1
176
     1
290
     0
176
     1
290
     0
176
     1
290
     0
176
     1
290
     0
176
     1
290
     0
176
     1
290
     0
176
     1
 90
       50
176
     1
 40
0.0
176
     1
 40
1.0
176
     1
 90
        0
176
     1
 62
    18
420
        0
176
     1
 90
       50
176
     1
 90
        3
176
     1
 62
     5
420
      255
176
     1
290
     0
176
     1
 90
       50
176
     1
 90
       50
176
     1
 90
       50
176
     1
290
     0
176
     1
 90
       50
176
     1
 62
   256
176
     0
 40
1.0
176
     0
 90
        2
176
     1
  1
strokes_ogs.tif
176
     1
290
     0
176
     1
 40
1.0
176
     1
 40
1.0
176
     1
  0
VISUALSTYLE
  5
42
102
{ACAD_REACTORS
330
2A
102
}
330
2A
100
AcDbVisualStyle
  2
Shaded
 70
    27
177
     3
291
     0
 70
    58
 90
        2
176
     1
 90
        2
176
     1
 90
        1
176
     1
 90
        2
176
     1
 40
0.6
176
     1
 40
30.0
176
     1
 62
     7
420
 16777215
176
     1
 90
        0
176
     1
 90
        4
176
     1
 62
     7
176
     1
 62
   257
176
     1
 90
        1
176
     1
 90
        1
176
     1
 40
1.0
176
     1
 90
        8
176
     1
 62
   257
176
     1
 40
1.0
176
     1
 90
        1
176
     1
 90
        6
176
     1
 90
        2
176
     1
 62
     8
420
  7895160
176
     1
 90
        3
176
     1
 90
        0
176
     1
 90
        0
176
     1
290
     0
176
     1
 90
        5
176
     1
 40
0.0
176
     1
 90
        0
176
     1
290
     0
176
     1
290
     1
176
     1
290
     1
176
     1
290
     0
176
     1
290
     0
176
     1
290
     0
176
     1
290
     0
176
     1
290
     0
176
     1
290
     0
176
     1
 90
       50
176
     1
 40
0.0
176
     1
 40
1.0
176
     1
 90
        0
176
     1
 62
    18
420
        0
176
     1
 90
       50
176
     1
 90
        3
176
     1
 62
     5
420
      255
176
     1
290
     0
176
     1
 90
       50
176
     1
 90
       50
176
     1
 90
       50
176
     1
290
     0
176
     1
 90
       50
176
     1
 62
   256
176
     0
 40
1.0
176
     0
 90
        2
176
     1
  1
strokes_ogs.tif
176
     1
290
     0
176
     1
 40
1.0
176
     1
 40
1.0
176
     1
  0
VISUALSTYLE
  5
41
102
{ACAD_REACTORS
330
2A
102
}
330
2A
100
AcDbVisualStyle
  2
Shaded with edges
 70
    26
177
     3
291
     0
 70
    58
 90
        2
176
     1
 90
        2
176
     1
 90
        1
176
     1
 90
        2
176
     1
 40
0.6
176
     1
 40
30.0
176
     1
 62
     7
420
 16777215
176
     1
 90
        1
176
     1
 90
       10
176
     1
 62
     7
176
     1
 62
   257
176
     1
 90
        2
176
     1
 90
        1
176
     1
 40
1.0
176
     1
 90
        8
176
     1
 62
   257
176
     1
 40
1.0
176
     1
 90
        1
176
     1
 90
        6
176
     1
 90
        2
176
     1
 62
     7
176
     1
 90
        3
176
     1
 90
        0
176
     1
 90
        0
176
     1
290
     0
176
     1
 90
        5
176
     1
 40
0.0
176
     1
 90
        0
176
     1
290
     0
176
     1
290
     1
176
     1
290
     1
176
     1
290
     0
176
     1
290
     0
176
     1
290
     0
176
     1
290
     0
176
     1
290
     0
176
     1
290
     0
176
     1
 90
       50
176
     1
 40
0.0
176
     1
 40
1.0
176
     1
 90
        0
176
     1
 62
    18
420
        0
176
     1
 90
       50
176
     1
 90
        3
176
     1
 62
     5
420
      255
176
     1
290
     0
176
     1
 90
       50
176
     1
 90
       50
176
     1
 90
       50
176
     1
290
     0
176
     1
 90
       50
176
     1
 62
   256
176
     0
 40
1.0
176
     0
 90
        2
176
     1
  1
strokes_ogs.tif
176
     1
290
     0
176
     1
 40
1.0
176
     1
 40
1.0
176
     1
  0
VISUALSTYLE
  5
3E
102
{ACAD_REACTORS
330
2A
102
}
330
2A
100
AcDbVisualStyle
  2
Shades of Gray
 70
    23
177
     3
291
     0
 70
    58
 90
        2
176
     1
 90
        2
176
     1
 90
        3
176
     1
 90
        0
176
     1
 40
0.6
176
     1
 40
30.0
176
     1
 62
     7
420
 16777215
176
     1
 90
        2
176
     1
 90
        2
176
     1
 62
     7
176
     1
 62
     7
176
     1
 90
        1
176
     1
 90
        1
176
     1
 40
40.0
176
     1
 90
        8
176
     1
 62
     7
176
     1
 40
1.0
176
     1
 90
        1
176
     1
 90
        6
176
     1
 90
        2
176
     1
 62
     7
176
     1
 90
        3
176
     1
 90
        0
176
     1
 90
        0
176
     1
290
     0
176
     1
 90
        1
176
     1
 40
0.0
176
     1
 90
        0
176
     1
290
     0
176
     1
290
     1
176
     1
290
     1
176
     1
290
     0
176
     1
290
     0
176
     1
290
     0
176
     1
290
     0
176
     1
290
     0
176
     1
290
     0
176
     1
 90
       50
176
     1
 40
0.0
176
     1
 40
1.0
176
     1
 90
        0
176
     1
 62
    18
420
        0
176
     1
 90
       50
176
     1
 90
        3
176
     1
 62
     5
420
      255
176
     1
290
     0
176
     1
 90
       50
176
     1
 90
       50
176
     1
 90
       50
176
     1
290
     0
176
     1
 90
       50
176
     1
 62
   256
176
     0
 40
1.0
176
     0
 90
        2
176
     1
  1
strokes_ogs.tif
176
     1
290
     0
176
     1
 40
1.0
176
     1
 40
1.0
176
     1
  0
VISUALSTYLE
  5
3F
102
{ACAD_REACTORS
330
2A
102
}
330
2A
100
AcDbVisualStyle
  2
Sketchy
 70
    24
177
     3
291
     0
 70
    58
 90
        1
176
     1
 90
        2
176
     1
 90
        2
176
     1
 90
        0
176
     1
 40
0.6
176
     1
 40
30.0
176
     1
 62
     7
420
 16777215
176
     1
 90
        2
176
     1
 90
        2
176
     1
 62
     7
176
     1
 62
     7
176
     1
 90
        1
176
     1
 90
        1
176
     1
 40
40.0
176
     1
 90
       11
176
     1
 62
     7
176
     1
 40
1.0
176
     1
 90
        1
176
     1
 90
        6
176
     1
 90
        2
176
     1
 62
     7
176
     1
 90
        6
176
     1
 90
        0
176
     1
 90
        0
176
     1
290
     0
176
     1
 90
        1
176
     1
 40
0.0
176
     1
 90
        0
176
     1
290
     0
176
     1
290
     1
176
     1
290
     1
176
     1
290
     0
176
     1
290
     0
176
     1
290
     0
176
     1
290
     0
176
     1
290
     0
176
     1
290
     0
176
     1
 90
       50
176
     1
 40
0.0
176
     1
 40
1.0
176
     1
 90
        0
176
     1
 62
    18
420
        0
176
     1
 90
       50
176
     1
 90
        3
176
     1
 62
     5
420
      255
176
     1
290
     0
176
     1
 90
       50
176
     1
 90
       50
176
     1
 90
       50
176
     1
290
     0
176
     1
 90
       50
176
     1
 62
   256
176
     0
 40
1.0
176
     0
 90
        2
176
     1
  1
strokes_ogs.tif
176
     1
290
     0
176
     1
 40
1.0
176
     1
 40
1.0
176
     1
  0
VISUALSTYLE
  5
37
102
{ACAD_REACTORS
330
2A
102
}
330
2A
100
AcDbVisualStyle
  2
Thicken
 70
    13
177
     3
291
     1
 70
    58
 90
        2
176
     1
 90
        2
176
     1
 90
        0
176
     1
 90
        0
176
     1
 40
0.6
176
     1
 40
30.0
176
     1
 62
     7
420
 16777215
176
     1
 90
        1
176
     1
 90
        4
176
     1
 62
     7
176
     1
 62
   257
176
     1
 90
        1
176
     1
 90
        1
176
     1
 40
1.0
176
     1
 90
       12
176
     1
 62
     7
176
     1
 40
1.0
176
     1
 90
        1
176
     1
 90
        6
176
     1
 90
        2
176
     1
 62
     7
176
     1
 90
        5
176
     1
 90
        0
176
     1
 90
        0
176
     1
290
     0
176
     1
 90
        1
176
     1
 40
0.0
176
     1
 90
        0
176
     1
290
     0
176
     1
290
     1
176
     1
290
     1
176
     1
290
     0
176
     1
290
     0
176
     1
290
     0
176
     1
290
     0
176
     1
290
     0
176
     1
290
     0
176
     1
 90
       50
176
     1
 40
0.0
176
     1
 40
1.0
176
     1
 90
        0
176
     1
 62
    18
420
        0
176
     1
 90
       50
176
     1
 90
        3
176
     1
 62
     5
420
      255
176
     1
290
     0
176
     1
 90
       50
176
     1
 90
       50
176
     1
 90
       50
176
     1
290
     0
176
     1
 90
       50
176
     1
 62
   256
176
     0
 40
1.0
176
     0
 90
        2
176
     1
  1
strokes_ogs.tif
176
     1
290
     0
176
     1
 40
1.0
176
     1
 40
1.0
176
     1
  0
VISUALSTYLE
  5
30
102
{ACAD_REACTORS
330
2A
102
}
330
2A
100
AcDbVisualStyle
  2
Wireframe
 70
     5
177
     3
291
     0
 70
    58
 90
        0
176
     1
 90
        2
176
     1
 90
        0
176
     1
 90
        0
176
     1
 40
0.6
176
     1
 40
30.0
176
     1
 62
     7
420
 16777215
176
     1
 90
        1
176
     1
 90
        4
176
     1
 62
     7
176
     1
 62
   257
176
     1
 90
        1
176
     1
 90
        1
176
     1
 40
1.0
176
     1
 90
        0
176
     1
 62
   257
176
     1
 40
1.0
176
     1
 90
        1
176
     1
 90
        6
176
     1
 90
        2
176
     1
 62
     7
176
     1
 90
        3
176
     1
 90
        0
176
     1
 90
        0
176
     1
290
     0
176
     1
 90
        1
176
     1
 40
0.0
176
     1
 90
        0
176
     1
290
     0
176
     1
290
     1
176
     1
290
     1
176
     1
290
     0
176
     1
290
     0
176
     1
290
     0
176
     1
290
     0
176
     1
290
     0
176
     1
290
     0
176
     1
 90
       50
176
     1
 40
0.0
176
     1
 40
1.0
176
     1
 90
        0
176
     1
 62
    18
420
        0
176
     1
 90
       50
176
     1
 90
        3
176
     1
 62
     5
420
      255
176
     1
290
     0
176
     1
 90
       50
176
     1
 90
       50
176
     1
 90
       50
176
     1
290
     0
176
     1
 90
       50
176
     1
 62
   256
176
     0
 40
1.0
176
     0
 90
        2
176
     1
  1
strokes_ogs.tif
176
     1
290
     0
176
     1
 40
1.0
176
     1
 40
1.0
176
     1
  0
VISUALSTYLE
  5
40
102
{ACAD_REACTORS
330
2A
102
}
330
2A
100
AcDbVisualStyle
  2
X-Ray
 70
    25
177
     3
291
     0
 70
    58
 90
        2
176
     1
 90
        2
176
     1
 90
        1
176
     1
 90
        1
176
     1
 40
0.5
176
     1
 40
30.0
176
     1
 62
     7
420
 16777215
176
     1
 90
        1
176
     1
 90
        0
176
     1
 62
     7
176
     1
 62
   257
176
     1
 90
        1
176
     1
 90
        1
176
     1
 40
1.0
176
     1
 90
        8
176
     1
 62
     7
176
     1
 40
1.0
176
     1
 90
        1
176
     1
 90
        6
176
     1
 90
        2
176
     1
 62
     7
176
     1
 90
        3
176
     1
 90
        0
176
     1
 90
        0
176
     1
290
     0
176
     1
 90
       13
176
     1
 40
0.0
176
     1
 90
        0
176
     1
290
     0
176
     1
290
     1
176
     1
290
     1
176
     1
290
     0
176
     1
290
     0
176
     1
290
     0
176
     1
290
     0
176
     1
290
     0
176
     1
290
     0
176
     1
 90
       50
176
     1
 40
0.0
176
     1
 40
1.0
176
     1
 90
        0
176
     1
 62
    18
420
        0
176
     1
 90
       50
176
     1
 90
        3
176
     1
 62
     5
420
      255
176
     1
290
     0
176
     1
 90
       50
176
     1
 90
       50
176
     1
 90
       50
176
     1
290
     0
176
     1
 90
       50
176
     1
 62
   256
176
     0
 40
1.0
176
     0
 90
        2
176
     1
  1
strokes_ogs.tif
176
     1
290
     0
176
     1
 40
1.0
176
     1
 40
1.0
176
     1
  0
DICTIONARYVAR
  5
22D
102
{ACAD_REACTORS
330
22C
102
}
330
22C
100
DictionaryVariables
280
     0
  1
1:1
  0
DICTIONARYVAR
  5
235
102
{ACAD_REACTORS
330
22C
102
}
330
22C
100
DictionaryVariables
280
     0
  1
3.500000
  0
DICTIONARYVAR
  5
236
102
{ACAD_REACTORS
330
22C
102
}
330
22C
100
DictionaryVariables
280
     0
  1
acadiso.lin
  0
DICTIONARYVAR
  5
232
102
{ACAD_REACTORS
330
22C
102
}
330
22C
100
DictionaryVariables
280
     0
  1
Standard
  0
DICTIONARYVAR
  5
231
102
{ACAD_REACTORS
330
22C
102
}
330
22C
100
DictionaryVariables
280
     0
  1
Standard
  0
DICTIONARY
  5
22E
330
5A
100
AcDbDictionary
280
     1
281
     1
  3
ACAD_ROUNDTRIP_2008_TABLESTYLE_CELLSTYLEMAP
360
22F
  0
CELLSTYLEMAP
  5
22F
102
{ACAD_REACTORS
330
22E
102
}
330
22E
100
AcDbCellStyleMap
 90
        3
300
CELLSTYLE
  1
TABLEFORMAT_BEGIN
 90
        5
170
     1
 91
        0
 92
    32768
 62
   257
 93
        1
300
CONTENTFORMAT
  1
CONTENTFORMAT_BEGIN
 90
        0
 91
        0
 92
        4
 93
        0
300

 40
0.0
140
1.0
 94
        5
 62
     0
340
11
144
6.0
309
CONTENTFORMAT_END
171
     1
301
MARGIN
  1
CELLMARGIN_BEGIN
 40
1.5
 40
1.5
 40
1.5
 40
1.5
 40
1.5
 40
1.5
309
CELLMARGIN_END
 94
        6
 95
        1
302
GRIDFORMAT
  1
GRIDFORMAT_BEGIN
 90
        0
 91
        1
 62
     0
 92
       -2
340
14
 93
        0
 40
0.045
309
GRIDFORMAT_END
 95
        2
302
GRIDFORMAT
  1
GRIDFORMAT_BEGIN
 90
        0
 91
        1
 62
     0
 92
       -2
340
14
 93
        0
 40
0.045
309
GRIDFORMAT_END
 95
        4
302
GRIDFORMAT
  1
GRIDFORMAT_BEGIN
 90
        0
 91
        1
 62
     0
 92
       -2
340
14
 93
        0
 40
0.045
309
GRIDFORMAT_END
 95
        8
302
GRIDFORMAT
  1
GRIDFORMAT_BEGIN
 90
        0
 91
        1
 62
     0
 92
       -2
340
14
 93
        0
 40
0.045
309
GRIDFORMAT_END
 95
       16
302
GRIDFORMAT
  1
GRIDFORMAT_BEGIN
 90
        0
 91
        1
 62
     0
 92
       -2
340
14
 93
        0
 40
0.045
309
GRIDFORMAT_END
 95
       32
302
GRIDFORMAT
  1
GRIDFORMAT_BEGIN
 90
        0
 91
        1
 62
     0
 92
       -2
340
14
 93
        0
 40
0.045
309
GRIDFORMAT_END
309
TABLEFORMAT_END
  1
CELLSTYLE_BEGIN
 90
        1
 91
        1
300
_TITLE
309
CELLSTYLE_END
300
CELLSTYLE
  1
TABLEFORMAT_BEGIN
 90
        5
170
     1
 91
        0
 92
        0
 62
   257
 93
        1
300
CONTENTFORMAT
  1
CONTENTFORMAT_BEGIN
 90
        0
 91
        0
 92
        4
 93
        0
300

 40
0.0
140
1.0
 94
        5
 62
     0
340
11
144
4.5
309
CONTENTFORMAT_END
171
     1
301
MARGIN
  1
CELLMARGIN_BEGIN
 40
1.5
 40
1.5
 40
1.5
 40
1.5
 40
1.5
 40
1.5
309
CELLMARGIN_END
 94
        6
 95
        1
302
GRIDFORMAT
  1
GRIDFORMAT_BEGIN
 90
        0
 91
        1
 62
     0
 92
       -2
340
14
 93
        0
 40
0.045
309
GRIDFORMAT_END
 95
        2
302
GRIDFORMAT
  1
GRIDFORMAT_BEGIN
 90
        0
 91
        1
 62
     0
 92
       -2
340
14
 93
        0
 40
0.045
309
GRIDFORMAT_END
 95
        4
302
GRIDFORMAT
  1
GRIDFORMAT_BEGIN
 90
        0
 91
        1
 62
     0
 92
       -2
340
14
 93
        0
 40
0.045
309
GRIDFORMAT_END
 95
        8
302
GRIDFORMAT
  1
GRIDFORMAT_BEGIN
 90
        0
 91
        1
 62
     0
 92
       -2
340
14
 93
        0
 40
0.045
309
GRIDFORMAT_END
 95
       16
302
GRIDFORMAT
  1
GRIDFORMAT_BEGIN
 90
        0
 91
        1
 62
     0
 92
       -2
340
14
 93
        0
 40
0.045
309
GRIDFORMAT_END
 95
       32
302
GRIDFORMAT
  1
GRIDFORMAT_BEGIN
 90
        0
 91
        1
 62
     0
 92
       -2
340
14
 93
        0
 40
0.045
309
GRIDFORMAT_END
309
TABLEFORMAT_END
  1
CELLSTYLE_BEGIN
 90
        2
 91
        1
300
_HEADER
309
CELLSTYLE_END
300
CELLSTYLE
  1
TABLEFORMAT_BEGIN
 90
        5
170
     1
 91
        0
 92
        0
 62
   257
 93
        1
300
CONTENTFORMAT
  1
CONTENTFORMAT_BEGIN
 90
        0
 91
        0
 92
        4
 93
        0
300

 40
0.0
140
1.0
 94
        2
 62
     0
340
11
144
4.5
309
CONTENTFORMAT_END
171
     1
301
MARGIN
  1
CELLMARGIN_BEGIN
 40
1.5
 40
1.5
 40
1.5
 40
1.5
 40
1.5
 40
1.5
309
CELLMARGIN_END
 94
        6
 95
        1
302
GRIDFORMAT
  1
GRIDFORMAT_BEGIN
 90
        0
 91
        1
 62
     0
 92
       -2
340
14
 93
        0
 40
0.045
309
GRIDFORMAT_END
 95
        2
302
GRIDFORMAT
  1
GRIDFORMAT_BEGIN
 90
        0
 91
        1
 62
     0
 92
       -2
340
14
 93
        0
 40
0.045
309
GRIDFORMAT_END
 95
        4
302
GRIDFORMAT
  1
GRIDFORMAT_BEGIN
 90
        0
 91
        1
 62
     0
 92
       -2
340
14
 93
        0
 40
0.045
309
GRIDFORMAT_END
 95
        8
302
GRIDFORMAT
  1
GRIDFORMAT_BEGIN
 90
        0
 91
        1
 62
     0
 92
       -2
340
14
 93
        0
 40
0.045
309
GRIDFORMAT_END
 95
       16
302
GRIDFORMAT
  1
GRIDFORMAT_BEGIN
 90
        0
 91
        1
 62
     0
 92
       -2
340
14
 93
        0
 40
0.045
309
GRIDFORMAT_END
 95
       32
302
GRIDFORMAT
  1
GRIDFORMAT_BEGIN
 90
        0
 91
        1
 62
     0
 92
       -2
340
14
 93
        0
 40
0.045
309
GRIDFORMAT_END
309
TABLEFORMAT_END
  1
CELLSTYLE_BEGIN
 90
        3
 91
        2
300
_DATA
309
CELLSTYLE_END
  0
ENDSEC
  0
EOF
