  0
SECTION
  2
HEADER
  9
$ACADVER
  1
AC1027
  9
$ACADMAINTVER
 70
   105
  9
$DWGCODEPAGE
  3
ANSI_1252
  9
$COMMENTS
  1
File was created by Cadenas
  9
$LASTSAVEDBY
  1
psAdmin
  9
$CUSTOMPROPERTYTAG
  1
NB
  9
$CUSTOMPROPERTY
  1
01434
  9
$CUSTOMPROPERTYTAG
  1
NN
  9
$CUSTOMPROPERTY
  1
Covers and compartments
  9
$CUSTOMPROPERTYTAG
  1
NT
  9
$CUSTOMPROPERTY
  1

  9
$CUSTOMPROPERTYTAG
  1
NBSYN
  9
$CUSTOMPROPERTY
  1
$ARTNR.
  9
$CUSTOMPROPERTYTAG
  1
LINA
  9
$CUSTOMPROPERTY
  1
01434000A
  9
$CUSTOMPROPERTYTAG
  1
CATALOG
  9
$CUSTOMPROPERTY
  1
Wöhner
  9
$CUSTOMPROPERTYTAG
  1
ARTNR
  9
$CUSTOMPROPERTY
  1
01434
  9
$CUSTOMPROPERTYTAG
  1
BUSB
  9
$CUSTOMPROPERTY
  1
30, 40, 60, 80, 100, 120 x 10
  9
$CUSTOMPROPERTYTAG
  1
POF
  9
$CUSTOMPROPERTY
  1
CrossLink®185Power
  9
$CUSTOMPROPERTYTAG
  1
TYPE
  9
$CUSTOMPROPERTY
  1
CL185-A100
  9
$CUSTOMPROPERTYTAG
  1
QNT
  9
$CUSTOMPROPERTY
  1
4
  9
$CUSTOMPROPERTYTAG
  1
W
  9
$CUSTOMPROPERTY
  1
100
  9
$CUSTOMPROPERTYTAG
  1
H
  9
$CUSTOMPROPERTY
  1
556
  9
$CUSTOMPROPERTYTAG
  1
D
  9
$CUSTOMPROPERTY
  1
49
  9
$CUSTOMPROPERTYTAG
  1
IPRF
  9
$CUSTOMPROPERTY
  1
IP20
  9
$CUSTOMPROPERTYTAG
  1
LINK
  9
$CUSTOMPROPERTY
  1
Product link
  9
$CUSTOMPROPERTYTAG
  1
COMPANY
  9
$CUSTOMPROPERTY
  1
woehner
  9
$REQUIREDVERSIONS
160
                 0
  9
$INSBASE
 10
0.0
 20
0.0
 30
0.0
  9
$EXTMIN
 10
-100.4880952380953
 20
0.0
 30
0.0
  9
$EXTMAX
 10
101.0690476190476
 20
618.4
 30
0.0
  9
$LIMMIN
 10
0.0
 20
0.0
  9
$LIMMAX
 10
420.0
 20
297.0
  9
$ORTHOMODE
 70
     0
  9
$REGENMODE
 70
     1
  9
$FILLMODE
 70
     1
  9
$QTEXTMODE
 70
     0
  9
$MIRRTEXT
 70
     1
  9
$LTSCALE
 40
1.0
  9
$ATTMODE
 70
     1
  9
$TEXTSIZE
 40
2.5
  9
$TRACEWID
 40
1.0
  9
$TEXTSTYLE
  7
Standard
  9
$CLAYER
  8
0
  9
$CELTYPE
  6
ByLayer
  9
$CECOLOR
 62
   256
  9
$CELTSCALE
 40
1.0
  9
$DISPSILH
 70
     0
  9
$DIMSCALE
 40
1.0
  9
$DIMASZ
 40
2.5
  9
$DIMEXO
 40
0.625
  9
$DIMDLI
 40
3.75
  9
$DIMRND
 40
0.0
  9
$DIMDLE
 40
0.0
  9
$DIMEXE
 40
1.25
  9
$DIMTP
 40
0.0
  9
$DIMTM
 40
0.0
  9
$DIMTXT
 40
2.5
  9
$DIMCEN
 40
2.5
  9
$DIMTSZ
 40
0.0
  9
$DIMTOL
 70
     0
  9
$DIMLIM
 70
     0
  9
$DIMTIH
 70
     0
  9
$DIMTOH
 70
     0
  9
$DIMSE1
 70
     0
  9
$DIMSE2
 70
     0
  9
$DIMTAD
 70
     1
  9
$DIMZIN
 70
     8
  9
$DIMBLK
  1

  9
$DIMASO
 70
     1
  9
$DIMSHO
 70
     1
  9
$DIMPOST
  1

  9
$DIMAPOST
  1

  9
$DIMALT
 70
     0
  9
$DIMALTD
 70
     3
  9
$DIMALTF
 40
0.03937007874016
  9
$DIMLFAC
 40
1.0
  9
$DIMTOFL
 70
     1
  9
$DIMTVP
 40
0.0
  9
$DIMTIX
 70
     0
  9
$DIMSOXD
 70
     0
  9
$DIMSAH
 70
     0
  9
$DIMBLK1
  1

  9
$DIMBLK2
  1

  9
$DIMSTYLE
  2
ISO-25
  9
$DIMCLRD
 70
     0
  9
$DIMCLRE
 70
     0
  9
$DIMCLRT
 70
     0
  9
$DIMTFAC
 40
1.0
  9
$DIMGAP
 40
0.625
  9
$DIMJUST
 70
     0
  9
$DIMSD1
 70
     0
  9
$DIMSD2
 70
     0
  9
$DIMTOLJ
 70
     0
  9
$DIMTZIN
 70
     8
  9
$DIMALTZ
 70
     0
  9
$DIMALTTZ
 70
     0
  9
$DIMUPT
 70
     0
  9
$DIMDEC
 70
     2
  9
$DIMTDEC
 70
     2
  9
$DIMALTU
 70
     2
  9
$DIMALTTD
 70
     3
  9
$DIMTXSTY
  7
Standard
  9
$DIMAUNIT
 70
     0
  9
$DIMADEC
 70
     0
  9
$DIMALTRND
 40
0.0
  9
$DIMAZIN
 70
     0
  9
$DIMDSEP
 70
    44
  9
$DIMATFIT
 70
     3
  9
$DIMFRAC
 70
     0
  9
$DIMLDRBLK
  1

  9
$DIMLUNIT
 70
     2
  9
$DIMLWD
 70
    -2
  9
$DIMLWE
 70
    -2
  9
$DIMTMOVE
 70
     0
  9
$DIMFXL
 40
1.0
  9
$DIMFXLON
 70
     0
  9
$DIMJOGANG
 40
0.7853981633974483
  9
$DIMTFILL
 70
     0
  9
$DIMTFILLCLR
 70
     0
  9
$DIMARCSYM
 70
     0
  9
$DIMLTYPE
  6

  9
$DIMLTEX1
  6

  9
$DIMLTEX2
  6

  9
$DIMTXTDIRECTION
 70
     0
  9
$LUNITS
 70
     2
  9
$LUPREC
 70
     4
  9
$SKETCHINC
 40
1.0
  9
$FILLETRAD
 40
10.0
  9
$AUNITS
 70
     0
  9
$AUPREC
 70
     0
  9
$MENU
  1
.
  9
$ELEVATION
 40
0.0
  9
$PELEVATION
 40
0.0
  9
$THICKNESS
 40
0.0
  9
$LIMCHECK
 70
     0
  9
$CHAMFERA
 40
0.0
  9
$CHAMFERB
 40
0.0
  9
$CHAMFERC
 40
0.0
  9
$CHAMFERD
 40
0.0
  9
$SKPOLY
 70
     0
  9
$TDCREATE
 40
2460256.629091736
  9
$TDUCREATE
 40
2460256.587425069
  9
$TDUPDATE
 40
2460256.629092454
  9
$TDUUPDATE
 40
2460256.587425787
  9
$TDINDWG
 40
0.0000000116
  9
$TDUSRTIMER
 40
0.0000000116
  9
$USRTIMER
 70
     1
  9
$ANGBASE
 50
0.0
  9
$ANGDIR
 70
     0
  9
$PDMODE
 70
     0
  9
$PDSIZE
 40
0.0
  9
$PLINEWID
 40
0.0
  9
$SPLFRAME
 70
     0
  9
$SPLINETYPE
 70
     6
  9
$SPLINESEGS
 70
     8
  9
$HANDSEED
  5
4F6
  9
$SURFTAB1
 70
     6
  9
$SURFTAB2
 70
     6
  9
$SURFTYPE
 70
     6
  9
$SURFU
 70
     6
  9
$SURFV
 70
     6
  9
$UCSBASE
  2

  9
$UCSNAME
  2

  9
$UCSORG
 10
0.0
 20
0.0
 30
0.0
  9
$UCSXDIR
 10
1.0
 20
0.0
 30
0.0
  9
$UCSYDIR
 10
0.0
 20
1.0
 30
0.0
  9
$UCSORTHOREF
  2

  9
$UCSORTHOVIEW
 70
     0
  9
$UCSORGTOP
 10
0.0
 20
0.0
 30
0.0
  9
$UCSORGBOTTOM
 10
0.0
 20
0.0
 30
0.0
  9
$UCSORGLEFT
 10
0.0
 20
0.0
 30
0.0
  9
$UCSORGRIGHT
 10
0.0
 20
0.0
 30
0.0
  9
$UCSORGFRONT
 10
0.0
 20
0.0
 30
0.0
  9
$UCSORGBACK
 10
0.0
 20
0.0
 30
0.0
  9
$PUCSBASE
  2

  9
$PUCSNAME
  2

  9
$PUCSORG
 10
0.0
 20
0.0
 30
0.0
  9
$PUCSXDIR
 10
1.0
 20
0.0
 30
0.0
  9
$PUCSYDIR
 10
0.0
 20
1.0
 30
0.0
  9
$PUCSORTHOREF
  2

  9
$PUCSORTHOVIEW
 70
     0
  9
$PUCSORGTOP
 10
0.0
 20
0.0
 30
0.0
  9
$PUCSORGBOTTOM
 10
0.0
 20
0.0
 30
0.0
  9
$PUCSORGLEFT
 10
0.0
 20
0.0
 30
0.0
  9
$PUCSORGRIGHT
 10
0.0
 20
0.0
 30
0.0
  9
$PUCSORGFRONT
 10
0.0
 20
0.0
 30
0.0
  9
$PUCSORGBACK
 10
0.0
 20
0.0
 30
0.0
  9
$USERI1
 70
     0
  9
$USERI2
 70
     0
  9
$USERI3
 70
     0
  9
$USERI4
 70
     0
  9
$USERI5
 70
     0
  9
$USERR1
 40
0.0
  9
$USERR2
 40
0.0
  9
$USERR3
 40
0.0
  9
$USERR4
 40
0.0
  9
$USERR5
 40
0.0
  9
$WORLDVIEW
 70
     1
  9
$SHADEDGE
 70
     3
  9
$SHADEDIF
 70
    70
  9
$TILEMODE
 70
     1
  9
$MAXACTVP
 70
    64
  9
$PINSBASE
 10
0.0
 20
0.0
 30
0.0
  9
$PLIMCHECK
 70
     0
  9
$PEXTMIN
 10
1.000000000000000E+20
 20
1.000000000000000E+20
 30
1.000000000000000E+20
  9
$PEXTMAX
 10
-1.000000000000000E+20
 20
-1.000000000000000E+20
 30
-1.000000000000000E+20
  9
$PLIMMIN
 10
0.0
 20
0.0
  9
$PLIMMAX
 10
420.0
 20
297.0
  9
$UNITMODE
 70
     0
  9
$VISRETAIN
 70
     1
  9
$PLINEGEN
 70
     0
  9
$PSLTSCALE
 70
     1
  9
$TREEDEPTH
 70
  3020
  9
$CMLSTYLE
  2
Standard
  9
$CMLJUST
 70
     0
  9
$CMLSCALE
 40
20.0
  9
$PROXYGRAPHICS
 70
     1
  9
$MEASUREMENT
 70
     1
  9
$CELWEIGHT
370
    -1
  9
$ENDCAPS
280
     0
  9
$JOINSTYLE
280
     0
  9
$LWDISPLAY
290
     0
  9
$INSUNITS
 70
     4
  9
$HYPERLINKBASE
  1

  9
$STYLESHEET
  1

  9
$XEDIT
290
     1
  9
$CEPSNTYPE
380
     0
  9
$PSTYLEMODE
290
     1
  9
$FINGERPRINTGUID
  2
{acca1fa9-7434-4bdd-ad40-f0cd981a71eb}
  9
$VERSIONGUID
  2
{FAEB1C32-E019-11D5-929B-00C0DF256EC4}
  9
$EXTNAMES
290
     1
  9
$PSVPSCALE
 40
0.0
  9
$OLESTARTUP
290
     0
  9
$SORTENTS
280
   127
  9
$INDEXCTL
280
     0
  9
$HIDETEXT
280
     1
  9
$XCLIPFRAME
280
     2
  9
$HALOGAP
280
     0
  9
$OBSCOLOR
 70
   257
  9
$OBSLTYPE
280
     0
  9
$INTERSECTIONDISPLAY
280
     0
  9
$INTERSECTIONCOLOR
 70
   257
  9
$DIMASSOC
280
     2
  9
$PROJECTNAME
  1

  9
$CAMERADISPLAY
290
     0
  9
$LENSLENGTH
 40
50.0
  9
$CAMERAHEIGHT
 40
0.0
  9
$STEPSPERSEC
 40
2.0
  9
$STEPSIZE
 40
6.0
  9
$3DDWFPREC
 40
2.0
  9
$PSOLWIDTH
 40
5.0
  9
$PSOLHEIGHT
 40
80.0
  9
$LOFTANG1
 40
1.570796326794897
  9
$LOFTANG2
 40
1.570796326794897
  9
$LOFTMAG1
 40
0.0
  9
$LOFTMAG2
 40
0.0
  9
$LOFTPARAM
 70
     7
  9
$LOFTNORMALS
280
     1
  9
$LATITUDE
 40
37.795
  9
$LONGITUDE
 40
-122.394
  9
$NORTHDIRECTION
 40
0.0
  9
$TIMEZONE
 70
 -8000
  9
$LIGHTGLYPHDISPLAY
280
     1
  9
$TILEMODELIGHTSYNCH
280
     1
  9
$CMATERIAL
347
44
  9
$SOLIDHIST
280
     0
  9
$SHOWHIST
280
     1
  9
$DWFFRAME
280
     2
  9
$DGNFRAME
280
     2
  9
$REALWORLDSCALE
290
     1
  9
$INTERFERECOLOR
 62
   256
  9
$CSHADOW
280
     0
  9
$SHADOWPLANELOCATION
 40
0.0
  0
ENDSEC
  0
SECTION
  2
CLASSES
  0
CLASS
  1
ACDBDICTIONARYWDFLT
  2
AcDbDictionaryWithDefault
  3
ObjectDBX Classes
 90
        0
 91
        3
280
     0
281
     0
  0
CLASS
  1
VISUALSTYLE
  2
AcDbVisualStyle
  3
ObjectDBX Classes
 90
     4095
 91
        3
280
     0
281
     0
  0
CLASS
  1
MATERIAL
  2
AcDbMaterial
  3
ObjectDBX Classes
 90
     1153
 91
        3
280
     0
281
     0
  0
CLASS
  1
SCALE
  2
AcDbScale
  3
ObjectDBX Classes
 90
     1153
 91
        3
280
     0
281
     0
  0
CLASS
  1
TABLESTYLE
  2
AcDbTableStyle
  3
ObjectDBX Classes
 90
     4095
 91
        3
280
     0
281
     0
  0
CLASS
  1
MLEADERSTYLE
  2
AcDbMLeaderStyle
  3
ACDB_MLEADERSTYLE_CLASS
 90
     4095
 91
        3
280
     0
281
     0
  0
CLASS
  1
SUN
  2
AcDbSun
  3
SCENEOE
 90
     1153
 91
        3
280
     0
281
     0
  0
CLASS
  1
DICTIONARYVAR
  2
AcDbDictionaryVar
  3
ObjectDBX Classes
 90
        0
 91
        3
280
     0
281
     0
  0
CLASS
  1
CELLSTYLEMAP
  2
AcDbCellStyleMap
  3
ObjectDBX Classes
 90
     1152
 91
        3
280
     0
281
     0
  0
ENDSEC
  0
SECTION
  2
TABLES
  0
TABLE
  2
VPORT
  5
8
330
0
100
AcDbSymbolTable
 70
     1
  0
VPORT
  5
29
330
8
100
AcDbSymbolTableRecord
100
AcDbViewportTableRecord
  2
*Active
 70
     0
 10
0.0
 20
0.0
 11
1.0
 21
1.0
 12
0.2904761904761699
 22
309.2
 13
0.0
 23
0.0
 14
10.0
 24
10.0
 15
10.0
 25
10.0
 16
0.0
 26
0.0
 36
1.0
 17
0.0
 27
0.0
 37
0.0
 40
630.768
 41
0.3259332840510072
 42
50.0
 43
0.0
 44
0.0
 50
0.0
 51
0.0
 71
     0
 72
   100
 73
     1
 74
     3
 75
     0
 76
     0
 77
     0
 78
     0
281
     0
 65
     1
110
0.0
120
0.0
130
0.0
111
1.0
121
0.0
131
0.0
112
0.0
122
1.0
132
0.0
 79
     0
146
0.0
348
2F
 60
     3
 61
     5
292
     1
282
     1
141
0.0
142
0.0
 63
   250
361
5D
  0
ENDTAB
  0
TABLE
  2
LTYPE
  5
5
330
0
100
AcDbSymbolTable
 70
     3
  0
LTYPE
  5
14
330
5
100
AcDbSymbolTableRecord
100
AcDbLinetypeTableRecord
  2
ByBlock
 70
     0
  3

 72
    65
 73
     0
 40
0.0
  0
LTYPE
  5
15
330
5
100
AcDbSymbolTableRecord
100
AcDbLinetypeTableRecord
  2
ByLayer
 70
     0
  3

 72
    65
 73
     0
 40
0.0
  0
LTYPE
  5
16
330
5
100
AcDbSymbolTableRecord
100
AcDbLinetypeTableRecord
  2
Continuous
 70
     0
  3
Solid line
 72
    65
 73
     0
 40
0.0
  0
LTYPE
  5
86
330
5
100
AcDbSymbolTableRecord
100
AcDbLinetypeTableRecord
  2
Dashed
 70
     0
  3

 72
    65
 73
     2
 40
2.0
 49
1.0
 74
     0
 49
-1.0
 74
     0
  0
LTYPE
  5
FB
330
5
100
AcDbSymbolTableRecord
100
AcDbLinetypeTableRecord
  2
Center
 70
     0
  3

 72
    65
 73
     4
 40
1.5
 49
0.45
 74
     0
 49
-0.5
 74
     0
 49
0.05
 74
     0
 49
-0.5
 74
     0
  0
ENDTAB
  0
TABLE
  2
LAYER
  5
2
330
0
100
AcDbSymbolTable
 70
     9
  0
LAYER
  5
10
330
2
100
AcDbSymbolTableRecord
100
AcDbLayerTableRecord
  2
0
 70
     0
 62
     7
  6
Continuous
370
    -3
390
F
347
46
348
0
  0
LAYER
  5
5E
330
2
100
AcDbSymbolTableRecord
100
AcDbLayerTableRecord
  2
attrib
 70
     0
 62
    -2
  6
Continuous
370
    35
390
F
347
46
348
0
  0
LAYER
  5
87
330
2
100
AcDbSymbolTableRecord
100
AcDbLayerTableRecord
  2
hidden
 70
     0
 62
    -6
  6
Dashed
370
    25
390
F
347
46
348
0
  0
LAYER
  5
FC
330
2
100
AcDbSymbolTableRecord
100
AcDbLayerTableRecord
  2
center
 70
     0
 62
    -7
  6
Center
370
    25
390
F
347
46
348
0
  0
LAYER
  5
127
330
2
100
AcDbSymbolTableRecord
100
AcDbLayerTableRecord
  2
bold
 70
     0
 62
     7
  6
Continuous
370
    50
390
F
347
46
348
0
  0
LAYER
  5
192
330
2
100
AcDbSymbolTableRecord
100
AcDbLayerTableRecord
  2
light
 70
     0
 62
    -3
  6
Continuous
370
    25
390
F
347
46
348
0
  0
LAYER
  5
4B9
330
2
100
AcDbSymbolTableRecord
100
AcDbLayerTableRecord
  2
dimension
 70
     0
 62
    -5
  6
Continuous
370
    25
390
F
347
46
348
0
  0
LAYER
  5
4BB
330
2
100
AcDbSymbolTableRecord
100
AcDbLayerTableRecord
  2
Defpoints
 70
     0
 62
     7
  6
Continuous
290
     0
370
    -3
390
F
347
46
348
0
  0
LAYER
  5
4E8
330
2
100
AcDbSymbolTableRecord
100
AcDbLayerTableRecord
  2
connection
 70
     0
 62
    -7
  6
Continuous
370
    50
390
F
347
46
348
0
  0
ENDTAB
  0
TABLE
  2
STYLE
  5
3
330
0
100
AcDbSymbolTable
 70
     1
  0
STYLE
  5
11
330
3
100
AcDbSymbolTableRecord
100
AcDbTextStyleTableRecord
  2
Standard
 70
     0
 40
0.0
 41
1.0
 50
0.0
 71
     0
 42
2.5
  3
txt
  4

  0
ENDTAB
  0
TABLE
  2
VIEW
  5
6
330
0
100
AcDbSymbolTable
 70
     0
  0
ENDTAB
  0
TABLE
  2
UCS
  5
7
330
0
100
AcDbSymbolTable
 70
     0
  0
ENDTAB
  0
TABLE
  2
APPID
  5
9
330
0
100
AcDbSymbolTable
 70
     1
  0
APPID
  5
12
330
9
100
AcDbSymbolTableRecord
100
AcDbRegAppTableRecord
  2
ACAD
 70
     0
  0
ENDTAB
  0
TABLE
  2
DIMSTYLE
  5
A
330
0
100
AcDbSymbolTable
 70
     1
100
AcDbDimStyleTable
  0
DIMSTYLE
105
27
102
{ACAD_REACTORS
330
4BA
330
4C8
330
4D8
102
}
330
A
100
AcDbSymbolTableRecord
100
AcDbDimStyleTableRecord
  2
ISO-25
 70
     0
 41
2.5
 42
0.625
 43
3.75
 44
1.25
 73
     0
 74
     0
 77
     1
 78
     8
140
2.5
141
2.5
143
0.03937007874016
147
0.625
171
     3
172
     1
178
     0
271
     2
272
     2
274
     3
278
    44
283
     0
284
     8
340
11
  0
ENDTAB
  0
TABLE
  2
BLOCK_RECORD
  5
1
330
0
100
AcDbSymbolTable
 70
     7
  0
BLOCK_RECORD
  5
1F
330
1
100
AcDbSymbolTableRecord
100
AcDbBlockTableRecord
  2
*Model_Space
340
22
 70
     0
280
     1
281
     0
  0
BLOCK_RECORD
  5
1B
330
1
100
AcDbSymbolTableRecord
100
AcDbBlockTableRecord
  2
*Paper_Space
340
1E
 70
     0
280
     1
281
     0
  0
BLOCK_RECORD
  5
23
330
1
100
AcDbSymbolTableRecord
100
AcDbBlockTableRecord
  2
*Paper_Space0
340
26
 70
     0
280
     1
281
     0
  0
BLOCK_RECORD
  5
73
330
1
100
AcDbSymbolTableRecord
100
AcDbBlockTableRecord
  2
1_01434000A_end_cover_M1001_0_in_01434_0
340
0
102
{BLKREFS
331
74
102
}
 70
     0
280
     1
281
     0
  0
BLOCK_RECORD
  5
277
330
1
100
AcDbSymbolTableRecord
100
AcDbBlockTableRecord
  2
2_01434000A_end_cover_R1001_0_in_01434_0
340
0
102
{BLKREFS
331
278
102
}
 70
     0
280
     1
281
     0
  0
BLOCK_RECORD
  5
397
330
1
100
AcDbSymbolTableRecord
100
AcDbBlockTableRecord
  2
3_01434000A_end_cover_L1001_0_in_01434_0
340
0
102
{BLKREFS
331
398
102
}
 70
     0
280
     1
281
     0
  0
BLOCK_RECORD
  5
4BC
330
1
100
AcDbSymbolTableRecord
100
AcDbBlockTableRecord
  2
*D4
340
0
 70
     0
280
     1
281
     0
  0
BLOCK_RECORD
  5
4C9
330
1
100
AcDbSymbolTableRecord
100
AcDbBlockTableRecord
  2
*D5
340
0
 70
     0
280
     1
281
     0
  0
BLOCK_RECORD
  5
4D9
330
1
100
AcDbSymbolTableRecord
100
AcDbBlockTableRecord
  2
*D6
340
0
 70
     0
280
     1
281
     0
  0
ENDTAB
  0
ENDSEC
  0
SECTION
  2
BLOCKS
  0
BLOCK
  5
20
330
1F
100
AcDbEntity
  8
0
100
AcDbBlockBegin
  2
*Model_Space
 70
     2
 10
0.0
 20
0.0
 30
0.0
  3
*Model_Space
  1

  0
ENDBLK
  5
21
330
1F
100
AcDbEntity
  8
0
100
AcDbBlockEnd
  0
BLOCK
  5
1C
330
1B
100
AcDbEntity
 67
     1
  8
0
100
AcDbBlockBegin
  2
*Paper_Space
 70
     0
 10
0.0
 20
0.0
 30
0.0
  3
*Paper_Space
  1

  0
ENDBLK
  5
1D
330
1B
100
AcDbEntity
 67
     1
  8
0
100
AcDbBlockEnd
  0
BLOCK
  5
24
330
23
100
AcDbEntity
  8
0
100
AcDbBlockBegin
  2
*Paper_Space0
 70
     0
 10
0.0
 20
0.0
 30
0.0
  3
*Paper_Space0
  1

  0
ENDBLK
  5
25
330
23
100
AcDbEntity
  8
0
100
AcDbBlockEnd
  0
BLOCK
  5
75
330
73
100
AcDbEntity
  8
0
100
AcDbBlockBegin
  2
1_01434000A_end_cover_M1001_0_in_01434_0
 70
     2
 10
0.0
 20
0.0
 30
0.0
  3
1_01434000A_end_cover_M1001_0_in_01434_0
  1

  0
ATTDEF
  5
77
330
73
100
AcDbEntity
  8
attrib
100
AcDbText
 10
32.36249999999995
 20
556.0
 30
0.0
 40
0.5
  1
01434000A-end_cover_M1001
100
AcDbAttributeDefinition
  3

  2
NB
 70
     8
280
     0
  0
ATTDEF
  5
78
330
73
100
AcDbEntity
  8
attrib
100
AcDbText
 10
32.36249999999995
 20
555.5
 30
0.0
 40
0.5
  1
Covers and compartments end cover 1
100
AcDbAttributeDefinition
  3

  2
NN
 70
     8
280
     0
  0
ATTDEF
  5
79
330
73
100
AcDbEntity
  8
attrib
100
AcDbText
 10
32.36249999999995
 20
555.0
 30
0.0
 40
0.5
  1

100
AcDbAttributeDefinition
  3

  2
NT
 70
     8
280
     0
  0
ATTDEF
  5
7A
330
73
100
AcDbEntity
  8
attrib
100
AcDbText
 10
32.36249999999995
 20
554.5
 30
0.0
 40
0.5
  1
$BOM.-end_cover_$SIDE.$L.$X.
100
AcDbAttributeDefinition
  3

  2
NBSYN
 70
     8
280
     0
  0
ATTDEF
  5
7B
330
73
100
AcDbEntity
  8
attrib
100
AcDbText
 10
32.36249999999995
 20
554.0
 30
0.0
 40
0.5
  1
01434000A-end_cover_M1001
100
AcDbAttributeDefinition
  3

  2
LINA
 70
     8
280
     0
  0
ATTDEF
  5
7C
330
73
100
AcDbEntity
  8
attrib
100
AcDbText
 10
32.36249999999995
 20
553.5
 30
0.0
 40
0.5
  1
Wöhner
100
AcDbAttributeDefinition
  3

  2
CATALOG
 70
     8
280
     0
  0
ATTDEF
  5
7D
330
73
100
AcDbEntity
  8
attrib
100
AcDbText
 10
32.36249999999995
 20
553.0
 30
0.0
 40
0.5
  1
01434000A
100
AcDbAttributeDefinition
  3

  2
BOM
 70
     8
280
     0
  0
ATTDEF
  5
7E
330
73
100
AcDbEntity
  8
attrib
100
AcDbText
 10
32.36249999999995
 20
552.5
 30
0.0
 40
0.5
  1
01434
100
AcDbAttributeDefinition
  3

  2
ARTNR
 70
     8
280
     0
  0
ATTDEF
  5
7F
330
73
100
AcDbEntity
  8
attrib
100
AcDbText
 10
32.36249999999995
 20
552.0
 30
0.0
 40
0.5
  1
Middle
100
AcDbAttributeDefinition
  3

  2
SIDE
 70
     8
280
     0
  0
ATTDEF
  5
80
330
73
100
AcDbEntity
  8
attrib
100
AcDbText
 10
32.36249999999995
 20
551.5
 30
0.0
 40
0.5
  1
100
100
AcDbAttributeDefinition
  3

  2
L
 70
     8
280
     0
  0
ATTDEF
  5
81
330
73
100
AcDbEntity
  8
attrib
100
AcDbText
 10
32.36249999999995
 20
551.0
 30
0.0
 40
0.5
  1
1
100
AcDbAttributeDefinition
  3

  2
X
 70
     8
280
     0
  0
ATTDEF
  5
82
330
73
100
AcDbEntity
  8
attrib
100
AcDbText
 10
32.36249999999995
 20
550.5
 30
0.0
 40
0.5
  1
woehner
100
AcDbAttributeDefinition
  3

  2
COMPANY
 70
     8
280
     0
  0
ATTDEF
  5
83
330
73
100
AcDbEntity
  8
attrib
100
AcDbText
 10
32.36249999999995
 20
550.0
 30
0.0
 40
0.5
  1
{$CADENAS_DATA/23d-libs/woehner/sys_185/busbar_supp_busbars_and_covers/parts/covers_and_compartments_cover.prj},231 {VTYP=3D},{NB=01434000A-end_cover_M1001},{LINA=01434000A-end_cover_M1001},{NN=Covers and compartments end cover 1},{DATE=19.10.2022 09:28:2
100
AcDbAttributeDefinition
  3

  2
PSOL_0
 70
     9
280
     0
  0
ATTDEF
  5
84
330
73
100
AcDbEntity
  8
attrib
100
AcDbText
 10
32.36249999999995
 20
549.5
 30
0.0
 40
0.5
  1
3},{GEOMDATE=19.10.2022 09:27:00},{VERSION=},{LINEID=190},{WBVAR=SIDE,L,X},{WBNUMERIC=L,X}  {NB=01434000A-end_cover_M1001},{LINA=01434000A-end_cover_M1001},{KT=DUMMY},{BOM=01434000A},{ARTNR=01434},{SIDE=M},{SIDEX='L','Left' , 'R','Right' , 'M','Middle'},{
100
AcDbAttributeDefinition
  3

  2
PSOL_1
 70
     9
280
     0
  0
ATTDEF
  5
85
330
73
100
AcDbEntity
  8
attrib
100
AcDbText
 10
32.36249999999995
 20
549.0
 30
0.0
 40
0.5
  1
L=100},{LX=[100]},{X=1},{XX=1},{BUSB=},{POF=},{TYPE=},{QNT=MIN},{W=MIN},{H=MIN},{D=MIN},{CONCA=},{SCR=},{IPR=},{SEARCH=},{EDZ=},{IODD=},{DIST=13},{LINK=Product link},{LINKX=https://www.woehner.de/de/produkte/01434.html},{VER=01434 M}
100
AcDbAttributeDefinition
  3

  2
PSOL_2
 70
     9
280
     0
  0
LINE
  5
88
330
73
100
AcDbEntity
  8
hidden
100
AcDbLine
 10
-25.0
 20
296.0000000000001
 30
0.0
 11
25.0
 21
296.0000000000001
 31
0.0
  0
LINE
  5
89
330
73
100
AcDbEntity
  8
hidden
100
AcDbLine
 10
-25.0
 20
111.0
 30
0.0
 11
25.0
 21
111.0
 31
0.0
  0
LINE
  5
8A
330
73
100
AcDbEntity
  8
hidden
100
AcDbLine
 10
-25.0
 20
481.0000000000001
 30
0.0
 11
25.0
 21
481.0000000000001
 31
0.0
  0
LINE
  5
8B
330
73
100
AcDbEntity
  8
hidden
100
AcDbLine
 10
-25.0
 20
363.5000000000001
 30
0.0
 11
25.0
 21
363.5000000000001
 31
0.0
  0
LINE
  5
8C
330
73
100
AcDbEntity
  8
hidden
100
AcDbLine
 10
-25.0
 20
178.5000000000001
 30
0.0
 11
25.0
 21
178.5000000000001
 31
0.0
  0
LINE
  5
8D
330
73
100
AcDbEntity
  8
hidden
100
AcDbLine
 10
-25.0
 20
548.5000000000001
 30
0.0
 11
25.0
 21
548.5000000000001
 31
0.0
  0
LINE
  5
8E
330
73
100
AcDbEntity
  8
hidden
100
AcDbLine
 10
3.5
 20
5.000000000000115
 30
0.0
 11
5.05
 21
5.000000000000115
 31
0.0
  0
LINE
  5
8F
330
73
100
AcDbEntity
  8
hidden
100
AcDbLine
 10
12.05
 20
5.000000000000115
 30
0.0
 11
13.05
 21
5.000000000000115
 31
0.0
  0
LINE
  5
90
330
73
100
AcDbEntity
  8
hidden
100
AcDbLine
 10
-21.05
 20
5.000000000000115
 30
0.0
 11
-20.05
 21
5.000000000000115
 31
0.0
  0
LINE
  5
91
330
73
100
AcDbEntity
  8
hidden
100
AcDbLine
 10
20.05
 20
5.000000000000115
 30
0.0
 11
21.05
 21
5.000000000000115
 31
0.0
  0
LINE
  5
92
330
73
100
AcDbEntity
  8
hidden
100
AcDbLine
 10
-5.050000000000001
 20
5.000000000000115
 30
0.0
 11
-3.5
 21
5.000000000000115
 31
0.0
  0
LINE
  5
93
330
73
100
AcDbEntity
  8
hidden
100
AcDbLine
 10
-13.05
 20
5.000000000000115
 30
0.0
 11
-12.05
 21
5.000000000000115
 31
0.0
  0
LINE
  5
94
330
73
100
AcDbEntity
  8
hidden
100
AcDbLine
 10
-25.0
 20
114.0
 30
0.0
 11
25.0
 21
114.0
 31
0.0
  0
LINE
  5
95
330
73
100
AcDbEntity
  8
hidden
100
AcDbLine
 10
-25.0
 20
299.0000000000001
 30
0.0
 11
25.0
 21
299.0000000000001
 31
0.0
  0
LINE
  5
96
330
73
100
AcDbEntity
  8
hidden
100
AcDbLine
 10
-25.0
 20
484.0000000000001
 30
0.0
 11
25.0
 21
484.0000000000001
 31
0.0
  0
LINE
  5
97
330
73
100
AcDbEntity
  8
hidden
100
AcDbLine
 10
2.249999999999999
 20
322.0000000000001
 30
0.0
 11
2.249999999999998
 21
332.0000000000001
 31
0.0
  0
LINE
  5
98
330
73
100
AcDbEntity
  8
hidden
100
AcDbLine
 10
-2.250000000000002
 20
332.0000000000001
 30
0.0
 11
-2.250000000000002
 21
322.0000000000001
 31
0.0
  0
LINE
  5
99
330
73
100
AcDbEntity
  8
hidden
100
AcDbLine
 10
2.249999999999998
 20
507.0
 30
0.0
 11
2.249999999999998
 21
517.0
 31
0.0
  0
LINE
  5
9A
330
73
100
AcDbEntity
  8
hidden
100
AcDbLine
 10
-2.250000000000002
 20
517.0
 30
0.0
 11
-2.250000000000002
 21
507.0
 31
0.0
  0
LINE
  5
9B
330
73
100
AcDbEntity
  8
hidden
100
AcDbLine
 10
2.249999999999998
 20
137.0000000000001
 30
0.0
 11
2.249999999999998
 21
147.0
 31
0.0
  0
LINE
  5
9C
330
73
100
AcDbEntity
  8
hidden
100
AcDbLine
 10
-2.250000000000002
 20
147.0
 30
0.0
 11
-2.250000000000002
 21
137.0000000000001
 31
0.0
  0
LINE
  5
9D
330
73
100
AcDbEntity
  8
hidden
100
AcDbLine
 10
-23.4
 20
334.5
 30
0.0
 11
-23.4
 21
362.5000000000001
 31
0.0
  0
LINE
  5
9E
330
73
100
AcDbEntity
  8
hidden
100
AcDbLine
 10
-25.0
 20
334.0000000000001
 30
0.0
 11
-18.85
 21
334.0000000000001
 31
0.0
  0
LINE
  5
9F
330
73
100
AcDbEntity
  8
hidden
100
AcDbLine
 10
-25.0
 20
362.0000000000001
 30
0.0
 11
-23.4
 21
362.0000000000001
 31
0.0
  0
LINE
  5
A0
330
73
100
AcDbEntity
  8
hidden
100
AcDbLine
 10
23.4
 20
334.5
 30
0.0
 11
23.4
 21
362.5000000000001
 31
0.0
  0
LINE
  5
A1
330
73
100
AcDbEntity
  8
hidden
100
AcDbLine
 10
23.4
 20
362.0000000000001
 30
0.0
 11
25.0
 21
362.0000000000001
 31
0.0
  0
LINE
  5
A2
330
73
100
AcDbEntity
  8
hidden
100
AcDbLine
 10
18.95
 20
334.0000000000001
 30
0.0
 11
25.0
 21
334.0000000000001
 31
0.0
  0
LINE
  5
A3
330
73
100
AcDbEntity
  8
hidden
100
AcDbLine
 10
-6.05
 20
334.0000000000001
 30
0.0
 11
6.149999999999999
 21
334.0000000000001
 31
0.0
  0
LINE
  5
A4
330
73
100
AcDbEntity
  8
hidden
100
AcDbLine
 10
-14.35
 20
334.0000000000001
 30
0.0
 11
-10.55
 21
334.0000000000001
 31
0.0
  0
LINE
  5
A5
330
73
100
AcDbEntity
  8
hidden
100
AcDbLine
 10
1.600000000000002
 20
149.0
 30
0.0
 11
1.600000000000001
 21
177.0000000000001
 31
0.0
  0
LINE
  5
A6
330
73
100
AcDbEntity
  8
hidden
100
AcDbLine
 10
-1.600000000000001
 20
149.0
 30
0.0
 11
-1.600000000000001
 21
177.0000000000001
 31
0.0
  0
LINE
  5
A7
330
73
100
AcDbEntity
  8
hidden
100
AcDbLine
 10
23.4
 20
149.0
 30
0.0
 11
23.4
 21
177.0000000000001
 31
0.0
  0
LINE
  5
A8
330
73
100
AcDbEntity
  8
hidden
100
AcDbLine
 10
10.65
 20
334.0000000000001
 30
0.0
 11
14.45
 21
334.0000000000001
 31
0.0
  0
LINE
  5
A9
330
73
100
AcDbEntity
  8
hidden
100
AcDbLine
 10
1.600000000000002
 20
334.5
 30
0.0
 11
1.600000000000002
 21
362.5000000000001
 31
0.0
  0
LINE
  5
AA
330
73
100
AcDbEntity
  8
hidden
100
AcDbLine
 10
-1.600000000000001
 20
334.5
 30
0.0
 11
-1.600000000000001
 21
362.5000000000001
 31
0.0
  0
LINE
  5
AB
330
73
100
AcDbEntity
  8
hidden
100
AcDbLine
 10
-23.4
 20
519.0
 30
0.0
 11
-23.4
 21
547.0
 31
0.0
  0
LINE
  5
AC
330
73
100
AcDbEntity
  8
hidden
100
AcDbLine
 10
23.4
 20
519.0
 30
0.0
 11
23.4
 21
547.0
 31
0.0
  0
LINE
  5
AD
330
73
100
AcDbEntity
  8
hidden
100
AcDbLine
 10
1.600000000000002
 20
519.0
 30
0.0
 11
1.600000000000001
 21
547.0
 31
0.0
  0
LINE
  5
AE
330
73
100
AcDbEntity
  8
hidden
100
AcDbLine
 10
-1.600000000000001
 20
519.0
 30
0.0
 11
-1.600000000000001
 21
547.0
 31
0.0
  0
LINE
  5
AF
330
73
100
AcDbEntity
  8
hidden
100
AcDbLine
 10
-25.0
 20
177.0000000000001
 30
0.0
 11
-24.0
 21
177.0000000000001
 31
0.0
  0
LINE
  5
B0
330
73
100
AcDbEntity
  8
hidden
100
AcDbLine
 10
-23.4
 20
149.0
 30
0.0
 11
-23.4
 21
177.0000000000001
 31
0.0
  0
LINE
  5
B1
330
73
100
AcDbEntity
  8
hidden
100
AcDbLine
 10
20.5
 20
334.5
 30
0.0
 11
18.95
 21
334.5
 31
0.0
  0
LINE
  5
B2
330
73
100
AcDbEntity
  8
hidden
100
AcDbLine
 10
20.5
 20
149.0
 30
0.0
 11
18.95
 21
149.0
 31
0.0
  0
LINE
  5
B3
330
73
100
AcDbEntity
  8
hidden
100
AcDbLine
 10
20.5
 20
519.0
 30
0.0
 11
18.95
 21
519.0
 31
0.0
  0
LINE
  5
B4
330
73
100
AcDbEntity
  8
hidden
100
AcDbLine
 10
-4.500000000000001
 20
334.5
 30
0.0
 11
-6.050000000000001
 21
334.5
 31
0.0
  0
LINE
  5
B5
330
73
100
AcDbEntity
  8
hidden
100
AcDbLine
 10
-6.100000000000001
 20
334.5
 30
0.0
 11
-20.5
 21
334.5
 31
0.0
  0
LINE
  5
B6
330
73
100
AcDbEntity
  8
hidden
100
AcDbLine
 10
-6.100000000000001
 20
519.0
 30
0.0
 11
-20.5
 21
519.0
 31
0.0
  0
LINE
  5
B7
330
73
100
AcDbEntity
  8
hidden
100
AcDbLine
 10
-4.500000000000001
 20
547.0
 30
0.0
 11
-20.5
 21
547.0
 31
0.0
  0
LINE
  5
B8
330
73
100
AcDbEntity
  8
hidden
100
AcDbLine
 10
-4.500000000000001
 20
519.0
 30
0.0
 11
-6.050000000000001
 21
519.0
 31
0.0
  0
LINE
  5
B9
330
73
100
AcDbEntity
  8
hidden
100
AcDbLine
 10
-6.100000000000001
 20
149.0
 30
0.0
 11
-20.5
 21
149.0
 31
0.0
  0
LINE
  5
BA
330
73
100
AcDbEntity
  8
hidden
100
AcDbLine
 10
20.5
 20
547.0
 30
0.0
 11
4.499999999999996
 21
547.0
 31
0.0
  0
LINE
  5
BB
330
73
100
AcDbEntity
  8
hidden
100
AcDbLine
 10
18.9
 20
519.0
 30
0.0
 11
4.500000000000001
 21
519.0
 31
0.0
  0
LINE
  5
BC
330
73
100
AcDbEntity
  8
hidden
100
AcDbLine
 10
-4.500000000000001
 20
177.0000000000001
 30
0.0
 11
-20.5
 21
177.0000000000001
 31
0.0
  0
LINE
  5
BD
330
73
100
AcDbEntity
  8
hidden
100
AcDbLine
 10
-4.500000000000001
 20
149.0
 30
0.0
 11
-6.050000000000001
 21
149.0
 31
0.0
  0
LINE
  5
BE
330
73
100
AcDbEntity
  8
hidden
100
AcDbLine
 10
-4.500000000000001
 20
362.5000000000001
 30
0.0
 11
-20.5
 21
362.5000000000001
 31
0.0
  0
LINE
  5
BF
330
73
100
AcDbEntity
  8
hidden
100
AcDbLine
 10
20.5
 20
177.0000000000001
 30
0.0
 11
4.499999999999996
 21
177.0000000000001
 31
0.0
  0
LINE
  5
C0
330
73
100
AcDbEntity
  8
hidden
100
AcDbLine
 10
18.9
 20
149.0
 30
0.0
 11
4.500000000000001
 21
149.0
 31
0.0
  0
LINE
  5
C1
330
73
100
AcDbEntity
  8
hidden
100
AcDbLine
 10
20.5
 20
362.5000000000001
 30
0.0
 11
4.499999999999997
 21
362.5000000000001
 31
0.0
  0
LINE
  5
C2
330
73
100
AcDbEntity
  8
hidden
100
AcDbLine
 10
18.9
 20
334.5
 30
0.0
 11
4.500000000000001
 21
334.5
 31
0.0
  0
LINE
  5
C3
330
73
100
AcDbEntity
  8
hidden
100
AcDbLine
 10
-22.75
 20
5.000000000000004
 30
0.0
 11
-22.75
 21
3.000000000000003
 31
0.0
  0
LINE
  5
C4
330
73
100
AcDbEntity
  8
hidden
100
AcDbLine
 10
18.95
 20
5.000000000000004
 30
0.0
 11
18.95
 21
3.000000000000003
 31
0.0
  0
LINE
  5
C5
330
73
100
AcDbEntity
  8
hidden
100
AcDbLine
 10
14.45
 20
5.000000000000004
 30
0.0
 11
14.45
 21
3.000000000000003
 31
0.0
  0
LINE
  5
C6
330
73
100
AcDbEntity
  8
hidden
100
AcDbLine
 10
6.150000000000003
 20
5.000000000000004
 30
0.0
 11
6.150000000000003
 21
3.000000000000003
 31
0.0
  0
LINE
  5
C7
330
73
100
AcDbEntity
  8
hidden
100
AcDbLine
 10
-10.65
 20
5.000000000000004
 30
0.0
 11
-10.65
 21
3.000000000000003
 31
0.0
  0
LINE
  5
C8
330
73
100
AcDbEntity
  8
hidden
100
AcDbLine
 10
-6.149999999999999
 20
5.000000000000004
 30
0.0
 11
-6.149999999999999
 21
3.000000000000003
 31
0.0
  0
LINE
  5
C9
330
73
100
AcDbEntity
  8
hidden
100
AcDbLine
 10
10.65
 20
5.000000000000004
 30
0.0
 11
10.65
 21
3.000000000000003
 31
0.0
  0
LINE
  5
CA
330
73
100
AcDbEntity
  8
hidden
100
AcDbLine
 10
22.75
 20
5.000000000000004
 30
0.0
 11
22.75
 21
3.000000000000003
 31
0.0
  0
LINE
  5
CB
330
73
100
AcDbEntity
  8
hidden
100
AcDbLine
 10
-14.45
 20
5.000000000000004
 30
0.0
 11
-14.45
 21
3.000000000000003
 31
0.0
  0
LINE
  5
CC
330
73
100
AcDbEntity
  8
hidden
100
AcDbLine
 10
-2.249999999999999
 20
5.000000000000004
 30
0.0
 11
-2.249999999999999
 21
3.000000000000003
 31
0.0
  0
LINE
  5
CD
330
73
100
AcDbEntity
  8
hidden
100
AcDbLine
 10
2.250000000000002
 20
5.000000000000004
 30
0.0
 11
2.250000000000002
 21
3.000000000000003
 31
0.0
  0
LINE
  5
CE
330
73
100
AcDbEntity
  8
hidden
100
AcDbLine
 10
-18.95
 20
5.000000000000004
 30
0.0
 11
-18.95
 21
3.000000000000003
 31
0.0
  0
LINE
  5
CF
330
73
100
AcDbEntity
  8
hidden
100
AcDbLine
 10
-14.35
 20
519.0
 30
0.0
 11
-14.35
 21
517.0
 31
0.0
  0
LINE
  5
D0
330
73
100
AcDbEntity
  8
hidden
100
AcDbLine
 10
-18.85
 20
519.0
 30
0.0
 11
-18.85
 21
517.0
 31
0.0
  0
LINE
  5
D1
330
73
100
AcDbEntity
  8
hidden
100
AcDbLine
 10
-6.050000000000001
 20
527.0
 30
0.0
 11
-6.100000000000001
 21
527.0
 31
0.0
  0
LINE
  5
D2
330
73
100
AcDbEntity
  8
hidden
100
AcDbLine
 10
-6.050000000000001
 20
527.0
 30
0.0
 11
-6.050000000000001
 21
517.0
 31
0.0
  0
LINE
  5
D3
330
73
100
AcDbEntity
  8
hidden
100
AcDbLine
 10
-10.55
 20
519.0
 30
0.0
 11
-10.55
 21
517.0
 31
0.0
  0
LINE
  5
D4
330
73
100
AcDbEntity
  8
hidden
100
AcDbLine
 10
-6.050000000000001
 20
157.0
 30
0.0
 11
-6.100000000000001
 21
157.0
 31
0.0
  0
LINE
  5
D5
330
73
100
AcDbEntity
  8
hidden
100
AcDbLine
 10
-6.050000000000001
 20
157.0
 30
0.0
 11
-6.050000000000001
 21
147.0
 31
0.0
  0
LINE
  5
D6
330
73
100
AcDbEntity
  8
hidden
100
AcDbLine
 10
-10.55
 20
149.0
 30
0.0
 11
-10.55
 21
147.0
 31
0.0
  0
LINE
  5
D7
330
73
100
AcDbEntity
  8
hidden
100
AcDbLine
 10
-14.35
 20
149.0
 30
0.0
 11
-14.35
 21
147.0
 31
0.0
  0
LINE
  5
D8
330
73
100
AcDbEntity
  8
hidden
100
AcDbLine
 10
-18.85
 20
149.0
 30
0.0
 11
-18.85
 21
147.0
 31
0.0
  0
LINE
  5
D9
330
73
100
AcDbEntity
  8
hidden
100
AcDbLine
 10
-14.35
 20
334.5
 30
0.0
 11
-14.35
 21
332.0000000000001
 31
0.0
  0
LINE
  5
DA
330
73
100
AcDbEntity
  8
hidden
100
AcDbLine
 10
-18.85
 20
334.5
 30
0.0
 11
-18.85
 21
332.0000000000001
 31
0.0
  0
LINE
  5
DB
330
73
100
AcDbEntity
  8
hidden
100
AcDbLine
 10
-6.050000000000001
 20
342.0000000000001
 30
0.0
 11
-6.100000000000001
 21
342.0000000000001
 31
0.0
  0
LINE
  5
DC
330
73
100
AcDbEntity
  8
hidden
100
AcDbLine
 10
-6.050000000000001
 20
342.0000000000001
 30
0.0
 11
-6.050000000000001
 21
332.0000000000001
 31
0.0
  0
LINE
  5
DD
330
73
100
AcDbEntity
  8
hidden
100
AcDbLine
 10
-10.55
 20
334.5
 30
0.0
 11
-10.55
 21
332.0000000000001
 31
0.0
  0
LINE
  5
DE
330
73
100
AcDbEntity
  8
hidden
100
AcDbLine
 10
18.95
 20
527.0
 30
0.0
 11
18.9
 21
527.0
 31
0.0
  0
LINE
  5
DF
330
73
100
AcDbEntity
  8
hidden
100
AcDbLine
 10
18.95
 20
527.0
 30
0.0
 11
18.95
 21
517.0
 31
0.0
  0
LINE
  5
E0
330
73
100
AcDbEntity
  8
hidden
100
AcDbLine
 10
14.45
 20
519.0
 30
0.0
 11
14.45
 21
517.0
 31
0.0
  0
LINE
  5
E1
330
73
100
AcDbEntity
  8
hidden
100
AcDbLine
 10
18.95
 20
342.0000000000001
 30
0.0
 11
18.9
 21
342.0000000000001
 31
0.0
  0
LINE
  5
E2
330
73
100
AcDbEntity
  8
hidden
100
AcDbLine
 10
18.95
 20
342.0000000000001
 30
0.0
 11
18.95
 21
332.0000000000001
 31
0.0
  0
LINE
  5
E3
330
73
100
AcDbEntity
  8
hidden
100
AcDbLine
 10
14.45
 20
334.5
 30
0.0
 11
14.45
 21
332.0000000000001
 31
0.0
  0
LINE
  5
E4
330
73
100
AcDbEntity
  8
hidden
100
AcDbLine
 10
18.95
 20
157.0
 30
0.0
 11
18.9
 21
157.0
 31
0.0
  0
LINE
  5
E5
330
73
100
AcDbEntity
  8
hidden
100
AcDbLine
 10
18.95
 20
157.0
 30
0.0
 11
18.95
 21
147.0
 31
0.0
  0
LINE
  5
E6
330
73
100
AcDbEntity
  8
hidden
100
AcDbLine
 10
14.45
 20
149.0
 30
0.0
 11
14.45
 21
147.0
 31
0.0
  0
LINE
  5
E7
330
73
100
AcDbEntity
  8
hidden
100
AcDbLine
 10
10.65
 20
149.0
 30
0.0
 11
10.65
 21
147.0
 31
0.0
  0
LINE
  5
E8
330
73
100
AcDbEntity
  8
hidden
100
AcDbLine
 10
6.149999999999999
 20
149.0
 30
0.0
 11
6.150000000000001
 21
147.0
 31
0.0
  0
LINE
  5
E9
330
73
100
AcDbEntity
  8
hidden
100
AcDbLine
 10
10.65
 20
519.0
 30
0.0
 11
10.65
 21
517.0
 31
0.0
  0
LINE
  5
EA
330
73
100
AcDbEntity
  8
hidden
100
AcDbLine
 10
6.149999999999999
 20
519.0
 30
0.0
 11
6.150000000000001
 21
517.0
 31
0.0
  0
LINE
  5
EB
330
73
100
AcDbEntity
  8
hidden
100
AcDbLine
 10
10.65
 20
334.5
 30
0.0
 11
10.65
 21
332.0000000000001
 31
0.0
  0
LINE
  5
EC
330
73
100
AcDbEntity
  8
hidden
100
AcDbLine
 10
6.149999999999999
 20
334.5
 30
0.0
 11
6.149999999999999
 21
332.0000000000001
 31
0.0
  0
LINE
  5
ED
330
73
100
AcDbEntity
  8
hidden
100
AcDbLine
 10
6.100000000000003
 20
519.0
 30
0.0
 11
6.100000000000003
 21
547.0
 31
0.0
  0
LINE
  5
EE
330
73
100
AcDbEntity
  8
hidden
100
AcDbLine
 10
-18.9
 20
149.0
 30
0.0
 11
-18.9
 21
177.0000000000001
 31
0.0
  0
LINE
  5
EF
330
73
100
AcDbEntity
  8
hidden
100
AcDbLine
 10
-6.100000000000001
 20
519.0
 30
0.0
 11
-6.100000000000001
 21
547.0
 31
0.0
  0
LINE
  5
F0
330
73
100
AcDbEntity
  8
hidden
100
AcDbLine
 10
-18.9
 20
519.0
 30
0.0
 11
-18.9
 21
547.0
 31
0.0
  0
LINE
  5
F1
330
73
100
AcDbEntity
  8
hidden
100
AcDbLine
 10
6.100000000000003
 20
149.0
 30
0.0
 11
6.100000000000003
 21
177.0000000000001
 31
0.0
  0
LINE
  5
F2
330
73
100
AcDbEntity
  8
hidden
100
AcDbLine
 10
18.9
 20
149.0
 30
0.0
 11
18.9
 21
177.0000000000001
 31
0.0
  0
LINE
  5
F3
330
73
100
AcDbEntity
  8
hidden
100
AcDbLine
 10
18.9
 20
334.5
 30
0.0
 11
18.9
 21
362.5000000000001
 31
0.0
  0
LINE
  5
F4
330
73
100
AcDbEntity
  8
hidden
100
AcDbLine
 10
-6.100000000000001
 20
149.0
 30
0.0
 11
-6.100000000000001
 21
177.0000000000001
 31
0.0
  0
LINE
  5
F5
330
73
100
AcDbEntity
  8
hidden
100
AcDbLine
 10
6.100000000000003
 20
334.5
 30
0.0
 11
6.100000000000003
 21
362.5000000000001
 31
0.0
  0
LINE
  5
F6
330
73
100
AcDbEntity
  8
hidden
100
AcDbLine
 10
-6.100000000000001
 20
334.5
 30
0.0
 11
-6.100000000000001
 21
362.5000000000001
 31
0.0
  0
LINE
  5
F7
330
73
100
AcDbEntity
  8
hidden
100
AcDbLine
 10
-18.9
 20
334.5
 30
0.0
 11
-18.9
 21
362.5000000000001
 31
0.0
  0
LINE
  5
F8
330
73
100
AcDbEntity
  8
hidden
100
AcDbLine
 10
18.9
 20
519.0
 30
0.0
 11
18.9
 21
547.0
 31
0.0
  0
LINE
  5
F9
330
73
100
AcDbEntity
  8
hidden
100
AcDbLine
 10
-25.0
 20
3.000000000000003
 30
0.0
 11
25.0
 21
3.000000000000003
 31
0.0
  0
LINE
  5
FA
330
73
100
AcDbEntity
  8
hidden
100
AcDbLine
 10
-25.0
 20
1.500000000000057
 30
0.0
 11
25.0
 21
1.500000000000057
 31
0.0
  0
LINE
  5
FD
330
73
100
AcDbEntity
  8
center
100
AcDbLine
 10
22.63750000000007
 20
308.2499999999999
 30
0.0
 11
27.3624999999997
 21
308.2499999999999
 31
0.0
  0
LINE
  5
FE
330
73
100
AcDbEntity
  8
center
100
AcDbLine
 10
24.99999999999988
 20
305.8875
 30
0.0
 11
24.99999999999988
 21
310.6124999999997
 31
0.0
  0
LINE
  5
FF
330
73
100
AcDbEntity
  8
center
100
AcDbLine
 10
-27.36249999999969
 20
308.2499999999999
 30
0.0
 11
-22.63750000000007
 21
308.2499999999999
 31
0.0
  0
LINE
  5
100
330
73
100
AcDbEntity
  8
center
100
AcDbLine
 10
-24.99999999999988
 20
305.8875000000001
 30
0.0
 11
-24.99999999999988
 21
310.6124999999997
 31
0.0
  0
LINE
  5
101
330
73
100
AcDbEntity
  8
center
100
AcDbLine
 10
14.33750000000006
 20
308.25
 30
0.0
 11
19.06249999999994
 21
308.25
 31
0.0
  0
LINE
  5
102
330
73
100
AcDbEntity
  8
center
100
AcDbLine
 10
16.7
 20
305.8875
 30
0.0
 11
16.7
 21
310.6125
 31
0.0
  0
LINE
  5
103
330
73
100
AcDbEntity
  8
center
100
AcDbLine
 10
14.3375
 20
493.2500000000001
 30
0.0
 11
19.0625
 21
493.2500000000001
 31
0.0
  0
LINE
  5
104
330
73
100
AcDbEntity
  8
center
100
AcDbLine
 10
16.7
 20
490.8875000000001
 30
0.0
 11
16.7
 21
495.6125000000001
 31
0.0
  0
LINE
  5
105
330
73
100
AcDbEntity
  8
center
100
AcDbLine
 10
-2.362500000000017
 20
123.25
 30
0.0
 11
2.362500000000013
 21
123.25
 31
0.0
  0
LINE
  5
106
330
73
100
AcDbEntity
  8
center
100
AcDbLine
 10
-0.0000000000000016
 20
120.8875
 30
0.0
 11
-0.0000000000000016
 21
125.6125
 31
0.0
  0
LINE
  5
107
330
73
100
AcDbEntity
  8
center
100
AcDbLine
 10
6.037499999999998
 20
493.2500000000001
 30
0.0
 11
10.7625
 21
493.2500000000001
 31
0.0
  0
LINE
  5
108
330
73
100
AcDbEntity
  8
center
100
AcDbLine
 10
8.399999999999999
 20
490.8875000000001
 30
0.0
 11
8.399999999999999
 21
495.6125000000001
 31
0.0
  0
LINE
  5
109
330
73
100
AcDbEntity
  8
center
100
AcDbLine
 10
-2.362500000000002
 20
493.2500000000001
 30
0.0
 11
2.362499999999998
 21
493.2500000000001
 31
0.0
  0
LINE
  5
10A
330
73
100
AcDbEntity
  8
center
100
AcDbLine
 10
-0.000000000000002
 20
490.8875000000001
 30
0.0
 11
-0.000000000000002
 21
495.6125000000001
 31
0.0
  0
LINE
  5
10B
330
73
100
AcDbEntity
  8
center
100
AcDbLine
 10
14.33749999999999
 20
123.25
 30
0.0
 11
19.06250000000002
 21
123.25
 31
0.0
  0
LINE
  5
10C
330
73
100
AcDbEntity
  8
center
100
AcDbLine
 10
16.7
 20
120.8875
 30
0.0
 11
16.7
 21
125.6125
 31
0.0
  0
LINE
  5
10D
330
73
100
AcDbEntity
  8
center
100
AcDbLine
 10
22.63750000000001
 20
123.2499999999999
 30
0.0
 11
27.3624999999999
 21
123.2499999999999
 31
0.0
  0
LINE
  5
10E
330
73
100
AcDbEntity
  8
center
100
AcDbLine
 10
24.99999999999996
 20
120.8875
 30
0.0
 11
24.99999999999996
 21
125.6124999999999
 31
0.0
  0
LINE
  5
10F
330
73
100
AcDbEntity
  8
center
100
AcDbLine
 10
-2.362499999999942
 20
308.25
 30
0.0
 11
2.362499999999939
 21
308.25
 31
0.0
  0
LINE
  5
110
330
73
100
AcDbEntity
  8
center
100
AcDbLine
 10
-0.000000000000002
 20
305.8875
 30
0.0
 11
-0.000000000000002
 21
310.6125
 31
0.0
  0
LINE
  5
111
330
73
100
AcDbEntity
  8
center
100
AcDbLine
 10
6.037500000000058
 20
308.25
 30
0.0
 11
10.76249999999994
 21
308.25
 31
0.0
  0
LINE
  5
112
330
73
100
AcDbEntity
  8
center
100
AcDbLine
 10
8.399999999999999
 20
305.8875
 30
0.0
 11
8.399999999999999
 21
310.6125
 31
0.0
  0
LINE
  5
113
330
73
100
AcDbEntity
  8
center
100
AcDbLine
 10
-18.96250000000002
 20
123.25
 30
0.0
 11
-14.23749999999999
 21
123.25
 31
0.0
  0
LINE
  5
114
330
73
100
AcDbEntity
  8
center
100
AcDbLine
 10
-16.6
 20
120.8875
 30
0.0
 11
-16.6
 21
125.6125
 31
0.0
  0
LINE
  5
115
330
73
100
AcDbEntity
  8
center
100
AcDbLine
 10
-10.6625
 20
493.2500000000001
 30
0.0
 11
-5.937500000000002
 21
493.2500000000001
 31
0.0
  0
LINE
  5
116
330
73
100
AcDbEntity
  8
center
100
AcDbLine
 10
-8.300000000000002
 20
490.8875000000001
 30
0.0
 11
-8.300000000000002
 21
495.6125000000001
 31
0.0
  0
LINE
  5
117
330
73
100
AcDbEntity
  8
center
100
AcDbLine
 10
-10.66250000000002
 20
123.25
 30
0.0
 11
-5.937499999999988
 21
123.25
 31
0.0
  0
LINE
  5
118
330
73
100
AcDbEntity
  8
center
100
AcDbLine
 10
-8.300000000000002
 20
120.8875
 30
0.0
 11
-8.300000000000002
 21
125.6125
 31
0.0
  0
LINE
  5
119
330
73
100
AcDbEntity
  8
center
100
AcDbLine
 10
22.63750000000001
 20
493.2500000000001
 30
0.0
 11
27.36249999999996
 21
493.2500000000001
 31
0.0
  0
LINE
  5
11A
330
73
100
AcDbEntity
  8
center
100
AcDbLine
 10
24.99999999999998
 20
490.8875000000001
 30
0.0
 11
24.99999999999998
 21
495.6125
 31
0.0
  0
LINE
  5
11B
330
73
100
AcDbEntity
  8
center
100
AcDbLine
 10
-10.66249999999994
 20
308.25
 30
0.0
 11
-5.937500000000062
 21
308.25
 31
0.0
  0
LINE
  5
11C
330
73
100
AcDbEntity
  8
center
100
AcDbLine
 10
-8.300000000000002
 20
305.8875
 30
0.0
 11
-8.300000000000002
 21
310.6125
 31
0.0
  0
LINE
  5
11D
330
73
100
AcDbEntity
  8
center
100
AcDbLine
 10
-27.36249999999995
 20
493.2500000000001
 30
0.0
 11
-22.63750000000001
 21
493.2500000000001
 31
0.0
  0
LINE
  5
11E
330
73
100
AcDbEntity
  8
center
100
AcDbLine
 10
-24.99999999999998
 20
490.8875000000001
 30
0.0
 11
-24.99999999999998
 21
495.6125
 31
0.0
  0
LINE
  5
11F
330
73
100
AcDbEntity
  8
center
100
AcDbLine
 10
-18.9625
 20
493.2500000000001
 30
0.0
 11
-14.2375
 21
493.2500000000001
 31
0.0
  0
LINE
  5
120
330
73
100
AcDbEntity
  8
center
100
AcDbLine
 10
-16.6
 20
490.8875000000001
 30
0.0
 11
-16.6
 21
495.6125000000001
 31
0.0
  0
LINE
  5
121
330
73
100
AcDbEntity
  8
center
100
AcDbLine
 10
6.037499999999984
 20
123.25
 30
0.0
 11
10.76250000000001
 21
123.25
 31
0.0
  0
LINE
  5
122
330
73
100
AcDbEntity
  8
center
100
AcDbLine
 10
8.399999999999999
 20
120.8875
 30
0.0
 11
8.399999999999999
 21
125.6125
 31
0.0
  0
LINE
  5
123
330
73
100
AcDbEntity
  8
center
100
AcDbLine
 10
-27.36249999999995
 20
123.25
 30
0.0
 11
-22.63749999999999
 21
123.25
 31
0.0
  0
LINE
  5
124
330
73
100
AcDbEntity
  8
center
100
AcDbLine
 10
-24.99999999999997
 20
120.8875
 30
0.0
 11
-24.99999999999997
 21
125.6125
 31
0.0
  0
LINE
  5
125
330
73
100
AcDbEntity
  8
center
100
AcDbLine
 10
-18.96249999999994
 20
308.25
 30
0.0
 11
-14.23750000000006
 21
308.25
 31
0.0
  0
LINE
  5
126
330
73
100
AcDbEntity
  8
center
100
AcDbLine
 10
-16.6
 20
305.8875
 30
0.0
 11
-16.6
 21
310.6125
 31
0.0
  0
LINE
  5
128
330
73
100
AcDbEntity
  8
bold
100
AcDbLine
 10
14.45
 20
517.0
 30
0.0
 11
14.45
 21
493.2500000000001
 31
0.0
  0
LINE
  5
129
330
73
100
AcDbEntity
  8
bold
100
AcDbLine
 10
18.95
 20
493.2500000000001
 30
0.0
 11
18.95
 21
517.0
 31
0.0
  0
ARC
  5
12A
330
73
100
AcDbEntity
  8
bold
100
AcDbCircle
 10
16.7
 20
493.2500000000002
 30
0.0
 40
2.250000000000004
100
AcDbArc
 50
180.0000000000029
 51
359.9999999999971
  0
ARC
  5
12B
330
73
100
AcDbEntity
  8
bold
100
AcDbCircle
 10
24.99999999999996
 20
123.25
 30
0.0
 40
2.249999999999964
100
AcDbArc
 50
180.0
 51
270.0000000000009
  0
LINE
  5
12C
330
73
100
AcDbEntity
  8
bold
100
AcDbLine
 10
10.65
 20
308.25
 30
0.0
 11
10.65
 21
332.0000000000001
 31
0.0
  0
LINE
  5
12D
330
73
100
AcDbEntity
  8
bold
100
AcDbLine
 10
6.149999999999999
 20
332.0000000000001
 30
0.0
 11
6.149999999999999
 21
308.25
 31
0.0
  0
ARC
  5
12E
330
73
100
AcDbEntity
  8
bold
100
AcDbCircle
 10
8.399999999999999
 20
308.25
 30
0.0
 40
2.25
100
AcDbArc
 50
180.0
 51
0.0
  0
LINE
  5
12F
330
73
100
AcDbEntity
  8
bold
100
AcDbLine
 10
-14.35
 20
493.2500000000001
 30
0.0
 11
-14.35
 21
517.0
 31
0.0
  0
LINE
  5
130
330
73
100
AcDbEntity
  8
bold
100
AcDbLine
 10
-18.85
 20
517.0
 30
0.0
 11
-18.85
 21
493.2500000000001
 31
0.0
  0
ARC
  5
131
330
73
100
AcDbEntity
  8
bold
100
AcDbCircle
 10
-16.6
 20
493.2500000000002
 30
0.0
 40
2.25
100
AcDbArc
 50
180.0000000000029
 51
359.9999999999971
  0
ARC
  5
132
330
73
100
AcDbEntity
  8
bold
100
AcDbCircle
 10
24.99999999999994
 20
308.25
 30
0.0
 40
2.24999999999994
100
AcDbArc
 50
180.0
 51
270.0000000000015
  0
ARC
  5
133
330
73
100
AcDbEntity
  8
bold
100
AcDbCircle
 10
-24.99999999999998
 20
123.25
 30
0.0
 40
2.249999999999986
100
AcDbArc
 50
269.9999999999994
 51
359.9999999999997
  0
LINE
  5
134
330
73
100
AcDbEntity
  8
bold
100
AcDbLine
 10
10.65
 20
123.25
 30
0.0
 11
10.65
 21
147.0
 31
0.0
  0
LINE
  5
135
330
73
100
AcDbEntity
  8
bold
100
AcDbLine
 10
6.149999999999999
 20
147.0
 30
0.0
 11
6.149999999999999
 21
123.25
 31
0.0
  0
ARC
  5
136
330
73
100
AcDbEntity
  8
bold
100
AcDbCircle
 10
8.399999999999999
 20
123.25
 30
0.0
 40
2.25
100
AcDbArc
 50
180.0
 51
0.0
  0
ARC
  5
137
330
73
100
AcDbEntity
  8
bold
100
AcDbCircle
 10
-25.00000000000005
 20
493.2500000000001
 30
0.0
 40
2.250000000000057
100
AcDbArc
 50
270.0000000000013
 51
359.9999999999986
  0
LINE
  5
138
330
73
100
AcDbEntity
  8
bold
100
AcDbLine
 10
6.149999999999999
 20
517.0
 30
0.0
 11
6.149999999999999
 21
493.2500000000001
 31
0.0
  0
LINE
  5
139
330
73
100
AcDbEntity
  8
bold
100
AcDbLine
 10
10.65
 20
493.2500000000001
 30
0.0
 11
10.65
 21
517.0
 31
0.0
  0
ARC
  5
13A
330
73
100
AcDbEntity
  8
bold
100
AcDbCircle
 10
8.399999999999999
 20
493.2500000000001
 30
0.0
 40
2.25
100
AcDbArc
 50
180.0000000000014
 51
359.9999999999986
  0
ARC
  5
13B
330
73
100
AcDbEntity
  8
bold
100
AcDbCircle
 10
25.00000000000005
 20
493.2500000000001
 30
0.0
 40
2.250000000000046
100
AcDbArc
 50
180.0000000000014
 51
269.9999999999987
  0
LINE
  5
13C
330
73
100
AcDbEntity
  8
bold
100
AcDbLine
 10
14.45
 20
147.0
 30
0.0
 11
14.45
 21
123.25
 31
0.0
  0
LINE
  5
13D
330
73
100
AcDbEntity
  8
bold
100
AcDbLine
 10
18.95
 20
123.25
 30
0.0
 11
18.95
 21
147.0
 31
0.0
  0
ARC
  5
13E
330
73
100
AcDbEntity
  8
bold
100
AcDbCircle
 10
16.7
 20
123.25
 30
0.0
 40
2.250000000000004
100
AcDbArc
 50
180.0
 51
0.0
  0
LINE
  5
13F
330
73
100
AcDbEntity
  8
bold
100
AcDbLine
 10
-10.55
 20
332.0000000000001
 30
0.0
 11
-10.55
 21
308.25
 31
0.0
  0
LINE
  5
140
330
73
100
AcDbEntity
  8
bold
100
AcDbLine
 10
-6.050000000000002
 20
308.25
 30
0.0
 11
-6.050000000000001
 21
332.0000000000001
 31
0.0
  0
ARC
  5
141
330
73
100
AcDbEntity
  8
bold
100
AcDbCircle
 10
-8.300000000000002
 20
308.25
 30
0.0
 40
2.25
100
AcDbArc
 50
180.0
 51
0.0
  0
LINE
  5
142
330
73
100
AcDbEntity
  8
bold
100
AcDbLine
 10
-10.55
 20
147.0
 30
0.0
 11
-10.55
 21
123.25
 31
0.0
  0
LINE
  5
143
330
73
100
AcDbEntity
  8
bold
100
AcDbLine
 10
-6.050000000000002
 20
123.25
 30
0.0
 11
-6.050000000000001
 21
147.0
 31
0.0
  0
ARC
  5
144
330
73
100
AcDbEntity
  8
bold
100
AcDbCircle
 10
-8.300000000000002
 20
123.25
 30
0.0
 40
2.25
100
AcDbArc
 50
180.0
 51
0.0
  0
LINE
  5
145
330
73
100
AcDbEntity
  8
bold
100
AcDbLine
 10
-10.55
 20
517.0
 30
0.0
 11
-10.55
 21
493.2500000000001
 31
0.0
  0
LINE
  5
146
330
73
100
AcDbEntity
  8
bold
100
AcDbLine
 10
-6.050000000000002
 20
493.2500000000001
 30
0.0
 11
-6.050000000000001
 21
517.0
 31
0.0
  0
ARC
  5
147
330
73
100
AcDbEntity
  8
bold
100
AcDbCircle
 10
-8.300000000000002
 20
493.2500000000001
 30
0.0
 40
2.25
100
AcDbArc
 50
180.0000000000014
 51
359.9999999999986
  0
LINE
  5
148
330
73
100
AcDbEntity
  8
bold
100
AcDbLine
 10
-18.85
 20
147.0
 30
0.0
 11
-18.85
 21
123.25
 31
0.0
  0
LINE
  5
149
330
73
100
AcDbEntity
  8
bold
100
AcDbLine
 10
-14.35
 20
123.25
 30
0.0
 11
-14.35
 21
147.0
 31
0.0
  0
ARC
  5
14A
330
73
100
AcDbEntity
  8
bold
100
AcDbCircle
 10
-16.6
 20
123.25
 30
0.0
 40
2.25
100
AcDbArc
 50
180.0
 51
0.0
  0
LINE
  5
14B
330
73
100
AcDbEntity
  8
bold
100
AcDbLine
 10
14.45
 20
332.0000000000001
 30
0.0
 11
14.45
 21
308.25
 31
0.0
  0
LINE
  5
14C
330
73
100
AcDbEntity
  8
bold
100
AcDbLine
 10
18.95
 20
308.25
 30
0.0
 11
18.95
 21
332.0000000000001
 31
0.0
  0
ARC
  5
14D
330
73
100
AcDbEntity
  8
bold
100
AcDbCircle
 10
16.7
 20
308.2500000000001
 30
0.0
 40
2.250000000000004
100
AcDbArc
 50
180.0000000000014
 51
359.9999999999986
  0
LINE
  5
14E
330
73
100
AcDbEntity
  8
bold
100
AcDbLine
 10
-14.35
 20
308.25
 30
0.0
 11
-14.35
 21
332.0000000000001
 31
0.0
  0
LINE
  5
14F
330
73
100
AcDbEntity
  8
bold
100
AcDbLine
 10
-18.85
 20
332.0000000000001
 30
0.0
 11
-18.85
 21
308.25
 31
0.0
  0
ARC
  5
150
330
73
100
AcDbEntity
  8
bold
100
AcDbCircle
 10
-16.6
 20
308.2500000000001
 30
0.0
 40
2.25
100
AcDbArc
 50
180.0000000000014
 51
359.9999999999986
  0
ARC
  5
151
330
73
100
AcDbEntity
  8
bold
100
AcDbCircle
 10
-24.99999999999994
 20
308.25
 30
0.0
 40
2.249999999999943
100
AcDbArc
 50
269.9999999999985
 51
0.0
  0
LINE
  5
152
330
73
100
AcDbEntity
  8
bold
100
AcDbLine
 10
25.0
 20
177.0000000000001
 30
0.0
 11
25.0
 21
306.0000000000001
 31
0.0
  0
LINE
  5
153
330
73
100
AcDbEntity
  8
bold
100
AcDbLine
 10
21.25
 20
297.2
 30
0.0
 11
22.75
 21
297.2
 31
0.0
  0
LINE
  5
154
330
73
100
AcDbEntity
  8
bold
100
AcDbLine
 10
12.95
 20
297.2
 30
0.0
 11
20.25
 21
297.2
 31
0.0
  0
LINE
  5
155
330
73
100
AcDbEntity
  8
bold
100
AcDbLine
 10
4.15
 20
297.2
 30
0.0
 11
11.95
 21
297.2
 31
0.0
  0
LINE
  5
156
330
73
100
AcDbEntity
  8
bold
100
AcDbLine
 10
2.249999999999999
 20
308.25
 30
0.0
 11
2.25
 21
322.0000000000001
 31
0.0
  0
ARC
  5
157
330
73
100
AcDbEntity
  8
bold
100
AcDbCircle
 10
-0.000000000000002
 20
308.25
 30
0.0
 40
2.25
100
AcDbArc
 50
180.0
 51
0.0
  0
LINE
  5
158
330
73
100
AcDbEntity
  8
bold
100
AcDbLine
 10
-2.25
 20
322.0000000000001
 30
0.0
 11
-2.250000000000002
 21
308.25
 31
0.0
  0
LINE
  5
159
330
73
100
AcDbEntity
  8
bold
100
AcDbLine
 10
-11.95
 20
297.2
 30
0.0
 11
-4.149999999999998
 21
297.2
 31
0.0
  0
LINE
  5
15A
330
73
100
AcDbEntity
  8
bold
100
AcDbLine
 10
-20.25
 20
297.2
 30
0.0
 11
-12.95
 21
297.2
 31
0.0
  0
LINE
  5
15B
330
73
100
AcDbEntity
  8
bold
100
AcDbLine
 10
-22.75
 20
297.2
 30
0.0
 11
-21.25
 21
297.2
 31
0.0
  0
LINE
  5
15C
330
73
100
AcDbEntity
  8
bold
100
AcDbLine
 10
-22.75
 20
306.0000000000001
 30
0.0
 11
-22.75
 21
297.2
 31
0.0
  0
LINE
  5
15D
330
73
100
AcDbEntity
  8
bold
100
AcDbLine
 10
-25.0
 20
306.0000000000001
 30
0.0
 11
-22.75
 21
306.0000000000001
 31
0.0
  0
LINE
  5
15E
330
73
100
AcDbEntity
  8
bold
100
AcDbLine
 10
22.75
 20
306.0000000000001
 30
0.0
 11
25.0
 21
306.0000000000001
 31
0.0
  0
LINE
  5
15F
330
73
100
AcDbEntity
  8
bold
100
AcDbLine
 10
22.75
 20
297.2
 30
0.0
 11
22.75
 21
306.0000000000001
 31
0.0
  0
LINE
  5
160
330
73
100
AcDbEntity
  8
bold
100
AcDbLine
 10
25.0
 20
362.5000000000001
 30
0.0
 11
25.0
 21
491.0000000000001
 31
0.0
  0
LINE
  5
161
330
73
100
AcDbEntity
  8
bold
100
AcDbLine
 10
-25.0
 20
321.5000000000001
 30
0.0
 11
-25.0
 21
491.0000000000001
 31
0.0
  0
LINE
  5
162
330
73
100
AcDbEntity
  8
bold
100
AcDbLine
 10
21.25
 20
482.2
 30
0.0
 11
22.75
 21
482.2
 31
0.0
  0
LINE
  5
163
330
73
100
AcDbEntity
  8
bold
100
AcDbLine
 10
12.95
 20
482.2
 30
0.0
 11
20.25
 21
482.2
 31
0.0
  0
LINE
  5
164
330
73
100
AcDbEntity
  8
bold
100
AcDbLine
 10
4.15
 20
482.2
 30
0.0
 11
11.95
 21
482.2
 31
0.0
  0
LINE
  5
165
330
73
100
AcDbEntity
  8
bold
100
AcDbLine
 10
2.249999999999999
 20
493.2500000000001
 30
0.0
 11
2.25
 21
507.0
 31
0.0
  0
ARC
  5
166
330
73
100
AcDbEntity
  8
bold
100
AcDbCircle
 10
-0.000000000000002
 20
493.2500000000001
 30
0.0
 40
2.25
100
AcDbArc
 50
180.0000000000014
 51
359.9999999999986
  0
LINE
  5
167
330
73
100
AcDbEntity
  8
bold
100
AcDbLine
 10
-2.25
 20
507.0
 30
0.0
 11
-2.250000000000002
 21
493.2500000000001
 31
0.0
  0
LINE
  5
168
330
73
100
AcDbEntity
  8
bold
100
AcDbLine
 10
-11.95
 20
482.2
 30
0.0
 11
-4.149999999999998
 21
482.2
 31
0.0
  0
LINE
  5
169
330
73
100
AcDbEntity
  8
bold
100
AcDbLine
 10
-20.25
 20
482.2
 30
0.0
 11
-12.95
 21
482.2
 31
0.0
  0
LINE
  5
16A
330
73
100
AcDbEntity
  8
bold
100
AcDbLine
 10
-22.75
 20
482.2
 30
0.0
 11
-21.25
 21
482.2
 31
0.0
  0
LINE
  5
16B
330
73
100
AcDbEntity
  8
bold
100
AcDbLine
 10
-22.75
 20
491.0000000000001
 30
0.0
 11
-22.75
 21
482.2
 31
0.0
  0
LINE
  5
16C
330
73
100
AcDbEntity
  8
bold
100
AcDbLine
 10
-25.0
 20
491.0000000000001
 30
0.0
 11
-22.75
 21
491.0000000000001
 31
0.0
  0
LINE
  5
16D
330
73
100
AcDbEntity
  8
bold
100
AcDbLine
 10
22.75
 20
491.0000000000001
 30
0.0
 11
25.0
 21
491.0000000000001
 31
0.0
  0
LINE
  5
16E
330
73
100
AcDbEntity
  8
bold
100
AcDbLine
 10
22.75
 20
482.2
 30
0.0
 11
22.75
 21
491.0000000000001
 31
0.0
  0
LINE
  5
16F
330
73
100
AcDbEntity
  8
bold
100
AcDbLine
 10
21.25
 20
112.2
 30
0.0
 11
22.75
 21
112.2
 31
0.0
  0
LINE
  5
170
330
73
100
AcDbEntity
  8
bold
100
AcDbLine
 10
12.95
 20
112.2
 30
0.0
 11
20.25
 21
112.2
 31
0.0
  0
LINE
  5
171
330
73
100
AcDbEntity
  8
bold
100
AcDbLine
 10
4.15
 20
112.2
 30
0.0
 11
11.95
 21
112.2
 31
0.0
  0
LINE
  5
172
330
73
100
AcDbEntity
  8
bold
100
AcDbLine
 10
2.249999999999999
 20
123.25
 30
0.0
 11
2.25
 21
137.0000000000001
 31
0.0
  0
ARC
  5
173
330
73
100
AcDbEntity
  8
bold
100
AcDbCircle
 10
-0.0000000000000018
 20
123.25
 30
0.0
 40
2.25
100
AcDbArc
 50
180.0
 51
0.0
  0
LINE
  5
174
330
73
100
AcDbEntity
  8
bold
100
AcDbLine
 10
-2.25
 20
137.0000000000001
 30
0.0
 11
-2.250000000000002
 21
123.25
 31
0.0
  0
LINE
  5
175
330
73
100
AcDbEntity
  8
bold
100
AcDbLine
 10
-11.95
 20
112.2
 30
0.0
 11
-4.149999999999998
 21
112.2
 31
0.0
  0
LINE
  5
176
330
73
100
AcDbEntity
  8
bold
100
AcDbLine
 10
-20.25
 20
112.2
 30
0.0
 11
-12.95
 21
112.2
 31
0.0
  0
LINE
  5
177
330
73
100
AcDbEntity
  8
bold
100
AcDbLine
 10
-22.75
 20
112.2
 30
0.0
 11
-21.25
 21
112.2
 31
0.0
  0
LINE
  5
178
330
73
100
AcDbEntity
  8
bold
100
AcDbLine
 10
-22.75
 20
121.0
 30
0.0
 11
-22.75
 21
112.2
 31
0.0
  0
LINE
  5
179
330
73
100
AcDbEntity
  8
bold
100
AcDbLine
 10
-25.0
 20
121.0
 30
0.0
 11
-22.75
 21
121.0
 31
0.0
  0
LINE
  5
17A
330
73
100
AcDbEntity
  8
bold
100
AcDbLine
 10
22.75
 20
121.0
 30
0.0
 11
25.0
 21
121.0
 31
0.0
  0
LINE
  5
17B
330
73
100
AcDbEntity
  8
bold
100
AcDbLine
 10
22.75
 20
112.2
 30
0.0
 11
22.75
 21
121.0
 31
0.0
  0
LINE
  5
17C
330
73
100
AcDbEntity
  8
bold
100
AcDbLine
 10
18.95
 20
5.000000000000004
 30
0.0
 11
18.95
 21
7.000000000000006
 31
0.0
  0
LINE
  5
17D
330
73
100
AcDbEntity
  8
bold
100
AcDbLine
 10
14.45
 20
7.000000000000006
 30
0.0
 11
14.45
 21
5.000000000000004
 31
0.0
  0
LINE
  5
17E
330
73
100
AcDbEntity
  8
bold
100
AcDbLine
 10
14.45
 20
7.000000000000006
 30
0.0
 11
18.95
 21
7.000000000000006
 31
0.0
  0
LINE
  5
17F
330
73
100
AcDbEntity
  8
bold
100
AcDbLine
 10
2.250000000000002
 20
5.000000000000004
 30
0.0
 11
2.250000000000002
 21
7.000000000000006
 31
0.0
  0
LINE
  5
180
330
73
100
AcDbEntity
  8
bold
100
AcDbLine
 10
-2.249999999999998
 20
7.000000000000006
 30
0.0
 11
-2.249999999999998
 21
5.000000000000004
 31
0.0
  0
LINE
  5
181
330
73
100
AcDbEntity
  8
bold
100
AcDbLine
 10
-2.249999999999998
 20
7.000000000000006
 30
0.0
 11
2.250000000000002
 21
7.000000000000006
 31
0.0
  0
LINE
  5
182
330
73
100
AcDbEntity
  8
bold
100
AcDbLine
 10
22.75
 20
7.000000000000006
 30
0.0
 11
22.75
 21
5.000000000000004
 31
0.0
  0
LINE
  5
183
330
73
100
AcDbEntity
  8
bold
100
AcDbLine
 10
25.0
 20
7.000000000000006
 30
0.0
 11
25.0
 21
121.0
 31
0.0
  0
LINE
  5
184
330
73
100
AcDbEntity
  8
bold
100
AcDbLine
 10
22.75
 20
7.000000000000006
 30
0.0
 11
25.0
 21
7.000000000000006
 31
0.0
  0
LINE
  5
185
330
73
100
AcDbEntity
  8
bold
100
AcDbLine
 10
-22.75
 20
5.000000000000004
 30
0.0
 11
-22.75
 21
7.000000000000006
 31
0.0
  0
LINE
  5
186
330
73
100
AcDbEntity
  8
bold
100
AcDbLine
 10
-25.0
 20
121.0
 30
0.0
 11
-25.0
 21
7.000000000000006
 31
0.0
  0
LINE
  5
187
330
73
100
AcDbEntity
  8
bold
100
AcDbLine
 10
-25.0
 20
7.000000000000006
 30
0.0
 11
-22.75
 21
7.000000000000006
 31
0.0
  0
LINE
  5
188
330
73
100
AcDbEntity
  8
bold
100
AcDbLine
 10
-18.95
 20
7.000000000000006
 30
0.0
 11
-18.95
 21
5.000000000000004
 31
0.0
  0
LINE
  5
189
330
73
100
AcDbEntity
  8
bold
100
AcDbLine
 10
-14.45
 20
5.000000000000004
 30
0.0
 11
-14.45
 21
7.000000000000006
 31
0.0
  0
LINE
  5
18A
330
73
100
AcDbEntity
  8
bold
100
AcDbLine
 10
-18.95
 20
7.000000000000006
 30
0.0
 11
-14.45
 21
7.000000000000006
 31
0.0
  0
LINE
  5
18B
330
73
100
AcDbEntity
  8
bold
100
AcDbLine
 10
10.65
 20
5.000000000000004
 30
0.0
 11
10.65
 21
7.000000000000006
 31
0.0
  0
LINE
  5
18C
330
73
100
AcDbEntity
  8
bold
100
AcDbLine
 10
6.150000000000003
 20
7.000000000000006
 30
0.0
 11
6.150000000000003
 21
5.000000000000004
 31
0.0
  0
LINE
  5
18D
330
73
100
AcDbEntity
  8
bold
100
AcDbLine
 10
6.150000000000003
 20
7.000000000000006
 30
0.0
 11
10.65
 21
7.000000000000006
 31
0.0
  0
LINE
  5
18E
330
73
100
AcDbEntity
  8
bold
100
AcDbLine
 10
-10.65
 20
7.000000000000006
 30
0.0
 11
-10.65
 21
5.000000000000004
 31
0.0
  0
LINE
  5
18F
330
73
100
AcDbEntity
  8
bold
100
AcDbLine
 10
-6.149999999999999
 20
5.000000000000004
 30
0.0
 11
-6.149999999999999
 21
7.000000000000006
 31
0.0
  0
LINE
  5
190
330
73
100
AcDbEntity
  8
bold
100
AcDbLine
 10
-10.65
 20
7.000000000000006
 30
0.0
 11
-6.149999999999999
 21
7.000000000000006
 31
0.0
  0
LINE
  5
191
330
73
100
AcDbEntity
  8
bold
100
AcDbLine
 10
21.05
 20
11.06413789451166
 30
0.0
 11
25.0
 21
11.06413789451166
 31
0.0
  0
LINE
  5
193
330
73
100
AcDbEntity
  8
light
100
AcDbLine
 10
-25.0
 20
13.00062956761538
 30
0.0
 11
25.0
 21
13.00062956761538
 31
0.0
  0
LINE
  5
194
330
73
100
AcDbEntity
  8
bold
100
AcDbLine
 10
-25.0
 20
11.06413789451166
 30
0.0
 11
-21.05
 21
11.06413789451166
 31
0.0
  0
LINE
  5
195
330
73
100
AcDbEntity
  8
bold
100
AcDbLine
 10
-20.05
 20
11.06413789451166
 30
0.0
 11
-13.05
 21
11.06413789451166
 31
0.0
  0
LINE
  5
196
330
73
100
AcDbEntity
  8
bold
100
AcDbLine
 10
-12.05
 20
11.06413789451166
 30
0.0
 11
-5.050000000000002
 21
11.06413789451166
 31
0.0
  0
LINE
  5
197
330
73
100
AcDbEntity
  8
bold
100
AcDbLine
 10
-3.5
 20
11.06413789451166
 30
0.0
 11
3.5
 21
11.06413789451166
 31
0.0
  0
LINE
  5
198
330
73
100
AcDbEntity
  8
bold
100
AcDbLine
 10
5.050000000000001
 20
11.06413789451166
 30
0.0
 11
12.05
 21
11.06413789451166
 31
0.0
  0
LINE
  5
199
330
73
100
AcDbEntity
  8
bold
100
AcDbLine
 10
13.05
 20
11.06413789451166
 30
0.0
 11
20.05
 21
11.06413789451166
 31
0.0
  0
LINE
  5
19A
330
73
100
AcDbEntity
  8
bold
100
AcDbLine
 10
25.0
 20
322.0000000000001
 30
0.0
 11
25.0
 21
361.0000000000001
 31
0.0
  0
LINE
  5
19B
330
73
100
AcDbEntity
  8
bold
100
AcDbLine
 10
0.0
 20
334.5
 30
0.0
 11
0.0
 21
362.5000000000001
 31
0.0
  0
LINE
  5
19C
330
73
100
AcDbEntity
  8
bold
100
AcDbLine
 10
25.0
 20
137.0
 30
0.0
 11
25.0
 21
175.5000000000001
 31
0.0
  0
LINE
  5
19D
330
73
100
AcDbEntity
  8
bold
100
AcDbLine
 10
0.0
 20
519.0
 30
0.0
 11
0.0
 21
547.0
 31
0.0
  0
LINE
  5
19E
330
73
100
AcDbEntity
  8
bold
100
AcDbLine
 10
0.0
 20
149.0
 30
0.0
 11
0.0
 21
177.0000000000001
 31
0.0
  0
LINE
  5
19F
330
73
100
AcDbEntity
  8
bold
100
AcDbLine
 10
2.25
 20
321.5000000000001
 30
0.0
 11
4.15
 21
321.5000000000001
 31
0.0
  0
LINE
  5
1A0
330
73
100
AcDbEntity
  8
bold
100
AcDbLine
 10
-4.15
 20
321.5000000000001
 30
0.0
 11
-2.25
 21
321.5000000000001
 31
0.0
  0
LINE
  5
1A1
330
73
100
AcDbEntity
  8
bold
100
AcDbLine
 10
2.25
 20
322.0000000000001
 30
0.0
 11
-2.25
 21
322.0000000000001
 31
0.0
  0
LINE
  5
1A2
330
73
100
AcDbEntity
  8
bold
100
AcDbLine
 10
-22.75
 20
321.5000000000001
 30
0.0
 11
-25.0
 21
321.5000000000001
 31
0.0
  0
LINE
  5
1A3
330
73
100
AcDbEntity
  8
bold
100
AcDbLine
 10
-22.75
 20
136.5
 30
0.0
 11
-25.0
 21
136.5
 31
0.0
  0
LINE
  5
1A4
330
73
100
AcDbEntity
  8
bold
100
AcDbLine
 10
2.25
 20
136.5000000000001
 30
0.0
 11
4.15
 21
136.5
 31
0.0
  0
LINE
  5
1A5
330
73
100
AcDbEntity
  8
bold
100
AcDbLine
 10
-4.15
 20
136.5
 30
0.0
 11
-2.25
 21
136.5000000000001
 31
0.0
  0
LINE
  5
1A6
330
73
100
AcDbEntity
  8
bold
100
AcDbLine
 10
2.25
 20
137.0000000000001
 30
0.0
 11
-2.25
 21
137.0000000000001
 31
0.0
  0
LINE
  5
1A7
330
73
100
AcDbEntity
  8
bold
100
AcDbLine
 10
2.25
 20
506.5000000000001
 30
0.0
 11
4.15
 21
506.5000000000001
 31
0.0
  0
LINE
  5
1A8
330
73
100
AcDbEntity
  8
bold
100
AcDbLine
 10
-4.15
 20
506.5000000000001
 30
0.0
 11
-2.25
 21
506.5000000000001
 31
0.0
  0
LINE
  5
1A9
330
73
100
AcDbEntity
  8
bold
100
AcDbLine
 10
2.25
 20
507.0
 30
0.0
 11
-2.25
 21
507.0
 31
0.0
  0
LINE
  5
1AA
330
73
100
AcDbEntity
  8
bold
100
AcDbLine
 10
-22.75
 20
506.5000000000001
 30
0.0
 11
-25.0
 21
506.5000000000001
 31
0.0
  0
LINE
  5
1AB
330
73
100
AcDbEntity
  8
bold
100
AcDbLine
 10
22.75
 20
322.0000000000001
 30
0.0
 11
25.0
 21
322.0000000000001
 31
0.0
  0
LINE
  5
1AC
330
73
100
AcDbEntity
  8
bold
100
AcDbLine
 10
22.75
 20
507.0
 30
0.0
 11
25.0
 21
507.0
 31
0.0
  0
LINE
  5
1AD
330
73
100
AcDbEntity
  8
bold
100
AcDbLine
 10
22.75
 20
137.0
 30
0.0
 11
25.0
 21
137.0
 31
0.0
  0
LINE
  5
1AE
330
73
100
AcDbEntity
  8
light
100
AcDbLine
 10
-22.75
 20
322.7970707225663
 30
0.0
 11
-25.0
 21
322.7970707225663
 31
0.0
  0
LINE
  5
1AF
330
73
100
AcDbEntity
  8
light
100
AcDbLine
 10
-4.15
 20
322.7970707225663
 30
0.0
 11
4.15
 21
322.7970707225663
 31
0.0
  0
LINE
  5
1B0
330
73
100
AcDbEntity
  8
light
100
AcDbLine
 10
-22.75
 20
507.7970707225664
 30
0.0
 11
-25.0
 21
507.7970707225664
 31
0.0
  0
LINE
  5
1B1
330
73
100
AcDbEntity
  8
light
100
AcDbLine
 10
-22.75
 20
137.7970707225663
 30
0.0
 11
-25.0
 21
137.7970707225663
 31
0.0
  0
LINE
  5
1B2
330
73
100
AcDbEntity
  8
light
100
AcDbLine
 10
-22.75
 20
140.0316959609822
 30
0.0
 11
-25.0
 21
140.0316959609822
 31
0.0
  0
LINE
  5
1B3
330
73
100
AcDbEntity
  8
light
100
AcDbLine
 10
-22.75
 20
325.0316959609822
 30
0.0
 11
-25.0
 21
325.0316959609822
 31
0.0
  0
LINE
  5
1B4
330
73
100
AcDbEntity
  8
light
100
AcDbLine
 10
-4.15
 20
507.7970707225664
 30
0.0
 11
4.15
 21
507.7970707225664
 31
0.0
  0
LINE
  5
1B5
330
73
100
AcDbEntity
  8
light
100
AcDbLine
 10
-22.75
 20
510.0316959609823
 30
0.0
 11
-25.0
 21
510.0316959609823
 31
0.0
  0
LINE
  5
1B6
330
73
100
AcDbEntity
  8
light
100
AcDbLine
 10
-4.15
 20
325.0316959609822
 30
0.0
 11
4.15
 21
325.0316959609822
 31
0.0
  0
LINE
  5
1B7
330
73
100
AcDbEntity
  8
light
100
AcDbLine
 10
-4.15
 20
510.0316959609823
 30
0.0
 11
4.15
 21
510.0316959609823
 31
0.0
  0
LINE
  5
1B8
330
73
100
AcDbEntity
  8
light
100
AcDbLine
 10
-4.15
 20
137.7970707225663
 30
0.0
 11
4.15
 21
137.7970707225663
 31
0.0
  0
LINE
  5
1B9
330
73
100
AcDbEntity
  8
light
100
AcDbLine
 10
-4.15
 20
140.0316959609822
 30
0.0
 11
4.15
 21
140.0316959609822
 31
0.0
  0
LINE
  5
1BA
330
73
100
AcDbEntity
  8
light
100
AcDbLine
 10
22.75
 20
510.0318528752696
 30
0.0
 11
25.0
 21
510.0318528752696
 31
0.0
  0
LINE
  5
1BB
330
73
100
AcDbEntity
  8
light
100
AcDbLine
 10
22.75
 20
507.7972276368537
 30
0.0
 11
25.0
 21
507.7972276368537
 31
0.0
  0
LINE
  5
1BC
330
73
100
AcDbEntity
  8
light
100
AcDbLine
 10
22.75
 20
325.0318528752696
 30
0.0
 11
25.0
 21
325.0318528752696
 31
0.0
  0
LINE
  5
1BD
330
73
100
AcDbEntity
  8
light
100
AcDbLine
 10
22.75
 20
322.7972276368537
 30
0.0
 11
25.0
 21
322.7972276368537
 31
0.0
  0
LINE
  5
1BE
330
73
100
AcDbEntity
  8
light
100
AcDbLine
 10
22.75
 20
140.0318528752696
 30
0.0
 11
25.0
 21
140.0318528752696
 31
0.0
  0
LINE
  5
1BF
330
73
100
AcDbEntity
  8
light
100
AcDbLine
 10
22.75
 20
137.7972276368537
 30
0.0
 11
25.0
 21
137.7972276368537
 31
0.0
  0
LINE
  5
1C0
330
73
100
AcDbEntity
  8
bold
100
AcDbLine
 10
-20.25
 20
513.5005
 30
0.0
 11
-21.25
 21
513.5005
 31
0.0
  0
LINE
  5
1C1
330
73
100
AcDbEntity
  8
bold
100
AcDbLine
 10
21.25
 20
513.5005
 30
0.0
 11
20.25
 21
513.5005
 31
0.0
  0
LINE
  5
1C2
330
73
100
AcDbEntity
  8
bold
100
AcDbLine
 10
-11.95
 20
513.5005
 30
0.0
 11
-12.95
 21
513.5005
 31
0.0
  0
LINE
  5
1C3
330
73
100
AcDbEntity
  8
bold
100
AcDbLine
 10
12.95
 20
143.5005
 30
0.0
 11
11.95
 21
143.5005
 31
0.0
  0
LINE
  5
1C4
330
73
100
AcDbEntity
  8
bold
100
AcDbLine
 10
-20.25
 20
143.5005
 30
0.0
 11
-21.25
 21
143.5005
 31
0.0
  0
LINE
  5
1C5
330
73
100
AcDbEntity
  8
bold
100
AcDbLine
 10
-11.95
 20
143.5005
 30
0.0
 11
-12.95
 21
143.5005
 31
0.0
  0
LINE
  5
1C6
330
73
100
AcDbEntity
  8
bold
100
AcDbLine
 10
-20.25
 20
328.5005000000001
 30
0.0
 11
-21.25
 21
328.5005000000001
 31
0.0
  0
LINE
  5
1C7
330
73
100
AcDbEntity
  8
bold
100
AcDbLine
 10
21.25
 20
143.5005
 30
0.0
 11
20.25
 21
143.5005
 31
0.0
  0
LINE
  5
1C8
330
73
100
AcDbEntity
  8
bold
100
AcDbLine
 10
12.95
 20
328.5005000000001
 30
0.0
 11
11.95
 21
328.5005000000001
 31
0.0
  0
LINE
  5
1C9
330
73
100
AcDbEntity
  8
bold
100
AcDbLine
 10
12.95
 20
513.5005
 30
0.0
 11
11.95
 21
513.5005
 31
0.0
  0
LINE
  5
1CA
330
73
100
AcDbEntity
  8
bold
100
AcDbLine
 10
21.25
 20
328.5005000000001
 30
0.0
 11
20.25
 21
328.5005000000001
 31
0.0
  0
LINE
  5
1CB
330
73
100
AcDbEntity
  8
bold
100
AcDbLine
 10
-11.95
 20
328.5005000000001
 30
0.0
 11
-12.95
 21
328.5005000000001
 31
0.0
  0
LINE
  5
1CC
330
73
100
AcDbEntity
  8
bold
100
AcDbLine
 10
21.25
 20
297.2
 30
0.0
 11
21.25
 21
332.0000000000001
 31
0.0
  0
LINE
  5
1CD
330
73
100
AcDbEntity
  8
bold
100
AcDbLine
 10
20.25
 20
297.2
 30
0.0
 11
20.25
 21
332.0000000000001
 31
0.0
  0
LINE
  5
1CE
330
73
100
AcDbEntity
  8
bold
100
AcDbLine
 10
21.25
 20
330.2005000000001
 30
0.0
 11
20.25
 21
330.2005000000001
 31
0.0
  0
LINE
  5
1CF
330
73
100
AcDbEntity
  8
bold
100
AcDbLine
 10
-20.25
 20
112.2
 30
0.0
 11
-20.25
 21
147.0
 31
0.0
  0
LINE
  5
1D0
330
73
100
AcDbEntity
  8
bold
100
AcDbLine
 10
-21.25
 20
112.2
 30
0.0
 11
-21.25
 21
147.0
 31
0.0
  0
LINE
  5
1D1
330
73
100
AcDbEntity
  8
bold
100
AcDbLine
 10
-20.25
 20
145.2005
 30
0.0
 11
-21.25
 21
145.2005
 31
0.0
  0
LINE
  5
1D2
330
73
100
AcDbEntity
  8
bold
100
AcDbLine
 10
-20.25
 20
297.2
 30
0.0
 11
-20.25
 21
332.0000000000001
 31
0.0
  0
LINE
  5
1D3
330
73
100
AcDbEntity
  8
bold
100
AcDbLine
 10
-21.25
 20
297.2
 30
0.0
 11
-21.25
 21
332.0000000000001
 31
0.0
  0
LINE
  5
1D4
330
73
100
AcDbEntity
  8
bold
100
AcDbLine
 10
-20.25
 20
330.2005000000001
 30
0.0
 11
-21.25
 21
330.2005000000001
 31
0.0
  0
LINE
  5
1D5
330
73
100
AcDbEntity
  8
bold
100
AcDbLine
 10
-22.75
 20
123.25
 30
0.0
 11
-22.75
 21
147.0
 31
0.0
  0
LINE
  5
1D6
330
73
100
AcDbEntity
  8
bold
100
AcDbLine
 10
-22.75
 20
145.2
 30
0.0
 11
-25.0
 21
145.2
 31
0.0
  0
LINE
  5
1D7
330
73
100
AcDbEntity
  8
bold
100
AcDbLine
 10
20.25
 20
482.2
 30
0.0
 11
20.25
 21
517.0
 31
0.0
  0
LINE
  5
1D8
330
73
100
AcDbEntity
  8
bold
100
AcDbLine
 10
21.25
 20
482.2
 30
0.0
 11
21.25
 21
517.0
 31
0.0
  0
LINE
  5
1D9
330
73
100
AcDbEntity
  8
bold
100
AcDbLine
 10
21.25
 20
515.2005
 30
0.0
 11
20.25
 21
515.2005
 31
0.0
  0
LINE
  5
1DA
330
73
100
AcDbEntity
  8
bold
100
AcDbLine
 10
22.75
 20
123.25
 30
0.0
 11
22.75
 21
147.0
 31
0.0
  0
LINE
  5
1DB
330
73
100
AcDbEntity
  8
bold
100
AcDbLine
 10
22.75
 20
145.2
 30
0.0
 11
25.0
 21
145.2
 31
0.0
  0
LINE
  5
1DC
330
73
100
AcDbEntity
  8
bold
100
AcDbLine
 10
21.25
 20
112.2
 30
0.0
 11
21.25
 21
147.0
 31
0.0
  0
LINE
  5
1DD
330
73
100
AcDbEntity
  8
bold
100
AcDbLine
 10
20.25
 20
112.2
 30
0.0
 11
20.25
 21
147.0
 31
0.0
  0
LINE
  5
1DE
330
73
100
AcDbEntity
  8
bold
100
AcDbLine
 10
21.25
 20
145.2005
 30
0.0
 11
20.25
 21
145.2005
 31
0.0
  0
LINE
  5
1DF
330
73
100
AcDbEntity
  8
bold
100
AcDbLine
 10
4.15
 20
482.2
 30
0.0
 11
4.15
 21
517.0
 31
0.0
  0
LINE
  5
1E0
330
73
100
AcDbEntity
  8
bold
100
AcDbLine
 10
-4.149999999999998
 20
482.2
 30
0.0
 11
-4.149999999999998
 21
517.0
 31
0.0
  0
LINE
  5
1E1
330
73
100
AcDbEntity
  8
bold
100
AcDbLine
 10
-4.15
 20
515.2
 30
0.0
 11
4.15
 21
515.2
 31
0.0
  0
LINE
  5
1E2
330
73
100
AcDbEntity
  8
bold
100
AcDbLine
 10
-12.95
 20
297.2
 30
0.0
 11
-12.95
 21
332.0000000000001
 31
0.0
  0
LINE
  5
1E3
330
73
100
AcDbEntity
  8
bold
100
AcDbLine
 10
-11.95
 20
330.2005000000001
 30
0.0
 11
-12.95
 21
330.2005000000001
 31
0.0
  0
LINE
  5
1E4
330
73
100
AcDbEntity
  8
bold
100
AcDbLine
 10
-11.95
 20
297.2
 30
0.0
 11
-11.95
 21
332.0000000000001
 31
0.0
  0
LINE
  5
1E5
330
73
100
AcDbEntity
  8
bold
100
AcDbLine
 10
22.75
 20
493.2500000000001
 30
0.0
 11
22.75
 21
517.0
 31
0.0
  0
LINE
  5
1E6
330
73
100
AcDbEntity
  8
bold
100
AcDbLine
 10
22.75
 20
515.2
 30
0.0
 11
25.0
 21
515.2
 31
0.0
  0
LINE
  5
1E7
330
73
100
AcDbEntity
  8
bold
100
AcDbLine
 10
-12.95
 20
482.2
 30
0.0
 11
-12.95
 21
517.0
 31
0.0
  0
LINE
  5
1E8
330
73
100
AcDbEntity
  8
bold
100
AcDbLine
 10
-11.95
 20
515.2005
 30
0.0
 11
-12.95
 21
515.2005
 31
0.0
  0
LINE
  5
1E9
330
73
100
AcDbEntity
  8
bold
100
AcDbLine
 10
-11.95
 20
482.2
 30
0.0
 11
-11.95
 21
517.0
 31
0.0
  0
LINE
  5
1EA
330
73
100
AcDbEntity
  8
bold
100
AcDbLine
 10
4.15
 20
112.2
 30
0.0
 11
4.15
 21
147.0
 31
0.0
  0
LINE
  5
1EB
330
73
100
AcDbEntity
  8
bold
100
AcDbLine
 10
-4.149999999999998
 20
112.2
 30
0.0
 11
-4.149999999999998
 21
147.0
 31
0.0
  0
LINE
  5
1EC
330
73
100
AcDbEntity
  8
bold
100
AcDbLine
 10
-4.15
 20
145.2
 30
0.0
 11
4.15
 21
145.2
 31
0.0
  0
LINE
  5
1ED
330
73
100
AcDbEntity
  8
bold
100
AcDbLine
 10
12.95
 20
482.2
 30
0.0
 11
12.95
 21
517.0
 31
0.0
  0
LINE
  5
1EE
330
73
100
AcDbEntity
  8
bold
100
AcDbLine
 10
11.95
 20
482.2
 30
0.0
 11
11.95
 21
517.0
 31
0.0
  0
LINE
  5
1EF
330
73
100
AcDbEntity
  8
bold
100
AcDbLine
 10
12.95
 20
515.2005
 30
0.0
 11
11.95
 21
515.2005
 31
0.0
  0
LINE
  5
1F0
330
73
100
AcDbEntity
  8
bold
100
AcDbLine
 10
11.95
 20
112.2
 30
0.0
 11
11.95
 21
147.0
 31
0.0
  0
LINE
  5
1F1
330
73
100
AcDbEntity
  8
bold
100
AcDbLine
 10
12.95
 20
112.2
 30
0.0
 11
12.95
 21
147.0
 31
0.0
  0
LINE
  5
1F2
330
73
100
AcDbEntity
  8
bold
100
AcDbLine
 10
12.95
 20
145.2005
 30
0.0
 11
11.95
 21
145.2005
 31
0.0
  0
LINE
  5
1F3
330
73
100
AcDbEntity
  8
bold
100
AcDbLine
 10
11.95
 20
297.2
 30
0.0
 11
11.95
 21
332.0000000000001
 31
0.0
  0
LINE
  5
1F4
330
73
100
AcDbEntity
  8
bold
100
AcDbLine
 10
12.95
 20
330.2005000000001
 30
0.0
 11
11.95
 21
330.2005000000001
 31
0.0
  0
LINE
  5
1F5
330
73
100
AcDbEntity
  8
bold
100
AcDbLine
 10
12.95
 20
297.2
 30
0.0
 11
12.95
 21
332.0000000000001
 31
0.0
  0
LINE
  5
1F6
330
73
100
AcDbEntity
  8
bold
100
AcDbLine
 10
-4.149999999999998
 20
297.2
 30
0.0
 11
-4.149999999999998
 21
332.0000000000001
 31
0.0
  0
LINE
  5
1F7
330
73
100
AcDbEntity
  8
bold
100
AcDbLine
 10
4.15
 20
297.2
 30
0.0
 11
4.15
 21
332.0000000000001
 31
0.0
  0
LINE
  5
1F8
330
73
100
AcDbEntity
  8
bold
100
AcDbLine
 10
-4.15
 20
330.2
 30
0.0
 11
4.15
 21
330.2
 31
0.0
  0
LINE
  5
1F9
330
73
100
AcDbEntity
  8
bold
100
AcDbLine
 10
-21.25
 20
482.2
 30
0.0
 11
-21.25
 21
517.0
 31
0.0
  0
LINE
  5
1FA
330
73
100
AcDbEntity
  8
bold
100
AcDbLine
 10
-20.25
 20
515.2005
 30
0.0
 11
-21.25
 21
515.2005
 31
0.0
  0
LINE
  5
1FB
330
73
100
AcDbEntity
  8
bold
100
AcDbLine
 10
-20.25
 20
482.2
 30
0.0
 11
-20.25
 21
517.0
 31
0.0
  0
LINE
  5
1FC
330
73
100
AcDbEntity
  8
bold
100
AcDbLine
 10
22.75
 20
308.25
 30
0.0
 11
22.75
 21
332.0000000000001
 31
0.0
  0
LINE
  5
1FD
330
73
100
AcDbEntity
  8
bold
100
AcDbLine
 10
22.75
 20
330.2
 30
0.0
 11
25.0
 21
330.2
 31
0.0
  0
LINE
  5
1FE
330
73
100
AcDbEntity
  8
bold
100
AcDbLine
 10
-22.75
 20
515.2
 30
0.0
 11
-25.0
 21
515.2
 31
0.0
  0
LINE
  5
1FF
330
73
100
AcDbEntity
  8
bold
100
AcDbLine
 10
-22.75
 20
493.2500000000001
 30
0.0
 11
-22.75
 21
517.0
 31
0.0
  0
LINE
  5
200
330
73
100
AcDbEntity
  8
bold
100
AcDbLine
 10
-12.95
 20
112.2
 30
0.0
 11
-12.95
 21
147.0
 31
0.0
  0
LINE
  5
201
330
73
100
AcDbEntity
  8
bold
100
AcDbLine
 10
-11.95
 20
145.2005
 30
0.0
 11
-12.95
 21
145.2005
 31
0.0
  0
LINE
  5
202
330
73
100
AcDbEntity
  8
bold
100
AcDbLine
 10
-11.95
 20
112.2
 30
0.0
 11
-11.95
 21
147.0
 31
0.0
  0
LINE
  5
203
330
73
100
AcDbEntity
  8
bold
100
AcDbLine
 10
-22.75
 20
330.2
 30
0.0
 11
-25.0
 21
330.2
 31
0.0
  0
LINE
  5
204
330
73
100
AcDbEntity
  8
bold
100
AcDbLine
 10
-22.75
 20
308.25
 30
0.0
 11
-22.75
 21
332.0000000000001
 31
0.0
  0
LINE
  5
205
330
73
100
AcDbEntity
  8
bold
100
AcDbLine
 10
-13.5
 20
554.0
 30
0.0
 11
-13.5
 21
549.0
 31
0.0
  0
LINE
  5
206
330
73
100
AcDbEntity
  8
bold
100
AcDbLine
 10
-12.0
 20
549.0
 30
0.0
 11
-12.0
 21
554.0
 31
0.0
  0
LINE
  5
207
330
73
100
AcDbEntity
  8
bold
100
AcDbLine
 10
-21.5
 20
554.0
 30
0.0
 11
-21.5
 21
549.0
 31
0.0
  0
LINE
  5
208
330
73
100
AcDbEntity
  8
bold
100
AcDbLine
 10
-20.5
 20
549.0
 30
0.0
 11
-20.5
 21
554.0
 31
0.0
  0
LINE
  5
209
330
73
100
AcDbEntity
  8
bold
100
AcDbLine
 10
20.5
 20
554.0
 30
0.0
 11
20.5
 21
549.0
 31
0.0
  0
LINE
  5
20A
330
73
100
AcDbEntity
  8
bold
100
AcDbLine
 10
21.5
 20
549.0
 30
0.0
 11
21.5
 21
554.0
 31
0.0
  0
LINE
  5
20B
330
73
100
AcDbEntity
  8
bold
100
AcDbLine
 10
16.25
 20
552.5000000000001
 30
0.0
 11
16.25
 21
549.0
 31
0.0
  0
LINE
  5
20C
330
73
100
AcDbEntity
  8
bold
100
AcDbLine
 10
17.75
 20
549.0
 30
0.0
 11
17.75
 21
552.5000000000001
 31
0.0
  0
LINE
  5
20D
330
73
100
AcDbEntity
  8
bold
100
AcDbLine
 10
17.75
 20
552.5000000000001
 30
0.0
 11
16.25
 21
552.5000000000001
 31
0.0
  0
LINE
  5
20E
330
73
100
AcDbEntity
  8
bold
100
AcDbLine
 10
3.5
 20
554.0
 30
0.0
 11
3.5
 21
549.0
 31
0.0
  0
LINE
  5
20F
330
73
100
AcDbEntity
  8
bold
100
AcDbLine
 10
5.000000000000001
 20
549.0
 30
0.0
 11
5.000000000000001
 21
554.0
 31
0.0
  0
LINE
  5
210
330
73
100
AcDbEntity
  8
bold
100
AcDbLine
 10
-16.25
 20
549.0
 30
0.0
 11
-16.25
 21
552.5000000000001
 31
0.0
  0
LINE
  5
211
330
73
100
AcDbEntity
  8
bold
100
AcDbLine
 10
-17.75
 20
552.5000000000001
 30
0.0
 11
-17.75
 21
549.0
 31
0.0
  0
LINE
  5
212
330
73
100
AcDbEntity
  8
bold
100
AcDbLine
 10
-16.25
 20
552.5000000000001
 30
0.0
 11
-17.75
 21
552.5000000000001
 31
0.0
  0
LINE
  5
213
330
73
100
AcDbEntity
  8
bold
100
AcDbLine
 10
12.0
 20
554.0
 30
0.0
 11
12.0
 21
549.0
 31
0.0
  0
LINE
  5
214
330
73
100
AcDbEntity
  8
bold
100
AcDbLine
 10
13.5
 20
549.0
 30
0.0
 11
13.5
 21
554.0
 31
0.0
  0
LINE
  5
215
330
73
100
AcDbEntity
  8
bold
100
AcDbLine
 10
-5.000000000000001
 20
554.0
 30
0.0
 11
-5.0
 21
549.0
 31
0.0
  0
LINE
  5
216
330
73
100
AcDbEntity
  8
bold
100
AcDbLine
 10
-3.5
 20
549.0
 30
0.0
 11
-3.5
 21
554.0
 31
0.0
  0
LINE
  5
217
330
73
100
AcDbEntity
  8
bold
100
AcDbLine
 10
-25.0
 20
5.000000000000004
 30
0.0
 11
-25.0
 21
0.0
 31
0.0
  0
LINE
  5
218
330
73
100
AcDbEntity
  8
bold
100
AcDbLine
 10
25.0
 20
5.000000000000004
 30
0.0
 11
25.0
 21
0.0
 31
0.0
  0
LINE
  5
219
330
73
100
AcDbEntity
  8
bold
100
AcDbLine
 10
-25.0
 20
0.0
 30
0.0
 11
25.0
 21
0.0
 31
0.0
  0
LINE
  5
21A
330
73
100
AcDbEntity
  8
bold
100
AcDbLine
 10
13.05
 20
11.06413789451166
 30
0.0
 11
13.05
 21
5.000000000000004
 31
0.0
  0
LINE
  5
21B
330
73
100
AcDbEntity
  8
bold
100
AcDbLine
 10
5.050000000000001
 20
5.000000000000004
 30
0.0
 11
12.05
 21
5.000000000000004
 31
0.0
  0
LINE
  5
21C
330
73
100
AcDbEntity
  8
bold
100
AcDbLine
 10
-25.0
 20
5.000000000000004
 30
0.0
 11
-21.05
 21
5.000000000000004
 31
0.0
  0
LINE
  5
21D
330
73
100
AcDbEntity
  8
bold
100
AcDbLine
 10
20.05
 20
5.000000000000004
 30
0.0
 11
20.05
 21
11.06413789451166
 31
0.0
  0
LINE
  5
21E
330
73
100
AcDbEntity
  8
bold
100
AcDbLine
 10
5.050000000000001
 20
11.06413789451166
 30
0.0
 11
5.050000000000001
 21
5.000000000000004
 31
0.0
  0
LINE
  5
21F
330
73
100
AcDbEntity
  8
bold
100
AcDbLine
 10
-20.05
 20
5.000000000000004
 30
0.0
 11
-13.05
 21
5.000000000000004
 31
0.0
  0
LINE
  5
220
330
73
100
AcDbEntity
  8
bold
100
AcDbLine
 10
21.05
 20
5.000000000000004
 30
0.0
 11
25.0
 21
5.000000000000004
 31
0.0
  0
LINE
  5
221
330
73
100
AcDbEntity
  8
bold
100
AcDbLine
 10
3.5
 20
5.000000000000004
 30
0.0
 11
3.5
 21
11.06413789451166
 31
0.0
  0
LINE
  5
222
330
73
100
AcDbEntity
  8
bold
100
AcDbLine
 10
12.05
 20
5.000000000000004
 30
0.0
 11
12.05
 21
11.06413789451166
 31
0.0
  0
LINE
  5
223
330
73
100
AcDbEntity
  8
bold
100
AcDbLine
 10
-25.0
 20
0.500000000000056
 30
0.0
 11
25.0
 21
0.500000000000056
 31
0.0
  0
LINE
  5
224
330
73
100
AcDbEntity
  8
bold
100
AcDbLine
 10
-21.05
 20
5.000000000000004
 30
0.0
 11
-21.05
 21
11.06413789451166
 31
0.0
  0
LINE
  5
225
330
73
100
AcDbEntity
  8
bold
100
AcDbLine
 10
21.05
 20
11.06413789451166
 30
0.0
 11
21.05
 21
5.000000000000004
 31
0.0
  0
LINE
  5
226
330
73
100
AcDbEntity
  8
bold
100
AcDbLine
 10
-12.05
 20
5.000000000000004
 30
0.0
 11
-5.050000000000001
 21
5.000000000000004
 31
0.0
  0
LINE
  5
227
330
73
100
AcDbEntity
  8
bold
100
AcDbLine
 10
-3.5
 20
5.000000000000004
 30
0.0
 11
3.5
 21
5.000000000000004
 31
0.0
  0
LINE
  5
228
330
73
100
AcDbEntity
  8
bold
100
AcDbLine
 10
-13.05
 20
5.000000000000004
 30
0.0
 11
-13.05
 21
11.06413789451166
 31
0.0
  0
LINE
  5
229
330
73
100
AcDbEntity
  8
bold
100
AcDbLine
 10
-20.05
 20
11.06413789451166
 30
0.0
 11
-20.05
 21
5.000000000000004
 31
0.0
  0
LINE
  5
22A
330
73
100
AcDbEntity
  8
bold
100
AcDbLine
 10
-12.05
 20
11.06413789451166
 30
0.0
 11
-12.05
 21
5.000000000000004
 31
0.0
  0
LINE
  5
22B
330
73
100
AcDbEntity
  8
bold
100
AcDbLine
 10
-5.050000000000001
 20
5.000000000000004
 30
0.0
 11
-5.050000000000002
 21
11.06413789451166
 31
0.0
  0
LINE
  5
22C
330
73
100
AcDbEntity
  8
bold
100
AcDbLine
 10
13.05
 20
5.000000000000004
 30
0.0
 11
20.05
 21
5.000000000000004
 31
0.0
  0
LINE
  5
22D
330
73
100
AcDbEntity
  8
bold
100
AcDbLine
 10
-3.5
 20
11.06413789451166
 30
0.0
 11
-3.5
 21
5.000000000000004
 31
0.0
  0
LINE
  5
22E
330
73
100
AcDbEntity
  8
bold
100
AcDbLine
 10
-21.05
 20
10.00000000000001
 30
0.0
 11
-20.05
 21
10.00000000000001
 31
0.0
  0
LINE
  5
22F
330
73
100
AcDbEntity
  8
light
100
AcDbLine
 10
-21.05
 20
11.00127016823038
 30
0.0
 11
-20.05
 21
11.00127016823038
 31
0.0
  0
LINE
  5
230
330
73
100
AcDbEntity
  8
bold
100
AcDbLine
 10
25.0
 20
554.0
 30
0.0
 11
-25.0
 21
554.0
 31
0.0
  0
LINE
  5
231
330
73
100
AcDbEntity
  8
bold
100
AcDbLine
 10
-25.0
 20
556.0
 30
0.0
 11
25.0
 21
556.0
 31
0.0
  0
LINE
  5
232
330
73
100
AcDbEntity
  8
bold
100
AcDbLine
 10
-25.0
 20
506.5000000000001
 30
0.0
 11
-25.0
 21
556.0
 31
0.0
  0
LINE
  5
233
330
73
100
AcDbEntity
  8
bold
100
AcDbLine
 10
-13.05
 20
10.00000000000001
 30
0.0
 11
-12.05
 21
10.00000000000001
 31
0.0
  0
LINE
  5
234
330
73
100
AcDbEntity
  8
light
100
AcDbLine
 10
-13.05
 20
11.00127016823038
 30
0.0
 11
-12.05
 21
11.00127016823038
 31
0.0
  0
LINE
  5
235
330
73
100
AcDbEntity
  8
bold
100
AcDbLine
 10
-5.050000000000001
 20
10.00000000000001
 30
0.0
 11
-3.5
 21
10.00000000000001
 31
0.0
  0
LINE
  5
236
330
73
100
AcDbEntity
  8
light
100
AcDbLine
 10
-5.049999999999999
 20
11.00127016823038
 30
0.0
 11
-3.5
 21
11.00127016823038
 31
0.0
  0
LINE
  5
237
330
73
100
AcDbEntity
  8
bold
100
AcDbLine
 10
3.5
 20
10.00000000000001
 30
0.0
 11
5.050000000000001
 21
10.00000000000001
 31
0.0
  0
LINE
  5
238
330
73
100
AcDbEntity
  8
light
100
AcDbLine
 10
3.5
 20
11.00127016823038
 30
0.0
 11
5.049999999999999
 21
11.00127016823038
 31
0.0
  0
LINE
  5
239
330
73
100
AcDbEntity
  8
bold
100
AcDbLine
 10
12.05
 20
10.00000000000001
 30
0.0
 11
13.05
 21
10.00000000000001
 31
0.0
  0
LINE
  5
23A
330
73
100
AcDbEntity
  8
light
100
AcDbLine
 10
12.05
 20
11.00127016823038
 30
0.0
 11
13.05
 21
11.00127016823038
 31
0.0
  0
LINE
  5
23B
330
73
100
AcDbEntity
  8
bold
100
AcDbLine
 10
20.05
 20
10.00000000000001
 30
0.0
 11
21.05
 21
10.00000000000001
 31
0.0
  0
LINE
  5
23C
330
73
100
AcDbEntity
  8
light
100
AcDbLine
 10
20.05
 20
11.00127016823038
 30
0.0
 11
21.05000000000001
 21
11.00127016823038
 31
0.0
  0
LINE
  5
23D
330
73
100
AcDbEntity
  8
bold
100
AcDbLine
 10
-20.5
 20
519.0
 30
0.0
 11
-20.5
 21
547.0
 31
0.0
  0
LINE
  5
23E
330
73
100
AcDbEntity
  8
bold
100
AcDbLine
 10
-21.5
 20
552.0
 30
0.0
 11
-20.5
 21
552.0
 31
0.0
  0
LINE
  5
23F
330
73
100
AcDbEntity
  8
bold
100
AcDbLine
 10
-25.0
 20
549.0
 30
0.0
 11
-21.5
 21
549.0
 31
0.0
  0
LINE
  5
240
330
73
100
AcDbEntity
  8
bold
100
AcDbLine
 10
-20.5
 20
547.0
 30
0.0
 11
-25.0
 21
547.0
 31
0.0
  0
LINE
  5
241
330
73
100
AcDbEntity
  8
bold
100
AcDbLine
 10
-20.5
 20
519.0
 30
0.0
 11
-25.0
 21
519.0
 31
0.0
  0
LINE
  5
242
330
73
100
AcDbEntity
  8
bold
100
AcDbLine
 10
-25.0
 20
517.0
 30
0.0
 11
25.0
 21
517.0
 31
0.0
  0
LINE
  5
243
330
73
100
AcDbEntity
  8
bold
100
AcDbLine
 10
25.0
 20
519.0
 30
0.0
 11
20.5
 21
519.0
 31
0.0
  0
LINE
  5
244
330
73
100
AcDbEntity
  8
bold
100
AcDbLine
 10
20.5
 20
519.0
 30
0.0
 11
20.5
 21
547.0
 31
0.0
  0
LINE
  5
245
330
73
100
AcDbEntity
  8
bold
100
AcDbLine
 10
25.0
 20
547.0
 30
0.0
 11
20.5
 21
547.0
 31
0.0
  0
LINE
  5
246
330
73
100
AcDbEntity
  8
bold
100
AcDbLine
 10
25.0
 20
507.0
 30
0.0
 11
25.0
 21
556.0
 31
0.0
  0
LINE
  5
247
330
73
100
AcDbEntity
  8
bold
100
AcDbLine
 10
21.5
 20
549.0
 30
0.0
 11
25.0
 21
549.0
 31
0.0
  0
LINE
  5
248
330
73
100
AcDbEntity
  8
bold
100
AcDbLine
 10
20.5
 20
552.0
 30
0.0
 11
21.5
 21
552.0
 31
0.0
  0
LINE
  5
249
330
73
100
AcDbEntity
  8
bold
100
AcDbLine
 10
17.75
 20
549.0
 30
0.0
 11
20.5
 21
549.0
 31
0.0
  0
LINE
  5
24A
330
73
100
AcDbEntity
  8
bold
100
AcDbLine
 10
16.25
 20
552.0
 30
0.0
 11
17.75
 21
552.0
 31
0.0
  0
LINE
  5
24B
330
73
100
AcDbEntity
  8
bold
100
AcDbLine
 10
13.5
 20
549.0
 30
0.0
 11
16.25
 21
549.0
 31
0.0
  0
LINE
  5
24C
330
73
100
AcDbEntity
  8
bold
100
AcDbLine
 10
12.0
 20
552.0
 30
0.0
 11
13.5
 21
552.0
 31
0.0
  0
LINE
  5
24D
330
73
100
AcDbEntity
  8
bold
100
AcDbLine
 10
5.000000000000001
 20
549.0
 30
0.0
 11
12.0
 21
549.0
 31
0.0
  0
LINE
  5
24E
330
73
100
AcDbEntity
  8
bold
100
AcDbLine
 10
3.5
 20
552.0
 30
0.0
 11
5.0
 21
552.0
 31
0.0
  0
LINE
  5
24F
330
73
100
AcDbEntity
  8
bold
100
AcDbLine
 10
-3.5
 20
549.0
 30
0.0
 11
3.5
 21
549.0
 31
0.0
  0
LINE
  5
250
330
73
100
AcDbEntity
  8
bold
100
AcDbLine
 10
-5.000000000000001
 20
552.0
 30
0.0
 11
-3.5
 21
552.0
 31
0.0
  0
LINE
  5
251
330
73
100
AcDbEntity
  8
bold
100
AcDbLine
 10
-12.0
 20
549.0
 30
0.0
 11
-5.0
 21
549.0
 31
0.0
  0
LINE
  5
252
330
73
100
AcDbEntity
  8
bold
100
AcDbLine
 10
-13.5
 20
552.0
 30
0.0
 11
-12.0
 21
552.0
 31
0.0
  0
LINE
  5
253
330
73
100
AcDbEntity
  8
bold
100
AcDbLine
 10
-16.25
 20
549.0
 30
0.0
 11
-13.5
 21
549.0
 31
0.0
  0
LINE
  5
254
330
73
100
AcDbEntity
  8
bold
100
AcDbLine
 10
-17.75
 20
552.0
 30
0.0
 11
-16.25
 21
552.0
 31
0.0
  0
LINE
  5
255
330
73
100
AcDbEntity
  8
bold
100
AcDbLine
 10
-20.5
 20
549.0
 30
0.0
 11
-17.75
 21
549.0
 31
0.0
  0
LINE
  5
256
330
73
100
AcDbEntity
  8
bold
100
AcDbLine
 10
4.500000000000001
 20
519.0
 30
0.0
 11
-4.500000000000001
 21
519.0
 31
0.0
  0
LINE
  5
257
330
73
100
AcDbEntity
  8
bold
100
AcDbLine
 10
-4.500000000000001
 20
519.0
 30
0.0
 11
-4.500000000000001
 21
547.0
 31
0.0
  0
LINE
  5
258
330
73
100
AcDbEntity
  8
bold
100
AcDbLine
 10
4.499999999999997
 20
547.0
 30
0.0
 11
-4.500000000000001
 21
547.0
 31
0.0
  0
LINE
  5
259
330
73
100
AcDbEntity
  8
bold
100
AcDbLine
 10
4.500000000000001
 20
519.0
 30
0.0
 11
4.499999999999997
 21
547.0
 31
0.0
  0
LINE
  5
25A
330
73
100
AcDbEntity
  8
bold
100
AcDbLine
 10
25.0
 20
334.5
 30
0.0
 11
20.5
 21
334.5
 31
0.0
  0
LINE
  5
25B
330
73
100
AcDbEntity
  8
bold
100
AcDbLine
 10
20.5
 20
334.5
 30
0.0
 11
20.5
 21
362.5000000000001
 31
0.0
  0
LINE
  5
25C
330
73
100
AcDbEntity
  8
bold
100
AcDbLine
 10
25.0
 20
362.5000000000001
 30
0.0
 11
20.5
 21
362.5000000000001
 31
0.0
  0
LINE
  5
25D
330
73
100
AcDbEntity
  8
bold
100
AcDbLine
 10
-25.0
 20
364.0000000000001
 30
0.0
 11
25.0
 21
364.0000000000001
 31
0.0
  0
LINE
  5
25E
330
73
100
AcDbEntity
  8
bold
100
AcDbLine
 10
-25.0
 20
361.0000000000001
 30
0.0
 11
-24.0
 21
361.0000000000001
 31
0.0
  0
LINE
  5
25F
330
73
100
AcDbEntity
  8
bold
100
AcDbLine
 10
-24.0
 20
361.0000000000001
 30
0.0
 11
-24.0
 21
362.5000000000001
 31
0.0
  0
LINE
  5
260
330
73
100
AcDbEntity
  8
bold
100
AcDbLine
 10
-20.5
 20
362.5000000000001
 30
0.0
 11
-24.0
 21
362.5000000000001
 31
0.0
  0
LINE
  5
261
330
73
100
AcDbEntity
  8
bold
100
AcDbLine
 10
-20.5
 20
334.5
 30
0.0
 11
-20.5
 21
362.5000000000001
 31
0.0
  0
LINE
  5
262
330
73
100
AcDbEntity
  8
bold
100
AcDbLine
 10
-20.5
 20
334.5
 30
0.0
 11
-25.0
 21
334.5
 31
0.0
  0
LINE
  5
263
330
73
100
AcDbEntity
  8
bold
100
AcDbLine
 10
-25.0
 20
332.0000000000001
 30
0.0
 11
25.0
 21
332.0000000000001
 31
0.0
  0
LINE
  5
264
330
73
100
AcDbEntity
  8
bold
100
AcDbLine
 10
4.500000000000001
 20
334.5
 30
0.0
 11
-4.500000000000001
 21
334.5
 31
0.0
  0
LINE
  5
265
330
73
100
AcDbEntity
  8
bold
100
AcDbLine
 10
-4.500000000000001
 20
334.5
 30
0.0
 11
-4.500000000000001
 21
362.5000000000001
 31
0.0
  0
LINE
  5
266
330
73
100
AcDbEntity
  8
bold
100
AcDbLine
 10
4.499999999999997
 20
362.5000000000001
 30
0.0
 11
-4.500000000000001
 21
362.5000000000001
 31
0.0
  0
LINE
  5
267
330
73
100
AcDbEntity
  8
bold
100
AcDbLine
 10
4.500000000000001
 20
334.5
 30
0.0
 11
4.499999999999997
 21
362.5000000000001
 31
0.0
  0
LINE
  5
268
330
73
100
AcDbEntity
  8
bold
100
AcDbLine
 10
4.499999999999997
 20
177.0000000000001
 30
0.0
 11
-4.500000000000001
 21
177.0000000000001
 31
0.0
  0
LINE
  5
269
330
73
100
AcDbEntity
  8
bold
100
AcDbLine
 10
25.0
 20
177.0000000000001
 30
0.0
 11
20.5
 21
177.0000000000001
 31
0.0
  0
LINE
  5
26A
330
73
100
AcDbEntity
  8
bold
100
AcDbLine
 10
25.0
 20
149.0
 30
0.0
 11
20.5
 21
149.0
 31
0.0
  0
LINE
  5
26B
330
73
100
AcDbEntity
  8
bold
100
AcDbLine
 10
20.5
 20
149.0
 30
0.0
 11
20.5
 21
177.0000000000001
 31
0.0
  0
LINE
  5
26C
330
73
100
AcDbEntity
  8
bold
100
AcDbLine
 10
-25.0
 20
179.0000000000001
 30
0.0
 11
25.0
 21
179.0000000000001
 31
0.0
  0
LINE
  5
26D
330
73
100
AcDbEntity
  8
bold
100
AcDbLine
 10
-25.0
 20
136.5
 30
0.0
 11
-25.0
 21
306.0000000000001
 31
0.0
  0
LINE
  5
26E
330
73
100
AcDbEntity
  8
bold
100
AcDbLine
 10
-25.0
 20
175.5000000000001
 30
0.0
 11
-24.0
 21
175.5000000000001
 31
0.0
  0
LINE
  5
26F
330
73
100
AcDbEntity
  8
bold
100
AcDbLine
 10
-24.0
 20
175.5000000000001
 30
0.0
 11
-24.0
 21
177.0000000000001
 31
0.0
  0
LINE
  5
270
330
73
100
AcDbEntity
  8
bold
100
AcDbLine
 10
-20.5
 20
177.0000000000001
 30
0.0
 11
-24.0
 21
177.0000000000001
 31
0.0
  0
LINE
  5
271
330
73
100
AcDbEntity
  8
bold
100
AcDbLine
 10
-20.5
 20
149.0
 30
0.0
 11
-20.5
 21
177.0000000000001
 31
0.0
  0
LINE
  5
272
330
73
100
AcDbEntity
  8
bold
100
AcDbLine
 10
-20.5
 20
149.0
 30
0.0
 11
-25.0
 21
149.0
 31
0.0
  0
LINE
  5
273
330
73
100
AcDbEntity
  8
bold
100
AcDbLine
 10
-25.0
 20
147.0
 30
0.0
 11
25.0
 21
147.0
 31
0.0
  0
LINE
  5
274
330
73
100
AcDbEntity
  8
bold
100
AcDbLine
 10
4.500000000000001
 20
149.0
 30
0.0
 11
-4.500000000000001
 21
149.0
 31
0.0
  0
LINE
  5
275
330
73
100
AcDbEntity
  8
bold
100
AcDbLine
 10
-4.500000000000001
 20
149.0
 30
0.0
 11
-4.500000000000001
 21
177.0000000000001
 31
0.0
  0
LINE
  5
276
330
73
100
AcDbEntity
  8
bold
100
AcDbLine
 10
4.500000000000001
 20
149.0
 30
0.0
 11
4.499999999999997
 21
177.0000000000001
 31
0.0
  0
ENDBLK
  5
76
330
73
100
AcDbEntity
  8
0
100
AcDbBlockEnd
  0
BLOCK
  5
279
330
277
100
AcDbEntity
  8
0
100
AcDbBlockBegin
  2
2_01434000A_end_cover_R1001_0_in_01434_0
 70
     2
 10
0.0
 20
0.0
 30
0.0
  3
2_01434000A_end_cover_R1001_0_in_01434_0
  1

  0
ATTDEF
  5
27B
330
277
100
AcDbEntity
  8
attrib
100
AcDbText
 10
55.0
 20
556.0
 30
0.0
 40
0.5
  1
01434000A-end_cover_R1001
100
AcDbAttributeDefinition
  3

  2
NB
 70
     8
280
     0
  0
ATTDEF
  5
27C
330
277
100
AcDbEntity
  8
attrib
100
AcDbText
 10
55.0
 20
555.5
 30
0.0
 40
0.5
  1
Covers and compartments end cover 1
100
AcDbAttributeDefinition
  3

  2
NN
 70
     8
280
     0
  0
ATTDEF
  5
27D
330
277
100
AcDbEntity
  8
attrib
100
AcDbText
 10
55.0
 20
555.0
 30
0.0
 40
0.5
  1

100
AcDbAttributeDefinition
  3

  2
NT
 70
     8
280
     0
  0
ATTDEF
  5
27E
330
277
100
AcDbEntity
  8
attrib
100
AcDbText
 10
55.0
 20
554.5
 30
0.0
 40
0.5
  1
$BOM.-end_cover_$SIDE.$L.$X.
100
AcDbAttributeDefinition
  3

  2
NBSYN
 70
     8
280
     0
  0
ATTDEF
  5
27F
330
277
100
AcDbEntity
  8
attrib
100
AcDbText
 10
55.0
 20
554.0
 30
0.0
 40
0.5
  1
01434000A-end_cover_R1001
100
AcDbAttributeDefinition
  3

  2
LINA
 70
     8
280
     0
  0
ATTDEF
  5
280
330
277
100
AcDbEntity
  8
attrib
100
AcDbText
 10
55.0
 20
553.5
 30
0.0
 40
0.5
  1
Wöhner
100
AcDbAttributeDefinition
  3

  2
CATALOG
 70
     8
280
     0
  0
ATTDEF
  5
281
330
277
100
AcDbEntity
  8
attrib
100
AcDbText
 10
55.0
 20
553.0
 30
0.0
 40
0.5
  1
01434000A
100
AcDbAttributeDefinition
  3

  2
BOM
 70
     8
280
     0
  0
ATTDEF
  5
282
330
277
100
AcDbEntity
  8
attrib
100
AcDbText
 10
55.0
 20
552.5
 30
0.0
 40
0.5
  1
01434
100
AcDbAttributeDefinition
  3

  2
ARTNR
 70
     8
280
     0
  0
ATTDEF
  5
283
330
277
100
AcDbEntity
  8
attrib
100
AcDbText
 10
55.0
 20
552.0
 30
0.0
 40
0.5
  1
Right
100
AcDbAttributeDefinition
  3

  2
SIDE
 70
     8
280
     0
  0
ATTDEF
  5
284
330
277
100
AcDbEntity
  8
attrib
100
AcDbText
 10
55.0
 20
551.5
 30
0.0
 40
0.5
  1
100
100
AcDbAttributeDefinition
  3

  2
L
 70
     8
280
     0
  0
ATTDEF
  5
285
330
277
100
AcDbEntity
  8
attrib
100
AcDbText
 10
55.0
 20
551.0
 30
0.0
 40
0.5
  1
1
100
AcDbAttributeDefinition
  3

  2
X
 70
     8
280
     0
  0
ATTDEF
  5
286
330
277
100
AcDbEntity
  8
attrib
100
AcDbText
 10
55.0
 20
550.5
 30
0.0
 40
0.5
  1
woehner
100
AcDbAttributeDefinition
  3

  2
COMPANY
 70
     8
280
     0
  0
ATTDEF
  5
287
330
277
100
AcDbEntity
  8
attrib
100
AcDbText
 10
55.0
 20
550.0
 30
0.0
 40
0.5
  1
{$CADENAS_DATA/23d-libs/woehner/sys_185/busbar_supp_busbars_and_covers/parts/covers_and_compartments_cover.prj},231 {VTYP=3D},{NB=01434000A-end_cover_R1001},{LINA=01434000A-end_cover_R1001},{NN=Covers and compartments end cover 1},{DATE=19.10.2022 09:28:2
100
AcDbAttributeDefinition
  3

  2
PSOL_0
 70
     9
280
     0
  0
ATTDEF
  5
288
330
277
100
AcDbEntity
  8
attrib
100
AcDbText
 10
55.0
 20
549.5
 30
0.0
 40
0.5
  1
3},{GEOMDATE=19.10.2022 09:27:00},{VERSION=},{LINEID=190},{WBVAR=SIDE,L,X},{WBNUMERIC=L,X}  {NB=01434000A-end_cover_R1001},{LINA=01434000A-end_cover_R1001},{KT=DUMMY},{BOM=01434000A},{ARTNR=01434},{SIDE=R},{SIDEX='L','Left' , 'R','Right' , 'M','Middle'},{
100
AcDbAttributeDefinition
  3

  2
PSOL_1
 70
     9
280
     0
  0
ATTDEF
  5
289
330
277
100
AcDbEntity
  8
attrib
100
AcDbText
 10
55.0
 20
549.0
 30
0.0
 40
0.5
  1
L=100},{LX=[100]},{X=1},{XX=1},{BUSB=},{POF=},{TYPE=},{QNT=MIN},{W=MIN},{H=MIN},{D=MIN},{CONCA=},{SCR=},{IPR=},{SEARCH=},{EDZ=},{IODD=},{DIST=13},{LINK=Product link},{LINKX=https://www.woehner.de/de/produkte/01434.html},{VER=01434 R}
100
AcDbAttributeDefinition
  3

  2
PSOL_2
 70
     9
280
     0
  0
LINE
  5
28A
330
277
100
AcDbEntity
  8
hidden
100
AcDbLine
 10
25.0
 20
111.0
 30
0.0
 11
50.0
 21
111.0
 31
0.0
  0
LINE
  5
28B
330
277
100
AcDbEntity
  8
hidden
100
AcDbLine
 10
25.0
 20
481.0000000000001
 30
0.0
 11
50.0
 21
481.0000000000001
 31
0.0
  0
LINE
  5
28C
330
277
100
AcDbEntity
  8
hidden
100
AcDbLine
 10
25.0
 20
296.0000000000001
 30
0.0
 11
50.0
 21
296.0000000000001
 31
0.0
  0
LINE
  5
28D
330
277
100
AcDbEntity
  8
hidden
100
AcDbLine
 10
25.0
 20
178.5000000000001
 30
0.0
 11
50.0
 21
178.5000000000001
 31
0.0
  0
LINE
  5
28E
330
277
100
AcDbEntity
  8
hidden
100
AcDbLine
 10
25.0
 20
548.5000000000001
 30
0.0
 11
50.0
 21
548.5000000000001
 31
0.0
  0
LINE
  5
28F
330
277
100
AcDbEntity
  8
hidden
100
AcDbLine
 10
25.0
 20
363.5000000000001
 30
0.0
 11
50.0
 21
363.5000000000001
 31
0.0
  0
LINE
  5
290
330
277
100
AcDbEntity
  8
hidden
100
AcDbLine
 10
28.95
 20
5.000000000000004
 30
0.0
 11
29.95
 21
5.000000000000004
 31
0.0
  0
LINE
  5
291
330
277
100
AcDbEntity
  8
hidden
100
AcDbLine
 10
47.95
 20
5.000000000000004
 30
0.0
 11
50.0
 21
5.000000000000004
 31
0.0
  0
LINE
  5
292
330
277
100
AcDbEntity
  8
hidden
100
AcDbLine
 10
36.95
 20
5.000000000000045
 30
0.0
 11
37.95
 21
5.000000000000074
 31
0.0
  0
LINE
  5
293
330
277
100
AcDbEntity
  8
hidden
100
AcDbLine
 10
25.0
 20
484.0000000000001
 30
0.0
 11
50.0
 21
484.0000000000001
 31
0.0
  0
LINE
  5
294
330
277
100
AcDbEntity
  8
hidden
100
AcDbLine
 10
25.0
 20
299.0000000000001
 30
0.0
 11
50.0
 21
299.0000000000001
 31
0.0
  0
LINE
  5
295
330
277
100
AcDbEntity
  8
hidden
100
AcDbLine
 10
25.0
 20
114.0
 30
0.0
 11
50.0
 21
114.0
 31
0.0
  0
LINE
  5
296
330
277
100
AcDbEntity
  8
hidden
100
AcDbLine
 10
47.75
 20
517.0
 30
0.0
 11
47.75
 21
507.0
 31
0.0
  0
LINE
  5
297
330
277
100
AcDbEntity
  8
hidden
100
AcDbLine
 10
47.75
 20
332.0000000000001
 30
0.0
 11
47.75
 21
322.0000000000001
 31
0.0
  0
LINE
  5
298
330
277
100
AcDbEntity
  8
hidden
100
AcDbLine
 10
47.75
 20
147.0
 30
0.0
 11
47.75
 21
137.0000000000001
 31
0.0
  0
LINE
  5
299
330
277
100
AcDbEntity
  8
hidden
100
AcDbLine
 10
35.65
 20
334.0000000000001
 30
0.0
 11
39.45
 21
334.0000000000001
 31
0.0
  0
LINE
  5
29A
330
277
100
AcDbEntity
  8
hidden
100
AcDbLine
 10
43.95
 20
334.0000000000001
 30
0.0
 11
50.0
 21
334.0000000000001
 31
0.0
  0
LINE
  5
29B
330
277
100
AcDbEntity
  8
hidden
100
AcDbLine
 10
25.0
 20
177.0000000000001
 30
0.0
 11
26.0
 21
177.0000000000001
 31
0.0
  0
LINE
  5
29C
330
277
100
AcDbEntity
  8
hidden
100
AcDbLine
 10
26.6
 20
149.0
 30
0.0
 11
26.6
 21
177.0000000000001
 31
0.0
  0
LINE
  5
29D
330
277
100
AcDbEntity
  8
hidden
100
AcDbLine
 10
48.4
 20
149.0
 30
0.0
 11
48.4
 21
177.0000000000001
 31
0.0
  0
LINE
  5
29E
330
277
100
AcDbEntity
  8
hidden
100
AcDbLine
 10
26.6
 20
519.0
 30
0.0
 11
26.6
 21
547.0
 31
0.0
  0
LINE
  5
29F
330
277
100
AcDbEntity
  8
hidden
100
AcDbLine
 10
26.6
 20
334.5
 30
0.0
 11
26.6
 21
362.5000000000001
 31
0.0
  0
LINE
  5
2A0
330
277
100
AcDbEntity
  8
hidden
100
AcDbLine
 10
25.0
 20
334.0000000000001
 30
0.0
 11
31.15
 21
334.0000000000001
 31
0.0
  0
LINE
  5
2A1
330
277
100
AcDbEntity
  8
hidden
100
AcDbLine
 10
25.0
 20
362.0000000000001
 30
0.0
 11
50.0
 21
362.0000000000001
 31
0.0
  0
LINE
  5
2A2
330
277
100
AcDbEntity
  8
hidden
100
AcDbLine
 10
48.4
 20
519.0
 30
0.0
 11
48.4
 21
547.0
 31
0.0
  0
LINE
  5
2A3
330
277
100
AcDbEntity
  8
hidden
100
AcDbLine
 10
48.4
 20
334.5
 30
0.0
 11
48.4
 21
362.5000000000001
 31
0.0
  0
LINE
  5
2A4
330
277
100
AcDbEntity
  8
hidden
100
AcDbLine
 10
45.5
 20
149.0
 30
0.0
 11
43.95
 21
149.0
 31
0.0
  0
LINE
  5
2A5
330
277
100
AcDbEntity
  8
hidden
100
AcDbLine
 10
45.5
 20
519.0
 30
0.0
 11
43.95
 21
519.0
 31
0.0
  0
LINE
  5
2A6
330
277
100
AcDbEntity
  8
hidden
100
AcDbLine
 10
45.5
 20
334.5
 30
0.0
 11
43.95
 21
334.5
 31
0.0
  0
LINE
  5
2A7
330
277
100
AcDbEntity
  8
hidden
100
AcDbLine
 10
43.9
 20
334.5
 30
0.0
 11
29.5
 21
334.5
 31
0.0
  0
LINE
  5
2A8
330
277
100
AcDbEntity
  8
hidden
100
AcDbLine
 10
43.9
 20
149.0
 30
0.0
 11
29.5
 21
149.0
 31
0.0
  0
LINE
  5
2A9
330
277
100
AcDbEntity
  8
hidden
100
AcDbLine
 10
45.5
 20
177.0000000000001
 30
0.0
 11
29.5
 21
177.0000000000001
 31
0.0
  0
LINE
  5
2AA
330
277
100
AcDbEntity
  8
hidden
100
AcDbLine
 10
45.5
 20
547.0
 30
0.0
 11
29.5
 21
547.0
 31
0.0
  0
LINE
  5
2AB
330
277
100
AcDbEntity
  8
hidden
100
AcDbLine
 10
43.9
 20
519.0
 30
0.0
 11
29.5
 21
519.0
 31
0.0
  0
LINE
  5
2AC
330
277
100
AcDbEntity
  8
hidden
100
AcDbLine
 10
45.5
 20
362.5000000000001
 30
0.0
 11
29.5
 21
362.5000000000001
 31
0.0
  0
LINE
  5
2AD
330
277
100
AcDbEntity
  8
hidden
100
AcDbLine
 10
31.05
 20
554.0
 30
0.0
 11
31.05
 21
556.0
 31
0.0
  0
LINE
  5
2AE
330
277
100
AcDbEntity
  8
hidden
100
AcDbLine
 10
35.55
 20
554.0
 30
0.0
 11
35.55
 21
556.0
 31
0.0
  0
LINE
  5
2AF
330
277
100
AcDbEntity
  8
hidden
100
AcDbLine
 10
27.25
 20
5.000000000000004
 30
0.0
 11
27.25
 21
3.000000000000003
 31
0.0
  0
LINE
  5
2B0
330
277
100
AcDbEntity
  8
hidden
100
AcDbLine
 10
43.85
 20
5.000000000000004
 30
0.0
 11
43.85
 21
3.000000000000003
 31
0.0
  0
LINE
  5
2B1
330
277
100
AcDbEntity
  8
hidden
100
AcDbLine
 10
39.34999999999999
 20
5.000000000000004
 30
0.0
 11
39.34999999999999
 21
3.000000000000003
 31
0.0
  0
LINE
  5
2B2
330
277
100
AcDbEntity
  8
hidden
100
AcDbLine
 10
27.25
 20
554.0
 30
0.0
 11
27.25
 21
556.0
 31
0.0
  0
LINE
  5
2B3
330
277
100
AcDbEntity
  8
hidden
100
AcDbLine
 10
35.55
 20
5.000000000000004
 30
0.0
 11
35.55
 21
3.000000000000003
 31
0.0
  0
LINE
  5
2B4
330
277
100
AcDbEntity
  8
hidden
100
AcDbLine
 10
31.04999999999999
 20
5.000000000000004
 30
0.0
 11
31.04999999999999
 21
3.000000000000003
 31
0.0
  0
LINE
  5
2B5
330
277
100
AcDbEntity
  8
hidden
100
AcDbLine
 10
39.34999999999999
 20
554.0
 30
0.0
 11
39.34999999999999
 21
556.0
 31
0.0
  0
LINE
  5
2B6
330
277
100
AcDbEntity
  8
hidden
100
AcDbLine
 10
43.85
 20
554.0
 30
0.0
 11
43.85
 21
556.0
 31
0.0
  0
LINE
  5
2B7
330
277
100
AcDbEntity
  8
hidden
100
AcDbLine
 10
35.65
 20
334.5
 30
0.0
 11
35.65
 21
332.0000000000001
 31
0.0
  0
LINE
  5
2B8
330
277
100
AcDbEntity
  8
hidden
100
AcDbLine
 10
31.15
 20
334.5
 30
0.0
 11
31.15
 21
332.0000000000001
 31
0.0
  0
LINE
  5
2B9
330
277
100
AcDbEntity
  8
hidden
100
AcDbLine
 10
35.65
 20
149.0
 30
0.0
 11
35.65
 21
147.0
 31
0.0
  0
LINE
  5
2BA
330
277
100
AcDbEntity
  8
hidden
100
AcDbLine
 10
31.15
 20
149.0
 30
0.0
 11
31.15
 21
147.0
 31
0.0
  0
LINE
  5
2BB
330
277
100
AcDbEntity
  8
hidden
100
AcDbLine
 10
35.65
 20
519.0
 30
0.0
 11
35.65
 21
517.0
 31
0.0
  0
LINE
  5
2BC
330
277
100
AcDbEntity
  8
hidden
100
AcDbLine
 10
31.15
 20
519.0
 30
0.0
 11
31.15
 21
517.0
 31
0.0
  0
LINE
  5
2BD
330
277
100
AcDbEntity
  8
hidden
100
AcDbLine
 10
43.95
 20
157.0
 30
0.0
 11
43.9
 21
157.0
 31
0.0
  0
LINE
  5
2BE
330
277
100
AcDbEntity
  8
hidden
100
AcDbLine
 10
43.95
 20
157.0
 30
0.0
 11
43.95
 21
147.0
 31
0.0
  0
LINE
  5
2BF
330
277
100
AcDbEntity
  8
hidden
100
AcDbLine
 10
39.45
 20
149.0
 30
0.0
 11
39.45
 21
147.0
 31
0.0
  0
LINE
  5
2C0
330
277
100
AcDbEntity
  8
hidden
100
AcDbLine
 10
43.95
 20
342.0000000000001
 30
0.0
 11
43.9
 21
342.0000000000001
 31
0.0
  0
LINE
  5
2C1
330
277
100
AcDbEntity
  8
hidden
100
AcDbLine
 10
43.95
 20
342.0000000000001
 30
0.0
 11
43.95
 21
332.0000000000001
 31
0.0
  0
LINE
  5
2C2
330
277
100
AcDbEntity
  8
hidden
100
AcDbLine
 10
39.45
 20
334.5
 30
0.0
 11
39.45
 21
332.0000000000001
 31
0.0
  0
LINE
  5
2C3
330
277
100
AcDbEntity
  8
hidden
100
AcDbLine
 10
43.95
 20
527.0
 30
0.0
 11
43.9
 21
527.0
 31
0.0
  0
LINE
  5
2C4
330
277
100
AcDbEntity
  8
hidden
100
AcDbLine
 10
43.95
 20
527.0
 30
0.0
 11
43.95
 21
517.0
 31
0.0
  0
LINE
  5
2C5
330
277
100
AcDbEntity
  8
hidden
100
AcDbLine
 10
39.45
 20
519.0
 30
0.0
 11
39.45
 21
517.0
 31
0.0
  0
LINE
  5
2C6
330
277
100
AcDbEntity
  8
hidden
100
AcDbLine
 10
31.1
 20
519.0
 30
0.0
 11
31.1
 21
547.0
 31
0.0
  0
LINE
  5
2C7
330
277
100
AcDbEntity
  8
hidden
100
AcDbLine
 10
43.9
 20
519.0
 30
0.0
 11
43.9
 21
547.0
 31
0.0
  0
LINE
  5
2C8
330
277
100
AcDbEntity
  8
hidden
100
AcDbLine
 10
31.1
 20
334.5
 30
0.0
 11
31.1
 21
362.5000000000001
 31
0.0
  0
LINE
  5
2C9
330
277
100
AcDbEntity
  8
hidden
100
AcDbLine
 10
43.9
 20
334.5
 30
0.0
 11
43.9
 21
362.5000000000001
 31
0.0
  0
LINE
  5
2CA
330
277
100
AcDbEntity
  8
hidden
100
AcDbLine
 10
43.9
 20
149.0
 30
0.0
 11
43.9
 21
177.0000000000001
 31
0.0
  0
LINE
  5
2CB
330
277
100
AcDbEntity
  8
hidden
100
AcDbLine
 10
31.1
 20
149.0
 30
0.0
 11
31.1
 21
177.0000000000001
 31
0.0
  0
LINE
  5
2CC
330
277
100
AcDbEntity
  8
hidden
100
AcDbLine
 10
25.0
 20
3.000000000000003
 30
0.0
 11
50.0
 21
3.000000000000003
 31
0.0
  0
LINE
  5
2CD
330
277
100
AcDbEntity
  8
hidden
100
AcDbLine
 10
25.0
 20
1.500000000000057
 30
0.0
 11
50.0
 21
1.500000000000057
 31
0.0
  0
LINE
  5
2CE
330
277
100
AcDbEntity
  8
center
100
AcDbLine
 10
31.0375
 20
493.2500000000001
 30
0.0
 11
35.7625
 21
493.2500000000001
 31
0.0
  0
LINE
  5
2CF
330
277
100
AcDbEntity
  8
center
100
AcDbLine
 10
33.4
 20
490.8875000000001
 30
0.0
 11
33.4
 21
495.6125000000001
 31
0.0
  0
LINE
  5
2D0
330
277
100
AcDbEntity
  8
center
100
AcDbLine
 10
39.33750000000006
 20
308.25
 30
0.0
 11
44.06249999999994
 21
308.25
 31
0.0
  0
LINE
  5
2D1
330
277
100
AcDbEntity
  8
center
100
AcDbLine
 10
41.7
 20
305.8875
 30
0.0
 11
41.7
 21
310.6125
 31
0.0
  0
LINE
  5
2D2
330
277
100
AcDbEntity
  8
center
100
AcDbLine
 10
39.33750000000001
 20
493.2500000000001
 30
0.0
 11
44.0625
 21
493.2500000000001
 31
0.0
  0
LINE
  5
2D3
330
277
100
AcDbEntity
  8
center
100
AcDbLine
 10
41.7
 20
490.8875000000001
 30
0.0
 11
41.7
 21
495.6125000000001
 31
0.0
  0
LINE
  5
2D4
330
277
100
AcDbEntity
  8
center
100
AcDbLine
 10
31.03749999999998
 20
123.25
 30
0.0
 11
35.76250000000002
 21
123.25
 31
0.0
  0
LINE
  5
2D5
330
277
100
AcDbEntity
  8
center
100
AcDbLine
 10
33.4
 20
120.8875
 30
0.0
 11
33.4
 21
125.6125
 31
0.0
  0
LINE
  5
2D6
330
277
100
AcDbEntity
  8
center
100
AcDbLine
 10
39.33749999999999
 20
123.25
 30
0.0
 11
44.06250000000001
 21
123.25
 31
0.0
  0
LINE
  5
2D7
330
277
100
AcDbEntity
  8
center
100
AcDbLine
 10
41.7
 20
120.8875
 30
0.0
 11
41.7
 21
125.6125
 31
0.0
  0
LINE
  5
2D8
330
277
100
AcDbEntity
  8
center
100
AcDbLine
 10
31.03750000000006
 20
308.25
 30
0.0
 11
35.76249999999994
 21
308.25
 31
0.0
  0
LINE
  5
2D9
330
277
100
AcDbEntity
  8
center
100
AcDbLine
 10
33.4
 20
305.8875
 30
0.0
 11
33.4
 21
310.6125
 31
0.0
  0
LINE
  5
2DA
330
277
100
AcDbEntity
  8
bold
100
AcDbLine
 10
39.34999999999999
 20
552.0
 30
0.0
 11
39.34999999999999
 21
554.0
 31
0.0
  0
LINE
  5
2DB
330
277
100
AcDbEntity
  8
bold
100
AcDbLine
 10
39.34999999999999
 20
552.0
 30
0.0
 11
43.85
 21
552.0
 31
0.0
  0
LINE
  5
2DC
330
277
100
AcDbEntity
  8
bold
100
AcDbLine
 10
43.85
 20
554.0
 30
0.0
 11
43.85
 21
552.0
 31
0.0
  0
LINE
  5
2DD
330
277
100
AcDbEntity
  8
bold
100
AcDbLine
 10
31.05
 20
552.0
 30
0.0
 11
31.05
 21
554.0
 31
0.0
  0
LINE
  5
2DE
330
277
100
AcDbEntity
  8
bold
100
AcDbLine
 10
35.55
 20
554.0
 30
0.0
 11
35.55
 21
552.0
 31
0.0
  0
LINE
  5
2DF
330
277
100
AcDbEntity
  8
bold
100
AcDbLine
 10
31.05
 20
552.0
 30
0.0
 11
35.55
 21
552.0
 31
0.0
  0
LINE
  5
2E0
330
277
100
AcDbEntity
  8
bold
100
AcDbLine
 10
25.0
 20
552.0
 30
0.0
 11
25.0
 21
507.0
 31
0.0
  0
LINE
  5
2E1
330
277
100
AcDbEntity
  8
bold
100
AcDbLine
 10
27.25
 20
554.0
 30
0.0
 11
27.25
 21
552.0
 31
0.0
  0
LINE
  5
2E2
330
277
100
AcDbEntity
  8
bold
100
AcDbLine
 10
25.0
 20
552.0
 30
0.0
 11
27.25
 21
552.0
 31
0.0
  0
LINE
  5
2E3
330
277
100
AcDbEntity
  8
bold
100
AcDbLine
 10
39.45
 20
332.0000000000001
 30
0.0
 11
39.45
 21
308.25
 31
0.0
  0
LINE
  5
2E4
330
277
100
AcDbEntity
  8
bold
100
AcDbLine
 10
43.95
 20
308.25
 30
0.0
 11
43.95
 21
332.0000000000001
 31
0.0
  0
ARC
  5
2E5
330
277
100
AcDbEntity
  8
bold
100
AcDbCircle
 10
41.7
 20
308.25
 30
0.0
 40
2.250000000000007
100
AcDbArc
 50
180.0
 51
0.0
  0
LINE
  5
2E6
330
277
100
AcDbEntity
  8
bold
100
AcDbLine
 10
35.65
 20
123.25
 30
0.0
 11
35.65
 21
147.0
 31
0.0
  0
LINE
  5
2E7
330
277
100
AcDbEntity
  8
bold
100
AcDbLine
 10
31.15
 20
147.0
 30
0.0
 11
31.15
 21
123.25
 31
0.0
  0
ARC
  5
2E8
330
277
100
AcDbEntity
  8
bold
100
AcDbCircle
 10
33.4
 20
123.25
 30
0.0
 40
2.25
100
AcDbArc
 50
180.0
 51
0.0
  0
LINE
  5
2E9
330
277
100
AcDbEntity
  8
bold
100
AcDbLine
 10
31.15
 20
332.0000000000001
 30
0.0
 11
31.15
 21
308.25
 31
0.0
  0
LINE
  5
2EA
330
277
100
AcDbEntity
  8
bold
100
AcDbLine
 10
35.65
 20
308.25
 30
0.0
 11
35.65
 21
332.0000000000001
 31
0.0
  0
ARC
  5
2EB
330
277
100
AcDbEntity
  8
bold
100
AcDbCircle
 10
33.4
 20
308.25
 30
0.0
 40
2.25
100
AcDbArc
 50
180.0
 51
0.0
  0
ARC
  5
2EC
330
277
100
AcDbEntity
  8
bold
100
AcDbCircle
 10
25.00000000000006
 20
308.25
 30
0.0
 40
2.249999999999943
100
AcDbArc
 50
269.9999999999985
 51
0.0
  0
LINE
  5
2ED
330
277
100
AcDbEntity
  8
bold
100
AcDbLine
 10
39.45
 20
517.0
 30
0.0
 11
39.45
 21
493.2500000000001
 31
0.0
  0
LINE
  5
2EE
330
277
100
AcDbEntity
  8
bold
100
AcDbLine
 10
43.95
 20
493.2500000000001
 30
0.0
 11
43.95
 21
517.0
 31
0.0
  0
ARC
  5
2EF
330
277
100
AcDbEntity
  8
bold
100
AcDbCircle
 10
41.7
 20
493.2500000000001
 30
0.0
 40
2.250000000000007
100
AcDbArc
 50
180.0000000000014
 51
359.9999999999986
  0
LINE
  5
2F0
330
277
100
AcDbEntity
  8
bold
100
AcDbLine
 10
35.65
 20
493.2500000000001
 30
0.0
 11
35.65
 21
517.0
 31
0.0
  0
LINE
  5
2F1
330
277
100
AcDbEntity
  8
bold
100
AcDbLine
 10
31.15
 20
517.0
 30
0.0
 11
31.15
 21
493.2500000000001
 31
0.0
  0
ARC
  5
2F2
330
277
100
AcDbEntity
  8
bold
100
AcDbCircle
 10
33.4
 20
493.2500000000001
 30
0.0
 40
2.25
100
AcDbArc
 50
180.0000000000014
 51
359.9999999999986
  0
LINE
  5
2F3
330
277
100
AcDbEntity
  8
bold
100
AcDbLine
 10
39.45
 20
147.0
 30
0.0
 11
39.45
 21
123.25
 31
0.0
  0
LINE
  5
2F4
330
277
100
AcDbEntity
  8
bold
100
AcDbLine
 10
43.95
 20
123.25
 30
0.0
 11
43.95
 21
147.0
 31
0.0
  0
ARC
  5
2F5
330
277
100
AcDbEntity
  8
bold
100
AcDbCircle
 10
41.7
 20
123.25
 30
0.0
 40
2.250000000000007
100
AcDbArc
 50
180.0
 51
0.0
  0
ARC
  5
2F6
330
277
100
AcDbEntity
  8
bold
100
AcDbCircle
 10
25.00000000000004
 20
123.25
 30
0.0
 40
2.249999999999972
100
AcDbArc
 50
269.999999999999
 51
0.0
  0
ARC
  5
2F7
330
277
100
AcDbEntity
  8
bold
100
AcDbCircle
 10
24.99999999999995
 20
493.2500000000001
 30
0.0
 40
2.250000000000057
100
AcDbArc
 50
270.0000000000013
 51
359.9999999999986
  0
LINE
  5
2F8
330
277
100
AcDbEntity
  8
bold
100
AcDbLine
 10
25.0
 20
322.0000000000001
 30
0.0
 11
25.0
 21
491.0000000000001
 31
0.0
  0
LINE
  5
2F9
330
277
100
AcDbEntity
  8
bold
100
AcDbLine
 10
50.0
 20
322.0000000000001
 30
0.0
 11
50.0
 21
491.0000000000001
 31
0.0
  0
LINE
  5
2FA
330
277
100
AcDbEntity
  8
bold
100
AcDbLine
 10
38.05
 20
482.2
 30
0.0
 11
45.85
 21
482.2
 31
0.0
  0
LINE
  5
2FB
330
277
100
AcDbEntity
  8
bold
100
AcDbLine
 10
29.75
 20
482.2
 30
0.0
 11
37.05
 21
482.2
 31
0.0
  0
LINE
  5
2FC
330
277
100
AcDbEntity
  8
bold
100
AcDbLine
 10
27.25
 20
482.2
 30
0.0
 11
28.75
 21
482.2
 31
0.0
  0
LINE
  5
2FD
330
277
100
AcDbEntity
  8
bold
100
AcDbLine
 10
27.25
 20
491.0000000000001
 30
0.0
 11
27.25
 21
482.2
 31
0.0
  0
LINE
  5
2FE
330
277
100
AcDbEntity
  8
bold
100
AcDbLine
 10
25.0
 20
491.0000000000001
 30
0.0
 11
27.25
 21
491.0000000000001
 31
0.0
  0
ARC
  5
2FF
330
277
100
AcDbEntity
  8
bold
100
AcDbCircle
 10
50.00000000000006
 20
493.2500000000001
 30
0.0
 40
2.250000000000057
100
AcDbArc
 50
180.0000000000014
 51
269.9999999999985
  0
LINE
  5
300
330
277
100
AcDbEntity
  8
bold
100
AcDbLine
 10
47.75
 20
507.0
 30
0.0
 11
47.75
 21
493.2500000000001
 31
0.0
  0
LINE
  5
301
330
277
100
AcDbEntity
  8
bold
100
AcDbLine
 10
50.0
 20
137.0000000000001
 30
0.0
 11
50.0
 21
306.0000000000001
 31
0.0
  0
LINE
  5
302
330
277
100
AcDbEntity
  8
bold
100
AcDbLine
 10
38.05
 20
297.2
 30
0.0
 11
45.85
 21
297.2
 31
0.0
  0
LINE
  5
303
330
277
100
AcDbEntity
  8
bold
100
AcDbLine
 10
29.75
 20
297.2
 30
0.0
 11
37.05
 21
297.2
 31
0.0
  0
LINE
  5
304
330
277
100
AcDbEntity
  8
bold
100
AcDbLine
 10
27.25
 20
297.2
 30
0.0
 11
28.75
 21
297.2
 31
0.0
  0
LINE
  5
305
330
277
100
AcDbEntity
  8
bold
100
AcDbLine
 10
27.25
 20
306.0000000000001
 30
0.0
 11
27.25
 21
297.2
 31
0.0
  0
LINE
  5
306
330
277
100
AcDbEntity
  8
bold
100
AcDbLine
 10
25.0
 20
306.0000000000001
 30
0.0
 11
27.25
 21
306.0000000000001
 31
0.0
  0
ARC
  5
307
330
277
100
AcDbEntity
  8
bold
100
AcDbCircle
 10
49.99999999999994
 20
308.25
 30
0.0
 40
2.249999999999943
100
AcDbArc
 50
180.0
 51
270.0000000000015
  0
LINE
  5
308
330
277
100
AcDbEntity
  8
bold
100
AcDbLine
 10
47.75
 20
322.0000000000001
 30
0.0
 11
47.75
 21
308.25
 31
0.0
  0
LINE
  5
309
330
277
100
AcDbEntity
  8
bold
100
AcDbLine
 10
38.05
 20
112.2
 30
0.0
 11
45.85
 21
112.2
 31
0.0
  0
LINE
  5
30A
330
277
100
AcDbEntity
  8
bold
100
AcDbLine
 10
29.75
 20
112.2
 30
0.0
 11
37.05
 21
112.2
 31
0.0
  0
LINE
  5
30B
330
277
100
AcDbEntity
  8
bold
100
AcDbLine
 10
27.25
 20
112.2
 30
0.0
 11
28.75
 21
112.2
 31
0.0
  0
LINE
  5
30C
330
277
100
AcDbEntity
  8
bold
100
AcDbLine
 10
27.25
 20
121.0
 30
0.0
 11
27.25
 21
112.2
 31
0.0
  0
LINE
  5
30D
330
277
100
AcDbEntity
  8
bold
100
AcDbLine
 10
25.0
 20
121.0
 30
0.0
 11
27.25
 21
121.0
 31
0.0
  0
ARC
  5
30E
330
277
100
AcDbEntity
  8
bold
100
AcDbCircle
 10
49.99999999999996
 20
123.25
 30
0.0
 40
2.249999999999964
100
AcDbArc
 50
180.0
 51
270.0000000000009
  0
LINE
  5
30F
330
277
100
AcDbEntity
  8
bold
100
AcDbLine
 10
47.75
 20
137.0000000000001
 30
0.0
 11
47.75
 21
123.25
 31
0.0
  0
LINE
  5
310
330
277
100
AcDbEntity
  8
bold
100
AcDbLine
 10
27.25
 20
5.000000000000004
 30
0.0
 11
27.25
 21
7.000000000000006
 31
0.0
  0
LINE
  5
311
330
277
100
AcDbEntity
  8
bold
100
AcDbLine
 10
25.0
 20
121.0
 30
0.0
 11
25.0
 21
7.000000000000006
 31
0.0
  0
LINE
  5
312
330
277
100
AcDbEntity
  8
bold
100
AcDbLine
 10
25.0
 20
7.000000000000006
 30
0.0
 11
27.25
 21
7.000000000000006
 31
0.0
  0
LINE
  5
313
330
277
100
AcDbEntity
  8
bold
100
AcDbLine
 10
43.85
 20
5.000000000000004
 30
0.0
 11
43.85
 21
7.000000000000006
 31
0.0
  0
LINE
  5
314
330
277
100
AcDbEntity
  8
bold
100
AcDbLine
 10
39.34999999999999
 20
7.000000000000006
 30
0.0
 11
39.34999999999999
 21
5.000000000000004
 31
0.0
  0
LINE
  5
315
330
277
100
AcDbEntity
  8
bold
100
AcDbLine
 10
39.34999999999999
 20
7.000000000000006
 30
0.0
 11
43.85
 21
7.000000000000006
 31
0.0
  0
LINE
  5
316
330
277
100
AcDbEntity
  8
bold
100
AcDbLine
 10
35.55
 20
5.000000000000004
 30
0.0
 11
35.55
 21
7.000000000000006
 31
0.0
  0
LINE
  5
317
330
277
100
AcDbEntity
  8
bold
100
AcDbLine
 10
31.04999999999999
 20
7.000000000000006
 30
0.0
 11
31.04999999999999
 21
5.000000000000004
 31
0.0
  0
LINE
  5
318
330
277
100
AcDbEntity
  8
bold
100
AcDbLine
 10
31.04999999999999
 20
7.000000000000006
 30
0.0
 11
35.55
 21
7.000000000000006
 31
0.0
  0
LINE
  5
319
330
277
100
AcDbEntity
  8
light
100
AcDbLine
 10
25.0
 20
13.00062956761538
 30
0.0
 11
50.0
 21
13.00062956761538
 31
0.0
  0
LINE
  5
31A
330
277
100
AcDbEntity
  8
bold
100
AcDbLine
 10
25.0
 20
11.06413789451166
 30
0.0
 11
28.95
 21
11.06413789451166
 31
0.0
  0
LINE
  5
31B
330
277
100
AcDbEntity
  8
bold
100
AcDbLine
 10
29.95
 20
11.06413789451166
 30
0.0
 11
36.95
 21
11.06413789451166
 31
0.0
  0
LINE
  5
31C
330
277
100
AcDbEntity
  8
bold
100
AcDbLine
 10
37.95
 20
11.06413789451166
 30
0.0
 11
47.95
 21
11.06413789451166
 31
0.0
  0
LINE
  5
31D
330
277
100
AcDbEntity
  8
bold
100
AcDbLine
 10
50.0
 20
507.0
 30
0.0
 11
47.75
 21
507.0
 31
0.0
  0
LINE
  5
31E
330
277
100
AcDbEntity
  8
bold
100
AcDbLine
 10
45.85
 20
506.5000000000001
 30
0.0
 11
47.75
 21
506.5000000000001
 31
0.0
  0
LINE
  5
31F
330
277
100
AcDbEntity
  8
bold
100
AcDbLine
 10
50.0
 20
322.0000000000001
 30
0.0
 11
47.75
 21
322.0000000000001
 31
0.0
  0
LINE
  5
320
330
277
100
AcDbEntity
  8
bold
100
AcDbLine
 10
45.85
 20
321.5000000000001
 30
0.0
 11
47.75
 21
321.5000000000001
 31
0.0
  0
LINE
  5
321
330
277
100
AcDbEntity
  8
bold
100
AcDbLine
 10
50.0
 20
137.0000000000001
 30
0.0
 11
47.75
 21
137.0000000000001
 31
0.0
  0
LINE
  5
322
330
277
100
AcDbEntity
  8
bold
100
AcDbLine
 10
45.85
 20
136.5
 30
0.0
 11
47.75
 21
136.5000000000001
 31
0.0
  0
LINE
  5
323
330
277
100
AcDbEntity
  8
bold
100
AcDbLine
 10
27.25
 20
322.0000000000001
 30
0.0
 11
25.0
 21
322.0000000000001
 31
0.0
  0
LINE
  5
324
330
277
100
AcDbEntity
  8
bold
100
AcDbLine
 10
27.25
 20
137.0
 30
0.0
 11
25.0
 21
137.0
 31
0.0
  0
LINE
  5
325
330
277
100
AcDbEntity
  8
bold
100
AcDbLine
 10
27.25
 20
507.0
 30
0.0
 11
25.0
 21
507.0
 31
0.0
  0
LINE
  5
326
330
277
100
AcDbEntity
  8
light
100
AcDbLine
 10
45.85
 20
322.7970707225663
 30
0.0
 11
50.0
 21
322.7970707225663
 31
0.0
  0
LINE
  5
327
330
277
100
AcDbEntity
  8
light
100
AcDbLine
 10
45.85
 20
325.0316959609822
 30
0.0
 11
50.0
 21
325.0316959609822
 31
0.0
  0
LINE
  5
328
330
277
100
AcDbEntity
  8
light
100
AcDbLine
 10
45.85
 20
510.0316959609823
 30
0.0
 11
50.0
 21
510.0316959609823
 31
0.0
  0
LINE
  5
329
330
277
100
AcDbEntity
  8
light
100
AcDbLine
 10
45.85
 20
507.7970707225664
 30
0.0
 11
50.0
 21
507.7970707225664
 31
0.0
  0
LINE
  5
32A
330
277
100
AcDbEntity
  8
light
100
AcDbLine
 10
45.85
 20
140.0316959609822
 30
0.0
 11
50.0
 21
140.0316959609822
 31
0.0
  0
LINE
  5
32B
330
277
100
AcDbEntity
  8
light
100
AcDbLine
 10
45.85
 20
137.7970707225663
 30
0.0
 11
50.0
 21
137.7970707225663
 31
0.0
  0
LINE
  5
32C
330
277
100
AcDbEntity
  8
light
100
AcDbLine
 10
27.25
 20
322.7972276368537
 30
0.0
 11
25.0
 21
322.7972276368537
 31
0.0
  0
LINE
  5
32D
330
277
100
AcDbEntity
  8
light
100
AcDbLine
 10
27.25
 20
325.0318528752696
 30
0.0
 11
25.0
 21
325.0318528752696
 31
0.0
  0
LINE
  5
32E
330
277
100
AcDbEntity
  8
light
100
AcDbLine
 10
27.25
 20
137.7972276368537
 30
0.0
 11
25.0
 21
137.7972276368537
 31
0.0
  0
LINE
  5
32F
330
277
100
AcDbEntity
  8
light
100
AcDbLine
 10
27.25
 20
507.7972276368537
 30
0.0
 11
25.0
 21
507.7972276368537
 31
0.0
  0
LINE
  5
330
330
277
100
AcDbEntity
  8
light
100
AcDbLine
 10
27.25
 20
510.0318528752696
 30
0.0
 11
25.0
 21
510.0318528752696
 31
0.0
  0
LINE
  5
331
330
277
100
AcDbEntity
  8
light
100
AcDbLine
 10
27.25
 20
140.0318528752696
 30
0.0
 11
25.0
 21
140.0318528752696
 31
0.0
  0
LINE
  5
332
330
277
100
AcDbEntity
  8
bold
100
AcDbLine
 10
38.05
 20
328.5005000000001
 30
0.0
 11
37.05
 21
328.5005000000001
 31
0.0
  0
LINE
  5
333
330
277
100
AcDbEntity
  8
bold
100
AcDbLine
 10
29.75
 20
513.5005
 30
0.0
 11
28.75
 21
513.5005
 31
0.0
  0
LINE
  5
334
330
277
100
AcDbEntity
  8
bold
100
AcDbLine
 10
38.05
 20
143.5005
 30
0.0
 11
37.05
 21
143.5005
 31
0.0
  0
LINE
  5
335
330
277
100
AcDbEntity
  8
bold
100
AcDbLine
 10
29.75
 20
328.5005000000001
 30
0.0
 11
28.75
 21
328.5005000000001
 31
0.0
  0
LINE
  5
336
330
277
100
AcDbEntity
  8
bold
100
AcDbLine
 10
29.75
 20
143.5005
 30
0.0
 11
28.75
 21
143.5005
 31
0.0
  0
LINE
  5
337
330
277
100
AcDbEntity
  8
bold
100
AcDbLine
 10
38.05
 20
513.5005
 30
0.0
 11
37.05
 21
513.5005
 31
0.0
  0
LINE
  5
338
330
277
100
AcDbEntity
  8
bold
100
AcDbLine
 10
45.85
 20
482.2
 30
0.0
 11
45.85
 21
517.0
 31
0.0
  0
LINE
  5
339
330
277
100
AcDbEntity
  8
bold
100
AcDbLine
 10
45.85
 20
515.2
 30
0.0
 11
50.0
 21
515.2
 31
0.0
  0
LINE
  5
33A
330
277
100
AcDbEntity
  8
bold
100
AcDbLine
 10
37.05
 20
482.2
 30
0.0
 11
37.05
 21
517.0
 31
0.0
  0
LINE
  5
33B
330
277
100
AcDbEntity
  8
bold
100
AcDbLine
 10
38.05
 20
482.2
 30
0.0
 11
38.05
 21
517.0
 31
0.0
  0
LINE
  5
33C
330
277
100
AcDbEntity
  8
bold
100
AcDbLine
 10
38.05
 20
515.2005
 30
0.0
 11
37.05
 21
515.2005
 31
0.0
  0
LINE
  5
33D
330
277
100
AcDbEntity
  8
bold
100
AcDbLine
 10
28.75
 20
297.2
 30
0.0
 11
28.75
 21
332.0000000000001
 31
0.0
  0
LINE
  5
33E
330
277
100
AcDbEntity
  8
bold
100
AcDbLine
 10
29.75
 20
330.2005000000001
 30
0.0
 11
28.75
 21
330.2005000000001
 31
0.0
  0
LINE
  5
33F
330
277
100
AcDbEntity
  8
bold
100
AcDbLine
 10
29.75
 20
297.2
 30
0.0
 11
29.75
 21
332.0000000000001
 31
0.0
  0
LINE
  5
340
330
277
100
AcDbEntity
  8
bold
100
AcDbLine
 10
27.25
 20
123.25
 30
0.0
 11
27.25
 21
147.0
 31
0.0
  0
LINE
  5
341
330
277
100
AcDbEntity
  8
bold
100
AcDbLine
 10
27.25
 20
145.2
 30
0.0
 11
25.0
 21
145.2
 31
0.0
  0
LINE
  5
342
330
277
100
AcDbEntity
  8
bold
100
AcDbLine
 10
27.25
 20
330.2
 30
0.0
 11
25.0
 21
330.2
 31
0.0
  0
LINE
  5
343
330
277
100
AcDbEntity
  8
bold
100
AcDbLine
 10
27.25
 20
308.25
 30
0.0
 11
27.25
 21
332.0000000000001
 31
0.0
  0
LINE
  5
344
330
277
100
AcDbEntity
  8
bold
100
AcDbLine
 10
28.75
 20
112.2
 30
0.0
 11
28.75
 21
147.0
 31
0.0
  0
LINE
  5
345
330
277
100
AcDbEntity
  8
bold
100
AcDbLine
 10
29.75
 20
145.2005
 30
0.0
 11
28.75
 21
145.2005
 31
0.0
  0
LINE
  5
346
330
277
100
AcDbEntity
  8
bold
100
AcDbLine
 10
29.75
 20
112.2
 30
0.0
 11
29.75
 21
147.0
 31
0.0
  0
LINE
  5
347
330
277
100
AcDbEntity
  8
bold
100
AcDbLine
 10
27.25
 20
515.2
 30
0.0
 11
25.0
 21
515.2
 31
0.0
  0
LINE
  5
348
330
277
100
AcDbEntity
  8
bold
100
AcDbLine
 10
27.25
 20
493.2500000000001
 30
0.0
 11
27.25
 21
517.0
 31
0.0
  0
LINE
  5
349
330
277
100
AcDbEntity
  8
bold
100
AcDbLine
 10
28.75
 20
482.2
 30
0.0
 11
28.75
 21
517.0
 31
0.0
  0
LINE
  5
34A
330
277
100
AcDbEntity
  8
bold
100
AcDbLine
 10
29.75
 20
515.2005
 30
0.0
 11
28.75
 21
515.2005
 31
0.0
  0
LINE
  5
34B
330
277
100
AcDbEntity
  8
bold
100
AcDbLine
 10
29.75
 20
482.2
 30
0.0
 11
29.75
 21
517.0
 31
0.0
  0
LINE
  5
34C
330
277
100
AcDbEntity
  8
bold
100
AcDbLine
 10
45.85
 20
297.2
 30
0.0
 11
45.85
 21
332.0000000000001
 31
0.0
  0
LINE
  5
34D
330
277
100
AcDbEntity
  8
bold
100
AcDbLine
 10
45.85
 20
330.2
 30
0.0
 11
50.0
 21
330.2
 31
0.0
  0
LINE
  5
34E
330
277
100
AcDbEntity
  8
bold
100
AcDbLine
 10
37.05
 20
297.2
 30
0.0
 11
37.05
 21
332.0000000000001
 31
0.0
  0
LINE
  5
34F
330
277
100
AcDbEntity
  8
bold
100
AcDbLine
 10
38.05
 20
330.2005000000001
 30
0.0
 11
37.05
 21
330.2005000000001
 31
0.0
  0
LINE
  5
350
330
277
100
AcDbEntity
  8
bold
100
AcDbLine
 10
38.05
 20
297.2
 30
0.0
 11
38.05
 21
332.0000000000001
 31
0.0
  0
LINE
  5
351
330
277
100
AcDbEntity
  8
bold
100
AcDbLine
 10
45.85
 20
112.2
 30
0.0
 11
45.85
 21
147.0
 31
0.0
  0
LINE
  5
352
330
277
100
AcDbEntity
  8
bold
100
AcDbLine
 10
45.85
 20
145.2
 30
0.0
 11
50.0
 21
145.2
 31
0.0
  0
LINE
  5
353
330
277
100
AcDbEntity
  8
bold
100
AcDbLine
 10
37.05
 20
112.2
 30
0.0
 11
37.05
 21
147.0
 31
0.0
  0
LINE
  5
354
330
277
100
AcDbEntity
  8
bold
100
AcDbLine
 10
38.05
 20
145.2005
 30
0.0
 11
37.05
 21
145.2005
 31
0.0
  0
LINE
  5
355
330
277
100
AcDbEntity
  8
bold
100
AcDbLine
 10
38.05
 20
112.2
 30
0.0
 11
38.05
 21
147.0
 31
0.0
  0
LINE
  5
356
330
277
100
AcDbEntity
  8
bold
100
AcDbLine
 10
38.0
 20
549.0
 30
0.0
 11
38.0
 21
554.0
 31
0.0
  0
LINE
  5
357
330
277
100
AcDbEntity
  8
bold
100
AcDbLine
 10
37.0
 20
554.0
 30
0.0
 11
37.0
 21
549.0
 31
0.0
  0
LINE
  5
358
330
277
100
AcDbEntity
  8
bold
100
AcDbLine
 10
48.0
 20
554.0
 30
0.0
 11
48.0
 21
549.0
 31
0.0
  0
LINE
  5
359
330
277
100
AcDbEntity
  8
bold
100
AcDbLine
 10
43.0
 20
549.0
 30
0.0
 11
43.0
 21
552.5000000000001
 31
0.0
  0
LINE
  5
35A
330
277
100
AcDbEntity
  8
bold
100
AcDbLine
 10
41.49999999999999
 20
552.5000000000001
 30
0.0
 11
41.49999999999999
 21
549.0
 31
0.0
  0
LINE
  5
35B
330
277
100
AcDbEntity
  8
bold
100
AcDbLine
 10
43.0
 20
552.5000000000001
 30
0.0
 11
41.49999999999999
 21
552.5000000000001
 31
0.0
  0
LINE
  5
35C
330
277
100
AcDbEntity
  8
bold
100
AcDbLine
 10
27.7
 20
554.0
 30
0.0
 11
27.7
 21
549.0
 31
0.0
  0
LINE
  5
35D
330
277
100
AcDbEntity
  8
bold
100
AcDbLine
 10
28.7
 20
549.0
 30
0.0
 11
28.7
 21
554.0
 31
0.0
  0
LINE
  5
35E
330
277
100
AcDbEntity
  8
bold
100
AcDbLine
 10
25.0
 20
5.000000000000004
 30
0.0
 11
25.0
 21
0.0
 31
0.0
  0
LINE
  5
35F
330
277
100
AcDbEntity
  8
bold
100
AcDbLine
 10
25.0
 20
0.0
 30
0.0
 11
50.0
 21
0.0
 31
0.0
  0
LINE
  5
360
330
277
100
AcDbEntity
  8
bold
100
AcDbLine
 10
25.0
 20
0.500000000000056
 30
0.0
 11
50.0
 21
0.500000000000056
 31
0.0
  0
LINE
  5
361
330
277
100
AcDbEntity
  8
bold
100
AcDbLine
 10
28.95
 20
5.000000000000004
 30
0.0
 11
28.95
 21
11.06413789451166
 31
0.0
  0
LINE
  5
362
330
277
100
AcDbEntity
  8
bold
100
AcDbLine
 10
37.95
 20
11.06413789451166
 30
0.0
 11
37.95
 21
5.000000000000004
 31
0.0
  0
LINE
  5
363
330
277
100
AcDbEntity
  8
bold
100
AcDbLine
 10
37.95
 20
5.000000000000004
 30
0.0
 11
47.95
 21
5.000000000000004
 31
0.0
  0
LINE
  5
364
330
277
100
AcDbEntity
  8
bold
100
AcDbLine
 10
25.0
 20
5.000000000000004
 30
0.0
 11
28.95
 21
5.000000000000004
 31
0.0
  0
LINE
  5
365
330
277
100
AcDbEntity
  8
bold
100
AcDbLine
 10
29.95
 20
5.000000000000004
 30
0.0
 11
36.95
 21
5.000000000000004
 31
0.0
  0
LINE
  5
366
330
277
100
AcDbEntity
  8
bold
100
AcDbLine
 10
47.95
 20
5.000000000000004
 30
0.0
 11
47.95
 21
11.06413789451166
 31
0.0
  0
LINE
  5
367
330
277
100
AcDbEntity
  8
bold
100
AcDbLine
 10
36.95
 20
5.000000000000004
 30
0.0
 11
36.95
 21
11.06413789451166
 31
0.0
  0
LINE
  5
368
330
277
100
AcDbEntity
  8
bold
100
AcDbLine
 10
29.95
 20
11.06413789451166
 30
0.0
 11
29.95
 21
5.000000000000004
 31
0.0
  0
LINE
  5
369
330
277
100
AcDbEntity
  8
bold
100
AcDbLine
 10
26.0
 20
175.5000000000001
 30
0.0
 11
26.0
 21
177.0000000000001
 31
0.0
  0
LINE
  5
36A
330
277
100
AcDbEntity
  8
bold
100
AcDbLine
 10
25.0
 20
175.5000000000001
 30
0.0
 11
26.0
 21
175.5000000000001
 31
0.0
  0
LINE
  5
36B
330
277
100
AcDbEntity
  8
bold
100
AcDbLine
 10
29.5
 20
149.0
 30
0.0
 11
25.0
 21
149.0
 31
0.0
  0
LINE
  5
36C
330
277
100
AcDbEntity
  8
bold
100
AcDbLine
 10
29.5
 20
177.0000000000001
 30
0.0
 11
26.0
 21
177.0000000000001
 31
0.0
  0
LINE
  5
36D
330
277
100
AcDbEntity
  8
bold
100
AcDbLine
 10
29.5
 20
149.0
 30
0.0
 11
29.5
 21
177.0000000000001
 31
0.0
  0
LINE
  5
36E
330
277
100
AcDbEntity
  8
bold
100
AcDbLine
 10
25.0
 20
147.0
 30
0.0
 11
50.0
 21
147.0
 31
0.0
  0
LINE
  5
36F
330
277
100
AcDbEntity
  8
bold
100
AcDbLine
 10
50.0
 20
149.0
 30
0.0
 11
45.5
 21
149.0
 31
0.0
  0
LINE
  5
370
330
277
100
AcDbEntity
  8
bold
100
AcDbLine
 10
25.0
 20
179.0000000000001
 30
0.0
 11
50.0
 21
179.0000000000001
 31
0.0
  0
LINE
  5
371
330
277
100
AcDbEntity
  8
bold
100
AcDbLine
 10
50.0
 20
177.0000000000001
 30
0.0
 11
45.5
 21
177.0000000000001
 31
0.0
  0
LINE
  5
372
330
277
100
AcDbEntity
  8
bold
100
AcDbLine
 10
45.5
 20
149.0
 30
0.0
 11
45.5
 21
177.0000000000001
 31
0.0
  0
LINE
  5
373
330
277
100
AcDbEntity
  8
bold
100
AcDbLine
 10
25.0
 20
137.0
 30
0.0
 11
25.0
 21
306.0000000000001
 31
0.0
  0
LINE
  5
374
330
277
100
AcDbEntity
  8
bold
100
AcDbLine
 10
25.0
 20
517.0
 30
0.0
 11
50.0
 21
517.0
 31
0.0
  0
LINE
  5
375
330
277
100
AcDbEntity
  8
bold
100
AcDbLine
 10
25.0
 20
549.0
 30
0.0
 11
27.7
 21
549.0
 31
0.0
  0
LINE
  5
376
330
277
100
AcDbEntity
  8
bold
100
AcDbLine
 10
50.0
 20
547.0
 30
0.0
 11
45.5
 21
547.0
 31
0.0
  0
LINE
  5
377
330
277
100
AcDbEntity
  8
bold
100
AcDbLine
 10
29.5
 20
519.0
 30
0.0
 11
29.5
 21
547.0
 31
0.0
  0
LINE
  5
378
330
277
100
AcDbEntity
  8
bold
100
AcDbLine
 10
29.5
 20
519.0
 30
0.0
 11
25.0
 21
519.0
 31
0.0
  0
LINE
  5
379
330
277
100
AcDbEntity
  8
bold
100
AcDbLine
 10
29.5
 20
547.0
 30
0.0
 11
25.0
 21
547.0
 31
0.0
  0
LINE
  5
37A
330
277
100
AcDbEntity
  8
bold
100
AcDbLine
 10
50.0
 20
519.0
 30
0.0
 11
45.5
 21
519.0
 31
0.0
  0
LINE
  5
37B
330
277
100
AcDbEntity
  8
bold
100
AcDbLine
 10
28.7
 20
549.0
 30
0.0
 11
37.0
 21
549.0
 31
0.0
  0
LINE
  5
37C
330
277
100
AcDbEntity
  8
bold
100
AcDbLine
 10
45.5
 20
519.0
 30
0.0
 11
45.5
 21
547.0
 31
0.0
  0
LINE
  5
37D
330
277
100
AcDbEntity
  8
bold
100
AcDbLine
 10
27.7
 20
552.0
 30
0.0
 11
28.7
 21
552.0
 31
0.0
  0
LINE
  5
37E
330
277
100
AcDbEntity
  8
bold
100
AcDbLine
 10
50.0
 20
507.0
 30
0.0
 11
50.0
 21
556.0
 31
0.0
  0
LINE
  5
37F
330
277
100
AcDbEntity
  8
bold
100
AcDbLine
 10
48.0
 20
552.0
 30
0.0
 11
50.0
 21
552.0
 31
0.0
  0
LINE
  5
380
330
277
100
AcDbEntity
  8
bold
100
AcDbLine
 10
43.0
 20
549.0
 30
0.0
 11
48.0
 21
549.0
 31
0.0
  0
LINE
  5
381
330
277
100
AcDbEntity
  8
bold
100
AcDbLine
 10
38.0
 20
549.0
 30
0.0
 11
41.49999999999999
 21
549.0
 31
0.0
  0
LINE
  5
382
330
277
100
AcDbEntity
  8
bold
100
AcDbLine
 10
37.0
 20
552.0
 30
0.0
 11
38.0
 21
552.0
 31
0.0
  0
LINE
  5
383
330
277
100
AcDbEntity
  8
bold
100
AcDbLine
 10
36.95
 20
10.00000000000001
 30
0.0
 11
37.95
 21
10.00000000000001
 31
0.0
  0
LINE
  5
384
330
277
100
AcDbEntity
  8
light
100
AcDbLine
 10
36.95
 20
11.00127016823038
 30
0.0
 11
37.95
 21
11.00127016823038
 31
0.0
  0
LINE
  5
385
330
277
100
AcDbEntity
  8
bold
100
AcDbLine
 10
25.0
 20
556.0
 30
0.0
 11
50.0
 21
556.0
 31
0.0
  0
LINE
  5
386
330
277
100
AcDbEntity
  8
bold
100
AcDbLine
 10
25.0
 20
554.0
 30
0.0
 11
25.0
 21
556.0
 31
0.0
  0
LINE
  5
387
330
277
100
AcDbEntity
  8
bold
100
AcDbLine
 10
50.0
 20
554.0
 30
0.0
 11
25.0
 21
554.0
 31
0.0
  0
LINE
  5
388
330
277
100
AcDbEntity
  8
bold
100
AcDbLine
 10
50.0
 20
362.5000000000001
 30
0.0
 11
45.5
 21
362.5000000000001
 31
0.0
  0
LINE
  5
389
330
277
100
AcDbEntity
  8
bold
100
AcDbLine
 10
45.5
 20
334.5
 30
0.0
 11
45.5
 21
362.5000000000001
 31
0.0
  0
LINE
  5
38A
330
277
100
AcDbEntity
  8
bold
100
AcDbLine
 10
29.5
 20
334.5
 30
0.0
 11
29.5
 21
362.5000000000001
 31
0.0
  0
LINE
  5
38B
330
277
100
AcDbEntity
  8
bold
100
AcDbLine
 10
26.0
 20
361.0000000000001
 30
0.0
 11
26.0
 21
362.5000000000001
 31
0.0
  0
LINE
  5
38C
330
277
100
AcDbEntity
  8
bold
100
AcDbLine
 10
25.0
 20
361.0000000000001
 30
0.0
 11
26.0
 21
361.0000000000001
 31
0.0
  0
LINE
  5
38D
330
277
100
AcDbEntity
  8
bold
100
AcDbLine
 10
29.5
 20
334.5
 30
0.0
 11
25.0
 21
334.5
 31
0.0
  0
LINE
  5
38E
330
277
100
AcDbEntity
  8
bold
100
AcDbLine
 10
29.5
 20
362.5000000000001
 30
0.0
 11
26.0
 21
362.5000000000001
 31
0.0
  0
LINE
  5
38F
330
277
100
AcDbEntity
  8
bold
100
AcDbLine
 10
50.0
 20
334.5
 30
0.0
 11
45.5
 21
334.5
 31
0.0
  0
LINE
  5
390
330
277
100
AcDbEntity
  8
bold
100
AcDbLine
 10
25.0
 20
364.0000000000001
 30
0.0
 11
50.0
 21
364.0000000000001
 31
0.0
  0
LINE
  5
391
330
277
100
AcDbEntity
  8
bold
100
AcDbLine
 10
25.0
 20
332.0000000000001
 30
0.0
 11
50.0
 21
332.0000000000001
 31
0.0
  0
LINE
  5
392
330
277
100
AcDbEntity
  8
light
100
AcDbLine
 10
47.95
 20
11.00127016823038
 30
0.0
 11
50.0
 21
11.00127016823038
 31
0.0
  0
LINE
  5
393
330
277
100
AcDbEntity
  8
bold
100
AcDbLine
 10
47.95
 20
10.00000000000001
 30
0.0
 11
50.0
 21
10.00000000000001
 31
0.0
  0
LINE
  5
394
330
277
100
AcDbEntity
  8
bold
100
AcDbLine
 10
50.0
 20
0.0
 30
0.0
 11
50.0
 21
121.0
 31
0.0
  0
LINE
  5
395
330
277
100
AcDbEntity
  8
bold
100
AcDbLine
 10
28.95
 20
10.00000000000001
 30
0.0
 11
29.95
 21
10.00000000000001
 31
0.0
  0
LINE
  5
396
330
277
100
AcDbEntity
  8
light
100
AcDbLine
 10
28.95
 20
11.00127016823038
 30
0.0
 11
29.95
 21
11.00127016823038
 31
0.0
  0
ENDBLK
  5
27A
330
277
100
AcDbEntity
  8
0
100
AcDbBlockEnd
  0
BLOCK
  5
399
330
397
100
AcDbEntity
  8
0
100
AcDbBlockBegin
  2
3_01434000A_end_cover_L1001_0_in_01434_0
 70
     2
 10
0.0
 20
0.0
 30
0.0
  3
3_01434000A_end_cover_L1001_0_in_01434_0
  1

  0
ATTDEF
  5
39B
330
397
100
AcDbEntity
  8
attrib
100
AcDbText
 10
-20.0
 20
556.0
 30
0.0
 40
0.5
  1
01434000A-end_cover_L1001
100
AcDbAttributeDefinition
  3

  2
NB
 70
     8
280
     0
  0
ATTDEF
  5
39C
330
397
100
AcDbEntity
  8
attrib
100
AcDbText
 10
-20.0
 20
555.5
 30
0.0
 40
0.5
  1
Covers and compartments end cover 1
100
AcDbAttributeDefinition
  3

  2
NN
 70
     8
280
     0
  0
ATTDEF
  5
39D
330
397
100
AcDbEntity
  8
attrib
100
AcDbText
 10
-20.0
 20
555.0
 30
0.0
 40
0.5
  1

100
AcDbAttributeDefinition
  3

  2
NT
 70
     8
280
     0
  0
ATTDEF
  5
39E
330
397
100
AcDbEntity
  8
attrib
100
AcDbText
 10
-20.0
 20
554.5
 30
0.0
 40
0.5
  1
$BOM.-end_cover_$SIDE.$L.$X.
100
AcDbAttributeDefinition
  3

  2
NBSYN
 70
     8
280
     0
  0
ATTDEF
  5
39F
330
397
100
AcDbEntity
  8
attrib
100
AcDbText
 10
-20.0
 20
554.0
 30
0.0
 40
0.5
  1
01434000A-end_cover_L1001
100
AcDbAttributeDefinition
  3

  2
LINA
 70
     8
280
     0
  0
ATTDEF
  5
3A0
330
397
100
AcDbEntity
  8
attrib
100
AcDbText
 10
-20.0
 20
553.5
 30
0.0
 40
0.5
  1
Wöhner
100
AcDbAttributeDefinition
  3

  2
CATALOG
 70
     8
280
     0
  0
ATTDEF
  5
3A1
330
397
100
AcDbEntity
  8
attrib
100
AcDbText
 10
-20.0
 20
553.0
 30
0.0
 40
0.5
  1
01434000A
100
AcDbAttributeDefinition
  3

  2
BOM
 70
     8
280
     0
  0
ATTDEF
  5
3A2
330
397
100
AcDbEntity
  8
attrib
100
AcDbText
 10
-20.0
 20
552.5
 30
0.0
 40
0.5
  1
01434
100
AcDbAttributeDefinition
  3

  2
ARTNR
 70
     8
280
     0
  0
ATTDEF
  5
3A3
330
397
100
AcDbEntity
  8
attrib
100
AcDbText
 10
-20.0
 20
552.0
 30
0.0
 40
0.5
  1
Left
100
AcDbAttributeDefinition
  3

  2
SIDE
 70
     8
280
     0
  0
ATTDEF
  5
3A4
330
397
100
AcDbEntity
  8
attrib
100
AcDbText
 10
-20.0
 20
551.5
 30
0.0
 40
0.5
  1
100
100
AcDbAttributeDefinition
  3

  2
L
 70
     8
280
     0
  0
ATTDEF
  5
3A5
330
397
100
AcDbEntity
  8
attrib
100
AcDbText
 10
-20.0
 20
551.0
 30
0.0
 40
0.5
  1
1
100
AcDbAttributeDefinition
  3

  2
X
 70
     8
280
     0
  0
ATTDEF
  5
3A6
330
397
100
AcDbEntity
  8
attrib
100
AcDbText
 10
-20.0
 20
550.5
 30
0.0
 40
0.5
  1
woehner
100
AcDbAttributeDefinition
  3

  2
COMPANY
 70
     8
280
     0
  0
ATTDEF
  5
3A7
330
397
100
AcDbEntity
  8
attrib
100
AcDbText
 10
-20.0
 20
550.0
 30
0.0
 40
0.5
  1
{$CADENAS_DATA/23d-libs/woehner/sys_185/busbar_supp_busbars_and_covers/parts/covers_and_compartments_cover.prj},231 {VTYP=3D},{NB=01434000A-end_cover_L1001},{LINA=01434000A-end_cover_L1001},{NN=Covers and compartments end cover 1},{DATE=19.10.2022 09:28:2
100
AcDbAttributeDefinition
  3

  2
PSOL_0
 70
     9
280
     0
  0
ATTDEF
  5
3A8
330
397
100
AcDbEntity
  8
attrib
100
AcDbText
 10
-20.0
 20
549.5
 30
0.0
 40
0.5
  1
3},{GEOMDATE=19.10.2022 09:27:00},{VERSION=},{LINEID=190},{WBVAR=SIDE,L,X},{WBNUMERIC=L,X}  {NB=01434000A-end_cover_L1001},{LINA=01434000A-end_cover_L1001},{KT=DUMMY},{BOM=01434000A},{ARTNR=01434},{SIDE=L},{SIDEX='L','Left' , 'R','Right' , 'M','Middle'},{
100
AcDbAttributeDefinition
  3

  2
PSOL_1
 70
     9
280
     0
  0
ATTDEF
  5
3A9
330
397
100
AcDbEntity
  8
attrib
100
AcDbText
 10
-20.0
 20
549.0
 30
0.0
 40
0.5
  1
L=100},{LX=[100]},{X=1},{XX=1},{BUSB=},{POF=},{TYPE=},{QNT=MIN},{W=MIN},{H=MIN},{D=MIN},{CONCA=},{SCR=},{IPR=},{SEARCH=},{EDZ=},{IODD=},{DIST=13},{LINK=Product link},{LINKX=https://www.woehner.de/de/produkte/01434.html},{VER=01434 L}
100
AcDbAttributeDefinition
  3

  2
PSOL_2
 70
     9
280
     0
  0
LINE
  5
3AA
330
397
100
AcDbEntity
  8
hidden
100
AcDbLine
 10
-50.0
 20
296.0000000000001
 30
0.0
 11
-25.0
 21
296.0000000000001
 31
0.0
  0
LINE
  5
3AB
330
397
100
AcDbEntity
  8
hidden
100
AcDbLine
 10
-50.0
 20
111.0
 30
0.0
 11
-25.0
 21
111.0
 31
0.0
  0
LINE
  5
3AC
330
397
100
AcDbEntity
  8
hidden
100
AcDbLine
 10
-50.0
 20
481.0000000000001
 30
0.0
 11
-25.0
 21
481.0000000000001
 31
0.0
  0
LINE
  5
3AD
330
397
100
AcDbEntity
  8
hidden
100
AcDbLine
 10
-50.0
 20
548.5000000000001
 30
0.0
 11
-25.0
 21
548.5000000000001
 31
0.0
  0
LINE
  5
3AE
330
397
100
AcDbEntity
  8
hidden
100
AcDbLine
 10
-50.0
 20
363.5000000000001
 30
0.0
 11
-25.0
 21
363.5000000000001
 31
0.0
  0
LINE
  5
3AF
330
397
100
AcDbEntity
  8
hidden
100
AcDbLine
 10
-50.0
 20
178.5000000000001
 30
0.0
 11
-25.0
 21
178.5000000000001
 31
0.0
  0
LINE
  5
3B0
330
397
100
AcDbEntity
  8
hidden
100
AcDbLine
 10
-37.95
 20
5.000000000000045
 30
0.0
 11
-36.95
 21
5.000000000000074
 31
0.0
  0
LINE
  5
3B1
330
397
100
AcDbEntity
  8
hidden
100
AcDbLine
 10
-50.0
 20
5.000000000000004
 30
0.0
 11
-47.95
 21
5.000000000000042
 31
0.0
  0
LINE
  5
3B2
330
397
100
AcDbEntity
  8
hidden
100
AcDbLine
 10
-29.95
 20
5.000000000000036
 30
0.0
 11
-28.95
 21
5.000000000000065
 31
0.0
  0
LINE
  5
3B3
330
397
100
AcDbEntity
  8
hidden
100
AcDbLine
 10
-50.0
 20
114.0
 30
0.0
 11
-25.0
 21
114.0
 31
0.0
  0
LINE
  5
3B4
330
397
100
AcDbEntity
  8
hidden
100
AcDbLine
 10
-50.0
 20
299.0000000000001
 30
0.0
 11
-25.0
 21
299.0000000000001
 31
0.0
  0
LINE
  5
3B5
330
397
100
AcDbEntity
  8
hidden
100
AcDbLine
 10
-50.0
 20
484.0000000000001
 30
0.0
 11
-25.0
 21
484.0000000000001
 31
0.0
  0
LINE
  5
3B6
330
397
100
AcDbEntity
  8
hidden
100
AcDbLine
 10
-47.75
 20
322.0000000000001
 30
0.0
 11
-47.75
 21
332.0000000000001
 31
0.0
  0
LINE
  5
3B7
330
397
100
AcDbEntity
  8
hidden
100
AcDbLine
 10
-47.75
 20
507.0
 30
0.0
 11
-47.75
 21
517.0
 31
0.0
  0
LINE
  5
3B8
330
397
100
AcDbEntity
  8
hidden
100
AcDbLine
 10
-47.75
 20
137.0000000000001
 30
0.0
 11
-47.75
 21
147.0
 31
0.0
  0
LINE
  5
3B9
330
397
100
AcDbEntity
  8
hidden
100
AcDbLine
 10
-26.6
 20
334.5
 30
0.0
 11
-26.6
 21
362.5000000000001
 31
0.0
  0
LINE
  5
3BA
330
397
100
AcDbEntity
  8
hidden
100
AcDbLine
 10
-48.4
 20
334.5
 30
0.0
 11
-48.4
 21
362.5000000000001
 31
0.0
  0
LINE
  5
3BB
330
397
100
AcDbEntity
  8
hidden
100
AcDbLine
 10
-50.0
 20
362.0000000000001
 30
0.0
 11
-25.0
 21
362.0000000000001
 31
0.0
  0
LINE
  5
3BC
330
397
100
AcDbEntity
  8
hidden
100
AcDbLine
 10
-39.45
 20
334.0000000000001
 30
0.0
 11
-35.65
 21
334.0000000000001
 31
0.0
  0
LINE
  5
3BD
330
397
100
AcDbEntity
  8
hidden
100
AcDbLine
 10
-50.0
 20
177.0000000000001
 30
0.0
 11
-49.0
 21
177.0000000000001
 31
0.0
  0
LINE
  5
3BE
330
397
100
AcDbEntity
  8
hidden
100
AcDbLine
 10
-48.4
 20
149.0
 30
0.0
 11
-48.4
 21
177.0000000000001
 31
0.0
  0
LINE
  5
3BF
330
397
100
AcDbEntity
  8
hidden
100
AcDbLine
 10
-48.4
 20
519.0
 30
0.0
 11
-48.4
 21
547.0
 31
0.0
  0
LINE
  5
3C0
330
397
100
AcDbEntity
  8
hidden
100
AcDbLine
 10
-31.15
 20
334.0000000000001
 30
0.0
 11
-25.0
 21
334.0000000000001
 31
0.0
  0
LINE
  5
3C1
330
397
100
AcDbEntity
  8
hidden
100
AcDbLine
 10
-50.0
 20
334.0000000000001
 30
0.0
 11
-43.95
 21
334.0000000000001
 31
0.0
  0
LINE
  5
3C2
330
397
100
AcDbEntity
  8
hidden
100
AcDbLine
 10
-26.6
 20
519.0
 30
0.0
 11
-26.6
 21
547.0
 31
0.0
  0
LINE
  5
3C3
330
397
100
AcDbEntity
  8
hidden
100
AcDbLine
 10
-26.6
 20
149.0
 30
0.0
 11
-26.6
 21
177.0000000000001
 31
0.0
  0
LINE
  5
3C4
330
397
100
AcDbEntity
  8
hidden
100
AcDbLine
 10
-43.95
 20
519.0
 30
0.0
 11
-45.5
 21
519.0
 31
0.0
  0
LINE
  5
3C5
330
397
100
AcDbEntity
  8
hidden
100
AcDbLine
 10
-43.95
 20
149.0
 30
0.0
 11
-45.5
 21
149.0
 31
0.0
  0
LINE
  5
3C6
330
397
100
AcDbEntity
  8
hidden
100
AcDbLine
 10
-43.95
 20
334.5
 30
0.0
 11
-45.5
 21
334.5
 31
0.0
  0
LINE
  5
3C7
330
397
100
AcDbEntity
  8
hidden
100
AcDbLine
 10
-29.5
 20
519.0
 30
0.0
 11
-43.9
 21
519.0
 31
0.0
  0
LINE
  5
3C8
330
397
100
AcDbEntity
  8
hidden
100
AcDbLine
 10
-29.5
 20
547.0
 30
0.0
 11
-45.5
 21
547.0
 31
0.0
  0
LINE
  5
3C9
330
397
100
AcDbEntity
  8
hidden
100
AcDbLine
 10
-29.5
 20
149.0
 30
0.0
 11
-43.9
 21
149.0
 31
0.0
  0
LINE
  5
3CA
330
397
100
AcDbEntity
  8
hidden
100
AcDbLine
 10
-29.5
 20
177.0000000000001
 30
0.0
 11
-45.5
 21
177.0000000000001
 31
0.0
  0
LINE
  5
3CB
330
397
100
AcDbEntity
  8
hidden
100
AcDbLine
 10
-29.5
 20
362.5000000000001
 30
0.0
 11
-45.5
 21
362.5000000000001
 31
0.0
  0
LINE
  5
3CC
330
397
100
AcDbEntity
  8
hidden
100
AcDbLine
 10
-29.5
 20
334.5
 30
0.0
 11
-43.9
 21
334.5
 31
0.0
  0
LINE
  5
3CD
330
397
100
AcDbEntity
  8
hidden
100
AcDbLine
 10
-31.04999999999999
 20
5.000000000000004
 30
0.0
 11
-31.04999999999999
 21
3.000000000000003
 31
0.0
  0
LINE
  5
3CE
330
397
100
AcDbEntity
  8
hidden
100
AcDbLine
 10
-39.34999999999999
 20
5.000000000000004
 30
0.0
 11
-39.34999999999999
 21
3.000000000000003
 31
0.0
  0
LINE
  5
3CF
330
397
100
AcDbEntity
  8
hidden
100
AcDbLine
 10
-43.85
 20
5.000000000000004
 30
0.0
 11
-43.85
 21
3.000000000000003
 31
0.0
  0
LINE
  5
3D0
330
397
100
AcDbEntity
  8
hidden
100
AcDbLine
 10
-35.55
 20
5.000000000000004
 30
0.0
 11
-35.55
 21
3.000000000000003
 31
0.0
  0
LINE
  5
3D1
330
397
100
AcDbEntity
  8
hidden
100
AcDbLine
 10
-27.25
 20
554.0
 30
0.0
 11
-27.25
 21
556.0
 31
0.0
  0
LINE
  5
3D2
330
397
100
AcDbEntity
  8
hidden
100
AcDbLine
 10
-39.34999999999999
 20
554.0
 30
0.0
 11
-39.34999999999999
 21
556.0
 31
0.0
  0
LINE
  5
3D3
330
397
100
AcDbEntity
  8
hidden
100
AcDbLine
 10
-43.85
 20
554.0
 30
0.0
 11
-43.85
 21
556.0
 31
0.0
  0
LINE
  5
3D4
330
397
100
AcDbEntity
  8
hidden
100
AcDbLine
 10
-35.55
 20
554.0
 30
0.0
 11
-35.55
 21
556.0
 31
0.0
  0
LINE
  5
3D5
330
397
100
AcDbEntity
  8
hidden
100
AcDbLine
 10
-27.25
 20
5.000000000000004
 30
0.0
 11
-27.25
 21
3.000000000000003
 31
0.0
  0
LINE
  5
3D6
330
397
100
AcDbEntity
  8
hidden
100
AcDbLine
 10
-31.05
 20
554.0
 30
0.0
 11
-31.05
 21
556.0
 31
0.0
  0
LINE
  5
3D7
330
397
100
AcDbEntity
  8
hidden
100
AcDbLine
 10
-31.15
 20
519.0
 30
0.0
 11
-31.15
 21
517.0
 31
0.0
  0
LINE
  5
3D8
330
397
100
AcDbEntity
  8
hidden
100
AcDbLine
 10
-35.65
 20
519.0
 30
0.0
 11
-35.65
 21
517.0
 31
0.0
  0
LINE
  5
3D9
330
397
100
AcDbEntity
  8
hidden
100
AcDbLine
 10
-39.45
 20
149.0
 30
0.0
 11
-39.45
 21
147.0
 31
0.0
  0
LINE
  5
3DA
330
397
100
AcDbEntity
  8
hidden
100
AcDbLine
 10
-43.95
 20
157.0
 30
0.0
 11
-43.95
 21
147.0
 31
0.0
  0
LINE
  5
3DB
330
397
100
AcDbEntity
  8
hidden
100
AcDbLine
 10
-43.9
 20
157.0
 30
0.0
 11
-43.95
 21
157.0
 31
0.0
  0
LINE
  5
3DC
330
397
100
AcDbEntity
  8
hidden
100
AcDbLine
 10
-39.45
 20
334.5
 30
0.0
 11
-39.45
 21
332.0000000000001
 31
0.0
  0
LINE
  5
3DD
330
397
100
AcDbEntity
  8
hidden
100
AcDbLine
 10
-43.95
 20
342.0000000000001
 30
0.0
 11
-43.95
 21
332.0000000000001
 31
0.0
  0
LINE
  5
3DE
330
397
100
AcDbEntity
  8
hidden
100
AcDbLine
 10
-43.9
 20
342.0000000000001
 30
0.0
 11
-43.95
 21
342.0000000000001
 31
0.0
  0
LINE
  5
3DF
330
397
100
AcDbEntity
  8
hidden
100
AcDbLine
 10
-31.15
 20
334.5
 30
0.0
 11
-31.15
 21
332.0000000000001
 31
0.0
  0
LINE
  5
3E0
330
397
100
AcDbEntity
  8
hidden
100
AcDbLine
 10
-35.65
 20
334.5
 30
0.0
 11
-35.65
 21
332.0000000000001
 31
0.0
  0
LINE
  5
3E1
330
397
100
AcDbEntity
  8
hidden
100
AcDbLine
 10
-31.15
 20
149.0
 30
0.0
 11
-31.15
 21
147.0
 31
0.0
  0
LINE
  5
3E2
330
397
100
AcDbEntity
  8
hidden
100
AcDbLine
 10
-35.65
 20
149.0
 30
0.0
 11
-35.65
 21
147.0
 31
0.0
  0
LINE
  5
3E3
330
397
100
AcDbEntity
  8
hidden
100
AcDbLine
 10
-39.45
 20
519.0
 30
0.0
 11
-39.45
 21
517.0
 31
0.0
  0
LINE
  5
3E4
330
397
100
AcDbEntity
  8
hidden
100
AcDbLine
 10
-43.95
 20
527.0
 30
0.0
 11
-43.95
 21
517.0
 31
0.0
  0
LINE
  5
3E5
330
397
100
AcDbEntity
  8
hidden
100
AcDbLine
 10
-43.9
 20
527.0
 30
0.0
 11
-43.95
 21
527.0
 31
0.0
  0
LINE
  5
3E6
330
397
100
AcDbEntity
  8
hidden
100
AcDbLine
 10
-43.9
 20
334.5
 30
0.0
 11
-43.9
 21
362.5000000000001
 31
0.0
  0
LINE
  5
3E7
330
397
100
AcDbEntity
  8
hidden
100
AcDbLine
 10
-43.9
 20
519.0
 30
0.0
 11
-43.9
 21
547.0
 31
0.0
  0
LINE
  5
3E8
330
397
100
AcDbEntity
  8
hidden
100
AcDbLine
 10
-31.1
 20
519.0
 30
0.0
 11
-31.1
 21
547.0
 31
0.0
  0
LINE
  5
3E9
330
397
100
AcDbEntity
  8
hidden
100
AcDbLine
 10
-31.1
 20
149.0
 30
0.0
 11
-31.1
 21
177.0000000000001
 31
0.0
  0
LINE
  5
3EA
330
397
100
AcDbEntity
  8
hidden
100
AcDbLine
 10
-43.9
 20
149.0
 30
0.0
 11
-43.9
 21
177.0000000000001
 31
0.0
  0
LINE
  5
3EB
330
397
100
AcDbEntity
  8
hidden
100
AcDbLine
 10
-31.1
 20
334.5
 30
0.0
 11
-31.1
 21
362.5000000000001
 31
0.0
  0
LINE
  5
3EC
330
397
100
AcDbEntity
  8
hidden
100
AcDbLine
 10
-50.0
 20
3.000000000000003
 30
0.0
 11
-25.0
 21
3.000000000000003
 31
0.0
  0
LINE
  5
3ED
330
397
100
AcDbEntity
  8
hidden
100
AcDbLine
 10
-50.0
 20
1.500000000000057
 30
0.0
 11
-25.0
 21
1.500000000000057
 31
0.0
  0
LINE
  5
3EE
330
397
100
AcDbEntity
  8
center
100
AcDbLine
 10
-44.0625
 20
493.2500000000001
 30
0.0
 11
-39.33750000000001
 21
493.2500000000001
 31
0.0
  0
LINE
  5
3EF
330
397
100
AcDbEntity
  8
center
100
AcDbLine
 10
-41.7
 20
490.8875000000001
 30
0.0
 11
-41.7
 21
495.6125000000001
 31
0.0
  0
LINE
  5
3F0
330
397
100
AcDbEntity
  8
center
100
AcDbLine
 10
-35.76250000000002
 20
123.25
 30
0.0
 11
-31.03749999999998
 21
123.25
 31
0.0
  0
LINE
  5
3F1
330
397
100
AcDbEntity
  8
center
100
AcDbLine
 10
-33.4
 20
120.8875
 30
0.0
 11
-33.4
 21
125.6125
 31
0.0
  0
LINE
  5
3F2
330
397
100
AcDbEntity
  8
center
100
AcDbLine
 10
-35.7625
 20
493.2500000000001
 30
0.0
 11
-31.0375
 21
493.2500000000001
 31
0.0
  0
LINE
  5
3F3
330
397
100
AcDbEntity
  8
center
100
AcDbLine
 10
-33.4
 20
490.8875000000001
 30
0.0
 11
-33.4
 21
495.6125000000001
 31
0.0
  0
LINE
  5
3F4
330
397
100
AcDbEntity
  8
center
100
AcDbLine
 10
-44.06249999999994
 20
308.25
 30
0.0
 11
-39.33750000000006
 21
308.25
 31
0.0
  0
LINE
  5
3F5
330
397
100
AcDbEntity
  8
center
100
AcDbLine
 10
-41.7
 20
305.8875
 30
0.0
 11
-41.7
 21
310.6125
 31
0.0
  0
LINE
  5
3F6
330
397
100
AcDbEntity
  8
center
100
AcDbLine
 10
-44.06250000000001
 20
123.25
 30
0.0
 11
-39.33749999999999
 21
123.25
 31
0.0
  0
LINE
  5
3F7
330
397
100
AcDbEntity
  8
center
100
AcDbLine
 10
-41.7
 20
120.8875
 30
0.0
 11
-41.7
 21
125.6125
 31
0.0
  0
LINE
  5
3F8
330
397
100
AcDbEntity
  8
center
100
AcDbLine
 10
-35.76249999999994
 20
308.25
 30
0.0
 11
-31.03750000000006
 21
308.25
 31
0.0
  0
LINE
  5
3F9
330
397
100
AcDbEntity
  8
center
100
AcDbLine
 10
-33.4
 20
305.8875
 30
0.0
 11
-33.4
 21
310.6125
 31
0.0
  0
LINE
  5
3FA
330
397
100
AcDbEntity
  8
bold
100
AcDbLine
 10
-39.34999999999999
 20
554.0
 30
0.0
 11
-39.34999999999999
 21
552.0
 31
0.0
  0
LINE
  5
3FB
330
397
100
AcDbEntity
  8
bold
100
AcDbLine
 10
-43.85
 20
552.0
 30
0.0
 11
-39.34999999999999
 21
552.0
 31
0.0
  0
LINE
  5
3FC
330
397
100
AcDbEntity
  8
bold
100
AcDbLine
 10
-43.85
 20
552.0
 30
0.0
 11
-43.85
 21
554.0
 31
0.0
  0
LINE
  5
3FD
330
397
100
AcDbEntity
  8
bold
100
AcDbLine
 10
-25.0
 20
507.7972276368537
 30
0.0
 11
-25.0
 21
552.0
 31
0.0
  0
LINE
  5
3FE
330
397
100
AcDbEntity
  8
bold
100
AcDbLine
 10
-27.25
 20
552.0
 30
0.0
 11
-27.25
 21
554.0
 31
0.0
  0
LINE
  5
3FF
330
397
100
AcDbEntity
  8
bold
100
AcDbLine
 10
-27.25
 20
552.0
 30
0.0
 11
-25.0
 21
552.0
 31
0.0
  0
LINE
  5
400
330
397
100
AcDbEntity
  8
bold
100
AcDbLine
 10
-31.05
 20
554.0
 30
0.0
 11
-31.05
 21
552.0
 31
0.0
  0
LINE
  5
401
330
397
100
AcDbEntity
  8
bold
100
AcDbLine
 10
-35.55
 20
552.0
 30
0.0
 11
-35.55
 21
554.0
 31
0.0
  0
LINE
  5
402
330
397
100
AcDbEntity
  8
bold
100
AcDbLine
 10
-35.55
 20
552.0
 30
0.0
 11
-31.05
 21
552.0
 31
0.0
  0
LINE
  5
403
330
397
100
AcDbEntity
  8
bold
100
AcDbLine
 10
-43.95
 20
517.0
 30
0.0
 11
-43.95
 21
493.2500000000001
 31
0.0
  0
LINE
  5
404
330
397
100
AcDbEntity
  8
bold
100
AcDbLine
 10
-39.45
 20
493.2500000000001
 30
0.0
 11
-39.45
 21
517.0
 31
0.0
  0
ARC
  5
405
330
397
100
AcDbEntity
  8
bold
100
AcDbCircle
 10
-41.7
 20
493.2500000000001
 30
0.0
 40
2.25
100
AcDbArc
 50
180.0000000000014
 51
359.9999999999986
  0
ARC
  5
406
330
397
100
AcDbEntity
  8
bold
100
AcDbCircle
 10
-25.00000000000006
 20
308.25
 30
0.0
 40
2.24999999999994
100
AcDbArc
 50
180.0
 51
270.0000000000015
  0
ARC
  5
407
330
397
100
AcDbEntity
  8
bold
100
AcDbCircle
 10
-25.00000000000004
 20
123.25
 30
0.0
 40
2.249999999999961
100
AcDbArc
 50
180.0
 51
270.000000000001
  0
LINE
  5
408
330
397
100
AcDbEntity
  8
bold
100
AcDbLine
 10
-35.65
 20
517.0
 30
0.0
 11
-35.65
 21
493.2500000000001
 31
0.0
  0
LINE
  5
409
330
397
100
AcDbEntity
  8
bold
100
AcDbLine
 10
-31.15
 20
493.2500000000001
 30
0.0
 11
-31.15
 21
517.0
 31
0.0
  0
ARC
  5
40A
330
397
100
AcDbEntity
  8
bold
100
AcDbCircle
 10
-33.4
 20
493.2500000000001
 30
0.0
 40
2.25
100
AcDbArc
 50
180.0000000000014
 51
359.9999999999986
  0
ARC
  5
40B
330
397
100
AcDbEntity
  8
bold
100
AcDbCircle
 10
-24.99999999999995
 20
493.2500000000001
 30
0.0
 40
2.25000000000005
100
AcDbArc
 50
180.0000000000014
 51
269.9999999999987
  0
LINE
  5
40C
330
397
100
AcDbEntity
  8
bold
100
AcDbLine
 10
-39.45
 20
123.25
 30
0.0
 11
-39.45
 21
147.0
 31
0.0
  0
LINE
  5
40D
330
397
100
AcDbEntity
  8
bold
100
AcDbLine
 10
-43.95
 20
147.0
 30
0.0
 11
-43.95
 21
123.25
 31
0.0
  0
ARC
  5
40E
330
397
100
AcDbEntity
  8
bold
100
AcDbCircle
 10
-41.7
 20
123.25
 30
0.0
 40
2.25
100
AcDbArc
 50
180.0
 51
0.0
  0
LINE
  5
40F
330
397
100
AcDbEntity
  8
bold
100
AcDbLine
 10
-43.95
 20
332.0000000000001
 30
0.0
 11
-43.95
 21
308.25
 31
0.0
  0
LINE
  5
410
330
397
100
AcDbEntity
  8
bold
100
AcDbLine
 10
-39.45
 20
308.25
 30
0.0
 11
-39.45
 21
332.0000000000001
 31
0.0
  0
ARC
  5
411
330
397
100
AcDbEntity
  8
bold
100
AcDbCircle
 10
-41.7
 20
308.25
 30
0.0
 40
2.25
100
AcDbArc
 50
180.0
 51
0.0
  0
LINE
  5
412
330
397
100
AcDbEntity
  8
bold
100
AcDbLine
 10
-35.65
 20
147.0
 30
0.0
 11
-35.65
 21
123.25
 31
0.0
  0
LINE
  5
413
330
397
100
AcDbEntity
  8
bold
100
AcDbLine
 10
-31.15
 20
123.25
 30
0.0
 11
-31.15
 21
147.0
 31
0.0
  0
ARC
  5
414
330
397
100
AcDbEntity
  8
bold
100
AcDbCircle
 10
-33.4
 20
123.25
 30
0.0
 40
2.25
100
AcDbArc
 50
180.0
 51
0.0
  0
LINE
  5
415
330
397
100
AcDbEntity
  8
bold
100
AcDbLine
 10
-35.65
 20
332.0000000000001
 30
0.0
 11
-35.65
 21
308.25
 31
0.0
  0
LINE
  5
416
330
397
100
AcDbEntity
  8
bold
100
AcDbLine
 10
-31.15
 20
308.25
 30
0.0
 11
-31.15
 21
332.0000000000001
 31
0.0
  0
ARC
  5
417
330
397
100
AcDbEntity
  8
bold
100
AcDbCircle
 10
-33.4
 20
308.25
 30
0.0
 40
2.25
100
AcDbArc
 50
180.0
 51
0.0
  0
LINE
  5
418
330
397
100
AcDbEntity
  8
bold
100
AcDbLine
 10
-50.0
 20
137.0000000000001
 30
0.0
 11
-50.0
 21
306.0000000000001
 31
0.0
  0
LINE
  5
419
330
397
100
AcDbEntity
  8
bold
100
AcDbLine
 10
-25.0
 20
177.0000000000001
 30
0.0
 11
-25.0
 21
306.0000000000001
 31
0.0
  0
LINE
  5
41A
330
397
100
AcDbEntity
  8
bold
100
AcDbLine
 10
-47.75
 20
308.25
 30
0.0
 11
-47.75
 21
322.0000000000001
 31
0.0
  0
ARC
  5
41B
330
397
100
AcDbEntity
  8
bold
100
AcDbCircle
 10
-49.99999999999994
 20
308.25
 30
0.0
 40
2.249999999999943
100
AcDbArc
 50
269.9999999999985
 51
0.0
  0
LINE
  5
41C
330
397
100
AcDbEntity
  8
bold
100
AcDbLine
 10
-27.25
 20
306.0000000000001
 30
0.0
 11
-25.0
 21
306.0000000000001
 31
0.0
  0
LINE
  5
41D
330
397
100
AcDbEntity
  8
bold
100
AcDbLine
 10
-27.25
 20
297.2
 30
0.0
 11
-27.25
 21
306.0000000000001
 31
0.0
  0
LINE
  5
41E
330
397
100
AcDbEntity
  8
bold
100
AcDbLine
 10
-28.74999999999999
 20
297.2
 30
0.0
 11
-27.25
 21
297.2
 31
0.0
  0
LINE
  5
41F
330
397
100
AcDbEntity
  8
bold
100
AcDbLine
 10
-37.05
 20
297.2
 30
0.0
 11
-29.75
 21
297.2
 31
0.0
  0
LINE
  5
420
330
397
100
AcDbEntity
  8
bold
100
AcDbLine
 10
-45.85
 20
297.2
 30
0.0
 11
-38.05
 21
297.2
 31
0.0
  0
LINE
  5
421
330
397
100
AcDbEntity
  8
bold
100
AcDbLine
 10
-50.0
 20
322.0000000000001
 30
0.0
 11
-50.0
 21
491.0000000000001
 31
0.0
  0
LINE
  5
422
330
397
100
AcDbEntity
  8
bold
100
AcDbLine
 10
-25.0
 20
362.5000000000001
 30
0.0
 11
-25.0
 21
491.0000000000001
 31
0.0
  0
LINE
  5
423
330
397
100
AcDbEntity
  8
bold
100
AcDbLine
 10
-47.75
 20
493.2500000000001
 30
0.0
 11
-47.75
 21
507.0
 31
0.0
  0
ARC
  5
424
330
397
100
AcDbEntity
  8
bold
100
AcDbCircle
 10
-50.00000000000005
 20
493.2500000000001
 30
0.0
 40
2.250000000000057
100
AcDbArc
 50
270.0000000000013
 51
359.9999999999986
  0
LINE
  5
425
330
397
100
AcDbEntity
  8
bold
100
AcDbLine
 10
-27.25
 20
491.0000000000001
 30
0.0
 11
-25.0
 21
491.0000000000001
 31
0.0
  0
LINE
  5
426
330
397
100
AcDbEntity
  8
bold
100
AcDbLine
 10
-27.25
 20
482.2
 30
0.0
 11
-27.25
 21
491.0000000000001
 31
0.0
  0
LINE
  5
427
330
397
100
AcDbEntity
  8
bold
100
AcDbLine
 10
-28.74999999999999
 20
482.2
 30
0.0
 11
-27.25
 21
482.2
 31
0.0
  0
LINE
  5
428
330
397
100
AcDbEntity
  8
bold
100
AcDbLine
 10
-37.05
 20
482.2
 30
0.0
 11
-29.75
 21
482.2
 31
0.0
  0
LINE
  5
429
330
397
100
AcDbEntity
  8
bold
100
AcDbLine
 10
-45.85
 20
482.2
 30
0.0
 11
-38.05
 21
482.2
 31
0.0
  0
LINE
  5
42A
330
397
100
AcDbEntity
  8
bold
100
AcDbLine
 10
-47.75
 20
123.25
 30
0.0
 11
-47.75
 21
137.0000000000001
 31
0.0
  0
ARC
  5
42B
330
397
100
AcDbEntity
  8
bold
100
AcDbCircle
 10
-49.99999999999994
 20
123.2499999999999
 30
0.0
 40
2.249999999999943
100
AcDbArc
 50
269.9999999999984
 51
0.0000000000007238
  0
LINE
  5
42C
330
397
100
AcDbEntity
  8
bold
100
AcDbLine
 10
-27.25
 20
121.0
 30
0.0
 11
-25.0
 21
121.0
 31
0.0
  0
LINE
  5
42D
330
397
100
AcDbEntity
  8
bold
100
AcDbLine
 10
-27.25
 20
112.2
 30
0.0
 11
-27.25
 21
121.0
 31
0.0
  0
LINE
  5
42E
330
397
100
AcDbEntity
  8
bold
100
AcDbLine
 10
-28.74999999999999
 20
112.2
 30
0.0
 11
-27.25
 21
112.2
 31
0.0
  0
LINE
  5
42F
330
397
100
AcDbEntity
  8
bold
100
AcDbLine
 10
-37.05
 20
112.2
 30
0.0
 11
-29.75
 21
112.2
 31
0.0
  0
LINE
  5
430
330
397
100
AcDbEntity
  8
bold
100
AcDbLine
 10
-45.85
 20
112.2
 30
0.0
 11
-38.05
 21
112.2
 31
0.0
  0
LINE
  5
431
330
397
100
AcDbEntity
  8
bold
100
AcDbLine
 10
-27.25
 20
7.000000000000006
 30
0.0
 11
-27.25
 21
5.000000000000004
 31
0.0
  0
LINE
  5
432
330
397
100
AcDbEntity
  8
bold
100
AcDbLine
 10
-27.25
 20
7.000000000000006
 30
0.0
 11
-25.0
 21
7.000000000000006
 31
0.0
  0
LINE
  5
433
330
397
100
AcDbEntity
  8
bold
100
AcDbLine
 10
-25.0
 20
7.000000000000006
 30
0.0
 11
-25.0
 21
121.0
 31
0.0
  0
LINE
  5
434
330
397
100
AcDbEntity
  8
bold
100
AcDbLine
 10
-39.34999999999999
 20
5.000000000000004
 30
0.0
 11
-39.34999999999999
 21
7.000000000000006
 31
0.0
  0
LINE
  5
435
330
397
100
AcDbEntity
  8
bold
100
AcDbLine
 10
-43.85
 20
7.000000000000006
 30
0.0
 11
-43.85
 21
5.000000000000004
 31
0.0
  0
LINE
  5
436
330
397
100
AcDbEntity
  8
bold
100
AcDbLine
 10
-43.85
 20
7.000000000000006
 30
0.0
 11
-39.34999999999999
 21
7.000000000000006
 31
0.0
  0
LINE
  5
437
330
397
100
AcDbEntity
  8
bold
100
AcDbLine
 10
-35.55
 20
7.000000000000006
 30
0.0
 11
-35.55
 21
5.000000000000004
 31
0.0
  0
LINE
  5
438
330
397
100
AcDbEntity
  8
bold
100
AcDbLine
 10
-31.04999999999999
 20
5.000000000000004
 30
0.0
 11
-31.04999999999999
 21
7.000000000000006
 31
0.0
  0
LINE
  5
439
330
397
100
AcDbEntity
  8
bold
100
AcDbLine
 10
-35.55
 20
7.000000000000006
 30
0.0
 11
-31.04999999999999
 21
7.000000000000006
 31
0.0
  0
LINE
  5
43A
330
397
100
AcDbEntity
  8
bold
100
AcDbLine
 10
-28.95
 20
11.06413789451166
 30
0.0
 11
-25.0
 21
11.06413789451166
 31
0.0
  0
LINE
  5
43B
330
397
100
AcDbEntity
  8
light
100
AcDbLine
 10
-50.0
 20
13.00062956761538
 30
0.0
 11
-25.0
 21
13.00062956761538
 31
0.0
  0
LINE
  5
43C
330
397
100
AcDbEntity
  8
bold
100
AcDbLine
 10
-47.95
 20
11.06413789451166
 30
0.0
 11
-37.95
 21
11.06413789451166
 31
0.0
  0
LINE
  5
43D
330
397
100
AcDbEntity
  8
bold
100
AcDbLine
 10
-36.95
 20
11.06413789451166
 30
0.0
 11
-29.95
 21
11.06413789451166
 31
0.0
  0
LINE
  5
43E
330
397
100
AcDbEntity
  8
bold
100
AcDbLine
 10
-25.0
 20
322.7972276368537
 30
0.0
 11
-25.0
 21
361.0000000000001
 31
0.0
  0
LINE
  5
43F
330
397
100
AcDbEntity
  8
bold
100
AcDbLine
 10
-25.0
 20
137.7972276368537
 30
0.0
 11
-25.0
 21
175.5000000000001
 31
0.0
  0
LINE
  5
440
330
397
100
AcDbEntity
  8
bold
100
AcDbLine
 10
-50.0
 20
507.0
 30
0.0
 11
-47.75
 21
507.0
 31
0.0
  0
LINE
  5
441
330
397
100
AcDbEntity
  8
bold
100
AcDbLine
 10
-45.85
 20
506.5000000000001
 30
0.0
 11
-47.75
 21
506.5000000000001
 31
0.0
  0
LINE
  5
442
330
397
100
AcDbEntity
  8
bold
100
AcDbLine
 10
-50.0
 20
322.0000000000001
 30
0.0
 11
-47.75
 21
322.0000000000001
 31
0.0
  0
LINE
  5
443
330
397
100
AcDbEntity
  8
bold
100
AcDbLine
 10
-45.85
 20
321.5000000000001
 30
0.0
 11
-47.75
 21
321.5000000000001
 31
0.0
  0
LINE
  5
444
330
397
100
AcDbEntity
  8
bold
100
AcDbLine
 10
-50.0
 20
137.0000000000001
 30
0.0
 11
-47.75
 21
137.0000000000001
 31
0.0
  0
LINE
  5
445
330
397
100
AcDbEntity
  8
bold
100
AcDbLine
 10
-45.85
 20
136.5
 30
0.0
 11
-47.75
 21
136.5000000000001
 31
0.0
  0
LINE
  5
446
330
397
100
AcDbEntity
  8
bold
100
AcDbLine
 10
-27.25
 20
507.0
 30
0.0
 11
-25.0
 21
507.0
 31
0.0
  0
LINE
  5
447
330
397
100
AcDbEntity
  8
bold
100
AcDbLine
 10
-27.25
 20
322.0000000000001
 30
0.0
 11
-25.0
 21
322.0000000000001
 31
0.0
  0
LINE
  5
448
330
397
100
AcDbEntity
  8
bold
100
AcDbLine
 10
-27.25
 20
137.0
 30
0.0
 11
-25.0
 21
137.0
 31
0.0
  0
LINE
  5
449
330
397
100
AcDbEntity
  8
light
100
AcDbLine
 10
-45.85
 20
322.7970707225663
 30
0.0
 11
-50.0
 21
322.7970707225663
 31
0.0
  0
LINE
  5
44A
330
397
100
AcDbEntity
  8
light
100
AcDbLine
 10
-45.85
 20
137.7970707225663
 30
0.0
 11
-50.0
 21
137.7970707225663
 31
0.0
  0
LINE
  5
44B
330
397
100
AcDbEntity
  8
light
100
AcDbLine
 10
-45.85
 20
140.0316959609822
 30
0.0
 11
-50.0
 21
140.0316959609822
 31
0.0
  0
LINE
  5
44C
330
397
100
AcDbEntity
  8
light
100
AcDbLine
 10
-45.85
 20
325.0316959609822
 30
0.0
 11
-50.0
 21
325.0316959609822
 31
0.0
  0
LINE
  5
44D
330
397
100
AcDbEntity
  8
light
100
AcDbLine
 10
-45.85
 20
507.7970707225664
 30
0.0
 11
-50.0
 21
507.7970707225664
 31
0.0
  0
LINE
  5
44E
330
397
100
AcDbEntity
  8
light
100
AcDbLine
 10
-45.85
 20
510.0316959609823
 30
0.0
 11
-50.0
 21
510.0316959609823
 31
0.0
  0
LINE
  5
44F
330
397
100
AcDbEntity
  8
light
100
AcDbLine
 10
-27.25
 20
322.7972276368537
 30
0.0
 11
-25.0
 21
322.7972276368537
 31
0.0
  0
LINE
  5
450
330
397
100
AcDbEntity
  8
light
100
AcDbLine
 10
-27.25
 20
325.0318528752696
 30
0.0
 11
-25.0
 21
325.0318528752696
 31
0.0
  0
LINE
  5
451
330
397
100
AcDbEntity
  8
light
100
AcDbLine
 10
-27.25
 20
140.0318528752696
 30
0.0
 11
-25.0
 21
140.0318528752696
 31
0.0
  0
LINE
  5
452
330
397
100
AcDbEntity
  8
light
100
AcDbLine
 10
-27.25
 20
137.7972276368537
 30
0.0
 11
-25.0
 21
137.7972276368537
 31
0.0
  0
LINE
  5
453
330
397
100
AcDbEntity
  8
light
100
AcDbLine
 10
-27.25
 20
510.0318528752696
 30
0.0
 11
-25.0
 21
510.0318528752696
 31
0.0
  0
LINE
  5
454
330
397
100
AcDbEntity
  8
light
100
AcDbLine
 10
-27.25
 20
507.7972276368537
 30
0.0
 11
-25.0
 21
507.7972276368537
 31
0.0
  0
LINE
  5
455
330
397
100
AcDbEntity
  8
bold
100
AcDbLine
 10
-29.75
 20
143.5005
 30
0.0
 11
-28.75
 21
143.5005
 31
0.0
  0
LINE
  5
456
330
397
100
AcDbEntity
  8
bold
100
AcDbLine
 10
-29.75
 20
328.5005000000001
 30
0.0
 11
-28.75
 21
328.5005000000001
 31
0.0
  0
LINE
  5
457
330
397
100
AcDbEntity
  8
bold
100
AcDbLine
 10
-38.05
 20
513.5005
 30
0.0
 11
-37.05
 21
513.5005
 31
0.0
  0
LINE
  5
458
330
397
100
AcDbEntity
  8
bold
100
AcDbLine
 10
-38.05
 20
143.5005
 30
0.0
 11
-37.05
 21
143.5005
 31
0.0
  0
LINE
  5
459
330
397
100
AcDbEntity
  8
bold
100
AcDbLine
 10
-38.05
 20
328.5005000000001
 30
0.0
 11
-37.05
 21
328.5005000000001
 31
0.0
  0
LINE
  5
45A
330
397
100
AcDbEntity
  8
bold
100
AcDbLine
 10
-29.75
 20
513.5005
 30
0.0
 11
-28.75
 21
513.5005
 31
0.0
  0
LINE
  5
45B
330
397
100
AcDbEntity
  8
bold
100
AcDbLine
 10
-27.25
 20
493.2500000000001
 30
0.0
 11
-27.25
 21
517.0
 31
0.0
  0
LINE
  5
45C
330
397
100
AcDbEntity
  8
bold
100
AcDbLine
 10
-27.25
 20
515.2
 30
0.0
 11
-25.0
 21
515.2
 31
0.0
  0
LINE
  5
45D
330
397
100
AcDbEntity
  8
bold
100
AcDbLine
 10
-37.05
 20
482.2
 30
0.0
 11
-37.05
 21
517.0
 31
0.0
  0
LINE
  5
45E
330
397
100
AcDbEntity
  8
bold
100
AcDbLine
 10
-38.05
 20
482.2
 30
0.0
 11
-38.05
 21
517.0
 31
0.0
  0
LINE
  5
45F
330
397
100
AcDbEntity
  8
bold
100
AcDbLine
 10
-38.05
 20
515.2005
 30
0.0
 11
-37.05
 21
515.2005
 31
0.0
  0
LINE
  5
460
330
397
100
AcDbEntity
  8
bold
100
AcDbLine
 10
-45.85
 20
515.2
 30
0.0
 11
-50.0
 21
515.2
 31
0.0
  0
LINE
  5
461
330
397
100
AcDbEntity
  8
bold
100
AcDbLine
 10
-45.85
 20
482.2
 30
0.0
 11
-45.85
 21
517.0
 31
0.0
  0
LINE
  5
462
330
397
100
AcDbEntity
  8
bold
100
AcDbLine
 10
-28.74999999999999
 20
297.2
 30
0.0
 11
-28.75
 21
332.0000000000001
 31
0.0
  0
LINE
  5
463
330
397
100
AcDbEntity
  8
bold
100
AcDbLine
 10
-29.75
 20
297.2
 30
0.0
 11
-29.75
 21
332.0000000000001
 31
0.0
  0
LINE
  5
464
330
397
100
AcDbEntity
  8
bold
100
AcDbLine
 10
-29.75
 20
330.2005000000001
 30
0.0
 11
-28.75
 21
330.2005000000001
 31
0.0
  0
LINE
  5
465
330
397
100
AcDbEntity
  8
bold
100
AcDbLine
 10
-38.05
 20
112.2
 30
0.0
 11
-38.05
 21
147.0
 31
0.0
  0
LINE
  5
466
330
397
100
AcDbEntity
  8
bold
100
AcDbLine
 10
-37.05
 20
112.2
 30
0.0
 11
-37.05
 21
147.0
 31
0.0
  0
LINE
  5
467
330
397
100
AcDbEntity
  8
bold
100
AcDbLine
 10
-38.05
 20
145.2005
 30
0.0
 11
-37.05
 21
145.2005
 31
0.0
  0
LINE
  5
468
330
397
100
AcDbEntity
  8
bold
100
AcDbLine
 10
-27.25
 20
123.25
 30
0.0
 11
-27.25
 21
147.0
 31
0.0
  0
LINE
  5
469
330
397
100
AcDbEntity
  8
bold
100
AcDbLine
 10
-27.25
 20
145.2
 30
0.0
 11
-25.0
 21
145.2
 31
0.0
  0
LINE
  5
46A
330
397
100
AcDbEntity
  8
bold
100
AcDbLine
 10
-37.05
 20
297.2
 30
0.0
 11
-37.05
 21
332.0000000000001
 31
0.0
  0
LINE
  5
46B
330
397
100
AcDbEntity
  8
bold
100
AcDbLine
 10
-38.05
 20
297.2
 30
0.0
 11
-38.05
 21
332.0000000000001
 31
0.0
  0
LINE
  5
46C
330
397
100
AcDbEntity
  8
bold
100
AcDbLine
 10
-38.05
 20
330.2005000000001
 30
0.0
 11
-37.05
 21
330.2005000000001
 31
0.0
  0
LINE
  5
46D
330
397
100
AcDbEntity
  8
bold
100
AcDbLine
 10
-27.25
 20
308.25
 30
0.0
 11
-27.25
 21
332.0000000000001
 31
0.0
  0
LINE
  5
46E
330
397
100
AcDbEntity
  8
bold
100
AcDbLine
 10
-27.25
 20
330.2
 30
0.0
 11
-25.0
 21
330.2
 31
0.0
  0
LINE
  5
46F
330
397
100
AcDbEntity
  8
bold
100
AcDbLine
 10
-28.74999999999999
 20
482.2
 30
0.0
 11
-28.75
 21
517.0
 31
0.0
  0
LINE
  5
470
330
397
100
AcDbEntity
  8
bold
100
AcDbLine
 10
-29.75
 20
482.2
 30
0.0
 11
-29.75
 21
517.0
 31
0.0
  0
LINE
  5
471
330
397
100
AcDbEntity
  8
bold
100
AcDbLine
 10
-29.75
 20
515.2005
 30
0.0
 11
-28.75
 21
515.2005
 31
0.0
  0
LINE
  5
472
330
397
100
AcDbEntity
  8
bold
100
AcDbLine
 10
-45.85
 20
297.2
 30
0.0
 11
-45.85
 21
332.0000000000001
 31
0.0
  0
LINE
  5
473
330
397
100
AcDbEntity
  8
bold
100
AcDbLine
 10
-45.85
 20
330.2
 30
0.0
 11
-50.0
 21
330.2
 31
0.0
  0
LINE
  5
474
330
397
100
AcDbEntity
  8
bold
100
AcDbLine
 10
-28.74999999999999
 20
112.2
 30
0.0
 11
-28.75
 21
147.0
 31
0.0
  0
LINE
  5
475
330
397
100
AcDbEntity
  8
bold
100
AcDbLine
 10
-29.75
 20
112.2
 30
0.0
 11
-29.75
 21
147.0
 31
0.0
  0
LINE
  5
476
330
397
100
AcDbEntity
  8
bold
100
AcDbLine
 10
-29.75
 20
145.2005
 30
0.0
 11
-28.75
 21
145.2005
 31
0.0
  0
LINE
  5
477
330
397
100
AcDbEntity
  8
bold
100
AcDbLine
 10
-45.85
 20
145.2
 30
0.0
 11
-50.0
 21
145.2
 31
0.0
  0
LINE
  5
478
330
397
100
AcDbEntity
  8
bold
100
AcDbLine
 10
-45.85
 20
112.2
 30
0.0
 11
-45.85
 21
147.0
 31
0.0
  0
LINE
  5
479
330
397
100
AcDbEntity
  8
bold
100
AcDbLine
 10
-38.0
 20
554.0
 30
0.0
 11
-38.0
 21
549.0
 31
0.0
  0
LINE
  5
47A
330
397
100
AcDbEntity
  8
bold
100
AcDbLine
 10
-37.0
 20
549.0
 30
0.0
 11
-37.0
 21
554.0
 31
0.0
  0
LINE
  5
47B
330
397
100
AcDbEntity
  8
bold
100
AcDbLine
 10
-28.7
 20
554.0
 30
0.0
 11
-28.7
 21
549.0
 31
0.0
  0
LINE
  5
47C
330
397
100
AcDbEntity
  8
bold
100
AcDbLine
 10
-27.7
 20
549.0
 30
0.0
 11
-27.7
 21
554.0
 31
0.0
  0
LINE
  5
47D
330
397
100
AcDbEntity
  8
bold
100
AcDbLine
 10
-48.0
 20
549.0
 30
0.0
 11
-48.0
 21
554.0
 31
0.0
  0
LINE
  5
47E
330
397
100
AcDbEntity
  8
bold
100
AcDbLine
 10
-43.0
 20
552.5000000000001
 30
0.0
 11
-43.0
 21
549.0
 31
0.0
  0
LINE
  5
47F
330
397
100
AcDbEntity
  8
bold
100
AcDbLine
 10
-41.49999999999999
 20
549.0
 30
0.0
 11
-41.49999999999999
 21
552.5000000000001
 31
0.0
  0
LINE
  5
480
330
397
100
AcDbEntity
  8
bold
100
AcDbLine
 10
-41.49999999999999
 20
552.5000000000001
 30
0.0
 11
-43.0
 21
552.5000000000001
 31
0.0
  0
LINE
  5
481
330
397
100
AcDbEntity
  8
bold
100
AcDbLine
 10
-25.0
 20
5.000000000000004
 30
0.0
 11
-25.0
 21
0.0
 31
0.0
  0
LINE
  5
482
330
397
100
AcDbEntity
  8
bold
100
AcDbLine
 10
-50.0
 20
0.0
 30
0.0
 11
-25.0
 21
0.0
 31
0.0
  0
LINE
  5
483
330
397
100
AcDbEntity
  8
bold
100
AcDbLine
 10
-50.0
 20
332.0000000000001
 30
0.0
 11
-25.0
 21
332.0000000000001
 31
0.0
  0
LINE
  5
484
330
397
100
AcDbEntity
  8
bold
100
AcDbLine
 10
-45.5
 20
362.5000000000001
 30
0.0
 11
-49.0
 21
362.5000000000001
 31
0.0
  0
LINE
  5
485
330
397
100
AcDbEntity
  8
bold
100
AcDbLine
 10
-25.0
 20
334.5
 30
0.0
 11
-29.5
 21
334.5
 31
0.0
  0
LINE
  5
486
330
397
100
AcDbEntity
  8
bold
100
AcDbLine
 10
-29.5
 20
334.5
 30
0.0
 11
-29.5
 21
362.5000000000001
 31
0.0
  0
LINE
  5
487
330
397
100
AcDbEntity
  8
bold
100
AcDbLine
 10
-25.0
 20
362.5000000000001
 30
0.0
 11
-29.5
 21
362.5000000000001
 31
0.0
  0
LINE
  5
488
330
397
100
AcDbEntity
  8
bold
100
AcDbLine
 10
-50.0
 20
364.0000000000001
 30
0.0
 11
-25.0
 21
364.0000000000001
 31
0.0
  0
LINE
  5
489
330
397
100
AcDbEntity
  8
bold
100
AcDbLine
 10
-50.0
 20
361.0000000000001
 30
0.0
 11
-49.0
 21
361.0000000000001
 31
0.0
  0
LINE
  5
48A
330
397
100
AcDbEntity
  8
bold
100
AcDbLine
 10
-49.0
 20
361.0000000000001
 30
0.0
 11
-49.0
 21
362.5000000000001
 31
0.0
  0
LINE
  5
48B
330
397
100
AcDbEntity
  8
bold
100
AcDbLine
 10
-45.5
 20
334.5
 30
0.0
 11
-45.5
 21
362.5000000000001
 31
0.0
  0
LINE
  5
48C
330
397
100
AcDbEntity
  8
bold
100
AcDbLine
 10
-45.5
 20
334.5
 30
0.0
 11
-50.0
 21
334.5
 31
0.0
  0
LINE
  5
48D
330
397
100
AcDbEntity
  8
bold
100
AcDbLine
 10
-50.0
 20
0.0
 30
0.0
 11
-50.0
 21
121.0
 31
0.0
  0
LINE
  5
48E
330
397
100
AcDbEntity
  8
light
100
AcDbLine
 10
-50.0
 20
11.00127016823038
 30
0.0
 11
-47.95
 21
11.00127016823038
 31
0.0
  0
LINE
  5
48F
330
397
100
AcDbEntity
  8
bold
100
AcDbLine
 10
-37.95
 20
5.000000000000004
 30
0.0
 11
-37.95
 21
11.06413789451166
 31
0.0
  0
LINE
  5
490
330
397
100
AcDbEntity
  8
bold
100
AcDbLine
 10
-47.95
 20
5.000000000000004
 30
0.0
 11
-37.95
 21
5.000000000000004
 31
0.0
  0
LINE
  5
491
330
397
100
AcDbEntity
  8
bold
100
AcDbLine
 10
-29.95
 20
5.000000000000004
 30
0.0
 11
-29.95
 21
11.06413789451166
 31
0.0
  0
LINE
  5
492
330
397
100
AcDbEntity
  8
bold
100
AcDbLine
 10
-36.95
 20
11.06413789451166
 30
0.0
 11
-36.95
 21
5.000000000000004
 31
0.0
  0
LINE
  5
493
330
397
100
AcDbEntity
  8
bold
100
AcDbLine
 10
-36.95
 20
5.000000000000004
 30
0.0
 11
-29.95
 21
5.000000000000004
 31
0.0
  0
LINE
  5
494
330
397
100
AcDbEntity
  8
bold
100
AcDbLine
 10
-28.95
 20
5.000000000000004
 30
0.0
 11
-25.0
 21
5.000000000000004
 31
0.0
  0
LINE
  5
495
330
397
100
AcDbEntity
  8
bold
100
AcDbLine
 10
-28.95
 20
11.06413789451166
 30
0.0
 11
-28.95
 21
5.000000000000004
 31
0.0
  0
LINE
  5
496
330
397
100
AcDbEntity
  8
bold
100
AcDbLine
 10
-47.95
 20
11.06413789451166
 30
0.0
 11
-47.95
 21
5.000000000000004
 31
0.0
  0
LINE
  5
497
330
397
100
AcDbEntity
  8
bold
100
AcDbLine
 10
-50.0
 20
10.00000000000001
 30
0.0
 11
-47.95
 21
10.00000000000001
 31
0.0
  0
LINE
  5
498
330
397
100
AcDbEntity
  8
bold
100
AcDbLine
 10
-50.0
 20
0.500000000000056
 30
0.0
 11
-25.0
 21
0.500000000000056
 31
0.0
  0
LINE
  5
499
330
397
100
AcDbEntity
  8
bold
100
AcDbLine
 10
-45.5
 20
177.0000000000001
 30
0.0
 11
-49.0
 21
177.0000000000001
 31
0.0
  0
LINE
  5
49A
330
397
100
AcDbEntity
  8
bold
100
AcDbLine
 10
-45.5
 20
149.0
 30
0.0
 11
-45.5
 21
177.0000000000001
 31
0.0
  0
LINE
  5
49B
330
397
100
AcDbEntity
  8
bold
100
AcDbLine
 10
-50.0
 20
147.0
 30
0.0
 11
-25.0
 21
147.0
 31
0.0
  0
LINE
  5
49C
330
397
100
AcDbEntity
  8
bold
100
AcDbLine
 10
-25.0
 20
149.0
 30
0.0
 11
-29.5
 21
149.0
 31
0.0
  0
LINE
  5
49D
330
397
100
AcDbEntity
  8
bold
100
AcDbLine
 10
-29.5
 20
149.0
 30
0.0
 11
-29.5
 21
177.0000000000001
 31
0.0
  0
LINE
  5
49E
330
397
100
AcDbEntity
  8
bold
100
AcDbLine
 10
-25.0
 20
177.0000000000001
 30
0.0
 11
-29.5
 21
177.0000000000001
 31
0.0
  0
LINE
  5
49F
330
397
100
AcDbEntity
  8
bold
100
AcDbLine
 10
-50.0
 20
179.0000000000001
 30
0.0
 11
-25.0
 21
179.0000000000001
 31
0.0
  0
LINE
  5
4A0
330
397
100
AcDbEntity
  8
bold
100
AcDbLine
 10
-50.0
 20
175.5000000000001
 30
0.0
 11
-49.0
 21
175.5000000000001
 31
0.0
  0
LINE
  5
4A1
330
397
100
AcDbEntity
  8
bold
100
AcDbLine
 10
-49.0
 20
175.5000000000001
 30
0.0
 11
-49.0
 21
177.0000000000001
 31
0.0
  0
LINE
  5
4A2
330
397
100
AcDbEntity
  8
bold
100
AcDbLine
 10
-45.5
 20
149.0
 30
0.0
 11
-50.0
 21
149.0
 31
0.0
  0
LINE
  5
4A3
330
397
100
AcDbEntity
  8
bold
100
AcDbLine
 10
-50.0
 20
507.0
 30
0.0
 11
-50.0
 21
556.0
 31
0.0
  0
LINE
  5
4A4
330
397
100
AcDbEntity
  8
bold
100
AcDbLine
 10
-50.0
 20
517.0
 30
0.0
 11
-25.0
 21
517.0
 31
0.0
  0
LINE
  5
4A5
330
397
100
AcDbEntity
  8
bold
100
AcDbLine
 10
-50.0
 20
552.0
 30
0.0
 11
-48.0
 21
552.0
 31
0.0
  0
LINE
  5
4A6
330
397
100
AcDbEntity
  8
bold
100
AcDbLine
 10
-45.5
 20
547.0
 30
0.0
 11
-50.0
 21
547.0
 31
0.0
  0
LINE
  5
4A7
330
397
100
AcDbEntity
  8
bold
100
AcDbLine
 10
-45.5
 20
519.0
 30
0.0
 11
-45.5
 21
547.0
 31
0.0
  0
LINE
  5
4A8
330
397
100
AcDbEntity
  8
bold
100
AcDbLine
 10
-45.5
 20
519.0
 30
0.0
 11
-50.0
 21
519.0
 31
0.0
  0
LINE
  5
4A9
330
397
100
AcDbEntity
  8
bold
100
AcDbLine
 10
-25.0
 20
519.0
 30
0.0
 11
-29.5
 21
519.0
 31
0.0
  0
LINE
  5
4AA
330
397
100
AcDbEntity
  8
bold
100
AcDbLine
 10
-29.5
 20
519.0
 30
0.0
 11
-29.5
 21
547.0
 31
0.0
  0
LINE
  5
4AB
330
397
100
AcDbEntity
  8
bold
100
AcDbLine
 10
-25.0
 20
547.0
 30
0.0
 11
-29.5
 21
547.0
 31
0.0
  0
LINE
  5
4AC
330
397
100
AcDbEntity
  8
bold
100
AcDbLine
 10
-27.7
 20
549.0
 30
0.0
 11
-25.0
 21
549.0
 31
0.0
  0
LINE
  5
4AD
330
397
100
AcDbEntity
  8
bold
100
AcDbLine
 10
-28.7
 20
552.0
 30
0.0
 11
-27.7
 21
552.0
 31
0.0
  0
LINE
  5
4AE
330
397
100
AcDbEntity
  8
bold
100
AcDbLine
 10
-37.0
 20
549.0
 30
0.0
 11
-28.7
 21
549.0
 31
0.0
  0
LINE
  5
4AF
330
397
100
AcDbEntity
  8
bold
100
AcDbLine
 10
-38.0
 20
552.0
 30
0.0
 11
-37.0
 21
552.0
 31
0.0
  0
LINE
  5
4B0
330
397
100
AcDbEntity
  8
bold
100
AcDbLine
 10
-41.49999999999999
 20
549.0
 30
0.0
 11
-38.0
 21
549.0
 31
0.0
  0
LINE
  5
4B1
330
397
100
AcDbEntity
  8
bold
100
AcDbLine
 10
-48.0
 20
549.0
 30
0.0
 11
-43.0
 21
549.0
 31
0.0
  0
LINE
  5
4B2
330
397
100
AcDbEntity
  8
bold
100
AcDbLine
 10
-25.0
 20
554.0
 30
0.0
 11
-50.0
 21
554.0
 31
0.0
  0
LINE
  5
4B3
330
397
100
AcDbEntity
  8
bold
100
AcDbLine
 10
-25.0
 20
554.0
 30
0.0
 11
-25.0
 21
556.0
 31
0.0
  0
LINE
  5
4B4
330
397
100
AcDbEntity
  8
bold
100
AcDbLine
 10
-50.0
 20
556.0
 30
0.0
 11
-25.0
 21
556.0
 31
0.0
  0
LINE
  5
4B5
330
397
100
AcDbEntity
  8
bold
100
AcDbLine
 10
-37.95
 20
10.00000000000001
 30
0.0
 11
-36.95
 21
10.00000000000001
 31
0.0
  0
LINE
  5
4B6
330
397
100
AcDbEntity
  8
light
100
AcDbLine
 10
-37.95
 20
11.00127016823038
 30
0.0
 11
-36.95
 21
11.00127016823038
 31
0.0
  0
LINE
  5
4B7
330
397
100
AcDbEntity
  8
bold
100
AcDbLine
 10
-29.95
 20
10.00000000000001
 30
0.0
 11
-28.95
 21
10.00000000000001
 31
0.0
  0
LINE
  5
4B8
330
397
100
AcDbEntity
  8
light
100
AcDbLine
 10
-29.95
 20
11.00127016823038
 30
0.0
 11
-28.95
 21
11.00127016823038
 31
0.0
  0
ENDBLK
  5
39A
330
397
100
AcDbEntity
  8
0
100
AcDbBlockEnd
  0
BLOCK
  5
4BD
330
4BC
100
AcDbEntity
  8
0
100
AcDbBlockBegin
  2
*D4
 70
     1
 10
0.0
 20
0.0
 30
0.0
  3
*D4
  1

  0
LINE
  5
4BF
330
4BC
100
AcDbEntity
  8
dimension
 62
     0
370
    -2
100
AcDbLine
 10
-50.0
 20
556.0
 30
0.0
 11
-50.0
 21
601.5
 31
0.0
  0
LINE
  5
4C0
330
4BC
100
AcDbEntity
  8
dimension
 62
     0
370
    -2
100
AcDbLine
 10
50.0
 20
556.0
 30
0.0
 11
50.0
 21
601.5
 31
0.0
  0
LINE
  5
4C1
330
4BC
100
AcDbEntity
  8
dimension
 62
     0
370
    -2
100
AcDbLine
 10
-37.0
 20
601.5
 30
0.0
 11
37.0
 21
601.5
 31
0.0
  0
SOLID
  5
4C2
330
4BC
100
AcDbEntity
  8
dimension
 62
     0
100
AcDbTrace
 10
-37.0
 20
603.6666666666666
 30
0.0
 11
-37.0
 21
599.3333333333334
 31
0.0
 12
-50.0
 22
601.5
 32
0.0
 13
-50.0
 23
601.5
 33
0.0
  0
SOLID
  5
4C3
330
4BC
100
AcDbEntity
  8
dimension
 62
     0
100
AcDbTrace
 10
37.0
 20
599.3333333333334
 30
0.0
 11
37.0
 21
603.6666666666666
 31
0.0
 12
50.0
 22
601.5
 32
0.0
 13
50.0
 23
601.5
 33
0.0
  0
MTEXT
  5
4C4
330
4BC
100
AcDbEntity
  8
dimension
 62
     0
100
AcDbMText
 10
0.0
 20
611.9
 30
0.0
 40
13.0
 41
0.0
 46
0.0
 71
     5
 72
     1
  1
100
 73
     1
 44
1.0
  0
POINT
  5
4C5
330
4BC
100
AcDbEntity
  8
Defpoints
 62
     0
100
AcDbPoint
 10
-50.0
 20
556.0
 30
0.0
  0
POINT
  5
4C6
330
4BC
100
AcDbEntity
  8
Defpoints
 62
     0
100
AcDbPoint
 10
50.0
 20
556.0
 30
0.0
  0
POINT
  5
4C7
330
4BC
100
AcDbEntity
  8
Defpoints
 62
     0
100
AcDbPoint
 10
50.0
 20
595.0
 30
0.0
  0
ENDBLK
  5
4BE
330
4BC
100
AcDbEntity
  8
0
100
AcDbBlockEnd
  0
BLOCK
  5
4CA
330
4C9
100
AcDbEntity
  8
0
100
AcDbBlockBegin
  2
*D5
 70
     1
 10
0.0
 20
0.0
 30
0.0
  3
*D5
  1

  0
LINE
  5
4CC
330
4C9
100
AcDbEntity
  8
dimension
 62
     0
370
    -2
100
AcDbLine
 10
-39.45
 20
308.25
 30
0.0
 11
-39.45
 21
275.75
 31
0.0
  0
LINE
  5
4CD
330
4C9
100
AcDbEntity
  8
dimension
 62
     0
370
    -2
100
AcDbLine
 10
-35.55
 20
308.25
 30
0.0
 11
-35.55
 21
275.75
 31
0.0
  0
LINE
  5
4CE
330
4C9
100
AcDbEntity
  8
dimension
 62
     0
370
    -2
100
AcDbLine
 10
-39.45
 20
275.75
 30
0.0
 11
-100.4880952380953
 21
275.75
 31
0.0
  0
LINE
  5
4CF
330
4C9
100
AcDbEntity
  8
dimension
 62
     0
370
    -2
100
AcDbLine
 10
-39.45
 20
275.75
 30
0.0
 11
-35.55
 21
275.75
 31
0.0
  0
LINE
  5
4D0
330
4C9
100
AcDbEntity
  8
dimension
 62
     0
370
    -2
100
AcDbLine
 10
-52.45
 20
275.75
 30
0.0
 11
-65.45
 21
275.75
 31
0.0
  0
LINE
  5
4D1
330
4C9
100
AcDbEntity
  8
dimension
 62
     0
370
    -2
100
AcDbLine
 10
-22.55
 20
275.75
 30
0.0
 11
-9.549999999999997
 21
275.75
 31
0.0
  0
SOLID
  5
4D2
330
4C9
100
AcDbEntity
  8
dimension
 62
     0
100
AcDbTrace
 10
-52.45
 20
273.5833333333333
 30
0.0
 11
-52.45
 21
277.9166666666667
 31
0.0
 12
-39.45
 22
275.75
 32
0.0
 13
-39.45
 23
275.75
 33
0.0
  0
SOLID
  5
4D3
330
4C9
100
AcDbEntity
  8
dimension
 62
     0
100
AcDbTrace
 10
-22.55
 20
277.9166666666667
 30
0.0
 11
-22.55
 21
273.5833333333333
 31
0.0
 12
-35.55
 22
275.75
 32
0.0
 13
-35.55
 23
275.75
 33
0.0
  0
MTEXT
  5
4D4
330
4C9
100
AcDbEntity
  8
dimension
 62
     0
100
AcDbMText
 10
-82.96904761904763
 20
286.15
 30
0.0
 40
13.0
 41
0.0
 46
0.0
 71
     5
 72
     1
  1
3.8
 73
     1
 44
1.0
  0
POINT
  5
4D5
330
4C9
100
AcDbEntity
  8
Defpoints
 62
     0
100
AcDbPoint
 10
-39.45
 20
308.25
 30
0.0
  0
POINT
  5
4D6
330
4C9
100
AcDbEntity
  8
Defpoints
 62
     0
100
AcDbPoint
 10
-35.55
 20
308.25
 30
0.0
  0
POINT
  5
4D7
330
4C9
100
AcDbEntity
  8
Defpoints
 62
     0
100
AcDbPoint
 10
-35.55
 20
282.25
 30
0.0
  0
ENDBLK
  5
4CB
330
4C9
100
AcDbEntity
  8
0
100
AcDbBlockEnd
  0
BLOCK
  5
4DA
330
4D9
100
AcDbEntity
  8
0
100
AcDbBlockBegin
  2
*D6
 70
     1
 10
0.0
 20
0.0
 30
0.0
  3
*D6
  1

  0
LINE
  5
4DC
330
4D9
100
AcDbEntity
  8
dimension
 62
     0
370
    -2
100
AcDbLine
 10
31.15
 20
308.25
 30
0.0
 11
31.15
 21
275.75
 31
0.0
  0
LINE
  5
4DD
330
4D9
100
AcDbEntity
  8
dimension
 62
     0
370
    -2
100
AcDbLine
 10
35.65
 20
308.25
 30
0.0
 11
35.65
 21
275.75
 31
0.0
  0
LINE
  5
4DE
330
4D9
100
AcDbEntity
  8
dimension
 62
     0
370
    -2
100
AcDbLine
 10
35.65
 20
275.75
 30
0.0
 11
101.0690476190476
 21
275.75
 31
0.0
  0
LINE
  5
4DF
330
4D9
100
AcDbEntity
  8
dimension
 62
     0
370
    -2
100
AcDbLine
 10
31.15
 20
275.75
 30
0.0
 11
35.65
 21
275.75
 31
0.0
  0
LINE
  5
4E0
330
4D9
100
AcDbEntity
  8
dimension
 62
     0
370
    -2
100
AcDbLine
 10
18.15
 20
275.75
 30
0.0
 11
5.149999999999999
 21
275.75
 31
0.0
  0
LINE
  5
4E1
330
4D9
100
AcDbEntity
  8
dimension
 62
     0
370
    -2
100
AcDbLine
 10
48.65
 20
275.75
 30
0.0
 11
61.65
 21
275.75
 31
0.0
  0
SOLID
  5
4E2
330
4D9
100
AcDbEntity
  8
dimension
 62
     0
100
AcDbTrace
 10
18.15
 20
273.5833333333333
 30
0.0
 11
18.15
 21
277.9166666666667
 31
0.0
 12
31.15
 22
275.75
 32
0.0
 13
31.15
 23
275.75
 33
0.0
  0
SOLID
  5
4E3
330
4D9
100
AcDbEntity
  8
dimension
 62
     0
100
AcDbTrace
 10
48.65
 20
277.9166666666667
 30
0.0
 11
48.65
 21
273.5833333333333
 31
0.0
 12
35.65
 22
275.75
 32
0.0
 13
35.65
 23
275.75
 33
0.0
  0
MTEXT
  5
4E4
330
4D9
100
AcDbEntity
  8
dimension
 62
     0
100
AcDbMText
 10
83.55000000000001
 20
286.15
 30
0.0
 40
13.0
 41
0.0
 46
0.0
 71
     5
 72
     1
  1
4.5
 73
     1
 44
1.0
  0
POINT
  5
4E5
330
4D9
100
AcDbEntity
  8
Defpoints
 62
     0
100
AcDbPoint
 10
31.15
 20
308.25
 30
0.0
  0
POINT
  5
4E6
330
4D9
100
AcDbEntity
  8
Defpoints
 62
     0
100
AcDbPoint
 10
35.65
 20
308.25
 30
0.0
  0
POINT
  5
4E7
330
4D9
100
AcDbEntity
  8
Defpoints
 62
     0
100
AcDbPoint
 10
35.65
 20
282.25
 30
0.0
  0
ENDBLK
  5
4DB
330
4D9
100
AcDbEntity
  8
0
100
AcDbBlockEnd
  0
ENDSEC
  0
SECTION
  2
ENTITIES
  0
ATTDEF
  5
5F
330
1F
100
AcDbEntity
  8
attrib
100
AcDbText
 10
55.0
 20
556.0
 30
0.0
 40
0.5
  1
01434
100
AcDbAttributeDefinition
  3

  2
NB
 70
     8
280
     0
  0
ATTDEF
  5
60
330
1F
100
AcDbEntity
  8
attrib
100
AcDbText
 10
55.0
 20
555.5
 30
0.0
 40
0.5
  1
Covers and compartments
100
AcDbAttributeDefinition
  3

  2
NN
 70
     8
280
     0
  0
ATTDEF
  5
61
330
1F
100
AcDbEntity
  8
attrib
100
AcDbText
 10
55.0
 20
555.0
 30
0.0
 40
0.5
  1

100
AcDbAttributeDefinition
  3

  2
NT
 70
     8
280
     0
  0
ATTDEF
  5
62
330
1F
100
AcDbEntity
  8
attrib
100
AcDbText
 10
55.0
 20
554.5
 30
0.0
 40
0.5
  1
$ARTNR.
100
AcDbAttributeDefinition
  3

  2
NBSYN
 70
     8
280
     0
  0
ATTDEF
  5
63
330
1F
100
AcDbEntity
  8
attrib
100
AcDbText
 10
55.0
 20
554.0
 30
0.0
 40
0.5
  1
01434000A
100
AcDbAttributeDefinition
  3

  2
LINA
 70
     8
280
     0
  0
ATTDEF
  5
64
330
1F
100
AcDbEntity
  8
attrib
100
AcDbText
 10
55.0
 20
553.5
 30
0.0
 40
0.5
  1
Wöhner
100
AcDbAttributeDefinition
  3

  2
CATALOG
 70
     8
280
     0
  0
ATTDEF
  5
65
330
1F
100
AcDbEntity
  8
attrib
100
AcDbText
 10
55.0
 20
553.0
 30
0.0
 40
0.5
  1
01434
100
AcDbAttributeDefinition
  3

  2
ARTNR
 70
     8
280
     0
  0
ATTDEF
  5
66
330
1F
100
AcDbEntity
  8
attrib
100
AcDbText
 10
55.0
 20
552.5
 30
0.0
 40
0.5
  1
30, 40, 60, 80, 100, 120 x 10
100
AcDbAttributeDefinition
  3

  2
BUSB
 70
     8
280
     0
  0
ATTDEF
  5
67
330
1F
100
AcDbEntity
  8
attrib
100
AcDbText
 10
55.0
 20
552.0
 30
0.0
 40
0.5
  1
CrossLink®185Power
100
AcDbAttributeDefinition
  3

  2
POF
 70
     8
280
     0
  0
ATTDEF
  5
68
330
1F
100
AcDbEntity
  8
attrib
100
AcDbText
 10
55.0
 20
551.5
 30
0.0
 40
0.5
  1
CL185-A100
100
AcDbAttributeDefinition
  3

  2
TYPE
 70
     8
280
     0
  0
ATTDEF
  5
69
330
1F
100
AcDbEntity
  8
attrib
100
AcDbText
 10
55.0
 20
551.0
 30
0.0
 40
0.5
  1
4
100
AcDbAttributeDefinition
  3

  2
QNT
 70
     8
280
     0
  0
ATTDEF
  5
6A
330
1F
100
AcDbEntity
  8
attrib
100
AcDbText
 10
55.0
 20
550.5
 30
0.0
 40
0.5
  1
100
100
AcDbAttributeDefinition
  3

  2
W
 70
     8
280
     0
  0
ATTDEF
  5
6B
330
1F
100
AcDbEntity
  8
attrib
100
AcDbText
 10
55.0
 20
550.0
 30
0.0
 40
0.5
  1
556
100
AcDbAttributeDefinition
  3

  2
H
 70
     8
280
     0
  0
ATTDEF
  5
6C
330
1F
100
AcDbEntity
  8
attrib
100
AcDbText
 10
55.0
 20
549.5
 30
0.0
 40
0.5
  1
49
100
AcDbAttributeDefinition
  3

  2
D
 70
     8
280
     0
  0
ATTDEF
  5
6D
330
1F
100
AcDbEntity
  8
attrib
100
AcDbText
 10
55.0
 20
549.0
 30
0.0
 40
0.5
  1
IP20
100
AcDbAttributeDefinition
  3

  2
IPRF
 70
     8
280
     0
  0
ATTDEF
  5
6E
330
1F
100
AcDbEntity
  8
attrib
100
AcDbText
 10
55.0
 20
548.5
 30
0.0
 40
0.5
  1
Product link
100
AcDbAttributeDefinition
  3

  2
LINK
 70
     8
280
     0
  0
ATTDEF
  5
6F
330
1F
100
AcDbEntity
  8
attrib
100
AcDbText
 10
55.0
 20
548.0
 30
0.0
 40
0.5
  1
woehner
100
AcDbAttributeDefinition
  3

  2
COMPANY
 70
     8
280
     0
  0
ATTDEF
  5
70
330
1F
100
AcDbEntity
  8
attrib
100
AcDbText
 10
55.0
 20
547.5
 30
0.0
 40
0.5
  1
{$CADENAS_DATA/23d-libs/woehner/sys_185/busbar_supp_busbars_and_covers/covers_and_compartments_asmtab.prj},192 {VTYP=3D},{STYP=ASSTAB},{NB=01434},{LINA=01434000A},{NN=Abdeckungen und Abschottungen},{DATE=25.08.2022 14:21:53},{GEOMDATE=24.08.2022 11:53:23}
100
AcDbAttributeDefinition
  3

  2
PSOL_0
 70
     9
280
     0
  0
ATTDEF
  5
71
330
1F
100
AcDbEntity
  8
attrib
100
AcDbText
 10
55.0
 20
547.0
 30
0.0
 40
0.5
  1
,{VERSION=},{LINEID=200},{WBVAR=},{WBNUMERIC=}  {NB=01434},{LINA=01434000A},{KT=DUMMY},{BOM=01434000A},{ARTNR=01434},{BUSB=30, 40, 60, 80, 100, 120 x 10},{POF=CrossLink®185Power},{TYPE=CL185-A100},{QNT=4},{W=100},{H=556},{D=49},{CONCA=},{SCR=},{IPR=},{IPR
100
AcDbAttributeDefinition
  3

  2
PSOL_1
 70
     9
280
     0
  0
ATTDEF
  5
72
330
1F
100
AcDbEntity
  8
attrib
100
AcDbText
 10
55.0
 20
546.5
 30
0.0
 40
0.5
  1
F=IP20},{SEARCH=},{EDZ=},{IODD=},{DIST=13.0},{LINK=Product link},{LINKX=https://www.woehner.de/de/produkte/01434.html},{PPATH=parts/covers_and_compartments_asmtpl.prj}
100
AcDbAttributeDefinition
  3

  2
PSOL_2
 70
     9
280
     0
  0
INSERT
  5
74
330
1F
100
AcDbEntity
  8
0
100
AcDbBlockReference
  2
1_01434000A_end_cover_M1001_0_in_01434_0
 10
0.0
 20
0.0
 30
0.0
  0
INSERT
  5
278
330
1F
100
AcDbEntity
  8
0
100
AcDbBlockReference
  2
2_01434000A_end_cover_R1001_0_in_01434_0
 10
0.0
 20
0.0
 30
0.0
  0
INSERT
  5
398
330
1F
100
AcDbEntity
  8
0
100
AcDbBlockReference
  2
3_01434000A_end_cover_L1001_0_in_01434_0
 10
0.0
 20
0.0
 30
0.0
  0
DIMENSION
  5
4BA
330
1F
100
AcDbEntity
  8
dimension
100
AcDbDimension
280
     0
  2
*D4
 10
50.0
 20
601.5
 30
0.0
 11
0.0
 21
601.5
 31
0.0
 70
   160
  1
100
 71
     5
 42
100.0
 73
     0
 74
     0
 75
     0
  3
ISO-25
100
AcDbAlignedDimension
 13
-50.0
 23
556.0
 33
0.0
 14
50.0
 24
556.0
 34
0.0
100
AcDbRotatedDimension
1001
ACAD
1000
DSTYLE
1002
{
1070
   147
1040
3.9
1070
    42
1040
0.0
1070
    44
1040
0.0
1070
    41
1040
13.0
1070
   140
1040
13.0
1002
}
  0
DIMENSION
  5
4C8
330
1F
100
AcDbEntity
  8
dimension
100
AcDbDimension
280
     0
  2
*D5
 10
-35.55
 20
275.75
 30
0.0
 11
-82.96904761904763
 21
275.75
 31
0.0
 70
   160
  1
3.8
 71
     5
 42
3.900000000000006
 73
     0
 74
     0
 75
     0
  3
ISO-25
100
AcDbAlignedDimension
 13
-39.45
 23
308.25
 33
0.0
 14
-35.55
 24
308.25
 34
0.0
100
AcDbRotatedDimension
1001
ACAD
1000
DSTYLE
1002
{
1070
   147
1040
3.9
1070
    42
1040
0.0
1070
    44
1040
0.0
1070
    41
1040
13.0
1070
   140
1040
13.0
1002
}
  0
DIMENSION
  5
4D8
330
1F
100
AcDbEntity
  8
dimension
100
AcDbDimension
280
     0
  2
*D6
 10
35.65
 20
275.75
 30
0.0
 11
83.55000000000001
 21
275.75
 31
0.0
 70
   160
  1
4.5
 71
     5
 42
4.5
 73
     0
 74
     0
 75
     0
  3
ISO-25
100
AcDbAlignedDimension
 13
31.15
 23
308.25
 33
0.0
 14
35.65
 24
308.25
 34
0.0
100
AcDbRotatedDimension
1001
ACAD
1000
DSTYLE
1002
{
1070
   147
1040
3.9
1070
    42
1040
0.0
1070
    44
1040
0.0
1070
    41
1040
13.0
1070
   140
1040
13.0
1002
}
  0
POINT
  5
4E9
330
1F
100
AcDbEntity
  8
connection
100
AcDbPoint
 10
37.5
 20
0.0
 30
0.0
  0
POINT
  5
4EA
330
1F
100
AcDbEntity
  8
connection
100
AcDbPoint
 10
-37.5
 20
0.0
 30
0.0
  0
ENDSEC
  0
SECTION
  2
OBJECTS
  0
DICTIONARY
  5
C
330
0
100
AcDbDictionary
281
     1
  3
ACAD_DETAILVIEWSTYLE
350
4F2
  3
ACAD_GROUP
350
D
  3
ACAD_LAYOUT
350
1A
  3
ACAD_MATERIAL
350
43
  3
ACAD_MLEADERSTYLE
350
5B
  3
ACAD_MLINESTYLE
350
17
  3
ACAD_PLOTSETTINGS
350
19
  3
ACAD_PLOTSTYLENAME
350
E
  3
ACAD_SCALELIST
350
47
  3
ACAD_SECTIONVIEWSTYLE
350
4F3
  3
ACAD_TABLESTYLE
350
59
  3
ACAD_VISUALSTYLE
350
2A
  3
ACDB_RECOMPOSE_DATA
350
4EF
  3
AcDbVariableDictionary
350
4EB
  0
SUN
  5
5D
330
29
100
AcDbSun
 90
        1
290
     0
 63
     7
421
 16777215
 40
1.0
291
     1
 91
  2455826
 92
 54000000
292
     0
 70
     2
 71
   256
280
     1
  0
DICTIONARY
  5
4F2
102
{ACAD_REACTORS
330
C
102
}
330
C
100
AcDbDictionary
281
     1
  0
DICTIONARY
  5
D
102
{ACAD_REACTORS
330
C
102
}
330
C
100
AcDbDictionary
281
     1
  0
DICTIONARY
  5
1A
102
{ACAD_REACTORS
330
C
102
}
330
C
100
AcDbDictionary
281
     1
  3
Layout1
350
1E
  3
Layout2
350
26
  3
Model
350
22
  0
DICTIONARY
  5
43
102
{ACAD_REACTORS
330
C
102
}
330
C
100
AcDbDictionary
281
     1
  3
ByBlock
350
45
  3
ByLayer
350
44
  3
Global
350
46
  0
DICTIONARY
  5
5B
102
{ACAD_REACTORS
330
C
102
}
330
C
100
AcDbDictionary
281
     1
  3
Standard
350
5C
  0
DICTIONARY
  5
17
102
{ACAD_REACTORS
330
C
102
}
330
C
100
AcDbDictionary
281
     1
  3
Standard
350
18
  0
DICTIONARY
  5
19
102
{ACAD_REACTORS
330
C
102
}
330
C
100
AcDbDictionary
281
     1
  0
ACDBDICTIONARYWDFLT
  5
E
102
{ACAD_REACTORS
330
C
102
}
330
C
100
AcDbDictionary
281
     1
  3
Normal
350
F
100
AcDbDictionaryWithDefault
340
F
  0
DICTIONARY
  5
47
102
{ACAD_REACTORS
330
C
102
}
330
C
100
AcDbDictionary
281
     1
  3
A0
350
48
  3
A1
350
49
  3
A2
350
4A
  3
A3
350
4B
  3
A4
350
4C
  3
A5
350
4D
  3
A6
350
4E
  3
A7
350
4F
  3
A8
350
50
  3
A9
350
51
  3
B0
350
52
  3
B1
350
53
  3
B2
350
54
  3
B3
350
55
  3
B4
350
56
  3
B5
350
57
  3
B6
350
58
  0
DICTIONARY
  5
4F3
102
{ACAD_REACTORS
330
C
102
}
330
C
100
AcDbDictionary
281
     1
  0
DICTIONARY
  5
59
102
{ACAD_REACTORS
330
C
102
}
330
C
100
AcDbDictionary
281
     1
  3
Standard
350
5A
  0
DICTIONARY
  5
2A
102
{ACAD_REACTORS
330
C
102
}
330
C
100
AcDbDictionary
281
     1
  3
2dWireframe
350
2F
  3
Basic
350
32
  3
Brighten
350
36
  3
ColorChange
350
3A
  3
Conceptual
350
34
  3
Dim
350
35
  3
EdgeColorOff
350
3D
  3
Facepattern
350
39
  3
Flat
350
2B
  3
FlatWithEdges
350
2C
  3
Gouraud
350
2D
  3
GouraudWithEdges
350
2E
  3
Hidden
350
31
  3
JitterOff
350
3B
  3
Linepattern
350
38
  3
OverhangOff
350
3C
  3
Realistic
350
33
  3
Shaded
350
42
  3
Shaded with edges
350
41
  3
Shades of Gray
350
3E
  3
Sketchy
350
3F
  3
Thicken
350
37
  3
Wireframe
350
30
  3
X-Ray
350
40
  0
XRECORD
  5
4EF
102
{ACAD_REACTORS
330
C
102
}
330
C
100
AcDbXrecord
280
     1
 90
        1
330
5A
  0
DICTIONARY
  5
4EB
102
{ACAD_REACTORS
330
C
102
}
330
C
100
AcDbDictionary
281
     1
  3
CANNOSCALE
350
4EC
  3
CENTEREXE
350
4F4
  3
CENTERLTYPEFILE
350
4F5
  3
CMLEADERSTYLE
350
4F1
  3
CTABLESTYLE
350
4F0
  0
LAYOUT
  5
1E
102
{ACAD_REACTORS
330
1A
102
}
330
1A
100
AcDbPlotSettings
  1

  2
none_device
  4

  6

 40
0.0
 41
0.0
 42
0.0
 43
0.0
 44
0.0
 45
0.0
 46
0.0
 47
0.0
 48
0.0
 49
0.0
140
0.0
141
0.0
142
1.0
143
1.0
 70
   688
 72
     1
 73
     0
 74
     5
  7

 75
    16
 76
     0
 77
     2
 78
   300
147
1.0
148
0.0
149
0.0
100
AcDbLayout
  1
Layout1
 70
     1
 71
     1
 10
0.0
 20
0.0
 11
420.0
 21
297.0
 12
0.0
 22
0.0
 32
0.0
 14
1.000000000000000E+20
 24
1.000000000000000E+20
 34
1.000000000000000E+20
 15
-1.000000000000000E+20
 25
-1.000000000000000E+20
 35
-1.000000000000000E+20
146
0.0
 13
0.0
 23
0.0
 33
0.0
 16
1.0
 26
0.0
 36
0.0
 17
0.0
 27
1.0
 37
0.0
 76
     0
330
1B
  0
LAYOUT
  5
26
102
{ACAD_REACTORS
330
1A
102
}
330
1A
100
AcDbPlotSettings
  1

  2
none_device
  4

  6

 40
0.0
 41
0.0
 42
0.0
 43
0.0
 44
0.0
 45
0.0
 46
0.0
 47
0.0
 48
0.0
 49
0.0
140
0.0
141
0.0
142
1.0
143
1.0
 70
   688
 72
     1
 73
     0
 74
     5
  7

 75
    16
 76
     0
 77
     2
 78
   300
147
1.0
148
0.0
149
0.0
100
AcDbLayout
  1
Layout2
 70
     1
 71
     2
 10
0.0
 20
0.0
 11
0.0
 21
0.0
 12
0.0
 22
0.0
 32
0.0
 14
0.0
 24
0.0
 34
0.0
 15
0.0
 25
0.0
 35
0.0
146
0.0
 13
0.0
 23
0.0
 33
0.0
 16
1.0
 26
0.0
 36
0.0
 17
0.0
 27
1.0
 37
0.0
 76
     0
330
23
  0
LAYOUT
  5
22
102
{ACAD_REACTORS
330
1A
102
}
330
1A
100
AcDbPlotSettings
  1

  2
none_device
  4
Letter_(8.50_x_11.00_Inches)
  6

 40
6.35
 41
6.35
 42
6.35000508
 43
6.35000508
 44
215.9
 45
279.4
 46
0.0
 47
0.0
 48
0.0
 49
0.0
140
0.0
141
0.0
142
1.0
143
1.0
 70
  1712
 72
     1
 73
     0
 74
     0
  7

 75
     0
 76
     0
 77
     2
 78
   300
147
1.0
148
0.0
149
0.0
100
AcDbLayout
  1
Model
 70
     1
 71
     0
 10
0.0
 20
0.0
 11
420.0
 21
297.0
 12
0.0
 22
0.0
 32
0.0
 14
-100.4880952380953
 24
0.0
 34
0.0
 15
101.0690476190476
 25
618.4
 35
0.0
146
0.0
 13
0.0
 23
0.0
 33
0.0
 16
1.0
 26
0.0
 36
0.0
 17
0.0
 27
1.0
 37
0.0
 76
     0
330
1F
331
29
  0
MATERIAL
  5
45
102
{ACAD_REACTORS
330
43
102
}
330
43
100
AcDbMaterial
  1
ByBlock
 72
     1
 94
      127
  0
MATERIAL
  5
44
102
{ACAD_REACTORS
330
43
102
}
330
43
100
AcDbMaterial
  1
ByLayer
 72
     1
 94
      127
  0
MATERIAL
  5
46
102
{ACAD_REACTORS
330
43
102
}
330
43
100
AcDbMaterial
  1
Global
 72
     1
 94
      127
  0
MLEADERSTYLE
  5
5C
102
{ACAD_REACTORS
330
5B
102
}
330
5B
100
AcDbMLeaderStyle
179
     2
170
     2
171
     1
172
     0
 90
        2
 40
0.0
 41
0.0
173
     1
 91
-1056964608
340
14
 92
       -2
290
     1
 42
2.0
291
     1
 43
8.0
  3
Standard
341
0
 44
4.0
300

342
11
174
     1
178
     6
175
     1
176
     0
 93
-1056964608
 45
4.0
292
     0
297
     0
 46
4.0
343
0
 94
-1056964608
 47
1.0
 49
1.0
140
1.0
293
     1
141
0.0
294
     1
177
     0
142
1.0
295
     0
296
     0
143
3.75
271
     0
272
     9
273
     9
298
     0
  0
MLINESTYLE
  5
18
102
{ACAD_REACTORS
330
17
102
}
330
17
100
AcDbMlineStyle
  2
Standard
 70
     0
  3

 62
   256
 51
90.0
 52
90.0
 71
     2
 49
0.5
 62
   256
  6
BYLAYER
 49
-0.5
 62
   256
  6
BYLAYER
  0
ACDBPLACEHOLDER
  5
F
102
{ACAD_REACTORS
330
E
102
}
330
E
  0
SCALE
  5
48
102
{ACAD_REACTORS
330
47
102
}
330
47
100
AcDbScale
 70
     0
300
1:1
140
1.0
141
1.0
290
     1
  0
SCALE
  5
49
102
{ACAD_REACTORS
330
47
102
}
330
47
100
AcDbScale
 70
     0
300
1:2
140
1.0
141
2.0
290
     0
  0
SCALE
  5
4A
102
{ACAD_REACTORS
330
47
102
}
330
47
100
AcDbScale
 70
     0
300
1:4
140
1.0
141
4.0
290
     0
  0
SCALE
  5
4B
102
{ACAD_REACTORS
330
47
102
}
330
47
100
AcDbScale
 70
     0
300
1:5
140
1.0
141
5.0
290
     0
  0
SCALE
  5
4C
102
{ACAD_REACTORS
330
47
102
}
330
47
100
AcDbScale
 70
     0
300
1:8
140
1.0
141
8.0
290
     0
  0
SCALE
  5
4D
102
{ACAD_REACTORS
330
47
102
}
330
47
100
AcDbScale
 70
     0
300
1:10
140
1.0
141
10.0
290
     0
  0
SCALE
  5
4E
102
{ACAD_REACTORS
330
47
102
}
330
47
100
AcDbScale
 70
     0
300
1:16
140
1.0
141
16.0
290
     0
  0
SCALE
  5
4F
102
{ACAD_REACTORS
330
47
102
}
330
47
100
AcDbScale
 70
     0
300
1:20
140
1.0
141
20.0
290
     0
  0
SCALE
  5
50
102
{ACAD_REACTORS
330
47
102
}
330
47
100
AcDbScale
 70
     0
300
1:30
140
1.0
141
30.0
290
     0
  0
SCALE
  5
51
102
{ACAD_REACTORS
330
47
102
}
330
47
100
AcDbScale
 70
     0
300
1:40
140
1.0
141
40.0
290
     0
  0
SCALE
  5
52
102
{ACAD_REACTORS
330
47
102
}
330
47
100
AcDbScale
 70
     0
300
1:50
140
1.0
141
50.0
290
     0
  0
SCALE
  5
53
102
{ACAD_REACTORS
330
47
102
}
330
47
100
AcDbScale
 70
     0
300
1:100
140
1.0
141
100.0
290
     0
  0
SCALE
  5
54
102
{ACAD_REACTORS
330
47
102
}
330
47
100
AcDbScale
 70
     0
300
2:1
140
2.0
141
1.0
290
     0
  0
SCALE
  5
55
102
{ACAD_REACTORS
330
47
102
}
330
47
100
AcDbScale
 70
     0
300
4:1
140
4.0
141
1.0
290
     0
  0
SCALE
  5
56
102
{ACAD_REACTORS
330
47
102
}
330
47
100
AcDbScale
 70
     0
300
8:1
140
8.0
141
1.0
290
     0
  0
SCALE
  5
57
102
{ACAD_REACTORS
330
47
102
}
330
47
100
AcDbScale
 70
     0
300
10:1
140
10.0
141
1.0
290
     0
  0
SCALE
  5
58
102
{ACAD_REACTORS
330
47
102
}
330
47
100
AcDbScale
 70
     0
300
100:1
140
100.0
141
1.0
290
     0
  0
TABLESTYLE
  5
5A
102
{ACAD_REACTORS
330
59
102
}
102
{ACAD_XDICTIONARY
360
4ED
102
}
330
59
100
AcDbTableStyle
  3
Standard
 70
     0
 71
     0
 40
0.06
 41
0.06
280
     0
281
     0
  7
Standard
140
4.5
170
     2
 62
     0
 63
   257
283
     0
 90
        4
 91
        0
  1

274
    -2
284
     1
 64
     0
275
    -2
285
     1
 65
     0
276
    -2
286
     1
 66
     0
277
    -2
287
     1
 67
     0
278
    -2
288
     1
 68
     0
279
    -2
289
     1
 69
     0
  7
Standard
140
6.0
170
     5
 62
     0
 63
   257
283
     0
 90
        4
 91
        0
  1

274
    -2
284
     1
 64
     0
275
    -2
285
     1
 65
     0
276
    -2
286
     1
 66
     0
277
    -2
287
     1
 67
     0
278
    -2
288
     1
 68
     0
279
    -2
289
     1
 69
     0
  7
Standard
140
4.5
170
     5
 62
     0
 63
   257
283
     0
 90
        4
 91
        0
  1

274
    -2
284
     1
 64
     0
275
    -2
285
     1
 65
     0
276
    -2
286
     1
 66
     0
277
    -2
287
     1
 67
     0
278
    -2
288
     1
 68
     0
279
    -2
289
     1
 69
     0
  0
VISUALSTYLE
  5
2F
102
{ACAD_REACTORS
330
2A
102
}
330
2A
100
AcDbVisualStyle
  2
2dWireframe
 70
     4
177
     3
291
     0
 70
    58
 90
        0
176
     1
 90
        2
176
     1
 90
        0
176
     1
 90
        0
176
     1
 40
0.6
176
     1
 40
30.0
176
     1
 62
     7
420
 16777215
176
     1
 90
        1
176
     1
 90
        4
176
     1
 62
     7
176
     1
 62
   257
176
     1
 90
        1
176
     1
 90
        1
176
     1
 40
1.0
176
     1
 90
        0
176
     1
 62
   257
176
     1
 40
1.0
176
     1
 90
        1
176
     1
 90
        6
176
     1
 90
        2
176
     1
 62
     7
176
     1
 90
        5
176
     1
 90
        0
176
     1
 90
        0
176
     1
290
     0
176
     1
 90
        1
176
     1
 40
0.0
176
     1
 90
        0
176
     1
290
     1
176
     1
290
     1
176
     1
290
     0
176
     1
290
     0
176
     1
290
     0
176
     1
290
     0
176
     1
290
     0
176
     1
290
     0
176
     1
290
     0
176
     1
 90
       50
176
     1
 40
0.0
176
     1
 40
1.0
176
     1
 90
        0
176
     1
 62
    18
420
        0
176
     1
 90
       50
176
     1
 90
        3
176
     1
 62
     5
420
      255
176
     1
290
     0
176
     1
 90
       50
176
     1
 90
       50
176
     1
 90
       50
176
     1
290
     0
176
     1
 90
       50
176
     1
 62
   256
176
     0
 40
1.0
176
     0
 90
        2
176
     1
  1
strokes_ogs.tif
176
     1
290
     0
176
     1
 40
1.0
176
     1
 40
1.0
176
     1
  0
VISUALSTYLE
  5
32
102
{ACAD_REACTORS
330
2A
102
}
330
2A
100
AcDbVisualStyle
  2
Basic
 70
     7
177
     3
291
     1
 70
    58
 90
        1
176
     1
 90
        0
176
     1
 90
        1
176
     1
 90
        0
176
     1
 40
0.6
176
     1
 40
30.0
176
     1
 62
     7
420
 16777215
176
     1
 90
        0
176
     1
 90
        4
176
     1
 62
     7
176
     1
 62
   257
176
     1
 90
        1
176
     1
 90
        1
176
     1
 40
1.0
176
     1
 90
        8
176
     1
 62
     7
176
     1
 40
1.0
176
     1
 90
        1
176
     1
 90
        6
176
     1
 90
        2
176
     1
 62
     7
176
     1
 90
        5
176
     1
 90
        0
176
     1
 90
        0
176
     1
290
     0
176
     1
 90
        1
176
     1
 40
0.0
176
     1
 90
        0
176
     1
290
     0
176
     1
290
     1
176
     1
290
     1
176
     1
290
     0
176
     1
290
     0
176
     1
290
     0
176
     1
290
     0
176
     1
290
     0
176
     1
290
     0
176
     1
 90
       50
176
     1
 40
0.0
176
     1
 40
1.0
176
     1
 90
        0
176
     1
 62
    18
420
        0
176
     1
 90
       50
176
     1
 90
        3
176
     1
 62
     5
420
      255
176
     1
290
     0
176
     1
 90
       50
176
     1
 90
       50
176
     1
 90
       50
176
     1
290
     0
176
     1
 90
       50
176
     1
 62
   256
176
     0
 40
1.0
176
     0
 90
        2
176
     1
  1
strokes_ogs.tif
176
     1
290
     0
176
     1
 40
1.0
176
     1
 40
1.0
176
     1
  0
VISUALSTYLE
  5
36
102
{ACAD_REACTORS
330
2A
102
}
330
2A
100
AcDbVisualStyle
  2
Brighten
 70
    12
177
     3
291
     1
 70
    58
 90
        2
176
     1
 90
        2
176
     1
 90
        0
176
     1
 90
        0
176
     1
 40
0.6
176
     1
 40
30.0
176
     1
 62
     7
420
 16777215
176
     1
 90
        1
176
     1
 90
        4
176
     1
 62
     7
176
     1
 62
   257
176
     1
 90
        1
176
     1
 90
        1
176
     1
 40
1.0
176
     1
 90
        8
176
     1
 62
     7
176
     1
 40
1.0
176
     1
 90
        1
176
     1
 90
        6
176
     1
 90
        2
176
     1
 62
     7
176
     1
 90
        5
176
     1
 90
        0
176
     1
 90
        0
176
     1
290
     0
176
     1
 90
        1
176
     1
 40
50.0
176
     1
 90
        0
176
     1
290
     0
176
     1
290
     1
176
     1
290
     1
176
     1
290
     0
176
     1
290
     0
176
     1
290
     0
176
     1
290
     0
176
     1
290
     0
176
     1
290
     0
176
     1
 90
       50
176
     1
 40
0.0
176
     1
 40
1.0
176
     1
 90
        0
176
     1
 62
    18
420
        0
176
     1
 90
       50
176
     1
 90
        3
176
     1
 62
     5
420
      255
176
     1
290
     0
176
     1
 90
       50
176
     1
 90
       50
176
     1
 90
       50
176
     1
290
     0
176
     1
 90
       50
176
     1
 62
   256
176
     0
 40
1.0
176
     0
 90
        2
176
     1
  1
strokes_ogs.tif
176
     1
290
     0
176
     1
 40
1.0
176
     1
 40
1.0
176
     1
  0
VISUALSTYLE
  5
3A
102
{ACAD_REACTORS
330
2A
102
}
330
2A
100
AcDbVisualStyle
  2
ColorChange
 70
    16
177
     3
291
     1
 70
    58
 90
        2
176
     1
 90
        2
176
     1
 90
        3
176
     1
 90
        0
176
     1
 40
0.6
176
     1
 40
30.0
176
     1
 62
     8
420
  8421504
176
     1
 90
        1
176
     1
 90
        4
176
     1
 62
     7
176
     1
 62
   257
176
     1
 90
        1
176
     1
 90
        1
176
     1
 40
1.0
176
     1
 90
        8
176
     1
 62
     8
420
  8421504
176
     1
 40
1.0
176
     1
 90
        1
176
     1
 90
        6
176
     1
 90
        2
176
     1
 62
     7
176
     1
 90
        5
176
     1
 90
        0
176
     1
 90
        0
176
     1
290
     0
176
     1
 90
        1
176
     1
 40
0.0
176
     1
 90
        0
176
     1
290
     0
176
     1
290
     1
176
     1
290
     1
176
     1
290
     0
176
     1
290
     0
176
     1
290
     0
176
     1
290
     0
176
     1
290
     0
176
     1
290
     0
176
     1
 90
       50
176
     1
 40
0.0
176
     1
 40
1.0
176
     1
 90
        0
176
     1
 62
    18
420
        0
176
     1
 90
       50
176
     1
 90
        3
176
     1
 62
     5
420
      255
176
     1
290
     0
176
     1
 90
       50
176
     1
 90
       50
176
     1
 90
       50
176
     1
290
     0
176
     1
 90
       50
176
     1
 62
   256
176
     0
 40
1.0
176
     0
 90
        2
176
     1
  1
strokes_ogs.tif
176
     1
290
     0
176
     1
 40
1.0
176
     1
 40
1.0
176
     1
  0
VISUALSTYLE
  5
34
102
{ACAD_REACTORS
330
2A
102
}
330
2A
100
AcDbVisualStyle
  2
Conceptual
 70
     9
177
     3
291
     0
 70
    58
 90
        3
176
     1
 90
        2
176
     1
 90
        0
176
     1
 90
        0
176
     1
 40
0.6
176
     1
 40
30.0
176
     1
 62
     7
420
 16777215
176
     1
 90
        2
176
     1
 90
        2
176
     1
 62
     7
176
     1
 62
   257
176
     1
 90
        1
176
     1
 90
        1
176
     1
 40
179.0
176
     1
 90
        8
176
     1
 62
     7
176
     1
 40
1.0
176
     1
 90
        1
176
     1
 90
        6
176
     1
 90
        2
176
     1
 62
     7
176
     1
 90
        3
176
     1
 90
        0
176
     1
 90
        0
176
     1
290
     0
176
     1
 90
        1
176
     1
 40
0.0
176
     1
 90
        0
176
     1
290
     0
176
     1
290
     1
176
     1
290
     1
176
     1
290
     0
176
     1
290
     0
176
     1
290
     0
176
     1
290
     0
176
     1
290
     0
176
     1
290
     0
176
     1
 90
       50
176
     1
 40
0.0
176
     1
 40
1.0
176
     1
 90
        0
176
     1
 62
    18
420
        0
176
     1
 90
       50
176
     1
 90
        3
176
     1
 62
     5
420
      255
176
     1
290
     0
176
     1
 90
       50
176
     1
 90
       50
176
     1
 90
       50
176
     1
290
     0
176
     1
 90
       50
176
     1
 62
   256
176
     0
 40
1.0
176
     0
 90
        2
176
     1
  1
strokes_ogs.tif
176
     1
290
     0
176
     1
 40
1.0
176
     1
 40
1.0
176
     1
  0
VISUALSTYLE
  5
35
102
{ACAD_REACTORS
330
2A
102
}
330
2A
100
AcDbVisualStyle
  2
Dim
 70
    11
177
     3
291
     1
 70
    58
 90
        2
176
     1
 90
        2
176
     1
 90
        0
176
     1
 90
        0
176
     1
 40
0.6
176
     1
 40
30.0
176
     1
 62
     7
420
 16777215
176
     1
 90
        1
176
     1
 90
        4
176
     1
 62
     7
176
     1
 62
   257
176
     1
 90
        1
176
     1
 90
        1
176
     1
 40
1.0
176
     1
 90
        8
176
     1
 62
     7
176
     1
 40
1.0
176
     1
 90
        1
176
     1
 90
        6
176
     1
 90
        2
176
     1
 62
     7
176
     1
 90
        5
176
     1
 90
        0
176
     1
 90
        0
176
     1
290
     0
176
     1
 90
        1
176
     1
 40
-50.0
176
     1
 90
        0
176
     1
290
     0
176
     1
290
     1
176
     1
290
     1
176
     1
290
     0
176
     1
290
     0
176
     1
290
     0
176
     1
290
     0
176
     1
290
     0
176
     1
290
     0
176
     1
 90
       50
176
     1
 40
0.0
176
     1
 40
1.0
176
     1
 90
        0
176
     1
 62
    18
420
        0
176
     1
 90
       50
176
     1
 90
        3
176
     1
 62
     5
420
      255
176
     1
290
     0
176
     1
 90
       50
176
     1
 90
       50
176
     1
 90
       50
176
     1
290
     0
176
     1
 90
       50
176
     1
 62
   256
176
     0
 40
1.0
176
     0
 90
        2
176
     1
  1
strokes_ogs.tif
176
     1
290
     0
176
     1
 40
1.0
176
     1
 40
1.0
176
     1
  0
VISUALSTYLE
  5
3D
102
{ACAD_REACTORS
330
2A
102
}
330
2A
100
AcDbVisualStyle
  2
EdgeColorOff
 70
    22
177
     3
291
     1
 70
    58
 90
        2
176
     0
 90
        2
176
     0
 90
        0
176
     0
 90
        0
176
     0
 40
0.6
176
     0
 40
30.0
176
     0
 62
     7
420
 16777215
176
     0
 90
        1
176
     0
 90
        4
176
     0
 62
     7
176
     0
 62
   257
176
     0
 90
        1
176
     0
 90
        1
176
     0
 40
1.0
176
     0
 90
        8
176
     2
 62
     7
176
     0
 40
1.0
176
     0
 90
        1
176
     0
 90
        6
176
     0
 90
        2
176
     0
 62
     7
176
     0
 90
        5
176
     0
 90
        0
176
     0
 90
        0
176
     0
290
     0
176
     0
 90
        1
176
     0
 40
0.0
176
     0
 90
        0
176
     0
290
     0
176
     0
290
     1
176
     0
290
     1
176
     0
290
     0
176
     0
290
     0
176
     0
290
     0
176
     0
290
     0
176
     0
290
     0
176
     0
290
     0
176
     0
 90
       50
176
     0
 40
0.0
176
     0
 40
1.0
176
     0
 90
        0
176
     0
 62
    18
420
        0
176
     0
 90
       50
176
     0
 90
        3
176
     0
 62
     5
420
      255
176
     0
290
     0
176
     0
 90
       50
176
     0
 90
       50
176
     0
 90
       50
176
     0
290
     0
176
     0
 90
       50
176
     0
 62
   256
176
     0
 40
1.0
176
     0
 90
        2
176
     0
  1
strokes_ogs.tif
176
     0
290
     0
176
     0
 40
1.0
176
     0
 40
1.0
176
     0
  0
VISUALSTYLE
  5
39
102
{ACAD_REACTORS
330
2A
102
}
330
2A
100
AcDbVisualStyle
  2
Facepattern
 70
    15
177
     3
291
     1
 70
    58
 90
        2
176
     1
 90
        2
176
     1
 90
        0
176
     1
 90
        0
176
     1
 40
0.6
176
     1
 40
30.0
176
     1
 62
     7
420
 16777215
176
     1
 90
        1
176
     1
 90
        4
176
     1
 62
     7
176
     1
 62
   257
176
     1
 90
        1
176
     1
 90
        1
176
     1
 40
1.0
176
     1
 90
        8
176
     1
 62
     7
176
     1
 40
1.0
176
     1
 90
        1
176
     1
 90
        6
176
     1
 90
        2
176
     1
 62
     7
176
     1
 90
        5
176
     1
 90
        0
176
     1
 90
        0
176
     1
290
     0
176
     1
 90
        1
176
     1
 40
0.0
176
     1
 90
        0
176
     1
290
     0
176
     1
290
     1
176
     1
290
     1
176
     1
290
     0
176
     1
290
     0
176
     1
290
     0
176
     1
290
     0
176
     1
290
     0
176
     1
290
     0
176
     1
 90
       50
176
     1
 40
0.0
176
     1
 40
1.0
176
     1
 90
        0
176
     1
 62
    18
420
        0
176
     1
 90
       50
176
     1
 90
        3
176
     1
 62
     5
420
      255
176
     1
290
     0
176
     1
 90
       50
176
     1
 90
       50
176
     1
 90
       50
176
     1
290
     0
176
     1
 90
       50
176
     1
 62
   256
176
     0
 40
1.0
176
     0
 90
        2
176
     1
  1
strokes_ogs.tif
176
     1
290
     0
176
     1
 40
1.0
176
     1
 40
1.0
176
     1
  0
VISUALSTYLE
  5
2B
102
{ACAD_REACTORS
330
2A
102
}
330
2A
100
AcDbVisualStyle
  2
Flat
 70
     0
177
     3
291
     1
 70
    58
 90
        2
176
     1
 90
        1
176
     1
 90
        1
176
     1
 90
        2
176
     1
 40
0.6
176
     1
 40
30.0
176
     1
 62
     7
420
 16777215
176
     1
 90
        0
176
     1
 90
        0
176
     1
 62
     7
176
     1
 62
   257
176
     1
 90
        1
176
     1
 90
        1
176
     1
 40
1.0
176
     1
 90
        8
176
     1
 62
     7
176
     1
 40
1.0
176
     1
 90
        1
176
     1
 90
        6
176
     1
 90
        2
176
     1
 62
     7
176
     1
 90
        5
176
     1
 90
        0
176
     1
 90
        0
176
     1
290
     0
176
     1
 90
       13
176
     1
 40
0.0
176
     1
 90
        0
176
     1
290
     0
176
     1
290
     1
176
     1
290
     1
176
     1
290
     0
176
     1
290
     0
176
     1
290
     0
176
     1
290
     0
176
     1
290
     0
176
     1
290
     0
176
     1
 90
       50
176
     1
 40
0.0
176
     1
 40
1.0
176
     1
 90
        0
176
     1
 62
    18
420
        0
176
     1
 90
       50
176
     1
 90
        3
176
     1
 62
     5
420
      255
176
     1
290
     0
176
     1
 90
       50
176
     1
 90
       50
176
     1
 90
       50
176
     1
290
     0
176
     1
 90
       50
176
     1
 62
   256
176
     0
 40
1.0
176
     0
 90
        2
176
     1
  1
strokes_ogs.tif
176
     1
290
     0
176
     1
 40
1.0
176
     1
 40
1.0
176
     1
  0
VISUALSTYLE
  5
2C
102
{ACAD_REACTORS
330
2A
102
}
330
2A
100
AcDbVisualStyle
  2
FlatWithEdges
 70
     1
177
     3
291
     1
 70
    58
 90
        2
176
     1
 90
        1
176
     1
 90
        1
176
     1
 90
        2
176
     1
 40
0.6
176
     1
 40
30.0
176
     1
 62
     7
420
 16777215
176
     1
 90
        1
176
     1
 90
        0
176
     1
 62
     7
176
     1
 62
   257
176
     1
 90
        1
176
     1
 90
        1
176
     1
 40
1.0
176
     1
 90
        0
176
     1
 62
   257
176
     1
 40
1.0
176
     1
 90
        1
176
     1
 90
        6
176
     1
 90
        2
176
     1
 62
     7
176
     1
 90
        5
176
     1
 90
        0
176
     1
 90
        0
176
     1
290
     0
176
     1
 90
       13
176
     1
 40
0.0
176
     1
 90
        0
176
     1
290
     0
176
     1
290
     1
176
     1
290
     1
176
     1
290
     0
176
     1
290
     0
176
     1
290
     0
176
     1
290
     0
176
     1
290
     0
176
     1
290
     0
176
     1
 90
       50
176
     1
 40
0.0
176
     1
 40
1.0
176
     1
 90
        0
176
     1
 62
    18
420
        0
176
     1
 90
       50
176
     1
 90
        3
176
     1
 62
     5
420
      255
176
     1
290
     0
176
     1
 90
       50
176
     1
 90
       50
176
     1
 90
       50
176
     1
290
     0
176
     1
 90
       50
176
     1
 62
   256
176
     0
 40
1.0
176
     0
 90
        2
176
     1
  1
strokes_ogs.tif
176
     1
290
     0
176
     1
 40
1.0
176
     1
 40
1.0
176
     1
  0
VISUALSTYLE
  5
2D
102
{ACAD_REACTORS
330
2A
102
}
330
2A
100
AcDbVisualStyle
  2
Gouraud
 70
     2
177
     3
291
     1
 70
    58
 90
        2
176
     1
 90
        2
176
     1
 90
        1
176
     1
 90
        2
176
     1
 40
0.6
176
     1
 40
30.0
176
     1
 62
     7
420
 16777215
176
     1
 90
        0
176
     1
 90
        0
176
     1
 62
     7
176
     1
 62
   257
176
     1
 90
        1
176
     1
 90
        1
176
     1
 40
1.0
176
     1
 90
        0
176
     1
 62
     7
176
     1
 40
1.0
176
     1
 90
        1
176
     1
 90
        6
176
     1
 90
        2
176
     1
 62
     7
176
     1
 90
        5
176
     1
 90
        0
176
     1
 90
        0
176
     1
290
     0
176
     1
 90
       13
176
     1
 40
0.0
176
     1
 90
        0
176
     1
290
     0
176
     1
290
     1
176
     1
290
     1
176
     1
290
     0
176
     1
290
     0
176
     1
290
     0
176
     1
290
     0
176
     1
290
     0
176
     1
290
     0
176
     1
 90
       50
176
     1
 40
0.0
176
     1
 40
1.0
176
     1
 90
        0
176
     1
 62
    18
420
        0
176
     1
 90
       50
176
     1
 90
        3
176
     1
 62
     5
420
      255
176
     1
290
     0
176
     1
 90
       50
176
     1
 90
       50
176
     1
 90
       50
176
     1
290
     0
176
     1
 90
       50
176
     1
 62
   256
176
     0
 40
1.0
176
     0
 90
        2
176
     1
  1
strokes_ogs.tif
176
     1
290
     0
176
     1
 40
1.0
176
     1
 40
1.0
176
     1
  0
VISUALSTYLE
  5
2E
102
{ACAD_REACTORS
330
2A
102
}
330
2A
100
AcDbVisualStyle
  2
GouraudWithEdges
 70
     3
177
     3
291
     1
 70
    58
 90
        2
176
     1
 90
        2
176
     1
 90
        1
176
     1
 90
        2
176
     1
 40
0.6
176
     1
 40
30.0
176
     1
 62
     7
420
 16777215
176
     1
 90
        1
176
     1
 90
        0
176
     1
 62
     7
176
     1
 62
   257
176
     1
 90
        1
176
     1
 90
        1
176
     1
 40
1.0
176
     1
 90
        0
176
     1
 62
   257
176
     1
 40
1.0
176
     1
 90
        1
176
     1
 90
        6
176
     1
 90
        2
176
     1
 62
     7
176
     1
 90
        5
176
     1
 90
        0
176
     1
 90
        0
176
     1
290
     0
176
     1
 90
       13
176
     1
 40
0.0
176
     1
 90
        0
176
     1
290
     0
176
     1
290
     1
176
     1
290
     1
176
     1
290
     0
176
     1
290
     0
176
     1
290
     0
176
     1
290
     0
176
     1
290
     0
176
     1
290
     0
176
     1
 90
       50
176
     1
 40
0.0
176
     1
 40
1.0
176
     1
 90
        0
176
     1
 62
    18
420
        0
176
     1
 90
       50
176
     1
 90
        3
176
     1
 62
     5
420
      255
176
     1
290
     0
176
     1
 90
       50
176
     1
 90
       50
176
     1
 90
       50
176
     1
290
     0
176
     1
 90
       50
176
     1
 62
   256
176
     0
 40
1.0
176
     0
 90
        2
176
     1
  1
strokes_ogs.tif
176
     1
290
     0
176
     1
 40
1.0
176
     1
 40
1.0
176
     1
  0
VISUALSTYLE
  5
31
102
{ACAD_REACTORS
330
2A
102
}
330
2A
100
AcDbVisualStyle
  2
Hidden
 70
     6
177
     3
291
     0
 70
    58
 90
        1
176
     1
 90
        2
176
     1
 90
        2
176
     1
 90
        0
176
     1
 40
0.6
176
     1
 40
30.0
176
     1
 62
     7
420
 16777215
176
     1
 90
        2
176
     1
 90
        2
176
     1
 62
     7
176
     1
 62
   257
176
     1
 90
        2
176
     1
 90
        1
176
     1
 40
40.0
176
     1
 90
        0
176
     1
 62
   257
176
     1
 40
1.0
176
     1
 90
        1
176
     1
 90
        6
176
     1
 90
        2
176
     1
 62
     7
176
     1
 90
        3
176
     1
 90
        0
176
     1
 90
        0
176
     1
290
     0
176
     1
 90
        1
176
     1
 40
0.0
176
     1
 90
        0
176
     1
290
     0
176
     1
290
     1
176
     1
290
     1
176
     1
290
     0
176
     1
290
     0
176
     1
290
     0
176
     1
290
     0
176
     1
290
     0
176
     1
290
     0
176
     1
 90
       50
176
     1
 40
0.0
176
     1
 40
1.0
176
     1
 90
        0
176
     1
 62
    18
420
        0
176
     1
 90
       50
176
     1
 90
        3
176
     1
 62
     5
420
      255
176
     1
290
     0
176
     1
 90
       50
176
     1
 90
       50
176
     1
 90
       50
176
     1
290
     0
176
     1
 90
       50
176
     1
 62
   256
176
     0
 40
1.0
176
     0
 90
        2
176
     1
  1
strokes_ogs.tif
176
     1
290
     0
176
     1
 40
1.0
176
     1
 40
1.0
176
     1
  0
VISUALSTYLE
  5
3B
102
{ACAD_REACTORS
330
2A
102
}
330
2A
100
AcDbVisualStyle
  2
JitterOff
 70
    20
177
     3
291
     1
 70
    58
 90
        2
176
     0
 90
        2
176
     0
 90
        0
176
     0
 90
        0
176
     0
 40
0.6
176
     0
 40
30.0
176
     0
 62
     7
420
 16777215
176
     0
 90
        1
176
     0
 90
        4
176
     0
 62
     7
176
     0
 62
   257
176
     0
 90
        1
176
     0
 90
        1
176
     0
 40
1.0
176
     0
 90
       10
176
     2
 62
     7
176
     0
 40
1.0
176
     0
 90
        1
176
     0
 90
        6
176
     0
 90
        2
176
     0
 62
     7
176
     0
 90
        5
176
     0
 90
        0
176
     0
 90
        0
176
     0
290
     0
176
     0
 90
        1
176
     0
 40
0.0
176
     0
 90
        0
176
     0
290
     0
176
     0
290
     1
176
     0
290
     1
176
     0
290
     0
176
     0
290
     0
176
     0
290
     0
176
     0
290
     0
176
     0
290
     0
176
     0
290
     0
176
     0
 90
       50
176
     0
 40
0.0
176
     0
 40
1.0
176
     0
 90
        0
176
     0
 62
    18
420
        0
176
     0
 90
       50
176
     0
 90
        3
176
     0
 62
     5
420
      255
176
     0
290
     0
176
     0
 90
       50
176
     0
 90
       50
176
     0
 90
       50
176
     0
290
     0
176
     0
 90
       50
176
     0
 62
   256
176
     0
 40
1.0
176
     0
 90
        2
176
     0
  1
strokes_ogs.tif
176
     0
290
     0
176
     0
 40
1.0
176
     0
 40
1.0
176
     0
  0
VISUALSTYLE
  5
38
102
{ACAD_REACTORS
330
2A
102
}
330
2A
100
AcDbVisualStyle
  2
Linepattern
 70
    14
177
     3
291
     1
 70
    58
 90
        2
176
     1
 90
        2
176
     1
 90
        0
176
     1
 90
        0
176
     1
 40
0.6
176
     1
 40
30.0
176
     1
 62
     7
420
 16777215
176
     1
 90
        1
176
     1
 90
        4
176
     1
 62
     7
176
     1
 62
   257
176
     1
 90
        7
176
     1
 90
        7
176
     1
 40
1.0
176
     1
 90
        8
176
     1
 62
     7
176
     1
 40
1.0
176
     1
 90
        1
176
     1
 90
        6
176
     1
 90
        2
176
     1
 62
     7
176
     1
 90
        5
176
     1
 90
        0
176
     1
 90
        0
176
     1
290
     0
176
     1
 90
        1
176
     1
 40
0.0
176
     1
 90
        0
176
     1
290
     0
176
     1
290
     1
176
     1
290
     1
176
     1
290
     0
176
     1
290
     0
176
     1
290
     0
176
     1
290
     0
176
     1
290
     0
176
     1
290
     0
176
     1
 90
       50
176
     1
 40
0.0
176
     1
 40
1.0
176
     1
 90
        0
176
     1
 62
    18
420
        0
176
     1
 90
       50
176
     1
 90
        3
176
     1
 62
     5
420
      255
176
     1
290
     0
176
     1
 90
       50
176
     1
 90
       50
176
     1
 90
       50
176
     1
290
     0
176
     1
 90
       50
176
     1
 62
   256
176
     0
 40
1.0
176
     0
 90
        2
176
     1
  1
strokes_ogs.tif
176
     1
290
     0
176
     1
 40
1.0
176
     1
 40
1.0
176
     1
  0
VISUALSTYLE
  5
3C
102
{ACAD_REACTORS
330
2A
102
}
330
2A
100
AcDbVisualStyle
  2
OverhangOff
 70
    21
177
     3
291
     1
 70
    58
 90
        2
176
     0
 90
        2
176
     0
 90
        0
176
     0
 90
        0
176
     0
 40
0.6
176
     0
 40
30.0
176
     0
 62
     7
420
 16777215
176
     0
 90
        1
176
     0
 90
        4
176
     0
 62
     7
176
     0
 62
   257
176
     0
 90
        1
176
     0
 90
        1
176
     0
 40
1.0
176
     0
 90
        9
176
     2
 62
     7
176
     0
 40
1.0
176
     0
 90
        1
176
     0
 90
        6
176
     0
 90
        2
176
     0
 62
     7
176
     0
 90
        5
176
     0
 90
        0
176
     0
 90
        0
176
     0
290
     0
176
     0
 90
        1
176
     0
 40
0.0
176
     0
 90
        0
176
     0
290
     0
176
     0
290
     1
176
     0
290
     1
176
     0
290
     0
176
     0
290
     0
176
     0
290
     0
176
     0
290
     0
176
     0
290
     0
176
     0
290
     0
176
     0
 90
       50
176
     0
 40
0.0
176
     0
 40
1.0
176
     0
 90
        0
176
     0
 62
    18
420
        0
176
     0
 90
       50
176
     0
 90
        3
176
     0
 62
     5
420
      255
176
     0
290
     0
176
     0
 90
       50
176
     0
 90
       50
176
     0
 90
       50
176
     0
290
     0
176
     0
 90
       50
176
     0
 62
   256
176
     0
 40
1.0
176
     0
 90
        2
176
     0
  1
strokes_ogs.tif
176
     0
290
     0
176
     0
 40
1.0
176
     0
 40
1.0
176
     0
  0
VISUALSTYLE
  5
33
102
{ACAD_REACTORS
330
2A
102
}
330
2A
100
AcDbVisualStyle
  2
Realistic
 70
     8
177
     3
291
     0
 70
    58
 90
        2
176
     1
 90
        3
176
     1
 90
        0
176
     1
 90
        2
176
     1
 40
0.6
176
     1
 40
30.0
176
     1
 62
     7
420
 16777215
176
     1
 90
        0
176
     1
 90
        0
176
     1
 62
     7
176
     1
 62
   257
176
     1
 90
        1
176
     1
 90
        1
176
     1
 40
1.0
176
     1
 90
        8
176
     1
 62
   257
176
     1
 40
1.0
176
     1
 90
        1
176
     1
 90
        6
176
     1
 90
        2
176
     1
 62
     7
176
     1
 90
        3
176
     1
 90
        0
176
     1
 90
        0
176
     1
290
     0
176
     1
 90
       13
176
     1
 40
0.0
176
     1
 90
        0
176
     1
290
     0
176
     1
290
     1
176
     1
290
     1
176
     1
290
     0
176
     1
290
     0
176
     1
290
     0
176
     1
290
     0
176
     1
290
     0
176
     1
290
     0
176
     1
 90
       50
176
     1
 40
0.0
176
     1
 40
1.0
176
     1
 90
        0
176
     1
 62
    18
420
        0
176
     1
 90
       50
176
     1
 90
        3
176
     1
 62
     5
420
      255
176
     1
290
     0
176
     1
 90
       50
176
     1
 90
       50
176
     1
 90
       50
176
     1
290
     0
176
     1
 90
       50
176
     1
 62
   256
176
     0
 40
1.0
176
     0
 90
        2
176
     1
  1
strokes_ogs.tif
176
     1
290
     0
176
     1
 40
1.0
176
     1
 40
1.0
176
     1
  0
VISUALSTYLE
  5
42
102
{ACAD_REACTORS
330
2A
102
}
330
2A
100
AcDbVisualStyle
  2
Shaded
 70
    27
177
     3
291
     0
 70
    58
 90
        2
176
     1
 90
        2
176
     1
 90
        1
176
     1
 90
        2
176
     1
 40
0.6
176
     1
 40
30.0
176
     1
 62
     7
420
 16777215
176
     1
 90
        0
176
     1
 90
        4
176
     1
 62
     7
176
     1
 62
   257
176
     1
 90
        1
176
     1
 90
        1
176
     1
 40
1.0
176
     1
 90
        8
176
     1
 62
   257
176
     1
 40
1.0
176
     1
 90
        1
176
     1
 90
        6
176
     1
 90
        2
176
     1
 62
     8
420
  7895160
176
     1
 90
        3
176
     1
 90
        0
176
     1
 90
        0
176
     1
290
     0
176
     1
 90
        5
176
     1
 40
0.0
176
     1
 90
        0
176
     1
290
     0
176
     1
290
     1
176
     1
290
     1
176
     1
290
     0
176
     1
290
     0
176
     1
290
     0
176
     1
290
     0
176
     1
290
     0
176
     1
290
     0
176
     1
 90
       50
176
     1
 40
0.0
176
     1
 40
1.0
176
     1
 90
        0
176
     1
 62
    18
420
        0
176
     1
 90
       50
176
     1
 90
        3
176
     1
 62
     5
420
      255
176
     1
290
     0
176
     1
 90
       50
176
     1
 90
       50
176
     1
 90
       50
176
     1
290
     0
176
     1
 90
       50
176
     1
 62
   256
176
     0
 40
1.0
176
     0
 90
        2
176
     1
  1
strokes_ogs.tif
176
     1
290
     0
176
     1
 40
1.0
176
     1
 40
1.0
176
     1
  0
VISUALSTYLE
  5
41
102
{ACAD_REACTORS
330
2A
102
}
330
2A
100
AcDbVisualStyle
  2
Shaded with edges
 70
    26
177
     3
291
     0
 70
    58
 90
        2
176
     1
 90
        2
176
     1
 90
        1
176
     1
 90
        2
176
     1
 40
0.6
176
     1
 40
30.0
176
     1
 62
     7
420
 16777215
176
     1
 90
        1
176
     1
 90
       10
176
     1
 62
     7
176
     1
 62
   257
176
     1
 90
        2
176
     1
 90
        1
176
     1
 40
1.0
176
     1
 90
        8
176
     1
 62
   257
176
     1
 40
1.0
176
     1
 90
        1
176
     1
 90
        6
176
     1
 90
        2
176
     1
 62
     7
176
     1
 90
        3
176
     1
 90
        0
176
     1
 90
        0
176
     1
290
     0
176
     1
 90
        5
176
     1
 40
0.0
176
     1
 90
        0
176
     1
290
     0
176
     1
290
     1
176
     1
290
     1
176
     1
290
     0
176
     1
290
     0
176
     1
290
     0
176
     1
290
     0
176
     1
290
     0
176
     1
290
     0
176
     1
 90
       50
176
     1
 40
0.0
176
     1
 40
1.0
176
     1
 90
        0
176
     1
 62
    18
420
        0
176
     1
 90
       50
176
     1
 90
        3
176
     1
 62
     5
420
      255
176
     1
290
     0
176
     1
 90
       50
176
     1
 90
       50
176
     1
 90
       50
176
     1
290
     0
176
     1
 90
       50
176
     1
 62
   256
176
     0
 40
1.0
176
     0
 90
        2
176
     1
  1
strokes_ogs.tif
176
     1
290
     0
176
     1
 40
1.0
176
     1
 40
1.0
176
     1
  0
VISUALSTYLE
  5
3E
102
{ACAD_REACTORS
330
2A
102
}
330
2A
100
AcDbVisualStyle
  2
Shades of Gray
 70
    23
177
     3
291
     0
 70
    58
 90
        2
176
     1
 90
        2
176
     1
 90
        3
176
     1
 90
        0
176
     1
 40
0.6
176
     1
 40
30.0
176
     1
 62
     7
420
 16777215
176
     1
 90
        2
176
     1
 90
        2
176
     1
 62
     7
176
     1
 62
     7
176
     1
 90
        1
176
     1
 90
        1
176
     1
 40
40.0
176
     1
 90
        8
176
     1
 62
     7
176
     1
 40
1.0
176
     1
 90
        1
176
     1
 90
        6
176
     1
 90
        2
176
     1
 62
     7
176
     1
 90
        3
176
     1
 90
        0
176
     1
 90
        0
176
     1
290
     0
176
     1
 90
        1
176
     1
 40
0.0
176
     1
 90
        0
176
     1
290
     0
176
     1
290
     1
176
     1
290
     1
176
     1
290
     0
176
     1
290
     0
176
     1
290
     0
176
     1
290
     0
176
     1
290
     0
176
     1
290
     0
176
     1
 90
       50
176
     1
 40
0.0
176
     1
 40
1.0
176
     1
 90
        0
176
     1
 62
    18
420
        0
176
     1
 90
       50
176
     1
 90
        3
176
     1
 62
     5
420
      255
176
     1
290
     0
176
     1
 90
       50
176
     1
 90
       50
176
     1
 90
       50
176
     1
290
     0
176
     1
 90
       50
176
     1
 62
   256
176
     0
 40
1.0
176
     0
 90
        2
176
     1
  1
strokes_ogs.tif
176
     1
290
     0
176
     1
 40
1.0
176
     1
 40
1.0
176
     1
  0
VISUALSTYLE
  5
3F
102
{ACAD_REACTORS
330
2A
102
}
330
2A
100
AcDbVisualStyle
  2
Sketchy
 70
    24
177
     3
291
     0
 70
    58
 90
        1
176
     1
 90
        2
176
     1
 90
        2
176
     1
 90
        0
176
     1
 40
0.6
176
     1
 40
30.0
176
     1
 62
     7
420
 16777215
176
     1
 90
        2
176
     1
 90
        2
176
     1
 62
     7
176
     1
 62
     7
176
     1
 90
        1
176
     1
 90
        1
176
     1
 40
40.0
176
     1
 90
       11
176
     1
 62
     7
176
     1
 40
1.0
176
     1
 90
        1
176
     1
 90
        6
176
     1
 90
        2
176
     1
 62
     7
176
     1
 90
        6
176
     1
 90
        0
176
     1
 90
        0
176
     1
290
     0
176
     1
 90
        1
176
     1
 40
0.0
176
     1
 90
        0
176
     1
290
     0
176
     1
290
     1
176
     1
290
     1
176
     1
290
     0
176
     1
290
     0
176
     1
290
     0
176
     1
290
     0
176
     1
290
     0
176
     1
290
     0
176
     1
 90
       50
176
     1
 40
0.0
176
     1
 40
1.0
176
     1
 90
        0
176
     1
 62
    18
420
        0
176
     1
 90
       50
176
     1
 90
        3
176
     1
 62
     5
420
      255
176
     1
290
     0
176
     1
 90
       50
176
     1
 90
       50
176
     1
 90
       50
176
     1
290
     0
176
     1
 90
       50
176
     1
 62
   256
176
     0
 40
1.0
176
     0
 90
        2
176
     1
  1
strokes_ogs.tif
176
     1
290
     0
176
     1
 40
1.0
176
     1
 40
1.0
176
     1
  0
VISUALSTYLE
  5
37
102
{ACAD_REACTORS
330
2A
102
}
330
2A
100
AcDbVisualStyle
  2
Thicken
 70
    13
177
     3
291
     1
 70
    58
 90
        2
176
     1
 90
        2
176
     1
 90
        0
176
     1
 90
        0
176
     1
 40
0.6
176
     1
 40
30.0
176
     1
 62
     7
420
 16777215
176
     1
 90
        1
176
     1
 90
        4
176
     1
 62
     7
176
     1
 62
   257
176
     1
 90
        1
176
     1
 90
        1
176
     1
 40
1.0
176
     1
 90
       12
176
     1
 62
     7
176
     1
 40
1.0
176
     1
 90
        1
176
     1
 90
        6
176
     1
 90
        2
176
     1
 62
     7
176
     1
 90
        5
176
     1
 90
        0
176
     1
 90
        0
176
     1
290
     0
176
     1
 90
        1
176
     1
 40
0.0
176
     1
 90
        0
176
     1
290
     0
176
     1
290
     1
176
     1
290
     1
176
     1
290
     0
176
     1
290
     0
176
     1
290
     0
176
     1
290
     0
176
     1
290
     0
176
     1
290
     0
176
     1
 90
       50
176
     1
 40
0.0
176
     1
 40
1.0
176
     1
 90
        0
176
     1
 62
    18
420
        0
176
     1
 90
       50
176
     1
 90
        3
176
     1
 62
     5
420
      255
176
     1
290
     0
176
     1
 90
       50
176
     1
 90
       50
176
     1
 90
       50
176
     1
290
     0
176
     1
 90
       50
176
     1
 62
   256
176
     0
 40
1.0
176
     0
 90
        2
176
     1
  1
strokes_ogs.tif
176
     1
290
     0
176
     1
 40
1.0
176
     1
 40
1.0
176
     1
  0
VISUALSTYLE
  5
30
102
{ACAD_REACTORS
330
2A
102
}
330
2A
100
AcDbVisualStyle
  2
Wireframe
 70
     5
177
     3
291
     0
 70
    58
 90
        0
176
     1
 90
        2
176
     1
 90
        0
176
     1
 90
        0
176
     1
 40
0.6
176
     1
 40
30.0
176
     1
 62
     7
420
 16777215
176
     1
 90
        1
176
     1
 90
        4
176
     1
 62
     7
176
     1
 62
   257
176
     1
 90
        1
176
     1
 90
        1
176
     1
 40
1.0
176
     1
 90
        0
176
     1
 62
   257
176
     1
 40
1.0
176
     1
 90
        1
176
     1
 90
        6
176
     1
 90
        2
176
     1
 62
     7
176
     1
 90
        3
176
     1
 90
        0
176
     1
 90
        0
176
     1
290
     0
176
     1
 90
        1
176
     1
 40
0.0
176
     1
 90
        0
176
     1
290
     0
176
     1
290
     1
176
     1
290
     1
176
     1
290
     0
176
     1
290
     0
176
     1
290
     0
176
     1
290
     0
176
     1
290
     0
176
     1
290
     0
176
     1
 90
       50
176
     1
 40
0.0
176
     1
 40
1.0
176
     1
 90
        0
176
     1
 62
    18
420
        0
176
     1
 90
       50
176
     1
 90
        3
176
     1
 62
     5
420
      255
176
     1
290
     0
176
     1
 90
       50
176
     1
 90
       50
176
     1
 90
       50
176
     1
290
     0
176
     1
 90
       50
176
     1
 62
   256
176
     0
 40
1.0
176
     0
 90
        2
176
     1
  1
strokes_ogs.tif
176
     1
290
     0
176
     1
 40
1.0
176
     1
 40
1.0
176
     1
  0
VISUALSTYLE
  5
40
102
{ACAD_REACTORS
330
2A
102
}
330
2A
100
AcDbVisualStyle
  2
X-Ray
 70
    25
177
     3
291
     0
 70
    58
 90
        2
176
     1
 90
        2
176
     1
 90
        1
176
     1
 90
        1
176
     1
 40
0.5
176
     1
 40
30.0
176
     1
 62
     7
420
 16777215
176
     1
 90
        1
176
     1
 90
        0
176
     1
 62
     7
176
     1
 62
   257
176
     1
 90
        1
176
     1
 90
        1
176
     1
 40
1.0
176
     1
 90
        8
176
     1
 62
     7
176
     1
 40
1.0
176
     1
 90
        1
176
     1
 90
        6
176
     1
 90
        2
176
     1
 62
     7
176
     1
 90
        3
176
     1
 90
        0
176
     1
 90
        0
176
     1
290
     0
176
     1
 90
       13
176
     1
 40
0.0
176
     1
 90
        0
176
     1
290
     0
176
     1
290
     1
176
     1
290
     1
176
     1
290
     0
176
     1
290
     0
176
     1
290
     0
176
     1
290
     0
176
     1
290
     0
176
     1
290
     0
176
     1
 90
       50
176
     1
 40
0.0
176
     1
 40
1.0
176
     1
 90
        0
176
     1
 62
    18
420
        0
176
     1
 90
       50
176
     1
 90
        3
176
     1
 62
     5
420
      255
176
     1
290
     0
176
     1
 90
       50
176
     1
 90
       50
176
     1
 90
       50
176
     1
290
     0
176
     1
 90
       50
176
     1
 62
   256
176
     0
 40
1.0
176
     0
 90
        2
176
     1
  1
strokes_ogs.tif
176
     1
290
     0
176
     1
 40
1.0
176
     1
 40
1.0
176
     1
  0
DICTIONARYVAR
  5
4EC
102
{ACAD_REACTORS
330
4EB
102
}
330
4EB
100
DictionaryVariables
280
     0
  1
1:1
  0
DICTIONARYVAR
  5
4F4
102
{ACAD_REACTORS
330
4EB
102
}
330
4EB
100
DictionaryVariables
280
     0
  1
3.500000
  0
DICTIONARYVAR
  5
4F5
102
{ACAD_REACTORS
330
4EB
102
}
330
4EB
100
DictionaryVariables
280
     0
  1
acadiso.lin
  0
DICTIONARYVAR
  5
4F1
102
{ACAD_REACTORS
330
4EB
102
}
330
4EB
100
DictionaryVariables
280
     0
  1
Standard
  0
DICTIONARYVAR
  5
4F0
102
{ACAD_REACTORS
330
4EB
102
}
330
4EB
100
DictionaryVariables
280
     0
  1
Standard
  0
DICTIONARY
  5
4ED
330
5A
100
AcDbDictionary
280
     1
281
     1
  3
ACAD_ROUNDTRIP_2008_TABLESTYLE_CELLSTYLEMAP
360
4EE
  0
CELLSTYLEMAP
  5
4EE
102
{ACAD_REACTORS
330
4ED
102
}
330
4ED
100
AcDbCellStyleMap
 90
        3
300
CELLSTYLE
  1
TABLEFORMAT_BEGIN
 90
        5
170
     1
 91
        0
 92
    32768
 62
   257
 93
        1
300
CONTENTFORMAT
  1
CONTENTFORMAT_BEGIN
 90
        0
 91
        0
 92
        4
 93
        0
300

 40
0.0
140
1.0
 94
        5
 62
     0
340
11
144
6.0
309
CONTENTFORMAT_END
171
     1
301
MARGIN
  1
CELLMARGIN_BEGIN
 40
1.5
 40
1.5
 40
1.5
 40
1.5
 40
1.5
 40
1.5
309
CELLMARGIN_END
 94
        6
 95
        1
302
GRIDFORMAT
  1
GRIDFORMAT_BEGIN
 90
        0
 91
        1
 62
     0
 92
       -2
340
14
 93
        0
 40
0.045
309
GRIDFORMAT_END
 95
        2
302
GRIDFORMAT
  1
GRIDFORMAT_BEGIN
 90
        0
 91
        1
 62
     0
 92
       -2
340
14
 93
        0
 40
0.045
309
GRIDFORMAT_END
 95
        4
302
GRIDFORMAT
  1
GRIDFORMAT_BEGIN
 90
        0
 91
        1
 62
     0
 92
       -2
340
14
 93
        0
 40
0.045
309
GRIDFORMAT_END
 95
        8
302
GRIDFORMAT
  1
GRIDFORMAT_BEGIN
 90
        0
 91
        1
 62
     0
 92
       -2
340
14
 93
        0
 40
0.045
309
GRIDFORMAT_END
 95
       16
302
GRIDFORMAT
  1
GRIDFORMAT_BEGIN
 90
        0
 91
        1
 62
     0
 92
       -2
340
14
 93
        0
 40
0.045
309
GRIDFORMAT_END
 95
       32
302
GRIDFORMAT
  1
GRIDFORMAT_BEGIN
 90
        0
 91
        1
 62
     0
 92
       -2
340
14
 93
        0
 40
0.045
309
GRIDFORMAT_END
309
TABLEFORMAT_END
  1
CELLSTYLE_BEGIN
 90
        1
 91
        1
300
_TITLE
309
CELLSTYLE_END
300
CELLSTYLE
  1
TABLEFORMAT_BEGIN
 90
        5
170
     1
 91
        0
 92
        0
 62
   257
 93
        1
300
CONTENTFORMAT
  1
CONTENTFORMAT_BEGIN
 90
        0
 91
        0
 92
        4
 93
        0
300

 40
0.0
140
1.0
 94
        5
 62
     0
340
11
144
4.5
309
CONTENTFORMAT_END
171
     1
301
MARGIN
  1
CELLMARGIN_BEGIN
 40
1.5
 40
1.5
 40
1.5
 40
1.5
 40
1.5
 40
1.5
309
CELLMARGIN_END
 94
        6
 95
        1
302
GRIDFORMAT
  1
GRIDFORMAT_BEGIN
 90
        0
 91
        1
 62
     0
 92
       -2
340
14
 93
        0
 40
0.045
309
GRIDFORMAT_END
 95
        2
302
GRIDFORMAT
  1
GRIDFORMAT_BEGIN
 90
        0
 91
        1
 62
     0
 92
       -2
340
14
 93
        0
 40
0.045
309
GRIDFORMAT_END
 95
        4
302
GRIDFORMAT
  1
GRIDFORMAT_BEGIN
 90
        0
 91
        1
 62
     0
 92
       -2
340
14
 93
        0
 40
0.045
309
GRIDFORMAT_END
 95
        8
302
GRIDFORMAT
  1
GRIDFORMAT_BEGIN
 90
        0
 91
        1
 62
     0
 92
       -2
340
14
 93
        0
 40
0.045
309
GRIDFORMAT_END
 95
       16
302
GRIDFORMAT
  1
GRIDFORMAT_BEGIN
 90
        0
 91
        1
 62
     0
 92
       -2
340
14
 93
        0
 40
0.045
309
GRIDFORMAT_END
 95
       32
302
GRIDFORMAT
  1
GRIDFORMAT_BEGIN
 90
        0
 91
        1
 62
     0
 92
       -2
340
14
 93
        0
 40
0.045
309
GRIDFORMAT_END
309
TABLEFORMAT_END
  1
CELLSTYLE_BEGIN
 90
        2
 91
        1
300
_HEADER
309
CELLSTYLE_END
300
CELLSTYLE
  1
TABLEFORMAT_BEGIN
 90
        5
170
     1
 91
        0
 92
        0
 62
   257
 93
        1
300
CONTENTFORMAT
  1
CONTENTFORMAT_BEGIN
 90
        0
 91
        0
 92
        4
 93
        0
300

 40
0.0
140
1.0
 94
        2
 62
     0
340
11
144
4.5
309
CONTENTFORMAT_END
171
     1
301
MARGIN
  1
CELLMARGIN_BEGIN
 40
1.5
 40
1.5
 40
1.5
 40
1.5
 40
1.5
 40
1.5
309
CELLMARGIN_END
 94
        6
 95
        1
302
GRIDFORMAT
  1
GRIDFORMAT_BEGIN
 90
        0
 91
        1
 62
     0
 92
       -2
340
14
 93
        0
 40
0.045
309
GRIDFORMAT_END
 95
        2
302
GRIDFORMAT
  1
GRIDFORMAT_BEGIN
 90
        0
 91
        1
 62
     0
 92
       -2
340
14
 93
        0
 40
0.045
309
GRIDFORMAT_END
 95
        4
302
GRIDFORMAT
  1
GRIDFORMAT_BEGIN
 90
        0
 91
        1
 62
     0
 92
       -2
340
14
 93
        0
 40
0.045
309
GRIDFORMAT_END
 95
        8
302
GRIDFORMAT
  1
GRIDFORMAT_BEGIN
 90
        0
 91
        1
 62
     0
 92
       -2
340
14
 93
        0
 40
0.045
309
GRIDFORMAT_END
 95
       16
302
GRIDFORMAT
  1
GRIDFORMAT_BEGIN
 90
        0
 91
        1
 62
     0
 92
       -2
340
14
 93
        0
 40
0.045
309
GRIDFORMAT_END
 95
       32
302
GRIDFORMAT
  1
GRIDFORMAT_BEGIN
 90
        0
 91
        1
 62
     0
 92
       -2
340
14
 93
        0
 40
0.045
309
GRIDFORMAT_END
309
TABLEFORMAT_END
  1
CELLSTYLE_BEGIN
 90
        3
 91
        2
300
_DATA
309
CELLSTYLE_END
  0
ENDSEC
  0
EOF
