  0
SECTION
  2
HEADER
  9
$ACADVER
  1
AC1027
  9
$ACADMAINTVER
 70
   105
  9
$DWGCODEPAGE
  3
ANSI_1252
  9
$COMMENTS
  1
File was created by Cadenas
  9
$LASTSAVEDBY
  1
psAdmin
  9
$CUSTOMPROPERTYTAG
  1
NB
  9
$CUSTOMPROPERTY
  1
01495
  9
$CUSTOMPROPERTYTAG
  1
NN
  9
$CUSTOMPROPERTY
  1
3-pole busbar supports
  9
$CUSTOMPROPERTYTAG
  1
NT
  9
$CUSTOMPROPERTY
  1

  9
$CUSTOMPROPERTYTAG
  1
NBSYN
  9
$CUSTOMPROPERTY
  1
$ARTNR.
  9
$CUSTOMPROPERTYTAG
  1
LINA
  9
$CUSTOMPROPERTY
  1
01495000
  9
$CUSTOMPROPERTYTAG
  1
CATALOG
  9
$CUSTOMPROPERTY
  1
Wöhner
  9
$CUSTOMPROPERTYTAG
  1
ARTNR
  9
$CUSTOMPROPERTY
  1
01495
  9
$CUSTOMPROPERTYTAG
  1
BUSB
  9
$CUSTOMPROPERTY
  1
12, 15, 20, 25, 30 x 5, 10
  9
$CUSTOMPROPERTYTAG
  1
TYPE
  9
$CUSTOMPROPERTY
  1
S610
  9
$CUSTOMPROPERTYTAG
  1
QNT
  9
$CUSTOMPROPERTY
  1
10
  9
$CUSTOMPROPERTYTAG
  1
W
  9
$CUSTOMPROPERTY
  1
20
  9
$CUSTOMPROPERTYTAG
  1
H
  9
$CUSTOMPROPERTY
  1
191
  9
$CUSTOMPROPERTYTAG
  1
D
  9
$CUSTOMPROPERTY
  1
50
  9
$CUSTOMPROPERTYTAG
  1
LINK
  9
$CUSTOMPROPERTY
  1
Product link
  9
$CUSTOMPROPERTYTAG
  1
COMPANY
  9
$CUSTOMPROPERTY
  1
woehner
  9
$REQUIREDVERSIONS
160
                 0
  9
$INSBASE
 10
0.0
 20
0.0
 30
0.0
  9
$EXTMIN
 10
-26.0
 20
-29.33333333333333
 30
0.0
  9
$EXTMAX
 10
26.0
 20
191.5
 30
0.0
  9
$LIMMIN
 10
0.0
 20
0.0
  9
$LIMMAX
 10
420.0
 20
297.0
  9
$ORTHOMODE
 70
     0
  9
$REGENMODE
 70
     1
  9
$FILLMODE
 70
     1
  9
$QTEXTMODE
 70
     0
  9
$MIRRTEXT
 70
     1
  9
$LTSCALE
 40
1.0
  9
$ATTMODE
 70
     1
  9
$TEXTSIZE
 40
2.5
  9
$TRACEWID
 40
1.0
  9
$TEXTSTYLE
  7
Standard
  9
$CLAYER
  8
0
  9
$CELTYPE
  6
ByLayer
  9
$CECOLOR
 62
   256
  9
$CELTSCALE
 40
1.0
  9
$DISPSILH
 70
     0
  9
$DIMSCALE
 40
1.0
  9
$DIMASZ
 40
2.5
  9
$DIMEXO
 40
0.625
  9
$DIMDLI
 40
3.75
  9
$DIMRND
 40
0.0
  9
$DIMDLE
 40
0.0
  9
$DIMEXE
 40
1.25
  9
$DIMTP
 40
0.0
  9
$DIMTM
 40
0.0
  9
$DIMTXT
 40
2.5
  9
$DIMCEN
 40
2.5
  9
$DIMTSZ
 40
0.0
  9
$DIMTOL
 70
     0
  9
$DIMLIM
 70
     0
  9
$DIMTIH
 70
     0
  9
$DIMTOH
 70
     0
  9
$DIMSE1
 70
     0
  9
$DIMSE2
 70
     0
  9
$DIMTAD
 70
     1
  9
$DIMZIN
 70
     8
  9
$DIMBLK
  1

  9
$DIMASO
 70
     1
  9
$DIMSHO
 70
     1
  9
$DIMPOST
  1

  9
$DIMAPOST
  1

  9
$DIMALT
 70
     0
  9
$DIMALTD
 70
     3
  9
$DIMALTF
 40
0.03937007874016
  9
$DIMLFAC
 40
1.0
  9
$DIMTOFL
 70
     1
  9
$DIMTVP
 40
0.0
  9
$DIMTIX
 70
     0
  9
$DIMSOXD
 70
     0
  9
$DIMSAH
 70
     0
  9
$DIMBLK1
  1

  9
$DIMBLK2
  1

  9
$DIMSTYLE
  2
ISO-25
  9
$DIMCLRD
 70
     0
  9
$DIMCLRE
 70
     0
  9
$DIMCLRT
 70
     0
  9
$DIMTFAC
 40
1.0
  9
$DIMGAP
 40
0.625
  9
$DIMJUST
 70
     0
  9
$DIMSD1
 70
     0
  9
$DIMSD2
 70
     0
  9
$DIMTOLJ
 70
     0
  9
$DIMTZIN
 70
     8
  9
$DIMALTZ
 70
     0
  9
$DIMALTTZ
 70
     0
  9
$DIMUPT
 70
     0
  9
$DIMDEC
 70
     2
  9
$DIMTDEC
 70
     2
  9
$DIMALTU
 70
     2
  9
$DIMALTTD
 70
     3
  9
$DIMTXSTY
  7
Standard
  9
$DIMAUNIT
 70
     0
  9
$DIMADEC
 70
     0
  9
$DIMALTRND
 40
0.0
  9
$DIMAZIN
 70
     0
  9
$DIMDSEP
 70
    44
  9
$DIMATFIT
 70
     3
  9
$DIMFRAC
 70
     0
  9
$DIMLDRBLK
  1

  9
$DIMLUNIT
 70
     2
  9
$DIMLWD
 70
    -2
  9
$DIMLWE
 70
    -2
  9
$DIMTMOVE
 70
     0
  9
$DIMFXL
 40
1.0
  9
$DIMFXLON
 70
     0
  9
$DIMJOGANG
 40
0.7853981633974483
  9
$DIMTFILL
 70
     0
  9
$DIMTFILLCLR
 70
     0
  9
$DIMARCSYM
 70
     0
  9
$DIMLTYPE
  6

  9
$DIMLTEX1
  6

  9
$DIMLTEX2
  6

  9
$DIMTXTDIRECTION
 70
     0
  9
$LUNITS
 70
     2
  9
$LUPREC
 70
     4
  9
$SKETCHINC
 40
1.0
  9
$FILLETRAD
 40
10.0
  9
$AUNITS
 70
     0
  9
$AUPREC
 70
     0
  9
$MENU
  1
.
  9
$ELEVATION
 40
0.0
  9
$PELEVATION
 40
0.0
  9
$THICKNESS
 40
0.0
  9
$LIMCHECK
 70
     0
  9
$CHAMFERA
 40
0.0
  9
$CHAMFERB
 40
0.0
  9
$CHAMFERC
 40
0.0
  9
$CHAMFERD
 40
0.0
  9
$SKPOLY
 70
     0
  9
$TDCREATE
 40
2460319.640119236
  9
$TDUCREATE
 40
2460319.598452569
  9
$TDUPDATE
 40
2460319.640119595
  9
$TDUUPDATE
 40
2460319.598452928
  9
$TDINDWG
 40
0.0000000116
  9
$TDUSRTIMER
 40
0.0000000116
  9
$USRTIMER
 70
     1
  9
$ANGBASE
 50
0.0
  9
$ANGDIR
 70
     0
  9
$PDMODE
 70
     0
  9
$PDSIZE
 40
0.0
  9
$PLINEWID
 40
0.0
  9
$SPLFRAME
 70
     0
  9
$SPLINETYPE
 70
     6
  9
$SPLINESEGS
 70
     8
  9
$HANDSEED
  5
242
  9
$SURFTAB1
 70
     6
  9
$SURFTAB2
 70
     6
  9
$SURFTYPE
 70
     6
  9
$SURFU
 70
     6
  9
$SURFV
 70
     6
  9
$UCSBASE
  2

  9
$UCSNAME
  2

  9
$UCSORG
 10
0.0
 20
0.0
 30
0.0
  9
$UCSXDIR
 10
1.0
 20
0.0
 30
0.0
  9
$UCSYDIR
 10
0.0
 20
1.0
 30
0.0
  9
$UCSORTHOREF
  2

  9
$UCSORTHOVIEW
 70
     0
  9
$UCSORGTOP
 10
0.0
 20
0.0
 30
0.0
  9
$UCSORGBOTTOM
 10
0.0
 20
0.0
 30
0.0
  9
$UCSORGLEFT
 10
0.0
 20
0.0
 30
0.0
  9
$UCSORGRIGHT
 10
0.0
 20
0.0
 30
0.0
  9
$UCSORGFRONT
 10
0.0
 20
0.0
 30
0.0
  9
$UCSORGBACK
 10
0.0
 20
0.0
 30
0.0
  9
$PUCSBASE
  2

  9
$PUCSNAME
  2

  9
$PUCSORG
 10
0.0
 20
0.0
 30
0.0
  9
$PUCSXDIR
 10
1.0
 20
0.0
 30
0.0
  9
$PUCSYDIR
 10
0.0
 20
1.0
 30
0.0
  9
$PUCSORTHOREF
  2

  9
$PUCSORTHOVIEW
 70
     0
  9
$PUCSORGTOP
 10
0.0
 20
0.0
 30
0.0
  9
$PUCSORGBOTTOM
 10
0.0
 20
0.0
 30
0.0
  9
$PUCSORGLEFT
 10
0.0
 20
0.0
 30
0.0
  9
$PUCSORGRIGHT
 10
0.0
 20
0.0
 30
0.0
  9
$PUCSORGFRONT
 10
0.0
 20
0.0
 30
0.0
  9
$PUCSORGBACK
 10
0.0
 20
0.0
 30
0.0
  9
$USERI1
 70
     0
  9
$USERI2
 70
     0
  9
$USERI3
 70
     0
  9
$USERI4
 70
     0
  9
$USERI5
 70
     0
  9
$USERR1
 40
0.0
  9
$USERR2
 40
0.0
  9
$USERR3
 40
0.0
  9
$USERR4
 40
0.0
  9
$USERR5
 40
0.0
  9
$WORLDVIEW
 70
     1
  9
$SHADEDGE
 70
     3
  9
$SHADEDIF
 70
    70
  9
$TILEMODE
 70
     1
  9
$MAXACTVP
 70
    64
  9
$PINSBASE
 10
0.0
 20
0.0
 30
0.0
  9
$PLIMCHECK
 70
     0
  9
$PEXTMIN
 10
1.000000000000000E+20
 20
1.000000000000000E+20
 30
1.000000000000000E+20
  9
$PEXTMAX
 10
-1.000000000000000E+20
 20
-1.000000000000000E+20
 30
-1.000000000000000E+20
  9
$PLIMMIN
 10
0.0
 20
0.0
  9
$PLIMMAX
 10
420.0
 20
297.0
  9
$UNITMODE
 70
     0
  9
$VISRETAIN
 70
     1
  9
$PLINEGEN
 70
     0
  9
$PSLTSCALE
 70
     1
  9
$TREEDEPTH
 70
  3020
  9
$CMLSTYLE
  2
Standard
  9
$CMLJUST
 70
     0
  9
$CMLSCALE
 40
20.0
  9
$PROXYGRAPHICS
 70
     1
  9
$MEASUREMENT
 70
     1
  9
$CELWEIGHT
370
    -1
  9
$ENDCAPS
280
     0
  9
$JOINSTYLE
280
     0
  9
$LWDISPLAY
290
     0
  9
$INSUNITS
 70
     4
  9
$HYPERLINKBASE
  1

  9
$STYLESHEET
  1

  9
$XEDIT
290
     1
  9
$CEPSNTYPE
380
     0
  9
$PSTYLEMODE
290
     1
  9
$FINGERPRINTGUID
  2
{33ebf5c2-af1b-4a9a-b5f5-b8efbcd22324}
  9
$VERSIONGUID
  2
{FAEB1C32-E019-11D5-929B-00C0DF256EC4}
  9
$EXTNAMES
290
     1
  9
$PSVPSCALE
 40
0.0
  9
$OLESTARTUP
290
     0
  9
$SORTENTS
280
   127
  9
$INDEXCTL
280
     0
  9
$HIDETEXT
280
     1
  9
$XCLIPFRAME
280
     2
  9
$HALOGAP
280
     0
  9
$OBSCOLOR
 70
   257
  9
$OBSLTYPE
280
     0
  9
$INTERSECTIONDISPLAY
280
     0
  9
$INTERSECTIONCOLOR
 70
   257
  9
$DIMASSOC
280
     2
  9
$PROJECTNAME
  1

  9
$CAMERADISPLAY
290
     0
  9
$LENSLENGTH
 40
50.0
  9
$CAMERAHEIGHT
 40
0.0
  9
$STEPSPERSEC
 40
2.0
  9
$STEPSIZE
 40
6.0
  9
$3DDWFPREC
 40
2.0
  9
$PSOLWIDTH
 40
5.0
  9
$PSOLHEIGHT
 40
80.0
  9
$LOFTANG1
 40
1.570796326794897
  9
$LOFTANG2
 40
1.570796326794897
  9
$LOFTMAG1
 40
0.0
  9
$LOFTMAG2
 40
0.0
  9
$LOFTPARAM
 70
     7
  9
$LOFTNORMALS
280
     1
  9
$LATITUDE
 40
37.795
  9
$LONGITUDE
 40
-122.394
  9
$NORTHDIRECTION
 40
0.0
  9
$TIMEZONE
 70
 -8000
  9
$LIGHTGLYPHDISPLAY
280
     1
  9
$TILEMODELIGHTSYNCH
280
     1
  9
$CMATERIAL
347
44
  9
$SOLIDHIST
280
     0
  9
$SHOWHIST
280
     1
  9
$DWFFRAME
280
     2
  9
$DGNFRAME
280
     2
  9
$REALWORLDSCALE
290
     1
  9
$INTERFERECOLOR
 62
   256
  9
$CSHADOW
280
     0
  9
$SHADOWPLANELOCATION
 40
0.0
  0
ENDSEC
  0
SECTION
  2
CLASSES
  0
CLASS
  1
ACDBDICTIONARYWDFLT
  2
AcDbDictionaryWithDefault
  3
ObjectDBX Classes
 90
        0
 91
        3
280
     0
281
     0
  0
CLASS
  1
VISUALSTYLE
  2
AcDbVisualStyle
  3
ObjectDBX Classes
 90
     4095
 91
        3
280
     0
281
     0
  0
CLASS
  1
MATERIAL
  2
AcDbMaterial
  3
ObjectDBX Classes
 90
     1153
 91
        3
280
     0
281
     0
  0
CLASS
  1
SCALE
  2
AcDbScale
  3
ObjectDBX Classes
 90
     1153
 91
        3
280
     0
281
     0
  0
CLASS
  1
TABLESTYLE
  2
AcDbTableStyle
  3
ObjectDBX Classes
 90
     4095
 91
        3
280
     0
281
     0
  0
CLASS
  1
MLEADERSTYLE
  2
AcDbMLeaderStyle
  3
ACDB_MLEADERSTYLE_CLASS
 90
     4095
 91
        3
280
     0
281
     0
  0
CLASS
  1
SUN
  2
AcDbSun
  3
SCENEOE
 90
     1153
 91
        3
280
     0
281
     0
  0
CLASS
  1
DICTIONARYVAR
  2
AcDbDictionaryVar
  3
ObjectDBX Classes
 90
        0
 91
        3
280
     0
281
     0
  0
CLASS
  1
CELLSTYLEMAP
  2
AcDbCellStyleMap
  3
ObjectDBX Classes
 90
     1152
 91
        3
280
     0
281
     0
  0
ENDSEC
  0
SECTION
  2
TABLES
  0
TABLE
  2
VPORT
  5
8
330
0
100
AcDbSymbolTable
 70
     1
  0
VPORT
  5
29
330
8
100
AcDbSymbolTableRecord
100
AcDbViewportTableRecord
  2
*Active
 70
     0
 10
0.0
 20
0.0
 11
1.0
 21
1.0
 12
0.0
 22
81.08333333333334
 13
0.0
 23
0.0
 14
10.0
 24
10.0
 15
10.0
 25
10.0
 16
0.0
 26
0.0
 36
1.0
 17
0.0
 27
0.0
 37
0.0
 40
225.25
 41
0.2354716981132076
 42
50.0
 43
0.0
 44
0.0
 50
0.0
 51
0.0
 71
     0
 72
   100
 73
     1
 74
     3
 75
     0
 76
     0
 77
     0
 78
     0
281
     0
 65
     1
110
0.0
120
0.0
130
0.0
111
1.0
121
0.0
131
0.0
112
0.0
122
1.0
132
0.0
 79
     0
146
0.0
348
2F
 60
     3
 61
     5
292
     1
282
     1
141
0.0
142
0.0
 63
   250
361
5D
  0
ENDTAB
  0
TABLE
  2
LTYPE
  5
5
330
0
100
AcDbSymbolTable
 70
     3
  0
LTYPE
  5
14
330
5
100
AcDbSymbolTableRecord
100
AcDbLinetypeTableRecord
  2
ByBlock
 70
     0
  3

 72
    65
 73
     0
 40
0.0
  0
LTYPE
  5
15
330
5
100
AcDbSymbolTableRecord
100
AcDbLinetypeTableRecord
  2
ByLayer
 70
     0
  3

 72
    65
 73
     0
 40
0.0
  0
LTYPE
  5
16
330
5
100
AcDbSymbolTableRecord
100
AcDbLinetypeTableRecord
  2
Continuous
 70
     0
  3
Solid line
 72
    65
 73
     0
 40
0.0
  0
LTYPE
  5
93
330
5
100
AcDbSymbolTableRecord
100
AcDbLinetypeTableRecord
  2
Dashed
 70
     0
  3

 72
    65
 73
     2
 40
2.0
 49
1.0
 74
     0
 49
-1.0
 74
     0
  0
LTYPE
  5
A5
330
5
100
AcDbSymbolTableRecord
100
AcDbLinetypeTableRecord
  2
Center
 70
     0
  3

 72
    65
 73
     4
 40
1.5
 49
0.45
 74
     0
 49
-0.5
 74
     0
 49
0.05
 74
     0
 49
-0.5
 74
     0
  0
ENDTAB
  0
TABLE
  2
LAYER
  5
2
330
0
100
AcDbSymbolTable
 70
     9
  0
LAYER
  5
10
330
2
100
AcDbSymbolTableRecord
100
AcDbLayerTableRecord
  2
0
 70
     0
 62
     7
  6
Continuous
370
    -3
390
F
347
46
348
0
  0
LAYER
  5
5E
330
2
100
AcDbSymbolTableRecord
100
AcDbLayerTableRecord
  2
attrib
 70
     0
 62
    -2
  6
Continuous
370
    35
390
F
347
46
348
0
  0
LAYER
  5
94
330
2
100
AcDbSymbolTableRecord
100
AcDbLayerTableRecord
  2
hidden
 70
     0
 62
    -6
  6
Dashed
370
    25
390
F
347
46
348
0
  0
LAYER
  5
A6
330
2
100
AcDbSymbolTableRecord
100
AcDbLayerTableRecord
  2
center
 70
     0
 62
    -7
  6
Center
370
    25
390
F
347
46
348
0
  0
LAYER
  5
B4
330
2
100
AcDbSymbolTableRecord
100
AcDbLayerTableRecord
  2
bold
 70
     0
 62
     7
  6
Continuous
370
    50
390
F
347
46
348
0
  0
LAYER
  5
C3
330
2
100
AcDbSymbolTableRecord
100
AcDbLayerTableRecord
  2
light
 70
     0
 62
    -3
  6
Continuous
370
    25
390
F
347
46
348
0
  0
LAYER
  5
218
330
2
100
AcDbSymbolTableRecord
100
AcDbLayerTableRecord
  2
dimension
 70
     0
 62
    -5
  6
Continuous
370
    25
390
F
347
46
348
0
  0
LAYER
  5
21A
330
2
100
AcDbSymbolTableRecord
100
AcDbLayerTableRecord
  2
Defpoints
 70
     0
 62
     7
  6
Continuous
290
     0
370
    -3
390
F
347
46
348
0
  0
LAYER
  5
229
330
2
100
AcDbSymbolTableRecord
100
AcDbLayerTableRecord
  2
connection
 70
     0
 62
    -7
  6
Continuous
370
    50
390
F
347
46
348
0
  0
ENDTAB
  0
TABLE
  2
STYLE
  5
3
330
0
100
AcDbSymbolTable
 70
     1
  0
STYLE
  5
11
330
3
100
AcDbSymbolTableRecord
100
AcDbTextStyleTableRecord
  2
Standard
 70
     0
 40
0.0
 41
1.0
 50
0.0
 71
     0
 42
2.5
  3
txt
  4

  0
ENDTAB
  0
TABLE
  2
VIEW
  5
6
330
0
100
AcDbSymbolTable
 70
     0
  0
ENDTAB
  0
TABLE
  2
UCS
  5
7
330
0
100
AcDbSymbolTable
 70
     0
  0
ENDTAB
  0
TABLE
  2
APPID
  5
9
330
0
100
AcDbSymbolTable
 70
     1
  0
APPID
  5
12
330
9
100
AcDbSymbolTableRecord
100
AcDbRegAppTableRecord
  2
ACAD
 70
     0
  0
ENDTAB
  0
TABLE
  2
DIMSTYLE
  5
A
330
0
100
AcDbSymbolTable
 70
     1
100
AcDbDimStyleTable
  0
DIMSTYLE
105
27
102
{ACAD_REACTORS
330
219
102
}
330
A
100
AcDbSymbolTableRecord
100
AcDbDimStyleTableRecord
  2
ISO-25
 70
     0
 41
2.5
 42
0.625
 43
3.75
 44
1.25
 73
     0
 74
     0
 77
     1
 78
     8
140
2.5
141
2.5
143
0.03937007874016
147
0.625
171
     3
172
     1
178
     0
271
     2
272
     2
274
     3
278
    44
283
     0
284
     8
340
11
  0
ENDTAB
  0
TABLE
  2
BLOCK_RECORD
  5
1
330
0
100
AcDbSymbolTable
 70
     9
  0
BLOCK_RECORD
  5
1F
330
1
100
AcDbSymbolTableRecord
100
AcDbBlockTableRecord
  2
*Model_Space
340
22
 70
     0
280
     1
281
     0
  0
BLOCK_RECORD
  5
1B
330
1
100
AcDbSymbolTableRecord
100
AcDbBlockTableRecord
  2
*Paper_Space
340
1E
 70
     0
280
     1
281
     0
  0
BLOCK_RECORD
  5
23
330
1
100
AcDbSymbolTableRecord
100
AcDbBlockTableRecord
  2
*Paper_Space0
340
26
 70
     0
280
     1
281
     0
  0
BLOCK_RECORD
  5
71
330
1
100
AcDbSymbolTableRecord
100
AcDbBlockTableRecord
  2
1_79672000_0_in_01495_0
340
0
102
{BLKREFS
331
72
102
}
 70
     0
280
     1
281
     0
  0
BLOCK_RECORD
  5
EF
330
1
100
AcDbSymbolTableRecord
100
AcDbBlockTableRecord
  2
2_79675000_0_in_01495_0
340
0
102
{BLKREFS
331
F0
102
}
 70
     0
280
     1
281
     0
  0
BLOCK_RECORD
  5
131
330
1
100
AcDbSymbolTableRecord
100
AcDbBlockTableRecord
  2
3_80147_1_0_in_01495_0
340
0
102
{BLKREFS
331
132
102
}
 70
     0
280
     1
281
     0
  0
BLOCK_RECORD
  5
154
330
1
100
AcDbSymbolTableRecord
100
AcDbBlockTableRecord
  2
4_80147_2_0_in_01495_0
340
0
102
{BLKREFS
331
155
102
}
 70
     0
280
     1
281
     0
  0
BLOCK_RECORD
  5
177
330
1
100
AcDbSymbolTableRecord
100
AcDbBlockTableRecord
  2
5_80147_3_0_in_01495_0
340
0
102
{BLKREFS
331
178
102
}
 70
     0
280
     1
281
     0
  0
BLOCK_RECORD
  5
19A
330
1
100
AcDbSymbolTableRecord
100
AcDbBlockTableRecord
  2
6_80147_4_0_in_01495_0
340
0
102
{BLKREFS
331
19B
102
}
 70
     0
280
     1
281
     0
  0
BLOCK_RECORD
  5
1BD
330
1
100
AcDbSymbolTableRecord
100
AcDbBlockTableRecord
  2
7_79673000_0_in_01495_0
340
0
102
{BLKREFS
331
1BE
102
}
 70
     0
280
     1
281
     0
  0
BLOCK_RECORD
  5
21B
330
1
100
AcDbSymbolTableRecord
100
AcDbBlockTableRecord
  2
*D8
340
0
 70
     0
280
     1
281
     0
  0
ENDTAB
  0
ENDSEC
  0
SECTION
  2
BLOCKS
  0
BLOCK
  5
20
330
1F
100
AcDbEntity
  8
0
100
AcDbBlockBegin
  2
*Model_Space
 70
     2
 10
0.0
 20
0.0
 30
0.0
  3
*Model_Space
  1

  0
ENDBLK
  5
21
330
1F
100
AcDbEntity
  8
0
100
AcDbBlockEnd
  0
BLOCK
  5
1C
330
1B
100
AcDbEntity
 67
     1
  8
0
100
AcDbBlockBegin
  2
*Paper_Space
 70
     0
 10
0.0
 20
0.0
 30
0.0
  3
*Paper_Space
  1

  0
ENDBLK
  5
1D
330
1B
100
AcDbEntity
 67
     1
  8
0
100
AcDbBlockEnd
  0
BLOCK
  5
24
330
23
100
AcDbEntity
  8
0
100
AcDbBlockBegin
  2
*Paper_Space0
 70
     0
 10
0.0
 20
0.0
 30
0.0
  3
*Paper_Space0
  1

  0
ENDBLK
  5
25
330
23
100
AcDbEntity
  8
0
100
AcDbBlockEnd
  0
BLOCK
  5
73
330
71
100
AcDbEntity
  8
0
100
AcDbBlockBegin
  2
1_79672000_0_in_01495_0
 70
     2
 10
0.0
 20
0.0
 30
0.0
  3
1_79672000_0_in_01495_0
  1

  0
ATTDEF
  5
75
330
71
100
AcDbEntity
  8
attrib
100
AcDbText
 10
15.0
 20
191.0
 30
0.0
 40
0.5
  1
79672000
100
AcDbAttributeDefinition
  3

  2
NB
 70
     8
280
     0
  0
ATTDEF
  5
76
330
71
100
AcDbEntity
  8
attrib
100
AcDbText
 10
15.0
 20
190.5
 30
0.0
 40
0.5
  1
3-pole busbar supports upper
100
AcDbAttributeDefinition
  3

  2
NN
 70
     8
280
     0
  0
ATTDEF
  5
77
330
71
100
AcDbEntity
  8
attrib
100
AcDbText
 10
15.0
 20
190.0
 30
0.0
 40
0.5
  1

100
AcDbAttributeDefinition
  3

  2
NT
 70
     8
280
     0
  0
ATTDEF
  5
78
330
71
100
AcDbEntity
  8
attrib
100
AcDbText
 10
15.0
 20
189.5
 30
0.0
 40
0.5
  1
$BOM.
100
AcDbAttributeDefinition
  3

  2
NBSYN
 70
     8
280
     0
  0
ATTDEF
  5
79
330
71
100
AcDbEntity
  8
attrib
100
AcDbText
 10
15.0
 20
189.0
 30
0.0
 40
0.5
  1
79672000
100
AcDbAttributeDefinition
  3

  2
LINA
 70
     8
280
     0
  0
ATTDEF
  5
7A
330
71
100
AcDbEntity
  8
attrib
100
AcDbText
 10
15.0
 20
188.5
 30
0.0
 40
0.5
  1
Wöhner
100
AcDbAttributeDefinition
  3

  2
CATALOG
 70
     8
280
     0
  0
ATTDEF
  5
7B
330
71
100
AcDbEntity
  8
attrib
100
AcDbText
 10
15.0
 20
188.0
 30
0.0
 40
0.5
  1

100
AcDbAttributeDefinition
  3

  2
SCREW
 70
     8
280
     0
  0
ATTDEF
  5
7C
330
71
100
AcDbEntity
  8
attrib
100
AcDbText
 10
15.0
 20
187.5
 30
0.0
 40
0.5
  1
79672000
100
AcDbAttributeDefinition
  3

  2
BOM
 70
     8
280
     0
  0
ATTDEF
  5
7D
330
71
100
AcDbEntity
  8
attrib
100
AcDbText
 10
15.0
 20
187.0
 30
0.0
 40
0.5
  1
12, 15, 20, 25, 30 x 5, 10
100
AcDbAttributeDefinition
  3

  2
BUSB
 70
     8
280
     0
  0
ATTDEF
  5
7E
330
71
100
AcDbEntity
  8
attrib
100
AcDbText
 10
15.0
 20
186.5
 30
0.0
 40
0.5
  1

100
AcDbAttributeDefinition
  3

  2
POF
 70
     8
280
     0
  0
ATTDEF
  5
7F
330
71
100
AcDbEntity
  8
attrib
100
AcDbText
 10
15.0
 20
186.0
 30
0.0
 40
0.5
  1
0
100
AcDbAttributeDefinition
  3

  2
TYPE
 70
     8
280
     0
  0
ATTDEF
  5
80
330
71
100
AcDbEntity
  8
attrib
100
AcDbText
 10
15.0
 20
185.5
 30
0.0
 40
0.5
  1
10
100
AcDbAttributeDefinition
  3

  2
QNT
 70
     8
280
     0
  0
ATTDEF
  5
81
330
71
100
AcDbEntity
  8
attrib
100
AcDbText
 10
15.0
 20
185.0
 30
0.0
 40
0.5
  1
20
100
AcDbAttributeDefinition
  3

  2
W
 70
     8
280
     0
  0
ATTDEF
  5
82
330
71
100
AcDbEntity
  8
attrib
100
AcDbText
 10
15.0
 20
184.5
 30
0.0
 40
0.5
  1
202
100
AcDbAttributeDefinition
  3

  2
H
 70
     8
280
     0
  0
ATTDEF
  5
83
330
71
100
AcDbEntity
  8
attrib
100
AcDbText
 10
15.0
 20
184.0
 30
0.0
 40
0.5
  1
87
100
AcDbAttributeDefinition
  3

  2
D
 70
     8
280
     0
  0
ATTDEF
  5
84
330
71
100
AcDbEntity
  8
attrib
100
AcDbText
 10
15.0
 20
183.5
 30
0.0
 40
0.5
  1

100
AcDbAttributeDefinition
  3

  2
C
 70
     8
280
     0
  0
ATTDEF
  5
85
330
71
100
AcDbEntity
  8
attrib
100
AcDbText
 10
15.0
 20
183.0
 30
0.0
 40
0.5
  1

100
AcDbAttributeDefinition
  3

  2
DD
 70
     8
280
     0
  0
ATTDEF
  5
86
330
71
100
AcDbEntity
  8
attrib
100
AcDbText
 10
15.0
 20
182.5
 30
0.0
 40
0.5
  1

100
AcDbAttributeDefinition
  3

  2
E
 70
     8
280
     0
  0
ATTDEF
  5
87
330
71
100
AcDbEntity
  8
attrib
100
AcDbText
 10
15.0
 20
182.0
 30
0.0
 40
0.5
  1

100
AcDbAttributeDefinition
  3

  2
CONCA
 70
     8
280
     0
  0
ATTDEF
  5
88
330
71
100
AcDbEntity
  8
attrib
100
AcDbText
 10
15.0
 20
181.5
 30
0.0
 40
0.5
  1

100
AcDbAttributeDefinition
  3

  2
SCR
 70
     8
280
     0
  0
ATTDEF
  5
89
330
71
100
AcDbEntity
  8
attrib
100
AcDbText
 10
15.0
 20
181.0
 30
0.0
 40
0.5
  1

100
AcDbAttributeDefinition
  3

  2
IPR
 70
     8
280
     0
  0
ATTDEF
  5
8A
330
71
100
AcDbEntity
  8
attrib
100
AcDbText
 10
15.0
 20
180.5
 30
0.0
 40
0.5
  1

100
AcDbAttributeDefinition
  3

  2
IPRF
 70
     8
280
     0
  0
ATTDEF
  5
8B
330
71
100
AcDbEntity
  8
attrib
100
AcDbText
 10
15.0
 20
180.0
 30
0.0
 40
0.5
  1

100
AcDbAttributeDefinition
  3

  2
SEARCH
 70
     8
280
     0
  0
ATTDEF
  5
8C
330
71
100
AcDbEntity
  8
attrib
100
AcDbText
 10
15.0
 20
179.5
 30
0.0
 40
0.5
  1

100
AcDbAttributeDefinition
  3

  2
EDZ
 70
     8
280
     0
  0
ATTDEF
  5
8D
330
71
100
AcDbEntity
  8
attrib
100
AcDbText
 10
15.0
 20
179.0
 30
0.0
 40
0.5
  1

100
AcDbAttributeDefinition
  3

  2
IODD
 70
     8
280
     0
  0
ATTDEF
  5
8E
330
71
100
AcDbEntity
  8
attrib
100
AcDbText
 10
15.0
 20
178.5
 30
0.0
 40
0.5
  1
Product link
100
AcDbAttributeDefinition
  3

  2
LINK
 70
     8
280
     0
  0
ATTDEF
  5
8F
330
71
100
AcDbEntity
  8
attrib
100
AcDbText
 10
15.0
 20
178.0
 30
0.0
 40
0.5
  1
woehner
100
AcDbAttributeDefinition
  3

  2
COMPANY
 70
     8
280
     0
  0
ATTDEF
  5
90
330
71
100
AcDbEntity
  8
attrib
100
AcDbText
 10
15.0
 20
177.5
 30
0.0
 40
0.5
  1
{$CADENAS_DATA/23d-libs/woehner/sys_60classic/busbar_supp_and_covers/parts/3_pole_busbar_upper.prj},179 {VTYP=3D},{NB=79672000},{LINA=79672000},{NN=3-pole busbar supports upper},{DATE=05.06.2023 11:13:11},{GEOMDATE=02.06.2023 10:26:00},{VERSION=},{LINEID=
100
AcDbAttributeDefinition
  3

  2
PSOL_0
 70
     9
280
     0
  0
ATTDEF
  5
91
330
71
100
AcDbEntity
  8
attrib
100
AcDbText
 10
15.0
 20
177.0
 30
0.0
 40
0.5
  1
910},{WBVAR=},{WBNUMERIC=}  {NB=79672000},{LINA=79672000},{KT=DUMMY},{SCREW=},{BOM=79672000},{ARTNR=01495},{BUSB=12, 15, 20, 25, 30 x 5, 10},{POF=},{TYPE=0},{QNT=10},{W=20},{H=202},{D=87},{C=MIN},{DD=},{E=},{CONCA=},{SCR=},{IPR=},{IPRF=},{SEARCH=},{EDZ=},
100
AcDbAttributeDefinition
  3

  2
PSOL_1
 70
     9
280
     0
  0
ATTDEF
  5
92
330
71
100
AcDbEntity
  8
attrib
100
AcDbText
 10
15.0
 20
176.5
 30
0.0
 40
0.5
  1
{IODD=},{DIST=8.0},{LINK=Product link},{LINKX=https://www.woehner.de/de/produkte/01495.html}
100
AcDbAttributeDefinition
  3

  2
PSOL_2
 70
     9
280
     0
  0
LINE
  5
95
330
71
100
AcDbEntity
  8
hidden
100
AcDbLine
 10
-4.499999999999999
 20
104.0
 30
0.0
 11
-10.0
 21
104.0
 31
0.0
  0
LINE
  5
96
330
71
100
AcDbEntity
  8
hidden
100
AcDbLine
 10
10.0
 20
104.0
 30
0.0
 11
4.500000000000002
 21
104.0
 31
0.0
  0
LINE
  5
97
330
71
100
AcDbEntity
  8
hidden
100
AcDbLine
 10
-4.499999999999999
 20
74.0
 30
0.0
 11
-10.0
 21
74.0
 31
0.0
  0
LINE
  5
98
330
71
100
AcDbEntity
  8
hidden
100
AcDbLine
 10
10.0
 20
74.0
 30
0.0
 11
4.500000000000002
 21
74.0
 31
0.0
  0
LINE
  5
99
330
71
100
AcDbEntity
  8
hidden
100
AcDbLine
 10
-4.499999999999999
 20
14.0
 30
0.0
 11
-10.0
 21
14.0
 31
0.0
  0
LINE
  5
9A
330
71
100
AcDbEntity
  8
hidden
100
AcDbLine
 10
10.0
 20
14.0
 30
0.0
 11
4.500000000000002
 21
14.0
 31
0.0
  0
LINE
  5
9B
330
71
100
AcDbEntity
  8
hidden
100
AcDbLine
 10
-4.499999999999999
 20
44.0
 30
0.0
 11
-10.0
 21
44.0
 31
0.0
  0
LINE
  5
9C
330
71
100
AcDbEntity
  8
hidden
100
AcDbLine
 10
10.0
 20
44.0
 30
0.0
 11
4.500000000000002
 21
44.00000000000001
 31
0.0
  0
LINE
  5
9D
330
71
100
AcDbEntity
  8
hidden
100
AcDbLine
 10
-4.499999999999999
 20
134.0
 30
0.0
 11
-10.0
 21
134.0
 31
0.0
  0
LINE
  5
9E
330
71
100
AcDbEntity
  8
hidden
100
AcDbLine
 10
10.0
 20
134.0
 30
0.0
 11
4.500000000000002
 21
134.0
 31
0.0
  0
LINE
  5
9F
330
71
100
AcDbEntity
  8
hidden
100
AcDbLine
 10
-4.499999999999999
 20
164.0
 30
0.0
 11
-10.0
 21
164.0
 31
0.0
  0
LINE
  5
A0
330
71
100
AcDbEntity
  8
hidden
100
AcDbLine
 10
10.0
 20
164.0
 30
0.0
 11
4.500000000000002
 21
164.0
 31
0.0
  0
LINE
  5
A1
330
71
100
AcDbEntity
  8
hidden
100
AcDbLine
 10
10.0
 20
144.0
 30
0.0
 11
-10.0
 21
144.0
 31
0.0
  0
LINE
  5
A2
330
71
100
AcDbEntity
  8
hidden
100
AcDbLine
 10
10.0
 20
154.0
 30
0.0
 11
-10.0
 21
154.0
 31
0.0
  0
LINE
  5
A3
330
71
100
AcDbEntity
  8
hidden
100
AcDbLine
 10
10.0
 20
34.0
 30
0.0
 11
-10.0
 21
34.0
 31
0.0
  0
LINE
  5
A4
330
71
100
AcDbEntity
  8
hidden
100
AcDbLine
 10
10.0
 20
24.0
 30
0.0
 11
-10.0
 21
24.0
 31
0.0
  0
LINE
  5
A7
330
71
100
AcDbEntity
  8
center
100
AcDbLine
 10
-5.197499999999982
 20
174.0
 30
0.0
 11
5.197499999999982
 21
174.0
 31
0.0
  0
LINE
  5
A8
330
71
100
AcDbEntity
  8
center
100
AcDbLine
 10
0.0000000000000022
 20
156.7
 30
0.0
 11
0.0
 21
179.1975
 31
0.0
  0
LINE
  5
A9
330
71
100
AcDbEntity
  8
center
100
AcDbLine
 10
-5.197499999999999
 20
5.0
 30
0.0
 11
5.197499999999999
 21
5.0
 31
0.0
  0
LINE
  5
AA
330
71
100
AcDbEntity
  8
center
100
AcDbLine
 10
0.0
 20
-0.1974999999999989
 30
0.0
 11
0.0
 21
10.1975
 31
0.0
  0
LINE
  5
AB
330
71
100
AcDbEntity
  8
center
100
AcDbLine
 10
-5.197499999999995
 20
113.0
 30
0.0
 11
5.197499999999995
 21
113.0
 31
0.0
  0
LINE
  5
AC
330
71
100
AcDbEntity
  8
center
100
AcDbLine
 10
0.0000000000000004
 20
96.7
 30
0.0
 11
0.0
 21
118.1975
 31
0.0
  0
LINE
  5
AD
330
71
100
AcDbEntity
  8
center
100
AcDbLine
 10
-5.19750000000001
 20
63.0
 30
0.0
 11
5.19750000000001
 21
63.0
 31
0.0
  0
LINE
  5
AE
330
71
100
AcDbEntity
  8
center
100
AcDbLine
 10
0.0
 20
57.80249999999999
 30
0.0
 11
0.0000000000000027
 21
79.29999999999998
 31
0.0
  0
LINE
  5
AF
330
71
100
AcDbEntity
  8
center
100
AcDbLine
 10
-6.300000000000012
 20
72.99999999999997
 30
0.0
 11
6.300000000000018
 21
72.99999999999997
 31
0.0
  0
LINE
  5
B0
330
71
100
AcDbEntity
  8
center
100
AcDbLine
 10
-6.299999999999996
 20
31.0
 30
0.0
 11
6.299999999999996
 21
31.0
 31
0.0
  0
LINE
  5
B1
330
71
100
AcDbEntity
  8
center
100
AcDbLine
 10
0.0
 20
24.7
 30
0.0
 11
0.0
 21
37.29999999999999
 31
0.0
  0
LINE
  5
B2
330
71
100
AcDbEntity
  8
center
100
AcDbLine
 10
-6.300000000000015
 20
103.0
 30
0.0
 11
6.300000000000015
 21
103.0
 31
0.0
  0
LINE
  5
B3
330
71
100
AcDbEntity
  8
center
100
AcDbLine
 10
-6.300000000000027
 20
163.0
 30
0.0
 11
6.300000000000033
 21
163.0
 31
0.0
  0
LINE
  5
B5
330
71
100
AcDbEntity
  8
bold
100
AcDbLine
 10
10.0
 20
191.0
 30
0.0
 11
10.0
 21
0.0
 31
0.0
  0
LINE
  5
B6
330
71
100
AcDbEntity
  8
bold
100
AcDbLine
 10
10.0
 20
191.0
 30
0.0
 11
-10.0
 21
191.0
 31
0.0
  0
LINE
  5
B7
330
71
100
AcDbEntity
  8
bold
100
AcDbLine
 10
10.0
 20
107.0
 30
0.0
 11
6.000000000000002
 21
103.0
 31
0.0
  0
LINE
  5
B8
330
71
100
AcDbEntity
  8
bold
100
AcDbLine
 10
10.0
 20
181.0
 30
0.0
 11
-10.0
 21
181.0
 31
0.0
  0
CIRCLE
  5
B9
330
71
100
AcDbEntity
  8
bold
100
AcDbCircle
 10
0.0
 20
163.0
 30
0.0
 40
1.500000000000001
  0
CIRCLE
  5
BA
330
71
100
AcDbEntity
  8
bold
100
AcDbCircle
 10
0.0
 20
174.0
 30
0.0
 40
4.949999999999982
  0
LINE
  5
BB
330
71
100
AcDbEntity
  8
bold
100
AcDbLine
 10
6.0
 20
73.0
 30
0.0
 11
10.0
 21
69.0
 31
0.0
  0
LINE
  5
BC
330
71
100
AcDbEntity
  8
bold
100
AcDbLine
 10
6.0
 20
73.0
 30
0.0
 11
4.984108685311678
 21
72.60167775231523
 31
0.0
  0
ARC
  5
BD
330
71
100
AcDbEntity
  8
bold
100
AcDbCircle
 10
0.0000000000000031
 20
73.0
 30
0.0
 40
5.999999999999996
100
AcDbArc
 50
0.0
 51
180.0
  0
LINE
  5
BE
330
71
100
AcDbEntity
  8
bold
100
AcDbLine
 10
-5.999999999999993
 20
73.0
 30
0.0
 11
-4.984108685311674
 21
72.60167775231523
 31
0.0
  0
LINE
  5
BF
330
71
100
AcDbEntity
  8
bold
100
AcDbLine
 10
-10.0
 20
69.0
 30
0.0
 11
-5.999999999999993
 21
73.0
 31
0.0
  0
LINE
  5
C0
330
71
100
AcDbEntity
  8
bold
100
AcDbLine
 10
-6.0
 20
41.0
 30
0.0
 11
-10.0
 21
45.0
 31
0.0
  0
LINE
  5
C1
330
71
100
AcDbEntity
  8
bold
100
AcDbLine
 10
-6.0
 20
41.0
 30
0.0
 11
-4.999999999999999
 21
41.41421356237312
 31
0.0
  0
LINE
  5
C2
330
71
100
AcDbEntity
  8
bold
100
AcDbLine
 10
-6.0
 20
31.0
 30
0.0
 11
-6.0
 21
41.0
 31
0.0
  0
LINE
  5
C4
330
71
100
AcDbEntity
  8
light
100
AcDbLine
 10
-6.0
 20
31.0
 30
0.0
 11
-5.0
 21
31.0
 31
0.0
  0
ARC
  5
C5
330
71
100
AcDbEntity
  8
bold
100
AcDbCircle
 10
0.0000000000000009
 20
31.0
 30
0.0
 40
6.000000000000001
100
AcDbArc
 50
180.0
 51
0.0
  0
LINE
  5
C6
330
71
100
AcDbEntity
  8
light
100
AcDbLine
 10
6.000000000000002
 20
31.0
 30
0.0
 11
5.0
 21
31.0
 31
0.0
  0
LINE
  5
C7
330
71
100
AcDbEntity
  8
bold
100
AcDbLine
 10
6.0
 20
41.0
 30
0.0
 11
6.000000000000002
 21
31.0
 31
0.0
  0
LINE
  5
C8
330
71
100
AcDbEntity
  8
bold
100
AcDbLine
 10
6.0
 20
41.0
 30
0.0
 11
5.000000000000001
 21
41.41421356237313
 31
0.0
  0
LINE
  5
C9
330
71
100
AcDbEntity
  8
bold
100
AcDbLine
 10
10.0
 20
45.0
 30
0.0
 11
6.0
 21
41.0
 31
0.0
  0
LINE
  5
CA
330
71
100
AcDbEntity
  8
bold
100
AcDbLine
 10
-6.0
 20
163.0
 30
0.0
 11
-10.0
 21
167.0
 31
0.0
  0
LINE
  5
CB
330
71
100
AcDbEntity
  8
bold
100
AcDbLine
 10
-10.0
 20
168.4142135623731
 30
0.0
 11
-4.984108685311686
 21
163.3983222476848
 31
0.0
  0
ARC
  5
CC
330
71
100
AcDbEntity
  8
bold
100
AcDbCircle
 10
-0.0000000000000022
 20
163.0
 30
0.0
 40
5.000000000000002
100
AcDbArc
 50
175.4307214482783
 51
4.569278551721761
  0
LINE
  5
CD
330
71
100
AcDbEntity
  8
bold
100
AcDbLine
 10
-6.0
 20
163.0
 30
0.0
 11
-4.984108685311686
 21
163.3983222476848
 31
0.0
  0
ARC
  5
CE
330
71
100
AcDbEntity
  8
bold
100
AcDbCircle
 10
0.0000000000000013
 20
163.0
 30
0.0
 40
6.000000000000002
100
AcDbArc
 50
180.0
 51
0.0
  0
LINE
  5
CF
330
71
100
AcDbEntity
  8
bold
100
AcDbLine
 10
4.984108685311683
 20
163.3983222476848
 30
0.0
 11
10.0
 21
168.4142135623731
 31
0.0
  0
LINE
  5
D0
330
71
100
AcDbEntity
  8
bold
100
AcDbLine
 10
6.000000000000002
 20
163.0
 30
0.0
 11
4.984108685311683
 21
163.3983222476848
 31
0.0
  0
LINE
  5
D1
330
71
100
AcDbEntity
  8
bold
100
AcDbLine
 10
10.0
 20
167.0
 30
0.0
 11
6.000000000000002
 21
163.0
 31
0.0
  0
ARC
  5
D2
330
71
100
AcDbEntity
  8
bold
100
AcDbCircle
 10
-0.0000000000000018
 20
5.000035946738452
 30
0.0
 40
13.4536
100
AcDbArc
 50
41.98709870575687
 51
138.0129012942431
  0
ARC
  5
D3
330
71
100
AcDbEntity
  8
bold
100
AcDbCircle
 10
0.0000000000000027
 20
125.5
 30
0.0
 40
12.5
100
AcDbArc
 50
36.86989764584402
 51
143.130102354156
  0
LINE
  5
D4
330
71
100
AcDbEntity
  8
bold
100
AcDbLine
 10
6.000000000000002
 20
103.0
 30
0.0
 11
4.984108685311686
 21
103.3983222476848
 31
0.0
  0
ARC
  5
D5
330
71
100
AcDbEntity
  8
bold
100
AcDbCircle
 10
0.0
 20
103.0
 30
0.0
 40
6.0
100
AcDbArc
 50
179.9999999999998
 51
0.0000000000001357
  0
LINE
  5
D6
330
71
100
AcDbEntity
  8
bold
100
AcDbLine
 10
-6.0
 20
103.0
 30
0.0
 11
-10.0
 21
107.0
 31
0.0
  0
LINE
  5
D7
330
71
100
AcDbEntity
  8
bold
100
AcDbLine
 10
-4.984108685311688
 20
103.3983222476848
 30
0.0
 11
-6.0
 21
103.0
 31
0.0
  0
LINE
  5
D8
330
71
100
AcDbEntity
  8
bold
100
AcDbLine
 10
-10.0
 20
191.0
 30
0.0
 11
-10.0
 21
0.0
 31
0.0
  0
CIRCLE
  5
D9
330
71
100
AcDbEntity
  8
bold
100
AcDbCircle
 10
0.0
 20
5.0
 30
0.0
 40
4.949999999999998
  0
ARC
  5
DA
330
71
100
AcDbEntity
  8
bold
100
AcDbCircle
 10
0.0
 20
5.000035946738466
 30
0.0
 40
12.4536
100
AcDbArc
 50
36.58431503443055
 51
143.4156849655695
  0
LINE
  5
DB
330
71
100
AcDbEntity
  8
bold
100
AcDbLine
 10
10.0
 20
0.0
 30
0.0
 11
-10.0
 21
0.0
 31
0.0
  0
CIRCLE
  5
DC
330
71
100
AcDbEntity
  8
bold
100
AcDbCircle
 10
0.0
 20
125.5
 30
0.0
 40
5.000000000000004
  0
CIRCLE
  5
DD
330
71
100
AcDbEntity
  8
bold
100
AcDbCircle
 10
0.0
 20
103.0
 30
0.0
 40
1.499999999999988
  0
CIRCLE
  5
DE
330
71
100
AcDbEntity
  8
bold
100
AcDbCircle
 10
0.0
 20
113.0
 30
0.0
 40
4.949999999999996
  0
ARC
  5
DF
330
71
100
AcDbEntity
  8
bold
100
AcDbCircle
 10
0.0
 20
125.5
 30
0.0
 40
11.50000000000001
100
AcDbArc
 50
29.59184579395082
 51
150.4081542060492
  0
LINE
  5
E0
330
71
100
AcDbEntity
  8
bold
100
AcDbLine
 10
-10.0
 20
108.4142135623731
 30
0.0
 11
-4.984108685311688
 21
103.3983222476848
 31
0.0
  0
ARC
  5
E1
330
71
100
AcDbEntity
  8
bold
100
AcDbCircle
 10
-0.0000000000000036
 20
103.0
 30
0.0
 40
5.000000000000002
100
AcDbArc
 50
175.4307214482783
 51
4.569278551721921
  0
LINE
  5
E2
330
71
100
AcDbEntity
  8
bold
100
AcDbLine
 10
4.984108685311686
 20
103.3983222476848
 30
0.0
 11
10.0
 21
108.4142135623731
 31
0.0
  0
CIRCLE
  5
E3
330
71
100
AcDbEntity
  8
bold
100
AcDbCircle
 10
0.0
 20
50.5
 30
0.0
 40
4.999999999999997
  0
CIRCLE
  5
E4
330
71
100
AcDbEntity
  8
bold
100
AcDbCircle
 10
0.0
 20
73.0
 30
0.0
 40
1.500000000000001
  0
CIRCLE
  5
E5
330
71
100
AcDbEntity
  8
bold
100
AcDbCircle
 10
0.0
 20
31.0
 30
0.0
 40
1.500000000000001
  0
CIRCLE
  5
E6
330
71
100
AcDbEntity
  8
bold
100
AcDbCircle
 10
0.0
 20
63.0
 30
0.0
 40
4.95000000000001
  0
LINE
  5
E7
330
71
100
AcDbEntity
  8
bold
100
AcDbLine
 10
-10.0
 20
46.4142135623731
 30
0.0
 11
-4.999999999999999
 21
41.41421356237312
 31
0.0
  0
LINE
  5
E8
330
71
100
AcDbEntity
  8
bold
100
AcDbLine
 10
-4.999999999999999
 20
41.41421356237312
 30
0.0
 11
-5.0
 21
31.0
 31
0.0
  0
ARC
  5
E9
330
71
100
AcDbEntity
  8
bold
100
AcDbCircle
 10
0.0000000000000004
 20
31.0
 30
0.0
 40
5.0
100
AcDbArc
 50
180.0
 51
0.0
  0
LINE
  5
EA
330
71
100
AcDbEntity
  8
bold
100
AcDbLine
 10
5.0
 20
31.0
 30
0.0
 11
5.000000000000001
 21
41.41421356237313
 31
0.0
  0
LINE
  5
EB
330
71
100
AcDbEntity
  8
bold
100
AcDbLine
 10
5.000000000000001
 20
41.41421356237313
 30
0.0
 11
10.0
 21
46.41421356237313
 31
0.0
  0
LINE
  5
EC
330
71
100
AcDbEntity
  8
bold
100
AcDbLine
 10
10.0
 20
67.58578643762692
 30
0.0
 11
4.984108685311678
 21
72.60167775231523
 31
0.0
  0
ARC
  5
ED
330
71
100
AcDbEntity
  8
bold
100
AcDbCircle
 10
-0.0000000000000013
 20
72.99999999999999
 30
0.0
 40
4.999999999999995
100
AcDbArc
 50
355.4307214482783
 51
184.5692785517216
  0
LINE
  5
EE
330
71
100
AcDbEntity
  8
bold
100
AcDbLine
 10
-4.984108685311674
 20
72.60167775231523
 30
0.0
 11
-10.0
 21
67.58578643762692
 31
0.0
  0
ENDBLK
  5
74
330
71
100
AcDbEntity
  8
0
100
AcDbBlockEnd
  0
BLOCK
  5
F1
330
EF
100
AcDbEntity
  8
0
100
AcDbBlockBegin
  2
2_79675000_0_in_01495_0
 70
     2
 10
0.0
 20
0.0
 30
0.0
  3
2_79675000_0_in_01495_0
  1

  0
ATTDEF
  5
F3
330
EF
100
AcDbEntity
  8
attrib
100
AcDbText
 10
15.0
 20
177.0
 30
0.0
 40
0.5
  1
79675000
100
AcDbAttributeDefinition
  3

  2
NB
 70
     8
280
     0
  0
ATTDEF
  5
F4
330
EF
100
AcDbEntity
  8
attrib
100
AcDbText
 10
15.0
 20
176.5
 30
0.0
 40
0.5
  1
3-pole busbar supports middle
100
AcDbAttributeDefinition
  3

  2
NN
 70
     8
280
     0
  0
ATTDEF
  5
F5
330
EF
100
AcDbEntity
  8
attrib
100
AcDbText
 10
15.0
 20
176.0
 30
0.0
 40
0.5
  1

100
AcDbAttributeDefinition
  3

  2
NT
 70
     8
280
     0
  0
ATTDEF
  5
F6
330
EF
100
AcDbEntity
  8
attrib
100
AcDbText
 10
15.0
 20
175.5
 30
0.0
 40
0.5
  1
$BOM.
100
AcDbAttributeDefinition
  3

  2
NBSYN
 70
     8
280
     0
  0
ATTDEF
  5
F7
330
EF
100
AcDbEntity
  8
attrib
100
AcDbText
 10
15.0
 20
175.0
 30
0.0
 40
0.5
  1
79675000
100
AcDbAttributeDefinition
  3

  2
LINA
 70
     8
280
     0
  0
ATTDEF
  5
F8
330
EF
100
AcDbEntity
  8
attrib
100
AcDbText
 10
15.0
 20
174.5
 30
0.0
 40
0.5
  1
Wöhner
100
AcDbAttributeDefinition
  3

  2
CATALOG
 70
     8
280
     0
  0
ATTDEF
  5
F9
330
EF
100
AcDbEntity
  8
attrib
100
AcDbText
 10
15.0
 20
174.0
 30
0.0
 40
0.5
  1
79675000
100
AcDbAttributeDefinition
  3

  2
BOM
 70
     8
280
     0
  0
ATTDEF
  5
FA
330
EF
100
AcDbEntity
  8
attrib
100
AcDbText
 10
15.0
 20
173.5
 30
0.0
 40
0.5
  1
01484
100
AcDbAttributeDefinition
  3

  2
ARTNR
 70
     8
280
     0
  0
ATTDEF
  5
FB
330
EF
100
AcDbEntity
  8
attrib
100
AcDbText
 10
15.0
 20
173.0
 30
0.0
 40
0.5
  1
12, 15, 20, 25, 30 x 5, 10
100
AcDbAttributeDefinition
  3

  2
BUSB
 70
     8
280
     0
  0
ATTDEF
  5
FC
330
EF
100
AcDbEntity
  8
attrib
100
AcDbText
 10
15.0
 20
172.5
 30
0.0
 40
0.5
  1

100
AcDbAttributeDefinition
  3

  2
POF
 70
     8
280
     0
  0
ATTDEF
  5
FD
330
EF
100
AcDbEntity
  8
attrib
100
AcDbText
 10
15.0
 20
172.0
 30
0.0
 40
0.5
  1
0
100
AcDbAttributeDefinition
  3

  2
TYPE
 70
     8
280
     0
  0
ATTDEF
  5
FE
330
EF
100
AcDbEntity
  8
attrib
100
AcDbText
 10
15.0
 20
171.5
 30
0.0
 40
0.5
  1
10
100
AcDbAttributeDefinition
  3

  2
QNT
 70
     8
280
     0
  0
ATTDEF
  5
FF
330
EF
100
AcDbEntity
  8
attrib
100
AcDbText
 10
15.0
 20
171.0
 30
0.0
 40
0.5
  1
20
100
AcDbAttributeDefinition
  3

  2
W
 70
     8
280
     0
  0
ATTDEF
  5
100
330
EF
100
AcDbEntity
  8
attrib
100
AcDbText
 10
15.0
 20
170.5
 30
0.0
 40
0.5
  1
202
100
AcDbAttributeDefinition
  3

  2
H
 70
     8
280
     0
  0
ATTDEF
  5
101
330
EF
100
AcDbEntity
  8
attrib
100
AcDbText
 10
15.0
 20
170.0
 30
0.0
 40
0.5
  1
87
100
AcDbAttributeDefinition
  3

  2
D
 70
     8
280
     0
  0
ATTDEF
  5
102
330
EF
100
AcDbEntity
  8
attrib
100
AcDbText
 10
15.0
 20
169.5
 30
0.0
 40
0.5
  1

100
AcDbAttributeDefinition
  3

  2
C
 70
     8
280
     0
  0
ATTDEF
  5
103
330
EF
100
AcDbEntity
  8
attrib
100
AcDbText
 10
15.0
 20
169.0
 30
0.0
 40
0.5
  1

100
AcDbAttributeDefinition
  3

  2
DD
 70
     8
280
     0
  0
ATTDEF
  5
104
330
EF
100
AcDbEntity
  8
attrib
100
AcDbText
 10
15.0
 20
168.5
 30
0.0
 40
0.5
  1

100
AcDbAttributeDefinition
  3

  2
E
 70
     8
280
     0
  0
ATTDEF
  5
105
330
EF
100
AcDbEntity
  8
attrib
100
AcDbText
 10
15.0
 20
168.0
 30
0.0
 40
0.5
  1

100
AcDbAttributeDefinition
  3

  2
CONCA
 70
     8
280
     0
  0
ATTDEF
  5
106
330
EF
100
AcDbEntity
  8
attrib
100
AcDbText
 10
15.0
 20
167.5
 30
0.0
 40
0.5
  1

100
AcDbAttributeDefinition
  3

  2
SCR
 70
     8
280
     0
  0
ATTDEF
  5
107
330
EF
100
AcDbEntity
  8
attrib
100
AcDbText
 10
15.0
 20
167.0
 30
0.0
 40
0.5
  1

100
AcDbAttributeDefinition
  3

  2
IPR
 70
     8
280
     0
  0
ATTDEF
  5
108
330
EF
100
AcDbEntity
  8
attrib
100
AcDbText
 10
15.0
 20
166.5
 30
0.0
 40
0.5
  1

100
AcDbAttributeDefinition
  3

  2
IPRF
 70
     8
280
     0
  0
ATTDEF
  5
109
330
EF
100
AcDbEntity
  8
attrib
100
AcDbText
 10
15.0
 20
166.0
 30
0.0
 40
0.5
  1

100
AcDbAttributeDefinition
  3

  2
SEARCH
 70
     8
280
     0
  0
ATTDEF
  5
10A
330
EF
100
AcDbEntity
  8
attrib
100
AcDbText
 10
15.0
 20
165.5
 30
0.0
 40
0.5
  1

100
AcDbAttributeDefinition
  3

  2
EDZ
 70
     8
280
     0
  0
ATTDEF
  5
10B
330
EF
100
AcDbEntity
  8
attrib
100
AcDbText
 10
15.0
 20
165.0
 30
0.0
 40
0.5
  1

100
AcDbAttributeDefinition
  3

  2
IODD
 70
     8
280
     0
  0
ATTDEF
  5
10C
330
EF
100
AcDbEntity
  8
attrib
100
AcDbText
 10
15.0
 20
164.5
 30
0.0
 40
0.5
  1
Product link
100
AcDbAttributeDefinition
  3

  2
LINK
 70
     8
280
     0
  0
ATTDEF
  5
10D
330
EF
100
AcDbEntity
  8
attrib
100
AcDbText
 10
15.0
 20
164.0
 30
0.0
 40
0.5
  1
woehner
100
AcDbAttributeDefinition
  3

  2
COMPANY
 70
     8
280
     0
  0
ATTDEF
  5
10E
330
EF
100
AcDbEntity
  8
attrib
100
AcDbText
 10
15.0
 20
163.5
 30
0.0
 40
0.5
  1
{$CADENAS_DATA/23d-libs/woehner/sys_60classic/busbar_supp_and_covers/parts/3_pole_busbar_middle.prj},180 {VTYP=3D},{NB=79675000},{LINA=79675000},{NN=3-pole busbar supports middle},{DATE=05.06.2023 11:13:11},{GEOMDATE=02.06.2023 10:43:00},{VERSION=},{LINEI
100
AcDbAttributeDefinition
  3

  2
PSOL_0
 70
     9
280
     0
  0
ATTDEF
  5
10F
330
EF
100
AcDbEntity
  8
attrib
100
AcDbText
 10
15.0
 20
163.0
 30
0.0
 40
0.5
  1
D=860},{WBVAR=},{WBNUMERIC=}  {NB=79675000},{LINA=79675000},{KT=DUMMY},{BOM=79675000},{ARTNR=01484},{BUSB=12, 15, 20, 25, 30 x 5, 10},{POF=},{TYPE=0},{QNT=10},{W=20},{H=202},{D=87},{C=MIN},{DD=},{E=},{CONCA=},{SCR=},{IPR=},{IPRF=},{SEARCH=},{EDZ=},{IODD=}
100
AcDbAttributeDefinition
  3

  2
PSOL_1
 70
     9
280
     0
  0
ATTDEF
  5
110
330
EF
100
AcDbEntity
  8
attrib
100
AcDbText
 10
15.0
 20
162.5
 30
0.0
 40
0.5
  1
,{DIST=8.0},{LINK=Product link},{LINKX=https://www.woehner.de/de/produkte/01484.html}
100
AcDbAttributeDefinition
  3

  2
PSOL_2
 70
     9
280
     0
  0
LINE
  5
111
330
EF
100
AcDbEntity
  8
hidden
100
AcDbLine
 10
6.0
 20
41.0
 30
0.0
 11
6.0
 21
140.0
 31
0.0
  0
LINE
  5
112
330
EF
100
AcDbEntity
  8
hidden
100
AcDbLine
 10
6.0
 20
27.0
 30
0.0
 11
6.0
 21
31.0
 31
0.0
  0
LINE
  5
113
330
EF
100
AcDbEntity
  8
hidden
100
AcDbLine
 10
-6.000000000000001
 20
31.0
 30
0.0
 11
-6.0
 21
27.0
 31
0.0
  0
LINE
  5
114
330
EF
100
AcDbEntity
  8
hidden
100
AcDbLine
 10
-6.0
 20
21.99999999999999
 30
0.0
 11
6.0
 21
21.99999999999999
 31
0.0
  0
LINE
  5
115
330
EF
100
AcDbEntity
  8
hidden
100
AcDbLine
 10
6.0
 20
27.0
 30
0.0
 11
-6.0
 21
27.0
 31
0.0
  0
LINE
  5
116
330
EF
100
AcDbEntity
  8
hidden
100
AcDbLine
 10
6.0
 20
145.0
 30
0.0
 11
-6.0
 21
145.0
 31
0.0
  0
LINE
  5
117
330
EF
100
AcDbEntity
  8
hidden
100
AcDbLine
 10
-6.0
 20
140.0
 30
0.0
 11
6.0
 21
140.0
 31
0.0
  0
LINE
  5
118
330
EF
100
AcDbEntity
  8
hidden
100
AcDbLine
 10
6.0
 20
74.09999999999998
 30
0.0
 11
10.0
 21
74.09999999999998
 31
0.0
  0
LINE
  5
119
330
EF
100
AcDbEntity
  8
hidden
100
AcDbLine
 10
-10.0
 20
74.09999999999998
 30
0.0
 11
-6.0
 21
74.09999999999998
 31
0.0
  0
LINE
  5
11A
330
EF
100
AcDbEntity
  8
hidden
100
AcDbLine
 10
-6.0
 20
177.0
 30
0.0
 11
-6.0
 21
145.0
 31
0.0
  0
LINE
  5
11B
330
EF
100
AcDbEntity
  8
hidden
100
AcDbLine
 10
-9.000000000000002
 20
164.0
 30
0.0
 11
-9.000000000000002
 21
177.0
 31
0.0
  0
LINE
  5
11C
330
EF
100
AcDbEntity
  8
hidden
100
AcDbLine
 10
-6.0
 20
177.0
 30
0.0
 11
-10.0
 21
177.0
 31
0.0
  0
LINE
  5
11D
330
EF
100
AcDbEntity
  8
hidden
100
AcDbLine
 10
-6.0
 20
104.1
 30
0.0
 11
-10.0
 21
104.1
 31
0.0
  0
LINE
  5
11E
330
EF
100
AcDbEntity
  8
hidden
100
AcDbLine
 10
-6.0
 20
140.0
 30
0.0
 11
-6.000000000000002
 21
41.0
 31
0.0
  0
LINE
  5
11F
330
EF
100
AcDbEntity
  8
hidden
100
AcDbLine
 10
-9.000000000000002
 20
104.1
 30
0.0
 11
-9.000000000000002
 21
134.0
 31
0.0
  0
LINE
  5
120
330
EF
100
AcDbEntity
  8
hidden
100
AcDbLine
 10
10.0
 20
44.19999999999999
 30
0.0
 11
6.0
 21
44.19999999999999
 31
0.0
  0
LINE
  5
121
330
EF
100
AcDbEntity
  8
hidden
100
AcDbLine
 10
9.000000000000002
 20
44.19999999999999
 30
0.0
 11
9.000000000000002
 21
74.09999999999998
 31
0.0
  0
LINE
  5
122
330
EF
100
AcDbEntity
  8
hidden
100
AcDbLine
 10
-6.0
 20
44.19999999999999
 30
0.0
 11
-10.0
 21
44.19999999999999
 31
0.0
  0
LINE
  5
123
330
EF
100
AcDbEntity
  8
hidden
100
AcDbLine
 10
-9.000000000000002
 20
44.19999999999999
 30
0.0
 11
-9.000000000000002
 21
74.09999999999998
 31
0.0
  0
LINE
  5
124
330
EF
100
AcDbEntity
  8
hidden
100
AcDbLine
 10
10.0
 20
4.999999999999977
 30
0.0
 11
6.0
 21
4.999999999999977
 31
0.0
  0
LINE
  5
125
330
EF
100
AcDbEntity
  8
hidden
100
AcDbLine
 10
9.000000000000002
 20
4.999999999999977
 30
0.0
 11
9.000000000000002
 21
14.19999999999996
 31
0.0
  0
LINE
  5
126
330
EF
100
AcDbEntity
  8
hidden
100
AcDbLine
 10
6.0
 20
14.19999999999996
 30
0.0
 11
10.0
 21
14.19999999999996
 31
0.0
  0
LINE
  5
127
330
EF
100
AcDbEntity
  8
hidden
100
AcDbLine
 10
6.0
 20
4.999999999999977
 30
0.0
 11
6.0
 21
21.99999999999999
 31
0.0
  0
LINE
  5
128
330
EF
100
AcDbEntity
  8
hidden
100
AcDbLine
 10
9.000000000000002
 20
104.1
 30
0.0
 11
9.000000000000002
 21
134.0
 31
0.0
  0
LINE
  5
129
330
EF
100
AcDbEntity
  8
hidden
100
AcDbLine
 10
10.0
 20
104.1
 30
0.0
 11
6.0
 21
104.1
 31
0.0
  0
LINE
  5
12A
330
EF
100
AcDbEntity
  8
hidden
100
AcDbLine
 10
9.000000000000002
 20
164.0
 30
0.0
 11
9.000000000000002
 21
177.0
 31
0.0
  0
LINE
  5
12B
330
EF
100
AcDbEntity
  8
hidden
100
AcDbLine
 10
10.0
 20
177.0
 30
0.0
 11
6.0
 21
177.0
 31
0.0
  0
LINE
  5
12C
330
EF
100
AcDbEntity
  8
hidden
100
AcDbLine
 10
6.0
 20
145.0
 30
0.0
 11
6.0
 21
177.0
 31
0.0
  0
LINE
  5
12D
330
EF
100
AcDbEntity
  8
hidden
100
AcDbLine
 10
-10.0
 20
14.19999999999996
 30
0.0
 11
-6.0
 21
14.19999999999996
 31
0.0
  0
LINE
  5
12E
330
EF
100
AcDbEntity
  8
hidden
100
AcDbLine
 10
-9.000000000000002
 20
4.999999999999977
 30
0.0
 11
-9.000000000000002
 21
14.19999999999996
 31
0.0
  0
LINE
  5
12F
330
EF
100
AcDbEntity
  8
hidden
100
AcDbLine
 10
-6.0
 20
4.999999999999977
 30
0.0
 11
-10.0
 21
4.999999999999977
 31
0.0
  0
LINE
  5
130
330
EF
100
AcDbEntity
  8
hidden
100
AcDbLine
 10
-6.0
 20
21.99999999999999
 30
0.0
 11
-6.0
 21
4.999999999999977
 31
0.0
  0
ENDBLK
  5
F2
330
EF
100
AcDbEntity
  8
0
100
AcDbBlockEnd
  0
BLOCK
  5
133
330
131
100
AcDbEntity
  8
0
100
AcDbBlockBegin
  2
3_80147_1_0_in_01495_0
 70
     2
 10
0.0
 20
0.0
 30
0.0
  3
3_80147_1_0_in_01495_0
  1

  0
ATTDEF
  5
135
330
131
100
AcDbEntity
  8
attrib
100
AcDbText
 10
10.0
 20
179.0000000000005
 30
0.0
 40
0.5
  1
80147
100
AcDbAttributeDefinition
  3

  2
NB
 70
     8
280
     0
  0
ATTDEF
  5
136
330
131
100
AcDbEntity
  8
attrib
100
AcDbText
 10
10.0
 20
178.5000000000005
 30
0.0
 40
0.5
  1
Screws
100
AcDbAttributeDefinition
  3

  2
NN
 70
     8
280
     0
  0
ATTDEF
  5
137
330
131
100
AcDbEntity
  8
attrib
100
AcDbText
 10
10.0
 20
178.0000000000005
 30
0.0
 40
0.5
  1

100
AcDbAttributeDefinition
  3

  2
NT
 70
     8
280
     0
  0
ATTDEF
  5
138
330
131
100
AcDbEntity
  8
attrib
100
AcDbText
 10
10.0
 20
177.5000000000005
 30
0.0
 40
0.5
  1
$ARTNR.
100
AcDbAttributeDefinition
  3

  2
NBSYN
 70
     8
280
     0
  0
ATTDEF
  5
139
330
131
100
AcDbEntity
  8
attrib
100
AcDbText
 10
10.0
 20
177.0000000000005
 30
0.0
 40
0.5
  1
80147000
100
AcDbAttributeDefinition
  3

  2
LINA
 70
     8
280
     0
  0
ATTDEF
  5
13A
330
131
100
AcDbEntity
  8
attrib
100
AcDbText
 10
10.0
 20
176.5000000000005
 30
0.0
 40
0.5
  1
Wöhner
100
AcDbAttributeDefinition
  3

  2
CATALOG
 70
     8
280
     0
  0
ATTDEF
  5
13B
330
131
100
AcDbEntity
  8
attrib
100
AcDbText
 10
10.0
 20
176.0000000000005
 30
0.0
 40
0.5
  1
80147
100
AcDbAttributeDefinition
  3

  2
ARTNR
 70
     8
280
     0
  0
ATTDEF
  5
13C
330
131
100
AcDbEntity
  8
attrib
100
AcDbText
 10
10.0
 20
175.5000000000005
 30
0.0
 40
0.5
  1
CrossBoard
100
AcDbAttributeDefinition
  3

  2
SYSTEM
 70
     8
280
     0
  0
ATTDEF
  5
13D
330
131
100
AcDbEntity
  8
attrib
100
AcDbText
 10
10.0
 20
175.0000000000005
 30
0.0
 40
0.5
  1
Screw
100
AcDbAttributeDefinition
  3

  2
MODEL
 70
     8
280
     0
  0
ATTDEF
  5
13E
330
131
100
AcDbEntity
  8
attrib
100
AcDbText
 10
10.0
 20
174.5000000000005
 30
0.0
 40
0.5
  1
000
100
AcDbAttributeDefinition
  3

  2
BOMX
 70
     8
280
     0
  0
ATTDEF
  5
13F
330
131
100
AcDbEntity
  8
attrib
100
AcDbText
 10
10.0
 20
174.0000000000005
 30
0.0
 40
0.5
  1
woehner
100
AcDbAttributeDefinition
  3

  2
COMPANY
 70
     8
280
     0
  0
ATTDEF
  5
140
330
131
100
AcDbEntity
  8
attrib
100
AcDbText
 10
10.0
 20
173.5000000000005
 30
0.0
 40
0.5
  1
{$CADENAS_DATA/23d-libs/woehner/common_pool/screws.prj},153 {VTYP=3D},{NB=80147},{LINA=80147000},{NN=Screws},{DATE=30.12.2022 11:38:47},{GEOMDATE=30.12.2022 11:38:00},{VERSION=},{LINEID=60},{WBVAR=},{WBNUMERIC=}  {NB=80147},{LINA=80147000},{KT=DUMMY},{ART
100
AcDbAttributeDefinition
  3

  2
PSOL_0
 70
     9
280
     0
  0
ATTDEF
  5
141
330
131
100
AcDbEntity
  8
attrib
100
AcDbText
 10
10.0
 20
173.0000000000005
 30
0.0
 40
0.5
  1
NR=80147},{SYSTEM=CrossBoard},{MODEL=Screw},{BOMX=000},{BOM=80147000}
100
AcDbAttributeDefinition
  3

  2
PSOL_1
 70
     9
280
     0
  0
CIRCLE
  5
142
330
131
100
AcDbEntity
  8
hidden
100
AcDbCircle
 10
0.0
 20
174.0
 30
0.0
 40
3.0
  0
LINE
  5
143
330
131
100
AcDbEntity
  8
hidden
100
AcDbLine
 10
4.918438340973629
 20
174.5
 30
0.0
 11
4.9749371855331
 21
174.5
 31
0.0
  0
LINE
  5
144
330
131
100
AcDbEntity
  8
hidden
100
AcDbLine
 10
-4.9749371855331
 20
174.5
 30
0.0
 11
-4.921570861944639
 21
174.5
 31
0.0
  0
LINE
  5
145
330
131
100
AcDbEntity
  8
hidden
100
AcDbLine
 10
4.9749371855331
 20
173.5
 30
0.0
 11
4.916684978776378
 21
173.5
 31
0.0
  0
LINE
  5
146
330
131
100
AcDbEntity
  8
hidden
100
AcDbLine
 10
-4.917313679611131
 20
173.5
 30
0.0
 11
-4.9749371855331
 21
173.5
 31
0.0
  0
CIRCLE
  5
147
330
131
100
AcDbEntity
  8
hidden
100
AcDbCircle
 10
-0.0000000000004698
 20
174.0
 30
0.0
 40
5.00000000000047
  0
LINE
  5
148
330
131
100
AcDbEntity
  8
bold
100
AcDbLine
 10
0.4999999999999996
 20
174.5
 30
0.0
 11
4.918438340973629
 21
174.5
 31
0.0
  0
LINE
  5
149
330
131
100
AcDbEntity
  8
bold
100
AcDbLine
 10
-4.921570861944639
 20
174.5
 30
0.0
 11
-0.5
 21
174.5
 31
0.0
  0
LINE
  5
14A
330
131
100
AcDbEntity
  8
bold
100
AcDbLine
 10
0.5
 20
173.5
 30
0.0
 11
4.916684978776378
 21
173.5
 31
0.0
  0
LINE
  5
14B
330
131
100
AcDbEntity
  8
bold
100
AcDbLine
 10
-0.4999999999999996
 20
173.5
 30
0.0
 11
-0.5
 21
172.0
 31
0.0
  0
LINE
  5
14C
330
131
100
AcDbEntity
  8
bold
100
AcDbLine
 10
0.5
 20
172.0
 30
0.0
 11
0.5
 21
173.5
 31
0.0
  0
LINE
  5
14D
330
131
100
AcDbEntity
  8
bold
100
AcDbLine
 10
-4.917313679611131
 20
173.5
 30
0.0
 11
-0.4999999999999996
 21
173.5
 31
0.0
  0
LINE
  5
14E
330
131
100
AcDbEntity
  8
bold
100
AcDbLine
 10
-0.5
 20
172.0
 30
0.0
 11
0.5
 21
172.0
 31
0.0
  0
ARC
  5
14F
330
131
100
AcDbEntity
  8
bold
100
AcDbCircle
 10
0.0000000000000002
 20
174.0
 30
0.0
 40
4.000000000000001
100
AcDbArc
 50
187.1807557814579
 51
352.8192442185421
  0
LINE
  5
150
330
131
100
AcDbEntity
  8
bold
100
AcDbLine
 10
0.4999999999999996
 20
174.5
 30
0.0
 11
0.5
 21
176.0
 31
0.0
  0
LINE
  5
151
330
131
100
AcDbEntity
  8
bold
100
AcDbLine
 10
-0.5
 20
176.0
 30
0.0
 11
-0.5
 21
174.5
 31
0.0
  0
ARC
  5
152
330
131
100
AcDbEntity
  8
bold
100
AcDbCircle
 10
-0.0000000000000002
 20
174.0
 30
0.0
 40
4.000000000000004
100
AcDbArc
 50
7.180755781458274
 51
172.8192442185417
  0
LINE
  5
153
330
131
100
AcDbEntity
  8
bold
100
AcDbLine
 10
0.5
 20
176.0
 30
0.0
 11
-0.5
 21
176.0
 31
0.0
  0
ENDBLK
  5
134
330
131
100
AcDbEntity
  8
0
100
AcDbBlockEnd
  0
BLOCK
  5
156
330
154
100
AcDbEntity
  8
0
100
AcDbBlockBegin
  2
4_80147_2_0_in_01495_0
 70
     2
 10
0.0
 20
0.0
 30
0.0
  3
4_80147_2_0_in_01495_0
  1

  0
ATTDEF
  5
158
330
154
100
AcDbEntity
  8
attrib
100
AcDbText
 10
10.0
 20
118.0000000000005
 30
0.0
 40
0.5
  1
80147
100
AcDbAttributeDefinition
  3

  2
NB
 70
     8
280
     0
  0
ATTDEF
  5
159
330
154
100
AcDbEntity
  8
attrib
100
AcDbText
 10
10.0
 20
117.5000000000005
 30
0.0
 40
0.5
  1
Screws
100
AcDbAttributeDefinition
  3

  2
NN
 70
     8
280
     0
  0
ATTDEF
  5
15A
330
154
100
AcDbEntity
  8
attrib
100
AcDbText
 10
10.0
 20
117.0000000000005
 30
0.0
 40
0.5
  1

100
AcDbAttributeDefinition
  3

  2
NT
 70
     8
280
     0
  0
ATTDEF
  5
15B
330
154
100
AcDbEntity
  8
attrib
100
AcDbText
 10
10.0
 20
116.5000000000005
 30
0.0
 40
0.5
  1
$ARTNR.
100
AcDbAttributeDefinition
  3

  2
NBSYN
 70
     8
280
     0
  0
ATTDEF
  5
15C
330
154
100
AcDbEntity
  8
attrib
100
AcDbText
 10
10.0
 20
116.0000000000005
 30
0.0
 40
0.5
  1
80147000
100
AcDbAttributeDefinition
  3

  2
LINA
 70
     8
280
     0
  0
ATTDEF
  5
15D
330
154
100
AcDbEntity
  8
attrib
100
AcDbText
 10
10.0
 20
115.5000000000005
 30
0.0
 40
0.5
  1
Wöhner
100
AcDbAttributeDefinition
  3

  2
CATALOG
 70
     8
280
     0
  0
ATTDEF
  5
15E
330
154
100
AcDbEntity
  8
attrib
100
AcDbText
 10
10.0
 20
115.0000000000005
 30
0.0
 40
0.5
  1
80147
100
AcDbAttributeDefinition
  3

  2
ARTNR
 70
     8
280
     0
  0
ATTDEF
  5
15F
330
154
100
AcDbEntity
  8
attrib
100
AcDbText
 10
10.0
 20
114.5000000000005
 30
0.0
 40
0.5
  1
CrossBoard
100
AcDbAttributeDefinition
  3

  2
SYSTEM
 70
     8
280
     0
  0
ATTDEF
  5
160
330
154
100
AcDbEntity
  8
attrib
100
AcDbText
 10
10.0
 20
114.0000000000005
 30
0.0
 40
0.5
  1
Screw
100
AcDbAttributeDefinition
  3

  2
MODEL
 70
     8
280
     0
  0
ATTDEF
  5
161
330
154
100
AcDbEntity
  8
attrib
100
AcDbText
 10
10.0
 20
113.5000000000005
 30
0.0
 40
0.5
  1
000
100
AcDbAttributeDefinition
  3

  2
BOMX
 70
     8
280
     0
  0
ATTDEF
  5
162
330
154
100
AcDbEntity
  8
attrib
100
AcDbText
 10
10.0
 20
113.0000000000005
 30
0.0
 40
0.5
  1
woehner
100
AcDbAttributeDefinition
  3

  2
COMPANY
 70
     8
280
     0
  0
ATTDEF
  5
163
330
154
100
AcDbEntity
  8
attrib
100
AcDbText
 10
10.0
 20
112.5000000000005
 30
0.0
 40
0.5
  1
{$CADENAS_DATA/23d-libs/woehner/common_pool/screws.prj},153 {VTYP=3D},{NB=80147},{LINA=80147000},{NN=Screws},{DATE=30.12.2022 11:38:47},{GEOMDATE=30.12.2022 11:38:00},{VERSION=},{LINEID=60},{WBVAR=},{WBNUMERIC=}  {NB=80147},{LINA=80147000},{KT=DUMMY},{ART
100
AcDbAttributeDefinition
  3

  2
PSOL_0
 70
     9
280
     0
  0
ATTDEF
  5
164
330
154
100
AcDbEntity
  8
attrib
100
AcDbText
 10
10.0
 20
112.0000000000005
 30
0.0
 40
0.5
  1
NR=80147},{SYSTEM=CrossBoard},{MODEL=Screw},{BOMX=000},{BOM=80147000}
100
AcDbAttributeDefinition
  3

  2
PSOL_1
 70
     9
280
     0
  0
CIRCLE
  5
165
330
154
100
AcDbEntity
  8
hidden
100
AcDbCircle
 10
0.0
 20
113.0
 30
0.0
 40
3.0
  0
LINE
  5
166
330
154
100
AcDbEntity
  8
hidden
100
AcDbLine
 10
4.918438340973644
 20
113.5
 30
0.0
 11
4.9749371855331
 21
113.5
 31
0.0
  0
LINE
  5
167
330
154
100
AcDbEntity
  8
hidden
100
AcDbLine
 10
-4.9749371855331
 20
113.5
 30
0.0
 11
-4.921570861944653
 21
113.5
 31
0.0
  0
LINE
  5
168
330
154
100
AcDbEntity
  8
hidden
100
AcDbLine
 10
-4.917313679611144
 20
112.5
 30
0.0
 11
-4.9749371855331
 21
112.5
 31
0.0
  0
LINE
  5
169
330
154
100
AcDbEntity
  8
hidden
100
AcDbLine
 10
4.9749371855331
 20
112.5
 30
0.0
 11
4.916684978776388
 21
112.5
 31
0.0
  0
CIRCLE
  5
16A
330
154
100
AcDbEntity
  8
hidden
100
AcDbCircle
 10
-0.0000000000004698
 20
113.0
 30
0.0
 40
5.00000000000047
  0
LINE
  5
16B
330
154
100
AcDbEntity
  8
bold
100
AcDbLine
 10
0.4999999999999996
 20
113.5
 30
0.0
 11
4.918438340973644
 21
113.5
 31
0.0
  0
LINE
  5
16C
330
154
100
AcDbEntity
  8
bold
100
AcDbLine
 10
-4.921570861944653
 20
113.5
 30
0.0
 11
-0.5
 21
113.5
 31
0.0
  0
LINE
  5
16D
330
154
100
AcDbEntity
  8
bold
100
AcDbLine
 10
-0.4999999999999996
 20
112.5
 30
0.0
 11
-4.917313679611144
 21
112.5
 31
0.0
  0
LINE
  5
16E
330
154
100
AcDbEntity
  8
bold
100
AcDbLine
 10
4.916684978776388
 20
112.5
 30
0.0
 11
0.5
 21
112.5
 31
0.0
  0
LINE
  5
16F
330
154
100
AcDbEntity
  8
bold
100
AcDbLine
 10
0.4999999999999996
 20
113.5
 30
0.0
 11
0.5
 21
115.0
 31
0.0
  0
ARC
  5
170
330
154
100
AcDbEntity
  8
bold
100
AcDbCircle
 10
-0.0000000000000002
 20
113.0
 30
0.0
 40
4.000000000000004
100
AcDbArc
 50
7.180755781458274
 51
172.8192442185417
  0
LINE
  5
171
330
154
100
AcDbEntity
  8
bold
100
AcDbLine
 10
-0.5
 20
115.0
 30
0.0
 11
-0.5
 21
113.5
 31
0.0
  0
LINE
  5
172
330
154
100
AcDbEntity
  8
bold
100
AcDbLine
 10
0.5
 20
115.0
 30
0.0
 11
-0.5
 21
115.0
 31
0.0
  0
LINE
  5
173
330
154
100
AcDbEntity
  8
bold
100
AcDbLine
 10
-0.4999999999999996
 20
112.5
 30
0.0
 11
-0.5
 21
111.0
 31
0.0
  0
ARC
  5
174
330
154
100
AcDbEntity
  8
bold
100
AcDbCircle
 10
0.0
 20
113.0
 30
0.0
 40
4.000000000000004
100
AcDbArc
 50
187.1807557814583
 51
352.8192442185417
  0
LINE
  5
175
330
154
100
AcDbEntity
  8
bold
100
AcDbLine
 10
0.5
 20
111.0
 30
0.0
 11
0.5
 21
112.5
 31
0.0
  0
LINE
  5
176
330
154
100
AcDbEntity
  8
bold
100
AcDbLine
 10
-0.5
 20
111.0
 30
0.0
 11
0.5
 21
111.0
 31
0.0
  0
ENDBLK
  5
157
330
154
100
AcDbEntity
  8
0
100
AcDbBlockEnd
  0
BLOCK
  5
179
330
177
100
AcDbEntity
  8
0
100
AcDbBlockBegin
  2
5_80147_3_0_in_01495_0
 70
     2
 10
0.0
 20
0.0
 30
0.0
  3
5_80147_3_0_in_01495_0
  1

  0
ATTDEF
  5
17B
330
177
100
AcDbEntity
  8
attrib
100
AcDbText
 10
10.0
 20
67.99999999999976
 30
0.0
 40
0.5
  1
80147
100
AcDbAttributeDefinition
  3

  2
NB
 70
     8
280
     0
  0
ATTDEF
  5
17C
330
177
100
AcDbEntity
  8
attrib
100
AcDbText
 10
10.0
 20
67.49999999999976
 30
0.0
 40
0.5
  1
Screws
100
AcDbAttributeDefinition
  3

  2
NN
 70
     8
280
     0
  0
ATTDEF
  5
17D
330
177
100
AcDbEntity
  8
attrib
100
AcDbText
 10
10.0
 20
66.99999999999976
 30
0.0
 40
0.5
  1

100
AcDbAttributeDefinition
  3

  2
NT
 70
     8
280
     0
  0
ATTDEF
  5
17E
330
177
100
AcDbEntity
  8
attrib
100
AcDbText
 10
10.0
 20
66.49999999999976
 30
0.0
 40
0.5
  1
$ARTNR.
100
AcDbAttributeDefinition
  3

  2
NBSYN
 70
     8
280
     0
  0
ATTDEF
  5
17F
330
177
100
AcDbEntity
  8
attrib
100
AcDbText
 10
10.0
 20
65.99999999999976
 30
0.0
 40
0.5
  1
80147000
100
AcDbAttributeDefinition
  3

  2
LINA
 70
     8
280
     0
  0
ATTDEF
  5
180
330
177
100
AcDbEntity
  8
attrib
100
AcDbText
 10
10.0
 20
65.49999999999976
 30
0.0
 40
0.5
  1
Wöhner
100
AcDbAttributeDefinition
  3

  2
CATALOG
 70
     8
280
     0
  0
ATTDEF
  5
181
330
177
100
AcDbEntity
  8
attrib
100
AcDbText
 10
10.0
 20
64.99999999999976
 30
0.0
 40
0.5
  1
80147
100
AcDbAttributeDefinition
  3

  2
ARTNR
 70
     8
280
     0
  0
ATTDEF
  5
182
330
177
100
AcDbEntity
  8
attrib
100
AcDbText
 10
10.0
 20
64.49999999999976
 30
0.0
 40
0.5
  1
CrossBoard
100
AcDbAttributeDefinition
  3

  2
SYSTEM
 70
     8
280
     0
  0
ATTDEF
  5
183
330
177
100
AcDbEntity
  8
attrib
100
AcDbText
 10
10.0
 20
63.99999999999976
 30
0.0
 40
0.5
  1
Screw
100
AcDbAttributeDefinition
  3

  2
MODEL
 70
     8
280
     0
  0
ATTDEF
  5
184
330
177
100
AcDbEntity
  8
attrib
100
AcDbText
 10
10.0
 20
63.49999999999976
 30
0.0
 40
0.5
  1
000
100
AcDbAttributeDefinition
  3

  2
BOMX
 70
     8
280
     0
  0
ATTDEF
  5
185
330
177
100
AcDbEntity
  8
attrib
100
AcDbText
 10
10.0
 20
62.99999999999976
 30
0.0
 40
0.5
  1
woehner
100
AcDbAttributeDefinition
  3

  2
COMPANY
 70
     8
280
     0
  0
ATTDEF
  5
186
330
177
100
AcDbEntity
  8
attrib
100
AcDbText
 10
10.0
 20
62.49999999999976
 30
0.0
 40
0.5
  1
{$CADENAS_DATA/23d-libs/woehner/common_pool/screws.prj},153 {VTYP=3D},{NB=80147},{LINA=80147000},{NN=Screws},{DATE=30.12.2022 11:38:47},{GEOMDATE=30.12.2022 11:38:00},{VERSION=},{LINEID=60},{WBVAR=},{WBNUMERIC=}  {NB=80147},{LINA=80147000},{KT=DUMMY},{ART
100
AcDbAttributeDefinition
  3

  2
PSOL_0
 70
     9
280
     0
  0
ATTDEF
  5
187
330
177
100
AcDbEntity
  8
attrib
100
AcDbText
 10
10.0
 20
61.99999999999976
 30
0.0
 40
0.5
  1
NR=80147},{SYSTEM=CrossBoard},{MODEL=Screw},{BOMX=000},{BOM=80147000}
100
AcDbAttributeDefinition
  3

  2
PSOL_1
 70
     9
280
     0
  0
CIRCLE
  5
188
330
177
100
AcDbEntity
  8
hidden
100
AcDbCircle
 10
0.0
 20
63.0
 30
0.0
 40
3.0
  0
LINE
  5
189
330
177
100
AcDbEntity
  8
hidden
100
AcDbLine
 10
4.9749371855331
 20
62.5
 30
0.0
 11
4.916684978776402
 21
62.5
 31
0.0
  0
LINE
  5
18A
330
177
100
AcDbEntity
  8
hidden
100
AcDbLine
 10
-4.917313679611159
 20
62.5
 30
0.0
 11
-4.9749371855331
 21
62.5
 31
0.0
  0
LINE
  5
18B
330
177
100
AcDbEntity
  8
hidden
100
AcDbLine
 10
-4.9749371855331
 20
63.5
 30
0.0
 11
-4.921570861944668
 21
63.5
 31
0.0
  0
LINE
  5
18C
330
177
100
AcDbEntity
  8
hidden
100
AcDbLine
 10
4.918438340973659
 20
63.5
 30
0.0
 11
4.9749371855331
 21
63.5
 31
0.0
  0
CIRCLE
  5
18D
330
177
100
AcDbEntity
  8
hidden
100
AcDbCircle
 10
0.000000000000238
 20
63.0
 30
0.0
 40
4.999999999999762
  0
LINE
  5
18E
330
177
100
AcDbEntity
  8
bold
100
AcDbLine
 10
4.916684978776402
 20
62.5
 30
0.0
 11
0.5
 21
62.5
 31
0.0
  0
LINE
  5
18F
330
177
100
AcDbEntity
  8
bold
100
AcDbLine
 10
-0.4999999999999996
 20
62.5
 30
0.0
 11
-4.917313679611159
 21
62.5
 31
0.0
  0
LINE
  5
190
330
177
100
AcDbEntity
  8
bold
100
AcDbLine
 10
-0.5
 20
63.5
 30
0.0
 11
-4.921570861944668
 21
63.5
 31
0.0
  0
LINE
  5
191
330
177
100
AcDbEntity
  8
bold
100
AcDbLine
 10
0.5
 20
65.0
 30
0.0
 11
-0.5
 21
65.0
 31
0.0
  0
LINE
  5
192
330
177
100
AcDbEntity
  8
bold
100
AcDbLine
 10
-0.5
 20
65.0
 30
0.0
 11
-0.5
 21
63.5
 31
0.0
  0
LINE
  5
193
330
177
100
AcDbEntity
  8
bold
100
AcDbLine
 10
0.4999999999999996
 20
63.5
 30
0.0
 11
0.5
 21
65.0
 31
0.0
  0
LINE
  5
194
330
177
100
AcDbEntity
  8
bold
100
AcDbLine
 10
4.918438340973659
 20
63.5
 30
0.0
 11
0.4999999999999996
 21
63.5
 31
0.0
  0
LINE
  5
195
330
177
100
AcDbEntity
  8
bold
100
AcDbLine
 10
-0.4999999999999996
 20
62.5
 30
0.0
 11
-0.5
 21
61.0
 31
0.0
  0
LINE
  5
196
330
177
100
AcDbEntity
  8
bold
100
AcDbLine
 10
0.5
 20
61.0
 30
0.0
 11
0.5
 21
62.5
 31
0.0
  0
ARC
  5
197
330
177
100
AcDbEntity
  8
bold
100
AcDbCircle
 10
0.0
 20
63.0
 30
0.0
 40
4.000000000000004
100
AcDbArc
 50
187.1807557814583
 51
352.8192442185417
  0
LINE
  5
198
330
177
100
AcDbEntity
  8
bold
100
AcDbLine
 10
-0.5
 20
61.0
 30
0.0
 11
0.5
 21
61.0
 31
0.0
  0
ARC
  5
199
330
177
100
AcDbEntity
  8
bold
100
AcDbCircle
 10
-0.0000000000000002
 20
63.0
 30
0.0
 40
4.000000000000004
100
AcDbArc
 50
7.180755781458274
 51
172.8192442185417
  0
ENDBLK
  5
17A
330
177
100
AcDbEntity
  8
0
100
AcDbBlockEnd
  0
BLOCK
  5
19C
330
19A
100
AcDbEntity
  8
0
100
AcDbBlockBegin
  2
6_80147_4_0_in_01495_0
 70
     2
 10
0.0
 20
0.0
 30
0.0
  3
6_80147_4_0_in_01495_0
  1

  0
ATTDEF
  5
19E
330
19A
100
AcDbEntity
  8
attrib
100
AcDbText
 10
10.0
 20
9.999999999999986
 30
0.0
 40
0.5
  1
80147
100
AcDbAttributeDefinition
  3

  2
NB
 70
     8
280
     0
  0
ATTDEF
  5
19F
330
19A
100
AcDbEntity
  8
attrib
100
AcDbText
 10
10.0
 20
9.499999999999986
 30
0.0
 40
0.5
  1
Screws
100
AcDbAttributeDefinition
  3

  2
NN
 70
     8
280
     0
  0
ATTDEF
  5
1A0
330
19A
100
AcDbEntity
  8
attrib
100
AcDbText
 10
10.0
 20
8.999999999999986
 30
0.0
 40
0.5
  1

100
AcDbAttributeDefinition
  3

  2
NT
 70
     8
280
     0
  0
ATTDEF
  5
1A1
330
19A
100
AcDbEntity
  8
attrib
100
AcDbText
 10
10.0
 20
8.499999999999986
 30
0.0
 40
0.5
  1
$ARTNR.
100
AcDbAttributeDefinition
  3

  2
NBSYN
 70
     8
280
     0
  0
ATTDEF
  5
1A2
330
19A
100
AcDbEntity
  8
attrib
100
AcDbText
 10
10.0
 20
7.999999999999986
 30
0.0
 40
0.5
  1
80147000
100
AcDbAttributeDefinition
  3

  2
LINA
 70
     8
280
     0
  0
ATTDEF
  5
1A3
330
19A
100
AcDbEntity
  8
attrib
100
AcDbText
 10
10.0
 20
7.499999999999986
 30
0.0
 40
0.5
  1
Wöhner
100
AcDbAttributeDefinition
  3

  2
CATALOG
 70
     8
280
     0
  0
ATTDEF
  5
1A4
330
19A
100
AcDbEntity
  8
attrib
100
AcDbText
 10
10.0
 20
6.999999999999986
 30
0.0
 40
0.5
  1
80147
100
AcDbAttributeDefinition
  3

  2
ARTNR
 70
     8
280
     0
  0
ATTDEF
  5
1A5
330
19A
100
AcDbEntity
  8
attrib
100
AcDbText
 10
10.0
 20
6.499999999999986
 30
0.0
 40
0.5
  1
CrossBoard
100
AcDbAttributeDefinition
  3

  2
SYSTEM
 70
     8
280
     0
  0
ATTDEF
  5
1A6
330
19A
100
AcDbEntity
  8
attrib
100
AcDbText
 10
10.0
 20
5.999999999999986
 30
0.0
 40
0.5
  1
Screw
100
AcDbAttributeDefinition
  3

  2
MODEL
 70
     8
280
     0
  0
ATTDEF
  5
1A7
330
19A
100
AcDbEntity
  8
attrib
100
AcDbText
 10
10.0
 20
5.499999999999986
 30
0.0
 40
0.5
  1
000
100
AcDbAttributeDefinition
  3

  2
BOMX
 70
     8
280
     0
  0
ATTDEF
  5
1A8
330
19A
100
AcDbEntity
  8
attrib
100
AcDbText
 10
10.0
 20
4.999999999999986
 30
0.0
 40
0.5
  1
woehner
100
AcDbAttributeDefinition
  3

  2
COMPANY
 70
     8
280
     0
  0
ATTDEF
  5
1A9
330
19A
100
AcDbEntity
  8
attrib
100
AcDbText
 10
10.0
 20
4.499999999999986
 30
0.0
 40
0.5
  1
{$CADENAS_DATA/23d-libs/woehner/common_pool/screws.prj},153 {VTYP=3D},{NB=80147},{LINA=80147000},{NN=Screws},{DATE=30.12.2022 11:38:47},{GEOMDATE=30.12.2022 11:38:00},{VERSION=},{LINEID=60},{WBVAR=},{WBNUMERIC=}  {NB=80147},{LINA=80147000},{KT=DUMMY},{ART
100
AcDbAttributeDefinition
  3

  2
PSOL_0
 70
     9
280
     0
  0
ATTDEF
  5
1AA
330
19A
100
AcDbEntity
  8
attrib
100
AcDbText
 10
10.0
 20
3.999999999999986
 30
0.0
 40
0.5
  1
NR=80147},{SYSTEM=CrossBoard},{MODEL=Screw},{BOMX=000},{BOM=80147000}
100
AcDbAttributeDefinition
  3

  2
PSOL_1
 70
     9
280
     0
  0
CIRCLE
  5
1AB
330
19A
100
AcDbEntity
  8
hidden
100
AcDbCircle
 10
0.0
 20
5.0
 30
0.0
 40
3.0
  0
LINE
  5
1AC
330
19A
100
AcDbEntity
  8
hidden
100
AcDbLine
 10
-4.917313679611146
 20
4.500000000000001
 30
0.0
 11
-4.9749371855331
 21
4.500000000000003
 31
0.0
  0
LINE
  5
1AD
330
19A
100
AcDbEntity
  8
hidden
100
AcDbLine
 10
4.9749371855331
 20
4.500000000000003
 30
0.0
 11
4.916684978776393
 21
4.500000000000001
 31
0.0
  0
LINE
  5
1AE
330
19A
100
AcDbEntity
  8
hidden
100
AcDbLine
 10
-4.9749371855331
 20
5.500000000000003
 30
0.0
 11
-4.921570861944655
 21
5.500000000000001
 31
0.0
  0
LINE
  5
1AF
330
19A
100
AcDbEntity
  8
hidden
100
AcDbLine
 10
4.918438340973646
 20
5.500000000000001
 30
0.0
 11
4.9749371855331
 21
5.500000000000003
 31
0.0
  0
CIRCLE
  5
1B0
330
19A
100
AcDbEntity
  8
hidden
100
AcDbCircle
 10
0.000000000000016
 20
5.000000000000002
 30
0.0
 40
4.999999999999984
  0
LINE
  5
1B1
330
19A
100
AcDbEntity
  8
bold
100
AcDbLine
 10
-0.5
 20
3.0
 30
0.0
 11
0.5
 21
3.0
 31
0.0
  0
LINE
  5
1B2
330
19A
100
AcDbEntity
  8
bold
100
AcDbLine
 10
-4.917313679611146
 20
4.500000000000001
 30
0.0
 11
-0.4999999999999996
 21
4.500000000000001
 31
0.0
  0
LINE
  5
1B3
330
19A
100
AcDbEntity
  8
bold
100
AcDbLine
 10
0.5
 20
4.500000000000001
 30
0.0
 11
4.916684978776393
 21
4.500000000000001
 31
0.0
  0
LINE
  5
1B4
330
19A
100
AcDbEntity
  8
bold
100
AcDbLine
 10
-0.4999999999999996
 20
4.500000000000001
 30
0.0
 11
-0.5
 21
3.0
 31
0.0
  0
LINE
  5
1B5
330
19A
100
AcDbEntity
  8
bold
100
AcDbLine
 10
0.5
 20
3.0
 30
0.0
 11
0.5
 21
4.500000000000001
 31
0.0
  0
ARC
  5
1B6
330
19A
100
AcDbEntity
  8
bold
100
AcDbCircle
 10
0.0
 20
5.000000000000004
 30
0.0
 40
4.000000000000004
100
AcDbArc
 50
187.1807557814583
 51
352.8192442185417
  0
LINE
  5
1B7
330
19A
100
AcDbEntity
  8
bold
100
AcDbLine
 10
-0.5
 20
5.500000000000001
 30
0.0
 11
-4.921570861944655
 21
5.500000000000001
 31
0.0
  0
LINE
  5
1B8
330
19A
100
AcDbEntity
  8
bold
100
AcDbLine
 10
0.4999999999999996
 20
5.500000000000001
 30
0.0
 11
0.5
 21
7.0
 31
0.0
  0
LINE
  5
1B9
330
19A
100
AcDbEntity
  8
bold
100
AcDbLine
 10
-0.5
 20
7.0
 30
0.0
 11
-0.5
 21
5.500000000000001
 31
0.0
  0
LINE
  5
1BA
330
19A
100
AcDbEntity
  8
bold
100
AcDbLine
 10
4.918438340973646
 20
5.500000000000001
 30
0.0
 11
0.4999999999999996
 21
5.500000000000001
 31
0.0
  0
LINE
  5
1BB
330
19A
100
AcDbEntity
  8
bold
100
AcDbLine
 10
0.5
 20
7.0
 30
0.0
 11
-0.5
 21
7.0
 31
0.0
  0
ARC
  5
1BC
330
19A
100
AcDbEntity
  8
bold
100
AcDbCircle
 10
0.0
 20
4.999999999999998
 30
0.0
 40
4.000000000000004
100
AcDbArc
 50
7.180755781458314
 51
172.8192442185417
  0
ENDBLK
  5
19D
330
19A
100
AcDbEntity
  8
0
100
AcDbBlockEnd
  0
BLOCK
  5
1BF
330
1BD
100
AcDbEntity
  8
0
100
AcDbBlockBegin
  2
7_79673000_0_in_01495_0
 70
     2
 10
0.0
 20
0.0
 30
0.0
  3
7_79673000_0_in_01495_0
  1

  0
ATTDEF
  5
1C1
330
1BD
100
AcDbEntity
  8
attrib
100
AcDbText
 10
15.0
 20
191.0
 30
0.0
 40
0.5
  1
79673000
100
AcDbAttributeDefinition
  3

  2
NB
 70
     8
280
     0
  0
ATTDEF
  5
1C2
330
1BD
100
AcDbEntity
  8
attrib
100
AcDbText
 10
15.0
 20
190.5
 30
0.0
 40
0.5
  1
3-pole busbar supports lower
100
AcDbAttributeDefinition
  3

  2
NN
 70
     8
280
     0
  0
ATTDEF
  5
1C3
330
1BD
100
AcDbEntity
  8
attrib
100
AcDbText
 10
15.0
 20
190.0
 30
0.0
 40
0.5
  1

100
AcDbAttributeDefinition
  3

  2
NT
 70
     8
280
     0
  0
ATTDEF
  5
1C4
330
1BD
100
AcDbEntity
  8
attrib
100
AcDbText
 10
15.0
 20
189.5
 30
0.0
 40
0.5
  1
$BOM.
100
AcDbAttributeDefinition
  3

  2
NBSYN
 70
     8
280
     0
  0
ATTDEF
  5
1C5
330
1BD
100
AcDbEntity
  8
attrib
100
AcDbText
 10
15.0
 20
189.0
 30
0.0
 40
0.5
  1
79673000
100
AcDbAttributeDefinition
  3

  2
LINA
 70
     8
280
     0
  0
ATTDEF
  5
1C6
330
1BD
100
AcDbEntity
  8
attrib
100
AcDbText
 10
15.0
 20
188.5
 30
0.0
 40
0.5
  1
Wöhner
100
AcDbAttributeDefinition
  3

  2
CATALOG
 70
     8
280
     0
  0
ATTDEF
  5
1C7
330
1BD
100
AcDbEntity
  8
attrib
100
AcDbText
 10
15.0
 20
188.0
 30
0.0
 40
0.5
  1

100
AcDbAttributeDefinition
  3

  2
SCREW
 70
     8
280
     0
  0
ATTDEF
  5
1C8
330
1BD
100
AcDbEntity
  8
attrib
100
AcDbText
 10
15.0
 20
187.5
 30
0.0
 40
0.5
  1
79673000
100
AcDbAttributeDefinition
  3

  2
BOM
 70
     8
280
     0
  0
ATTDEF
  5
1C9
330
1BD
100
AcDbEntity
  8
attrib
100
AcDbText
 10
15.0
 20
187.0
 30
0.0
 40
0.5
  1
01484
100
AcDbAttributeDefinition
  3

  2
ARTNR
 70
     8
280
     0
  0
ATTDEF
  5
1CA
330
1BD
100
AcDbEntity
  8
attrib
100
AcDbText
 10
15.0
 20
186.5
 30
0.0
 40
0.5
  1
12, 15, 20, 25, 30 x 5, 10
100
AcDbAttributeDefinition
  3

  2
BUSB
 70
     8
280
     0
  0
ATTDEF
  5
1CB
330
1BD
100
AcDbEntity
  8
attrib
100
AcDbText
 10
15.0
 20
186.0
 30
0.0
 40
0.5
  1

100
AcDbAttributeDefinition
  3

  2
POF
 70
     8
280
     0
  0
ATTDEF
  5
1CC
330
1BD
100
AcDbEntity
  8
attrib
100
AcDbText
 10
15.0
 20
185.5
 30
0.0
 40
0.5
  1
0
100
AcDbAttributeDefinition
  3

  2
TYPE
 70
     8
280
     0
  0
ATTDEF
  5
1CD
330
1BD
100
AcDbEntity
  8
attrib
100
AcDbText
 10
15.0
 20
185.0
 30
0.0
 40
0.5
  1
10
100
AcDbAttributeDefinition
  3

  2
QNT
 70
     8
280
     0
  0
ATTDEF
  5
1CE
330
1BD
100
AcDbEntity
  8
attrib
100
AcDbText
 10
15.0
 20
184.5
 30
0.0
 40
0.5
  1
20
100
AcDbAttributeDefinition
  3

  2
W
 70
     8
280
     0
  0
ATTDEF
  5
1CF
330
1BD
100
AcDbEntity
  8
attrib
100
AcDbText
 10
15.0
 20
184.0
 30
0.0
 40
0.5
  1
202
100
AcDbAttributeDefinition
  3

  2
H
 70
     8
280
     0
  0
ATTDEF
  5
1D0
330
1BD
100
AcDbEntity
  8
attrib
100
AcDbText
 10
15.0
 20
183.5
 30
0.0
 40
0.5
  1
87
100
AcDbAttributeDefinition
  3

  2
D
 70
     8
280
     0
  0
ATTDEF
  5
1D1
330
1BD
100
AcDbEntity
  8
attrib
100
AcDbText
 10
15.0
 20
183.0
 30
0.0
 40
0.5
  1

100
AcDbAttributeDefinition
  3

  2
C
 70
     8
280
     0
  0
ATTDEF
  5
1D2
330
1BD
100
AcDbEntity
  8
attrib
100
AcDbText
 10
15.0
 20
182.5
 30
0.0
 40
0.5
  1

100
AcDbAttributeDefinition
  3

  2
DD
 70
     8
280
     0
  0
ATTDEF
  5
1D3
330
1BD
100
AcDbEntity
  8
attrib
100
AcDbText
 10
15.0
 20
182.0
 30
0.0
 40
0.5
  1

100
AcDbAttributeDefinition
  3

  2
E
 70
     8
280
     0
  0
ATTDEF
  5
1D4
330
1BD
100
AcDbEntity
  8
attrib
100
AcDbText
 10
15.0
 20
181.5
 30
0.0
 40
0.5
  1

100
AcDbAttributeDefinition
  3

  2
CONCA
 70
     8
280
     0
  0
ATTDEF
  5
1D5
330
1BD
100
AcDbEntity
  8
attrib
100
AcDbText
 10
15.0
 20
181.0
 30
0.0
 40
0.5
  1

100
AcDbAttributeDefinition
  3

  2
SCR
 70
     8
280
     0
  0
ATTDEF
  5
1D6
330
1BD
100
AcDbEntity
  8
attrib
100
AcDbText
 10
15.0
 20
180.5
 30
0.0
 40
0.5
  1

100
AcDbAttributeDefinition
  3

  2
IPR
 70
     8
280
     0
  0
ATTDEF
  5
1D7
330
1BD
100
AcDbEntity
  8
attrib
100
AcDbText
 10
15.0
 20
180.0
 30
0.0
 40
0.5
  1

100
AcDbAttributeDefinition
  3

  2
IPRF
 70
     8
280
     0
  0
ATTDEF
  5
1D8
330
1BD
100
AcDbEntity
  8
attrib
100
AcDbText
 10
15.0
 20
179.5
 30
0.0
 40
0.5
  1

100
AcDbAttributeDefinition
  3

  2
SEARCH
 70
     8
280
     0
  0
ATTDEF
  5
1D9
330
1BD
100
AcDbEntity
  8
attrib
100
AcDbText
 10
15.0
 20
179.0
 30
0.0
 40
0.5
  1

100
AcDbAttributeDefinition
  3

  2
EDZ
 70
     8
280
     0
  0
ATTDEF
  5
1DA
330
1BD
100
AcDbEntity
  8
attrib
100
AcDbText
 10
15.0
 20
178.5
 30
0.0
 40
0.5
  1

100
AcDbAttributeDefinition
  3

  2
IODD
 70
     8
280
     0
  0
ATTDEF
  5
1DB
330
1BD
100
AcDbEntity
  8
attrib
100
AcDbText
 10
15.0
 20
178.0
 30
0.0
 40
0.5
  1
Product link
100
AcDbAttributeDefinition
  3

  2
LINK
 70
     8
280
     0
  0
ATTDEF
  5
1DC
330
1BD
100
AcDbEntity
  8
attrib
100
AcDbText
 10
15.0
 20
177.5
 30
0.0
 40
0.5
  1
woehner
100
AcDbAttributeDefinition
  3

  2
COMPANY
 70
     8
280
     0
  0
ATTDEF
  5
1DD
330
1BD
100
AcDbEntity
  8
attrib
100
AcDbText
 10
15.0
 20
177.0
 30
0.0
 40
0.5
  1
{$CADENAS_DATA/23d-libs/woehner/sys_60classic/busbar_supp_and_covers/parts/3_pole_busbar_lower.prj},179 {VTYP=3D},{NB=79673000},{LINA=79673000},{NN=3-pole busbar supports lower},{DATE=05.06.2023 11:13:11},{GEOMDATE=02.06.2023 11:59:00},{VERSION=},{LINEID=
100
AcDbAttributeDefinition
  3

  2
PSOL_0
 70
     9
280
     0
  0
ATTDEF
  5
1DE
330
1BD
100
AcDbEntity
  8
attrib
100
AcDbText
 10
15.0
 20
176.5
 30
0.0
 40
0.5
  1
860},{WBVAR=},{WBNUMERIC=}  {NB=79673000},{LINA=79673000},{KT=DUMMY},{SCREW=},{BOM=79673000},{ARTNR=01484},{BUSB=12, 15, 20, 25, 30 x 5, 10},{POF=},{TYPE=0},{QNT=10},{W=20},{H=202},{D=87},{C=MIN},{DD=},{E=},{CONCA=},{SCR=},{IPR=},{IPRF=},{SEARCH=},{EDZ=},
100
AcDbAttributeDefinition
  3

  2
PSOL_1
 70
     9
280
     0
  0
ATTDEF
  5
1DF
330
1BD
100
AcDbEntity
  8
attrib
100
AcDbText
 10
15.0
 20
176.0
 30
0.0
 40
0.5
  1
{IODD=},{DIST=8.0},{LINK=Product link},{LINKX=https://www.woehner.de/de/produkte/01484.html}
100
AcDbAttributeDefinition
  3

  2
PSOL_2
 70
     9
280
     0
  0
LINE
  5
1E0
330
1BD
100
AcDbEntity
  8
hidden
100
AcDbLine
 10
-10.0
 20
118.0
 30
0.0
 11
10.0
 21
118.0
 31
0.0
  0
LINE
  5
1E1
330
1BD
100
AcDbEntity
  8
hidden
100
AcDbLine
 10
-10.0
 20
55.00000000000001
 30
0.0
 11
10.0
 21
55.00000000000001
 31
0.0
  0
LINE
  5
1E2
330
1BD
100
AcDbEntity
  8
hidden
100
AcDbLine
 10
-10.0
 20
138.0
 30
0.0
 11
10.0
 21
138.0
 31
0.0
  0
LINE
  5
1E3
330
1BD
100
AcDbEntity
  8
hidden
100
AcDbLine
 10
-10.0
 20
132.0
 30
0.0
 11
10.0
 21
132.0
 31
0.0
  0
ARC
  5
1E4
330
1BD
100
AcDbEntity
  8
hidden
100
AcDbCircle
 10
4.49999999999999
 20
103.0
 30
0.0
 40
2.000000000000014
100
AcDbArc
 50
270.0000000000002
 51
0.0
  0
LINE
  5
1E5
330
1BD
100
AcDbEntity
  8
hidden
100
AcDbLine
 10
-4.500000000000001
 20
101.0
 30
0.0
 11
4.500000000000001
 21
101.0
 31
0.0
  0
ARC
  5
1E6
330
1BD
100
AcDbEntity
  8
hidden
100
AcDbCircle
 10
-4.499999999999965
 20
103.0
 30
0.0
 40
2.000000000000036
100
AcDbArc
 50
180.0000000000009
 51
269.999999999999
  0
ARC
  5
1E7
330
1BD
100
AcDbEntity
  8
hidden
100
AcDbCircle
 10
4.500000000000041
 20
135.0
 30
0.0
 40
1.99999999999996
100
AcDbArc
 50
359.9999999999993
 51
90.00000000000114
  0
ARC
  5
1E8
330
1BD
100
AcDbEntity
  8
hidden
100
AcDbCircle
 10
-4.499999999999606
 20
134.9999999999996
 30
0.0
 40
2.000000000000369
100
AcDbArc
 50
90.00000000001133
 51
179.9999999999894
  0
LINE
  5
1E9
330
1BD
100
AcDbEntity
  8
hidden
100
AcDbLine
 10
-4.500000000000001
 20
137.0
 30
0.0
 11
4.500000000000001
 21
137.0
 31
0.0
  0
LINE
  5
1EA
330
1BD
100
AcDbEntity
  8
hidden
100
AcDbLine
 10
-4.500000000000001
 20
161.0
 30
0.0
 11
4.500000000000001
 21
161.0
 31
0.0
  0
ARC
  5
1EB
330
1BD
100
AcDbEntity
  8
hidden
100
AcDbCircle
 10
-4.500000000000036
 20
163.0
 30
0.0
 40
1.999999999999965
100
AcDbArc
 50
179.9999999999991
 51
270.000000000001
  0
ARC
  5
1EC
330
1BD
100
AcDbEntity
  8
hidden
100
AcDbCircle
 10
4.499999999999988
 20
163.0
 30
0.0
 40
2.0
100
AcDbArc
 50
270.0000000000003
 51
0.0
  0
LINE
  5
1ED
330
1BD
100
AcDbEntity
  8
hidden
100
AcDbLine
 10
-4.500000000000001
 20
77.0
 30
0.0
 11
4.500000000000001
 21
77.0
 31
0.0
  0
ARC
  5
1EE
330
1BD
100
AcDbEntity
  8
hidden
100
AcDbCircle
 10
-4.500000000000014
 20
75.00000000000001
 30
0.0
 40
1.999999999999986
100
AcDbArc
 50
89.99999999999962
 51
180.0000000000004
  0
ARC
  5
1EF
330
1BD
100
AcDbEntity
  8
hidden
100
AcDbCircle
 10
4.500000000000016
 20
75.00000000000001
 30
0.0
 40
1.999999999999985
100
AcDbArc
 50
359.9999999999996
 51
90.00000000000044
  0
ARC
  5
1F0
330
1BD
100
AcDbEntity
  8
hidden
100
AcDbCircle
 10
-4.499999999999982
 20
43.00000000000002
 30
0.0
 40
2.000000000000019
100
AcDbArc
 50
180.0000000000004
 51
269.9999999999995
  0
LINE
  5
1F1
330
1BD
100
AcDbEntity
  8
hidden
100
AcDbLine
 10
-4.500000000000001
 20
41.0
 30
0.0
 11
4.500000000000001
 21
41.0
 31
0.0
  0
ARC
  5
1F2
330
1BD
100
AcDbEntity
  8
hidden
100
AcDbCircle
 10
4.500000000000003
 20
42.99999999999999
 30
0.0
 40
1.999999999999993
100
AcDbArc
 50
269.9999999999999
 51
0.0000000000002036
  0
LINE
  5
1F3
330
1BD
100
AcDbEntity
  8
hidden
100
AcDbLine
 10
-4.500000000000001
 20
17.0
 30
0.0
 11
4.500000000000001
 21
17.0
 31
0.0
  0
ARC
  5
1F4
330
1BD
100
AcDbEntity
  8
hidden
100
AcDbCircle
 10
-4.500000000000027
 20
15.00000000000002
 30
0.0
 40
1.999999999999975
100
AcDbArc
 50
89.99999999999926
 51
180.0000000000003
  0
ARC
  5
1F5
330
1BD
100
AcDbEntity
  8
hidden
100
AcDbCircle
 10
4.500000000000005
 20
15.0
 30
0.0
 40
1.999999999999996
100
AcDbArc
 50
359.9999999999999
 51
90.00000000000011
  0
ARC
  5
1F6
330
1BD
100
AcDbEntity
  8
hidden
100
AcDbCircle
 10
0.4472135954999478
 20
0.0099999999999996
 30
0.0
 40
0.0099999999999996
100
AcDbArc
 50
95.12127794629765
 51
270.0000000000015
  0
ARC
  5
1F7
330
1BD
100
AcDbEntity
  8
hidden
100
AcDbCircle
 10
-0.4472135954999478
 20
0.0099999999999996
 30
0.0
 40
0.0099999999999996
100
AcDbArc
 50
269.9999999999984
 51
84.87872205370236
  0
ARC
  5
1F8
330
1BD
100
AcDbEntity
  8
hidden
100
AcDbCircle
 10
4.500000000000003
 20
12.0
 30
0.0
 40
1.999999999999998
100
AcDbArc
 50
359.9999999999999
 51
90.00000000000006
  0
ARC
  5
1F9
330
1BD
100
AcDbEntity
  8
hidden
100
AcDbCircle
 10
-4.500000000000023
 20
12.00000000000002
 30
0.0
 40
1.999999999999979
100
AcDbArc
 50
89.99999999999936
 51
180.0000000000004
  0
LINE
  5
1FA
330
1BD
100
AcDbEntity
  8
hidden
100
AcDbLine
 10
-4.500000000000001
 20
14.0
 30
0.0
 11
4.500000000000001
 21
14.0
 31
0.0
  0
ARC
  5
1FB
330
1BD
100
AcDbEntity
  8
hidden
100
AcDbCircle
 10
4.499999999999946
 20
166.0000000000001
 30
0.0
 40
2.000000000000057
100
AcDbArc
 50
270.0000000000015
 51
359.9999999999983
  0
LINE
  5
1FC
330
1BD
100
AcDbEntity
  8
hidden
100
AcDbLine
 10
-6.500000000000001
 20
191.0
 30
0.0
 11
-6.500000000000001
 21
0.0
 31
0.0
  0
LINE
  5
1FD
330
1BD
100
AcDbEntity
  8
hidden
100
AcDbLine
 10
-4.500000000000001
 20
164.0
 30
0.0
 11
4.500000000000001
 21
164.0
 31
0.0
  0
ARC
  5
1FE
330
1BD
100
AcDbEntity
  8
hidden
100
AcDbCircle
 10
-4.499999999999947
 20
166.0000000000001
 30
0.0
 40
2.000000000000054
100
AcDbArc
 50
180.0000000000016
 51
269.9999999999984
  0
LINE
  5
1FF
330
1BD
100
AcDbEntity
  8
hidden
100
AcDbLine
 10
6.500000000000001
 20
0.0
 30
0.0
 11
6.500000000000001
 21
191.0
 31
0.0
  0
ARC
  5
200
330
1BD
100
AcDbEntity
  8
hidden
100
AcDbCircle
 10
-4.500000000000016
 20
72.00000000000001
 30
0.0
 40
1.999999999999986
100
AcDbArc
 50
89.99999999999957
 51
180.0000000000004
  0
ARC
  5
201
330
1BD
100
AcDbEntity
  8
hidden
100
AcDbCircle
 10
4.500000000000016
 20
72.00000000000001
 30
0.0
 40
1.999999999999985
100
AcDbArc
 50
359.9999999999996
 51
90.00000000000044
  0
CIRCLE
  5
202
330
1BD
100
AcDbEntity
  8
hidden
100
AcDbCircle
 10
0.0
 20
50.5
 30
0.0
 40
5.499999999999998
  0
LINE
  5
203
330
1BD
100
AcDbEntity
  8
hidden
100
AcDbLine
 10
-4.500000000000001
 20
74.0
 30
0.0
 11
4.500000000000001
 21
74.0
 31
0.0
  0
ARC
  5
204
330
1BD
100
AcDbEntity
  8
hidden
100
AcDbCircle
 10
-4.500000000000028
 20
45.99999999999997
 30
0.0
 40
1.999999999999972
100
AcDbArc
 50
179.9999999999996
 51
270.0000000000007
  0
LINE
  5
205
330
1BD
100
AcDbEntity
  8
hidden
100
AcDbLine
 10
-4.500000000000001
 20
44.0
 30
0.0
 11
4.500000000000001
 21
44.0
 31
0.0
  0
ARC
  5
206
330
1BD
100
AcDbEntity
  8
hidden
100
AcDbCircle
 10
4.500000000000014
 20
45.99999999999998
 30
0.0
 40
1.999999999999979
100
AcDbArc
 50
269.9999999999996
 51
0.0000000000006107
  0
CIRCLE
  5
207
330
1BD
100
AcDbEntity
  8
hidden
100
AcDbCircle
 10
0.0
 20
125.5
 30
0.0
 40
5.500000000000005
  0
LINE
  5
208
330
1BD
100
AcDbEntity
  8
hidden
100
AcDbLine
 10
-4.500000000000001
 20
104.0
 30
0.0
 11
4.500000000000001
 21
104.0
 31
0.0
  0
LINE
  5
209
330
1BD
100
AcDbEntity
  8
hidden
100
AcDbLine
 10
-4.500000000000001
 20
134.0
 30
0.0
 11
4.500000000000001
 21
134.0
 31
0.0
  0
ARC
  5
20A
330
1BD
100
AcDbEntity
  8
hidden
100
AcDbCircle
 10
-4.500000000000037
 20
132.0
 30
0.0
 40
1.999999999999972
100
AcDbArc
 50
89.99999999999896
 51
180.0000000000009
  0
ARC
  5
20B
330
1BD
100
AcDbEntity
  8
hidden
100
AcDbCircle
 10
-4.499999999999991
 20
106.0
 30
0.0
 40
2.00000000000001
100
AcDbArc
 50
180.0000000000004
 51
269.9999999999997
  0
ARC
  5
20C
330
1BD
100
AcDbEntity
  8
hidden
100
AcDbCircle
 10
4.499999999999991
 20
106.0
 30
0.0
 40
2.000000000000014
100
AcDbArc
 50
270.0000000000002
 51
359.9999999999996
  0
ARC
  5
20D
330
1BD
100
AcDbEntity
  8
hidden
100
AcDbCircle
 10
4.500000000000037
 20
132.0
 30
0.0
 40
1.999999999999964
100
AcDbArc
 50
359.9999999999993
 51
90.00000000000107
  0
CIRCLE
  5
20E
330
1BD
100
AcDbEntity
  8
hidden
100
AcDbCircle
 10
0.0
 20
113.0000000000001
 30
0.0
 40
1.499999999999943
  0
CIRCLE
  5
20F
330
1BD
100
AcDbEntity
  8
hidden
100
AcDbCircle
 10
-0.0000000000000001
 20
174.0000000000003
 30
0.0
 40
1.499999999999744
  0
CIRCLE
  5
210
330
1BD
100
AcDbEntity
  8
hidden
100
AcDbCircle
 10
-0.0000000000000009
 20
63.00000000000004
 30
0.0
 40
1.499999999999957
  0
CIRCLE
  5
211
330
1BD
100
AcDbEntity
  8
hidden
100
AcDbCircle
 10
0.0000000000000001
 20
5.000000000000017
 30
0.0
 40
1.499999999999984
  0
LINE
  5
212
330
1BD
100
AcDbEntity
  8
center
100
AcDbLine
 10
-5.774999999999999
 20
50.5
 30
0.0
 11
5.774999999999999
 21
50.5
 31
0.0
  0
LINE
  5
213
330
1BD
100
AcDbEntity
  8
center
100
AcDbLine
 10
0.0
 20
44.725
 30
0.0
 11
0.0
 21
56.275
 31
0.0
  0
LINE
  5
214
330
1BD
100
AcDbEntity
  8
center
100
AcDbLine
 10
-5.775000000000006
 20
125.5
 30
0.0
 11
5.775000000000006
 21
125.5
 31
0.0
  0
LINE
  5
215
330
1BD
100
AcDbEntity
  8
center
100
AcDbLine
 10
0.0
 20
119.725
 30
0.0
 11
0.0
 21
131.275
 31
0.0
  0
CIRCLE
  5
216
330
1BD
100
AcDbEntity
  8
bold
100
AcDbCircle
 10
0.0
 20
125.5
 30
0.0
 40
3.250000000000003
  0
CIRCLE
  5
217
330
1BD
100
AcDbEntity
  8
bold
100
AcDbCircle
 10
0.0
 20
50.5
 30
0.0
 40
3.249999999999996
  0
ENDBLK
  5
1C0
330
1BD
100
AcDbEntity
  8
0
100
AcDbBlockEnd
  0
BLOCK
  5
21C
330
21B
100
AcDbEntity
  8
0
100
AcDbBlockBegin
  2
*D8
 70
     1
 10
0.0
 20
0.0
 30
0.0
  3
*D8
  1

  0
LINE
  5
21E
330
21B
100
AcDbEntity
  8
dimension
 62
     0
370
    -2
100
AcDbLine
 10
-10.0
 20
0.0
 30
0.0
 11
-10.0
 21
-28.0
 31
0.0
  0
LINE
  5
21F
330
21B
100
AcDbEntity
  8
dimension
 62
     0
370
    -2
100
AcDbLine
 10
10.0
 20
0.0
 30
0.0
 11
10.0
 21
-28.0
 31
0.0
  0
LINE
  5
220
330
21B
100
AcDbEntity
  8
dimension
 62
     0
370
    -2
100
AcDbLine
 10
-10.0
 20
-28.0
 30
0.0
 11
10.0
 21
-28.0
 31
0.0
  0
LINE
  5
221
330
21B
100
AcDbEntity
  8
dimension
 62
     0
370
    -2
100
AcDbLine
 10
-18.0
 20
-28.0
 30
0.0
 11
-26.0
 21
-28.0
 31
0.0
  0
LINE
  5
222
330
21B
100
AcDbEntity
  8
dimension
 62
     0
370
    -2
100
AcDbLine
 10
18.0
 20
-28.0
 30
0.0
 11
26.0
 21
-28.0
 31
0.0
  0
SOLID
  5
223
330
21B
100
AcDbEntity
  8
dimension
 62
     0
100
AcDbTrace
 10
-18.0
 20
-29.33333333333333
 30
0.0
 11
-18.0
 21
-26.66666666666667
 31
0.0
 12
-10.0
 22
-28.0
 32
0.0
 13
-10.0
 23
-28.0
 33
0.0
  0
SOLID
  5
224
330
21B
100
AcDbEntity
  8
dimension
 62
     0
100
AcDbTrace
 10
18.0
 20
-26.66666666666667
 30
0.0
 11
18.0
 21
-29.33333333333333
 31
0.0
 12
10.0
 22
-28.0
 32
0.0
 13
10.0
 23
-28.0
 33
0.0
  0
MTEXT
  5
225
330
21B
100
AcDbEntity
  8
dimension
 62
     0
100
AcDbMText
 10
0.0
 20
-21.6
 30
0.0
 40
8.0
 41
0.0
 46
0.0
 71
     5
 72
     1
  1
20
 73
     1
 44
1.0
  0
POINT
  5
226
330
21B
100
AcDbEntity
  8
Defpoints
 62
     0
100
AcDbPoint
 10
-10.0
 20
0.0
 30
0.0
  0
POINT
  5
227
330
21B
100
AcDbEntity
  8
Defpoints
 62
     0
100
AcDbPoint
 10
10.0
 20
0.0
 30
0.0
  0
POINT
  5
228
330
21B
100
AcDbEntity
  8
Defpoints
 62
     0
100
AcDbPoint
 10
10.0
 20
-24.0
 30
0.0
  0
ENDBLK
  5
21D
330
21B
100
AcDbEntity
  8
0
100
AcDbBlockEnd
  0
ENDSEC
  0
SECTION
  2
ENTITIES
  0
ATTDEF
  5
5F
330
1F
100
AcDbEntity
  8
attrib
100
AcDbText
 10
15.0
 20
191.0
 30
0.0
 40
0.5
  1
01495
100
AcDbAttributeDefinition
  3

  2
NB
 70
     8
280
     0
  0
ATTDEF
  5
60
330
1F
100
AcDbEntity
  8
attrib
100
AcDbText
 10
15.0
 20
190.5
 30
0.0
 40
0.5
  1
3-pole busbar supports
100
AcDbAttributeDefinition
  3

  2
NN
 70
     8
280
     0
  0
ATTDEF
  5
61
330
1F
100
AcDbEntity
  8
attrib
100
AcDbText
 10
15.0
 20
190.0
 30
0.0
 40
0.5
  1

100
AcDbAttributeDefinition
  3

  2
NT
 70
     8
280
     0
  0
ATTDEF
  5
62
330
1F
100
AcDbEntity
  8
attrib
100
AcDbText
 10
15.0
 20
189.5
 30
0.0
 40
0.5
  1
$ARTNR.
100
AcDbAttributeDefinition
  3

  2
NBSYN
 70
     8
280
     0
  0
ATTDEF
  5
63
330
1F
100
AcDbEntity
  8
attrib
100
AcDbText
 10
15.0
 20
189.0
 30
0.0
 40
0.5
  1
01495000
100
AcDbAttributeDefinition
  3

  2
LINA
 70
     8
280
     0
  0
ATTDEF
  5
64
330
1F
100
AcDbEntity
  8
attrib
100
AcDbText
 10
15.0
 20
188.5
 30
0.0
 40
0.5
  1
Wöhner
100
AcDbAttributeDefinition
  3

  2
CATALOG
 70
     8
280
     0
  0
ATTDEF
  5
65
330
1F
100
AcDbEntity
  8
attrib
100
AcDbText
 10
15.0
 20
188.0
 30
0.0
 40
0.5
  1
01495
100
AcDbAttributeDefinition
  3

  2
ARTNR
 70
     8
280
     0
  0
ATTDEF
  5
66
330
1F
100
AcDbEntity
  8
attrib
100
AcDbText
 10
15.0
 20
187.5
 30
0.0
 40
0.5
  1
12, 15, 20, 25, 30 x 5, 10
100
AcDbAttributeDefinition
  3

  2
BUSB
 70
     8
280
     0
  0
ATTDEF
  5
67
330
1F
100
AcDbEntity
  8
attrib
100
AcDbText
 10
15.0
 20
187.0
 30
0.0
 40
0.5
  1
S610
100
AcDbAttributeDefinition
  3

  2
TYPE
 70
     8
280
     0
  0
ATTDEF
  5
68
330
1F
100
AcDbEntity
  8
attrib
100
AcDbText
 10
15.0
 20
186.5
 30
0.0
 40
0.5
  1
10
100
AcDbAttributeDefinition
  3

  2
QNT
 70
     8
280
     0
  0
ATTDEF
  5
69
330
1F
100
AcDbEntity
  8
attrib
100
AcDbText
 10
15.0
 20
186.0
 30
0.0
 40
0.5
  1
20
100
AcDbAttributeDefinition
  3

  2
W
 70
     8
280
     0
  0
ATTDEF
  5
6A
330
1F
100
AcDbEntity
  8
attrib
100
AcDbText
 10
15.0
 20
185.5
 30
0.0
 40
0.5
  1
191
100
AcDbAttributeDefinition
  3

  2
H
 70
     8
280
     0
  0
ATTDEF
  5
6B
330
1F
100
AcDbEntity
  8
attrib
100
AcDbText
 10
15.0
 20
185.0
 30
0.0
 40
0.5
  1
50
100
AcDbAttributeDefinition
  3

  2
D
 70
     8
280
     0
  0
ATTDEF
  5
6C
330
1F
100
AcDbEntity
  8
attrib
100
AcDbText
 10
15.0
 20
184.5
 30
0.0
 40
0.5
  1
Product link
100
AcDbAttributeDefinition
  3

  2
LINK
 70
     8
280
     0
  0
ATTDEF
  5
6D
330
1F
100
AcDbEntity
  8
attrib
100
AcDbText
 10
15.0
 20
184.0
 30
0.0
 40
0.5
  1
woehner
100
AcDbAttributeDefinition
  3

  2
COMPANY
 70
     8
280
     0
  0
ATTDEF
  5
6E
330
1F
100
AcDbEntity
  8
attrib
100
AcDbText
 10
15.0
 20
183.5
 30
0.0
 40
0.5
  1
{$CADENAS_DATA/23d-libs/woehner/sys_60classic/busbar_supp_and_covers/3_pole_busbar_asmtab.prj},184 {VTYP=3D},{STYP=ASSTAB},{NB=01495},{LINA=01495000},{NN=Schienenträger 3-polig},{DATE=20.06.2023 09:40:49},{GEOMDATE=14.06.2023 14:42:08},{VERSION=},{LINEID=
100
AcDbAttributeDefinition
  3

  2
PSOL_0
 70
     9
280
     0
  0
ATTDEF
  5
6F
330
1F
100
AcDbEntity
  8
attrib
100
AcDbText
 10
15.0
 20
183.0
 30
0.0
 40
0.5
  1
870},{WBVAR=},{WBNUMERIC=}  {NB=01495},{LINA=01495000},{KT=DUMMY},{LOWER=79673000},{MIDDLE=79675000},{TOP=79672000},{SCREW=80147},{BOM=01495000},{ARTNR=01495},{BUSB=12, 15, 20, 25, 30 x 5, 10},{POF=},{TYPE=S610},{QNT=10},{W=20},{H=191},{D=50},{C=MIN},{DD=
100
AcDbAttributeDefinition
  3

  2
PSOL_1
 70
     9
280
     0
  0
ATTDEF
  5
70
330
1F
100
AcDbEntity
  8
attrib
100
AcDbText
 10
15.0
 20
182.5
 30
0.0
 40
0.5
  1
},{E=},{CONCA=},{SCR=},{IPR=},{IPRF=},{SEARCH=},{EDZ=},{IODD=},{DIST=8.0},{LINK=Product link},{LINKX=https://www.woehner.de/de/produkte/01495.html},{PPATH=parts/3_pole_busbar_asmtpl.prj}
100
AcDbAttributeDefinition
  3

  2
PSOL_2
 70
     9
280
     0
  0
INSERT
  5
72
330
1F
100
AcDbEntity
  8
0
100
AcDbBlockReference
  2
1_79672000_0_in_01495_0
 10
0.0
 20
0.0
 30
0.0
  0
INSERT
  5
F0
330
1F
100
AcDbEntity
  8
0
100
AcDbBlockReference
  2
2_79675000_0_in_01495_0
 10
0.0
 20
0.0
 30
0.0
  0
INSERT
  5
132
330
1F
100
AcDbEntity
  8
0
100
AcDbBlockReference
  2
3_80147_1_0_in_01495_0
 10
0.0
 20
0.0
 30
0.0
  0
INSERT
  5
155
330
1F
100
AcDbEntity
  8
0
100
AcDbBlockReference
  2
4_80147_2_0_in_01495_0
 10
0.0
 20
0.0
 30
0.0
  0
INSERT
  5
178
330
1F
100
AcDbEntity
  8
0
100
AcDbBlockReference
  2
5_80147_3_0_in_01495_0
 10
0.0
 20
0.0
 30
0.0
  0
INSERT
  5
19B
330
1F
100
AcDbEntity
  8
0
100
AcDbBlockReference
  2
6_80147_4_0_in_01495_0
 10
0.0
 20
0.0
 30
0.0
  0
INSERT
  5
1BE
330
1F
100
AcDbEntity
  8
0
100
AcDbBlockReference
  2
7_79673000_0_in_01495_0
 10
0.0
 20
0.0
 30
0.0
  0
DIMENSION
  5
219
330
1F
100
AcDbEntity
  8
dimension
100
AcDbDimension
280
     0
  2
*D8
 10
10.0
 20
-28.0
 30
0.0
 11
0.0
 21
-28.0
 31
0.0
 70
   160
  1
20
 71
     5
 42
20.0
 73
     0
 74
     0
 75
     0
  3
ISO-25
100
AcDbAlignedDimension
 13
-10.0
 23
0.0
 33
0.0
 14
10.0
 24
0.0
 34
0.0
100
AcDbRotatedDimension
1001
ACAD
1000
DSTYLE
1002
{
1070
   147
1040
2.4
1070
    42
1040
0.0
1070
    44
1040
0.0
1070
    41
1040
8.0
1070
   140
1040
8.0
1002
}
  0
POINT
  5
22A
330
1F
100
AcDbEntity
  8
connection
100
AcDbPoint
 10
0.0
 20
5.0
 30
0.0
  0
POINT
  5
22B
330
1F
100
AcDbEntity
  8
connection
100
AcDbPoint
 10
0.0
 20
177.0
 30
0.0
  0
POINT
  5
22C
330
1F
100
AcDbEntity
  8
connection
100
AcDbPoint
 10
0.0
 20
174.0
 30
0.0
  0
POINT
  5
22D
330
1F
100
AcDbEntity
  8
connection
100
AcDbPoint
 10
0.0
 20
113.0
 30
0.0
  0
POINT
  5
22E
330
1F
100
AcDbEntity
  8
connection
100
AcDbPoint
 10
0.0
 20
63.0
 30
0.0
  0
POINT
  5
22F
330
1F
100
AcDbEntity
  8
connection
100
AcDbPoint
 10
0.0
 20
5.0
 30
0.0
  0
POINT
  5
230
330
1F
100
AcDbEntity
  8
connection
100
AcDbPoint
 10
0.0
 20
5.0
 30
0.0
  0
POINT
  5
231
330
1F
100
AcDbEntity
  8
connection
100
AcDbPoint
 10
0.0
 20
5.0
 30
0.0
  0
POINT
  5
232
330
1F
100
AcDbEntity
  8
connection
100
AcDbPoint
 10
0.0
 20
63.0
 30
0.0
  0
POINT
  5
233
330
1F
100
AcDbEntity
  8
connection
100
AcDbPoint
 10
0.0
 20
113.0
 30
0.0
  0
POINT
  5
234
330
1F
100
AcDbEntity
  8
connection
100
AcDbPoint
 10
0.0
 20
174.0
 30
0.0
  0
POINT
  5
235
330
1F
100
AcDbEntity
  8
connection
100
AcDbPoint
 10
0.0
 20
0.0
 30
0.0
  0
POINT
  5
236
330
1F
100
AcDbEntity
  8
connection
100
AcDbPoint
 10
0.0
 20
0.0
 30
0.0
  0
ENDSEC
  0
SECTION
  2
OBJECTS
  0
DICTIONARY
  5
C
330
0
100
AcDbDictionary
281
     1
  3
ACAD_DETAILVIEWSTYLE
350
23E
  3
ACAD_GROUP
350
D
  3
ACAD_LAYOUT
350
1A
  3
ACAD_MATERIAL
350
43
  3
ACAD_MLEADERSTYLE
350
5B
  3
ACAD_MLINESTYLE
350
17
  3
ACAD_PLOTSETTINGS
350
19
  3
ACAD_PLOTSTYLENAME
350
E
  3
ACAD_SCALELIST
350
47
  3
ACAD_SECTIONVIEWSTYLE
350
23F
  3
ACAD_TABLESTYLE
350
59
  3
ACAD_VISUALSTYLE
350
2A
  3
ACDB_RECOMPOSE_DATA
350
23B
  3
AcDbVariableDictionary
350
237
  0
SUN
  5
5D
330
29
100
AcDbSun
 90
        1
290
     0
 63
     7
421
 16777215
 40
1.0
291
     1
 91
  2455826
 92
 54000000
292
     0
 70
     2
 71
   256
280
     1
  0
DICTIONARY
  5
23E
102
{ACAD_REACTORS
330
C
102
}
330
C
100
AcDbDictionary
281
     1
  0
DICTIONARY
  5
D
102
{ACAD_REACTORS
330
C
102
}
330
C
100
AcDbDictionary
281
     1
  0
DICTIONARY
  5
1A
102
{ACAD_REACTORS
330
C
102
}
330
C
100
AcDbDictionary
281
     1
  3
Layout1
350
1E
  3
Layout2
350
26
  3
Model
350
22
  0
DICTIONARY
  5
43
102
{ACAD_REACTORS
330
C
102
}
330
C
100
AcDbDictionary
281
     1
  3
ByBlock
350
45
  3
ByLayer
350
44
  3
Global
350
46
  0
DICTIONARY
  5
5B
102
{ACAD_REACTORS
330
C
102
}
330
C
100
AcDbDictionary
281
     1
  3
Standard
350
5C
  0
DICTIONARY
  5
17
102
{ACAD_REACTORS
330
C
102
}
330
C
100
AcDbDictionary
281
     1
  3
Standard
350
18
  0
DICTIONARY
  5
19
102
{ACAD_REACTORS
330
C
102
}
330
C
100
AcDbDictionary
281
     1
  0
ACDBDICTIONARYWDFLT
  5
E
102
{ACAD_REACTORS
330
C
102
}
330
C
100
AcDbDictionary
281
     1
  3
Normal
350
F
100
AcDbDictionaryWithDefault
340
F
  0
DICTIONARY
  5
47
102
{ACAD_REACTORS
330
C
102
}
330
C
100
AcDbDictionary
281
     1
  3
A0
350
48
  3
A1
350
49
  3
A2
350
4A
  3
A3
350
4B
  3
A4
350
4C
  3
A5
350
4D
  3
A6
350
4E
  3
A7
350
4F
  3
A8
350
50
  3
A9
350
51
  3
B0
350
52
  3
B1
350
53
  3
B2
350
54
  3
B3
350
55
  3
B4
350
56
  3
B5
350
57
  3
B6
350
58
  0
DICTIONARY
  5
23F
102
{ACAD_REACTORS
330
C
102
}
330
C
100
AcDbDictionary
281
     1
  0
DICTIONARY
  5
59
102
{ACAD_REACTORS
330
C
102
}
330
C
100
AcDbDictionary
281
     1
  3
Standard
350
5A
  0
DICTIONARY
  5
2A
102
{ACAD_REACTORS
330
C
102
}
330
C
100
AcDbDictionary
281
     1
  3
2dWireframe
350
2F
  3
Basic
350
32
  3
Brighten
350
36
  3
ColorChange
350
3A
  3
Conceptual
350
34
  3
Dim
350
35
  3
EdgeColorOff
350
3D
  3
Facepattern
350
39
  3
Flat
350
2B
  3
FlatWithEdges
350
2C
  3
Gouraud
350
2D
  3
GouraudWithEdges
350
2E
  3
Hidden
350
31
  3
JitterOff
350
3B
  3
Linepattern
350
38
  3
OverhangOff
350
3C
  3
Realistic
350
33
  3
Shaded
350
42
  3
Shaded with edges
350
41
  3
Shades of Gray
350
3E
  3
Sketchy
350
3F
  3
Thicken
350
37
  3
Wireframe
350
30
  3
X-Ray
350
40
  0
XRECORD
  5
23B
102
{ACAD_REACTORS
330
C
102
}
330
C
100
AcDbXrecord
280
     1
 90
        1
330
5A
  0
DICTIONARY
  5
237
102
{ACAD_REACTORS
330
C
102
}
330
C
100
AcDbDictionary
281
     1
  3
CANNOSCALE
350
238
  3
CENTEREXE
350
240
  3
CENTERLTYPEFILE
350
241
  3
CMLEADERSTYLE
350
23D
  3
CTABLESTYLE
350
23C
  0
LAYOUT
  5
1E
102
{ACAD_REACTORS
330
1A
102
}
330
1A
100
AcDbPlotSettings
  1

  2
none_device
  4

  6

 40
0.0
 41
0.0
 42
0.0
 43
0.0
 44
0.0
 45
0.0
 46
0.0
 47
0.0
 48
0.0
 49
0.0
140
0.0
141
0.0
142
1.0
143
1.0
 70
   688
 72
     1
 73
     0
 74
     5
  7

 75
    16
 76
     0
 77
     2
 78
   300
147
1.0
148
0.0
149
0.0
100
AcDbLayout
  1
Layout1
 70
     1
 71
     1
 10
0.0
 20
0.0
 11
420.0
 21
297.0
 12
0.0
 22
0.0
 32
0.0
 14
1.000000000000000E+20
 24
1.000000000000000E+20
 34
1.000000000000000E+20
 15
-1.000000000000000E+20
 25
-1.000000000000000E+20
 35
-1.000000000000000E+20
146
0.0
 13
0.0
 23
0.0
 33
0.0
 16
1.0
 26
0.0
 36
0.0
 17
0.0
 27
1.0
 37
0.0
 76
     0
330
1B
  0
LAYOUT
  5
26
102
{ACAD_REACTORS
330
1A
102
}
330
1A
100
AcDbPlotSettings
  1

  2
none_device
  4

  6

 40
0.0
 41
0.0
 42
0.0
 43
0.0
 44
0.0
 45
0.0
 46
0.0
 47
0.0
 48
0.0
 49
0.0
140
0.0
141
0.0
142
1.0
143
1.0
 70
   688
 72
     1
 73
     0
 74
     5
  7

 75
    16
 76
     0
 77
     2
 78
   300
147
1.0
148
0.0
149
0.0
100
AcDbLayout
  1
Layout2
 70
     1
 71
     2
 10
0.0
 20
0.0
 11
0.0
 21
0.0
 12
0.0
 22
0.0
 32
0.0
 14
0.0
 24
0.0
 34
0.0
 15
0.0
 25
0.0
 35
0.0
146
0.0
 13
0.0
 23
0.0
 33
0.0
 16
1.0
 26
0.0
 36
0.0
 17
0.0
 27
1.0
 37
0.0
 76
     0
330
23
  0
LAYOUT
  5
22
102
{ACAD_REACTORS
330
1A
102
}
330
1A
100
AcDbPlotSettings
  1

  2
none_device
  4
Letter_(8.50_x_11.00_Inches)
  6

 40
6.35
 41
6.35
 42
6.35000508
 43
6.35000508
 44
215.9
 45
279.4
 46
0.0
 47
0.0
 48
0.0
 49
0.0
140
0.0
141
0.0
142
1.0
143
1.0
 70
  1712
 72
     1
 73
     0
 74
     0
  7

 75
     0
 76
     0
 77
     2
 78
   300
147
1.0
148
0.0
149
0.0
100
AcDbLayout
  1
Model
 70
     1
 71
     0
 10
0.0
 20
0.0
 11
420.0
 21
297.0
 12
0.0
 22
0.0
 32
0.0
 14
-26.0
 24
-29.33333333333333
 34
0.0
 15
26.0
 25
191.5
 35
0.0
146
0.0
 13
0.0
 23
0.0
 33
0.0
 16
1.0
 26
0.0
 36
0.0
 17
0.0
 27
1.0
 37
0.0
 76
     0
330
1F
331
29
  0
MATERIAL
  5
45
102
{ACAD_REACTORS
330
43
102
}
330
43
100
AcDbMaterial
  1
ByBlock
 72
     1
 94
      127
  0
MATERIAL
  5
44
102
{ACAD_REACTORS
330
43
102
}
330
43
100
AcDbMaterial
  1
ByLayer
 72
     1
 94
      127
  0
MATERIAL
  5
46
102
{ACAD_REACTORS
330
43
102
}
330
43
100
AcDbMaterial
  1
Global
 72
     1
 94
      127
  0
MLEADERSTYLE
  5
5C
102
{ACAD_REACTORS
330
5B
102
}
330
5B
100
AcDbMLeaderStyle
179
     2
170
     2
171
     1
172
     0
 90
        2
 40
0.0
 41
0.0
173
     1
 91
-1056964608
340
14
 92
       -2
290
     1
 42
2.0
291
     1
 43
8.0
  3
Standard
341
0
 44
4.0
300

342
11
174
     1
178
     6
175
     1
176
     0
 93
-1056964608
 45
4.0
292
     0
297
     0
 46
4.0
343
0
 94
-1056964608
 47
1.0
 49
1.0
140
1.0
293
     1
141
0.0
294
     1
177
     0
142
1.0
295
     0
296
     0
143
3.75
271
     0
272
     9
273
     9
298
     0
  0
MLINESTYLE
  5
18
102
{ACAD_REACTORS
330
17
102
}
330
17
100
AcDbMlineStyle
  2
Standard
 70
     0
  3

 62
   256
 51
90.0
 52
90.0
 71
     2
 49
0.5
 62
   256
  6
BYLAYER
 49
-0.5
 62
   256
  6
BYLAYER
  0
ACDBPLACEHOLDER
  5
F
102
{ACAD_REACTORS
330
E
102
}
330
E
  0
SCALE
  5
48
102
{ACAD_REACTORS
330
47
102
}
330
47
100
AcDbScale
 70
     0
300
1:1
140
1.0
141
1.0
290
     1
  0
SCALE
  5
49
102
{ACAD_REACTORS
330
47
102
}
330
47
100
AcDbScale
 70
     0
300
1:2
140
1.0
141
2.0
290
     0
  0
SCALE
  5
4A
102
{ACAD_REACTORS
330
47
102
}
330
47
100
AcDbScale
 70
     0
300
1:4
140
1.0
141
4.0
290
     0
  0
SCALE
  5
4B
102
{ACAD_REACTORS
330
47
102
}
330
47
100
AcDbScale
 70
     0
300
1:5
140
1.0
141
5.0
290
     0
  0
SCALE
  5
4C
102
{ACAD_REACTORS
330
47
102
}
330
47
100
AcDbScale
 70
     0
300
1:8
140
1.0
141
8.0
290
     0
  0
SCALE
  5
4D
102
{ACAD_REACTORS
330
47
102
}
330
47
100
AcDbScale
 70
     0
300
1:10
140
1.0
141
10.0
290
     0
  0
SCALE
  5
4E
102
{ACAD_REACTORS
330
47
102
}
330
47
100
AcDbScale
 70
     0
300
1:16
140
1.0
141
16.0
290
     0
  0
SCALE
  5
4F
102
{ACAD_REACTORS
330
47
102
}
330
47
100
AcDbScale
 70
     0
300
1:20
140
1.0
141
20.0
290
     0
  0
SCALE
  5
50
102
{ACAD_REACTORS
330
47
102
}
330
47
100
AcDbScale
 70
     0
300
1:30
140
1.0
141
30.0
290
     0
  0
SCALE
  5
51
102
{ACAD_REACTORS
330
47
102
}
330
47
100
AcDbScale
 70
     0
300
1:40
140
1.0
141
40.0
290
     0
  0
SCALE
  5
52
102
{ACAD_REACTORS
330
47
102
}
330
47
100
AcDbScale
 70
     0
300
1:50
140
1.0
141
50.0
290
     0
  0
SCALE
  5
53
102
{ACAD_REACTORS
330
47
102
}
330
47
100
AcDbScale
 70
     0
300
1:100
140
1.0
141
100.0
290
     0
  0
SCALE
  5
54
102
{ACAD_REACTORS
330
47
102
}
330
47
100
AcDbScale
 70
     0
300
2:1
140
2.0
141
1.0
290
     0
  0
SCALE
  5
55
102
{ACAD_REACTORS
330
47
102
}
330
47
100
AcDbScale
 70
     0
300
4:1
140
4.0
141
1.0
290
     0
  0
SCALE
  5
56
102
{ACAD_REACTORS
330
47
102
}
330
47
100
AcDbScale
 70
     0
300
8:1
140
8.0
141
1.0
290
     0
  0
SCALE
  5
57
102
{ACAD_REACTORS
330
47
102
}
330
47
100
AcDbScale
 70
     0
300
10:1
140
10.0
141
1.0
290
     0
  0
SCALE
  5
58
102
{ACAD_REACTORS
330
47
102
}
330
47
100
AcDbScale
 70
     0
300
100:1
140
100.0
141
1.0
290
     0
  0
TABLESTYLE
  5
5A
102
{ACAD_REACTORS
330
59
102
}
102
{ACAD_XDICTIONARY
360
239
102
}
330
59
100
AcDbTableStyle
  3
Standard
 70
     0
 71
     0
 40
0.06
 41
0.06
280
     0
281
     0
  7
Standard
140
4.5
170
     2
 62
     0
 63
   257
283
     0
 90
        4
 91
        0
  1

274
    -2
284
     1
 64
     0
275
    -2
285
     1
 65
     0
276
    -2
286
     1
 66
     0
277
    -2
287
     1
 67
     0
278
    -2
288
     1
 68
     0
279
    -2
289
     1
 69
     0
  7
Standard
140
6.0
170
     5
 62
     0
 63
   257
283
     0
 90
        4
 91
        0
  1

274
    -2
284
     1
 64
     0
275
    -2
285
     1
 65
     0
276
    -2
286
     1
 66
     0
277
    -2
287
     1
 67
     0
278
    -2
288
     1
 68
     0
279
    -2
289
     1
 69
     0
  7
Standard
140
4.5
170
     5
 62
     0
 63
   257
283
     0
 90
        4
 91
        0
  1

274
    -2
284
     1
 64
     0
275
    -2
285
     1
 65
     0
276
    -2
286
     1
 66
     0
277
    -2
287
     1
 67
     0
278
    -2
288
     1
 68
     0
279
    -2
289
     1
 69
     0
  0
VISUALSTYLE
  5
2F
102
{ACAD_REACTORS
330
2A
102
}
330
2A
100
AcDbVisualStyle
  2
2dWireframe
 70
     4
177
     3
291
     0
 70
    58
 90
        0
176
     1
 90
        2
176
     1
 90
        0
176
     1
 90
        0
176
     1
 40
0.6
176
     1
 40
30.0
176
     1
 62
     7
420
 16777215
176
     1
 90
        1
176
     1
 90
        4
176
     1
 62
     7
176
     1
 62
   257
176
     1
 90
        1
176
     1
 90
        1
176
     1
 40
1.0
176
     1
 90
        0
176
     1
 62
   257
176
     1
 40
1.0
176
     1
 90
        1
176
     1
 90
        6
176
     1
 90
        2
176
     1
 62
     7
176
     1
 90
        5
176
     1
 90
        0
176
     1
 90
        0
176
     1
290
     0
176
     1
 90
        1
176
     1
 40
0.0
176
     1
 90
        0
176
     1
290
     1
176
     1
290
     1
176
     1
290
     0
176
     1
290
     0
176
     1
290
     0
176
     1
290
     0
176
     1
290
     0
176
     1
290
     0
176
     1
290
     0
176
     1
 90
       50
176
     1
 40
0.0
176
     1
 40
1.0
176
     1
 90
        0
176
     1
 62
    18
420
        0
176
     1
 90
       50
176
     1
 90
        3
176
     1
 62
     5
420
      255
176
     1
290
     0
176
     1
 90
       50
176
     1
 90
       50
176
     1
 90
       50
176
     1
290
     0
176
     1
 90
       50
176
     1
 62
   256
176
     0
 40
1.0
176
     0
 90
        2
176
     1
  1
strokes_ogs.tif
176
     1
290
     0
176
     1
 40
1.0
176
     1
 40
1.0
176
     1
  0
VISUALSTYLE
  5
32
102
{ACAD_REACTORS
330
2A
102
}
330
2A
100
AcDbVisualStyle
  2
Basic
 70
     7
177
     3
291
     1
 70
    58
 90
        1
176
     1
 90
        0
176
     1
 90
        1
176
     1
 90
        0
176
     1
 40
0.6
176
     1
 40
30.0
176
     1
 62
     7
420
 16777215
176
     1
 90
        0
176
     1
 90
        4
176
     1
 62
     7
176
     1
 62
   257
176
     1
 90
        1
176
     1
 90
        1
176
     1
 40
1.0
176
     1
 90
        8
176
     1
 62
     7
176
     1
 40
1.0
176
     1
 90
        1
176
     1
 90
        6
176
     1
 90
        2
176
     1
 62
     7
176
     1
 90
        5
176
     1
 90
        0
176
     1
 90
        0
176
     1
290
     0
176
     1
 90
        1
176
     1
 40
0.0
176
     1
 90
        0
176
     1
290
     0
176
     1
290
     1
176
     1
290
     1
176
     1
290
     0
176
     1
290
     0
176
     1
290
     0
176
     1
290
     0
176
     1
290
     0
176
     1
290
     0
176
     1
 90
       50
176
     1
 40
0.0
176
     1
 40
1.0
176
     1
 90
        0
176
     1
 62
    18
420
        0
176
     1
 90
       50
176
     1
 90
        3
176
     1
 62
     5
420
      255
176
     1
290
     0
176
     1
 90
       50
176
     1
 90
       50
176
     1
 90
       50
176
     1
290
     0
176
     1
 90
       50
176
     1
 62
   256
176
     0
 40
1.0
176
     0
 90
        2
176
     1
  1
strokes_ogs.tif
176
     1
290
     0
176
     1
 40
1.0
176
     1
 40
1.0
176
     1
  0
VISUALSTYLE
  5
36
102
{ACAD_REACTORS
330
2A
102
}
330
2A
100
AcDbVisualStyle
  2
Brighten
 70
    12
177
     3
291
     1
 70
    58
 90
        2
176
     1
 90
        2
176
     1
 90
        0
176
     1
 90
        0
176
     1
 40
0.6
176
     1
 40
30.0
176
     1
 62
     7
420
 16777215
176
     1
 90
        1
176
     1
 90
        4
176
     1
 62
     7
176
     1
 62
   257
176
     1
 90
        1
176
     1
 90
        1
176
     1
 40
1.0
176
     1
 90
        8
176
     1
 62
     7
176
     1
 40
1.0
176
     1
 90
        1
176
     1
 90
        6
176
     1
 90
        2
176
     1
 62
     7
176
     1
 90
        5
176
     1
 90
        0
176
     1
 90
        0
176
     1
290
     0
176
     1
 90
        1
176
     1
 40
50.0
176
     1
 90
        0
176
     1
290
     0
176
     1
290
     1
176
     1
290
     1
176
     1
290
     0
176
     1
290
     0
176
     1
290
     0
176
     1
290
     0
176
     1
290
     0
176
     1
290
     0
176
     1
 90
       50
176
     1
 40
0.0
176
     1
 40
1.0
176
     1
 90
        0
176
     1
 62
    18
420
        0
176
     1
 90
       50
176
     1
 90
        3
176
     1
 62
     5
420
      255
176
     1
290
     0
176
     1
 90
       50
176
     1
 90
       50
176
     1
 90
       50
176
     1
290
     0
176
     1
 90
       50
176
     1
 62
   256
176
     0
 40
1.0
176
     0
 90
        2
176
     1
  1
strokes_ogs.tif
176
     1
290
     0
176
     1
 40
1.0
176
     1
 40
1.0
176
     1
  0
VISUALSTYLE
  5
3A
102
{ACAD_REACTORS
330
2A
102
}
330
2A
100
AcDbVisualStyle
  2
ColorChange
 70
    16
177
     3
291
     1
 70
    58
 90
        2
176
     1
 90
        2
176
     1
 90
        3
176
     1
 90
        0
176
     1
 40
0.6
176
     1
 40
30.0
176
     1
 62
     8
420
  8421504
176
     1
 90
        1
176
     1
 90
        4
176
     1
 62
     7
176
     1
 62
   257
176
     1
 90
        1
176
     1
 90
        1
176
     1
 40
1.0
176
     1
 90
        8
176
     1
 62
     8
420
  8421504
176
     1
 40
1.0
176
     1
 90
        1
176
     1
 90
        6
176
     1
 90
        2
176
     1
 62
     7
176
     1
 90
        5
176
     1
 90
        0
176
     1
 90
        0
176
     1
290
     0
176
     1
 90
        1
176
     1
 40
0.0
176
     1
 90
        0
176
     1
290
     0
176
     1
290
     1
176
     1
290
     1
176
     1
290
     0
176
     1
290
     0
176
     1
290
     0
176
     1
290
     0
176
     1
290
     0
176
     1
290
     0
176
     1
 90
       50
176
     1
 40
0.0
176
     1
 40
1.0
176
     1
 90
        0
176
     1
 62
    18
420
        0
176
     1
 90
       50
176
     1
 90
        3
176
     1
 62
     5
420
      255
176
     1
290
     0
176
     1
 90
       50
176
     1
 90
       50
176
     1
 90
       50
176
     1
290
     0
176
     1
 90
       50
176
     1
 62
   256
176
     0
 40
1.0
176
     0
 90
        2
176
     1
  1
strokes_ogs.tif
176
     1
290
     0
176
     1
 40
1.0
176
     1
 40
1.0
176
     1
  0
VISUALSTYLE
  5
34
102
{ACAD_REACTORS
330
2A
102
}
330
2A
100
AcDbVisualStyle
  2
Conceptual
 70
     9
177
     3
291
     0
 70
    58
 90
        3
176
     1
 90
        2
176
     1
 90
        0
176
     1
 90
        0
176
     1
 40
0.6
176
     1
 40
30.0
176
     1
 62
     7
420
 16777215
176
     1
 90
        2
176
     1
 90
        2
176
     1
 62
     7
176
     1
 62
   257
176
     1
 90
        1
176
     1
 90
        1
176
     1
 40
179.0
176
     1
 90
        8
176
     1
 62
     7
176
     1
 40
1.0
176
     1
 90
        1
176
     1
 90
        6
176
     1
 90
        2
176
     1
 62
     7
176
     1
 90
        3
176
     1
 90
        0
176
     1
 90
        0
176
     1
290
     0
176
     1
 90
        1
176
     1
 40
0.0
176
     1
 90
        0
176
     1
290
     0
176
     1
290
     1
176
     1
290
     1
176
     1
290
     0
176
     1
290
     0
176
     1
290
     0
176
     1
290
     0
176
     1
290
     0
176
     1
290
     0
176
     1
 90
       50
176
     1
 40
0.0
176
     1
 40
1.0
176
     1
 90
        0
176
     1
 62
    18
420
        0
176
     1
 90
       50
176
     1
 90
        3
176
     1
 62
     5
420
      255
176
     1
290
     0
176
     1
 90
       50
176
     1
 90
       50
176
     1
 90
       50
176
     1
290
     0
176
     1
 90
       50
176
     1
 62
   256
176
     0
 40
1.0
176
     0
 90
        2
176
     1
  1
strokes_ogs.tif
176
     1
290
     0
176
     1
 40
1.0
176
     1
 40
1.0
176
     1
  0
VISUALSTYLE
  5
35
102
{ACAD_REACTORS
330
2A
102
}
330
2A
100
AcDbVisualStyle
  2
Dim
 70
    11
177
     3
291
     1
 70
    58
 90
        2
176
     1
 90
        2
176
     1
 90
        0
176
     1
 90
        0
176
     1
 40
0.6
176
     1
 40
30.0
176
     1
 62
     7
420
 16777215
176
     1
 90
        1
176
     1
 90
        4
176
     1
 62
     7
176
     1
 62
   257
176
     1
 90
        1
176
     1
 90
        1
176
     1
 40
1.0
176
     1
 90
        8
176
     1
 62
     7
176
     1
 40
1.0
176
     1
 90
        1
176
     1
 90
        6
176
     1
 90
        2
176
     1
 62
     7
176
     1
 90
        5
176
     1
 90
        0
176
     1
 90
        0
176
     1
290
     0
176
     1
 90
        1
176
     1
 40
-50.0
176
     1
 90
        0
176
     1
290
     0
176
     1
290
     1
176
     1
290
     1
176
     1
290
     0
176
     1
290
     0
176
     1
290
     0
176
     1
290
     0
176
     1
290
     0
176
     1
290
     0
176
     1
 90
       50
176
     1
 40
0.0
176
     1
 40
1.0
176
     1
 90
        0
176
     1
 62
    18
420
        0
176
     1
 90
       50
176
     1
 90
        3
176
     1
 62
     5
420
      255
176
     1
290
     0
176
     1
 90
       50
176
     1
 90
       50
176
     1
 90
       50
176
     1
290
     0
176
     1
 90
       50
176
     1
 62
   256
176
     0
 40
1.0
176
     0
 90
        2
176
     1
  1
strokes_ogs.tif
176
     1
290
     0
176
     1
 40
1.0
176
     1
 40
1.0
176
     1
  0
VISUALSTYLE
  5
3D
102
{ACAD_REACTORS
330
2A
102
}
330
2A
100
AcDbVisualStyle
  2
EdgeColorOff
 70
    22
177
     3
291
     1
 70
    58
 90
        2
176
     0
 90
        2
176
     0
 90
        0
176
     0
 90
        0
176
     0
 40
0.6
176
     0
 40
30.0
176
     0
 62
     7
420
 16777215
176
     0
 90
        1
176
     0
 90
        4
176
     0
 62
     7
176
     0
 62
   257
176
     0
 90
        1
176
     0
 90
        1
176
     0
 40
1.0
176
     0
 90
        8
176
     2
 62
     7
176
     0
 40
1.0
176
     0
 90
        1
176
     0
 90
        6
176
     0
 90
        2
176
     0
 62
     7
176
     0
 90
        5
176
     0
 90
        0
176
     0
 90
        0
176
     0
290
     0
176
     0
 90
        1
176
     0
 40
0.0
176
     0
 90
        0
176
     0
290
     0
176
     0
290
     1
176
     0
290
     1
176
     0
290
     0
176
     0
290
     0
176
     0
290
     0
176
     0
290
     0
176
     0
290
     0
176
     0
290
     0
176
     0
 90
       50
176
     0
 40
0.0
176
     0
 40
1.0
176
     0
 90
        0
176
     0
 62
    18
420
        0
176
     0
 90
       50
176
     0
 90
        3
176
     0
 62
     5
420
      255
176
     0
290
     0
176
     0
 90
       50
176
     0
 90
       50
176
     0
 90
       50
176
     0
290
     0
176
     0
 90
       50
176
     0
 62
   256
176
     0
 40
1.0
176
     0
 90
        2
176
     0
  1
strokes_ogs.tif
176
     0
290
     0
176
     0
 40
1.0
176
     0
 40
1.0
176
     0
  0
VISUALSTYLE
  5
39
102
{ACAD_REACTORS
330
2A
102
}
330
2A
100
AcDbVisualStyle
  2
Facepattern
 70
    15
177
     3
291
     1
 70
    58
 90
        2
176
     1
 90
        2
176
     1
 90
        0
176
     1
 90
        0
176
     1
 40
0.6
176
     1
 40
30.0
176
     1
 62
     7
420
 16777215
176
     1
 90
        1
176
     1
 90
        4
176
     1
 62
     7
176
     1
 62
   257
176
     1
 90
        1
176
     1
 90
        1
176
     1
 40
1.0
176
     1
 90
        8
176
     1
 62
     7
176
     1
 40
1.0
176
     1
 90
        1
176
     1
 90
        6
176
     1
 90
        2
176
     1
 62
     7
176
     1
 90
        5
176
     1
 90
        0
176
     1
 90
        0
176
     1
290
     0
176
     1
 90
        1
176
     1
 40
0.0
176
     1
 90
        0
176
     1
290
     0
176
     1
290
     1
176
     1
290
     1
176
     1
290
     0
176
     1
290
     0
176
     1
290
     0
176
     1
290
     0
176
     1
290
     0
176
     1
290
     0
176
     1
 90
       50
176
     1
 40
0.0
176
     1
 40
1.0
176
     1
 90
        0
176
     1
 62
    18
420
        0
176
     1
 90
       50
176
     1
 90
        3
176
     1
 62
     5
420
      255
176
     1
290
     0
176
     1
 90
       50
176
     1
 90
       50
176
     1
 90
       50
176
     1
290
     0
176
     1
 90
       50
176
     1
 62
   256
176
     0
 40
1.0
176
     0
 90
        2
176
     1
  1
strokes_ogs.tif
176
     1
290
     0
176
     1
 40
1.0
176
     1
 40
1.0
176
     1
  0
VISUALSTYLE
  5
2B
102
{ACAD_REACTORS
330
2A
102
}
330
2A
100
AcDbVisualStyle
  2
Flat
 70
     0
177
     3
291
     1
 70
    58
 90
        2
176
     1
 90
        1
176
     1
 90
        1
176
     1
 90
        2
176
     1
 40
0.6
176
     1
 40
30.0
176
     1
 62
     7
420
 16777215
176
     1
 90
        0
176
     1
 90
        0
176
     1
 62
     7
176
     1
 62
   257
176
     1
 90
        1
176
     1
 90
        1
176
     1
 40
1.0
176
     1
 90
        8
176
     1
 62
     7
176
     1
 40
1.0
176
     1
 90
        1
176
     1
 90
        6
176
     1
 90
        2
176
     1
 62
     7
176
     1
 90
        5
176
     1
 90
        0
176
     1
 90
        0
176
     1
290
     0
176
     1
 90
       13
176
     1
 40
0.0
176
     1
 90
        0
176
     1
290
     0
176
     1
290
     1
176
     1
290
     1
176
     1
290
     0
176
     1
290
     0
176
     1
290
     0
176
     1
290
     0
176
     1
290
     0
176
     1
290
     0
176
     1
 90
       50
176
     1
 40
0.0
176
     1
 40
1.0
176
     1
 90
        0
176
     1
 62
    18
420
        0
176
     1
 90
       50
176
     1
 90
        3
176
     1
 62
     5
420
      255
176
     1
290
     0
176
     1
 90
       50
176
     1
 90
       50
176
     1
 90
       50
176
     1
290
     0
176
     1
 90
       50
176
     1
 62
   256
176
     0
 40
1.0
176
     0
 90
        2
176
     1
  1
strokes_ogs.tif
176
     1
290
     0
176
     1
 40
1.0
176
     1
 40
1.0
176
     1
  0
VISUALSTYLE
  5
2C
102
{ACAD_REACTORS
330
2A
102
}
330
2A
100
AcDbVisualStyle
  2
FlatWithEdges
 70
     1
177
     3
291
     1
 70
    58
 90
        2
176
     1
 90
        1
176
     1
 90
        1
176
     1
 90
        2
176
     1
 40
0.6
176
     1
 40
30.0
176
     1
 62
     7
420
 16777215
176
     1
 90
        1
176
     1
 90
        0
176
     1
 62
     7
176
     1
 62
   257
176
     1
 90
        1
176
     1
 90
        1
176
     1
 40
1.0
176
     1
 90
        0
176
     1
 62
   257
176
     1
 40
1.0
176
     1
 90
        1
176
     1
 90
        6
176
     1
 90
        2
176
     1
 62
     7
176
     1
 90
        5
176
     1
 90
        0
176
     1
 90
        0
176
     1
290
     0
176
     1
 90
       13
176
     1
 40
0.0
176
     1
 90
        0
176
     1
290
     0
176
     1
290
     1
176
     1
290
     1
176
     1
290
     0
176
     1
290
     0
176
     1
290
     0
176
     1
290
     0
176
     1
290
     0
176
     1
290
     0
176
     1
 90
       50
176
     1
 40
0.0
176
     1
 40
1.0
176
     1
 90
        0
176
     1
 62
    18
420
        0
176
     1
 90
       50
176
     1
 90
        3
176
     1
 62
     5
420
      255
176
     1
290
     0
176
     1
 90
       50
176
     1
 90
       50
176
     1
 90
       50
176
     1
290
     0
176
     1
 90
       50
176
     1
 62
   256
176
     0
 40
1.0
176
     0
 90
        2
176
     1
  1
strokes_ogs.tif
176
     1
290
     0
176
     1
 40
1.0
176
     1
 40
1.0
176
     1
  0
VISUALSTYLE
  5
2D
102
{ACAD_REACTORS
330
2A
102
}
330
2A
100
AcDbVisualStyle
  2
Gouraud
 70
     2
177
     3
291
     1
 70
    58
 90
        2
176
     1
 90
        2
176
     1
 90
        1
176
     1
 90
        2
176
     1
 40
0.6
176
     1
 40
30.0
176
     1
 62
     7
420
 16777215
176
     1
 90
        0
176
     1
 90
        0
176
     1
 62
     7
176
     1
 62
   257
176
     1
 90
        1
176
     1
 90
        1
176
     1
 40
1.0
176
     1
 90
        0
176
     1
 62
     7
176
     1
 40
1.0
176
     1
 90
        1
176
     1
 90
        6
176
     1
 90
        2
176
     1
 62
     7
176
     1
 90
        5
176
     1
 90
        0
176
     1
 90
        0
176
     1
290
     0
176
     1
 90
       13
176
     1
 40
0.0
176
     1
 90
        0
176
     1
290
     0
176
     1
290
     1
176
     1
290
     1
176
     1
290
     0
176
     1
290
     0
176
     1
290
     0
176
     1
290
     0
176
     1
290
     0
176
     1
290
     0
176
     1
 90
       50
176
     1
 40
0.0
176
     1
 40
1.0
176
     1
 90
        0
176
     1
 62
    18
420
        0
176
     1
 90
       50
176
     1
 90
        3
176
     1
 62
     5
420
      255
176
     1
290
     0
176
     1
 90
       50
176
     1
 90
       50
176
     1
 90
       50
176
     1
290
     0
176
     1
 90
       50
176
     1
 62
   256
176
     0
 40
1.0
176
     0
 90
        2
176
     1
  1
strokes_ogs.tif
176
     1
290
     0
176
     1
 40
1.0
176
     1
 40
1.0
176
     1
  0
VISUALSTYLE
  5
2E
102
{ACAD_REACTORS
330
2A
102
}
330
2A
100
AcDbVisualStyle
  2
GouraudWithEdges
 70
     3
177
     3
291
     1
 70
    58
 90
        2
176
     1
 90
        2
176
     1
 90
        1
176
     1
 90
        2
176
     1
 40
0.6
176
     1
 40
30.0
176
     1
 62
     7
420
 16777215
176
     1
 90
        1
176
     1
 90
        0
176
     1
 62
     7
176
     1
 62
   257
176
     1
 90
        1
176
     1
 90
        1
176
     1
 40
1.0
176
     1
 90
        0
176
     1
 62
   257
176
     1
 40
1.0
176
     1
 90
        1
176
     1
 90
        6
176
     1
 90
        2
176
     1
 62
     7
176
     1
 90
        5
176
     1
 90
        0
176
     1
 90
        0
176
     1
290
     0
176
     1
 90
       13
176
     1
 40
0.0
176
     1
 90
        0
176
     1
290
     0
176
     1
290
     1
176
     1
290
     1
176
     1
290
     0
176
     1
290
     0
176
     1
290
     0
176
     1
290
     0
176
     1
290
     0
176
     1
290
     0
176
     1
 90
       50
176
     1
 40
0.0
176
     1
 40
1.0
176
     1
 90
        0
176
     1
 62
    18
420
        0
176
     1
 90
       50
176
     1
 90
        3
176
     1
 62
     5
420
      255
176
     1
290
     0
176
     1
 90
       50
176
     1
 90
       50
176
     1
 90
       50
176
     1
290
     0
176
     1
 90
       50
176
     1
 62
   256
176
     0
 40
1.0
176
     0
 90
        2
176
     1
  1
strokes_ogs.tif
176
     1
290
     0
176
     1
 40
1.0
176
     1
 40
1.0
176
     1
  0
VISUALSTYLE
  5
31
102
{ACAD_REACTORS
330
2A
102
}
330
2A
100
AcDbVisualStyle
  2
Hidden
 70
     6
177
     3
291
     0
 70
    58
 90
        1
176
     1
 90
        2
176
     1
 90
        2
176
     1
 90
        0
176
     1
 40
0.6
176
     1
 40
30.0
176
     1
 62
     7
420
 16777215
176
     1
 90
        2
176
     1
 90
        2
176
     1
 62
     7
176
     1
 62
   257
176
     1
 90
        2
176
     1
 90
        1
176
     1
 40
40.0
176
     1
 90
        0
176
     1
 62
   257
176
     1
 40
1.0
176
     1
 90
        1
176
     1
 90
        6
176
     1
 90
        2
176
     1
 62
     7
176
     1
 90
        3
176
     1
 90
        0
176
     1
 90
        0
176
     1
290
     0
176
     1
 90
        1
176
     1
 40
0.0
176
     1
 90
        0
176
     1
290
     0
176
     1
290
     1
176
     1
290
     1
176
     1
290
     0
176
     1
290
     0
176
     1
290
     0
176
     1
290
     0
176
     1
290
     0
176
     1
290
     0
176
     1
 90
       50
176
     1
 40
0.0
176
     1
 40
1.0
176
     1
 90
        0
176
     1
 62
    18
420
        0
176
     1
 90
       50
176
     1
 90
        3
176
     1
 62
     5
420
      255
176
     1
290
     0
176
     1
 90
       50
176
     1
 90
       50
176
     1
 90
       50
176
     1
290
     0
176
     1
 90
       50
176
     1
 62
   256
176
     0
 40
1.0
176
     0
 90
        2
176
     1
  1
strokes_ogs.tif
176
     1
290
     0
176
     1
 40
1.0
176
     1
 40
1.0
176
     1
  0
VISUALSTYLE
  5
3B
102
{ACAD_REACTORS
330
2A
102
}
330
2A
100
AcDbVisualStyle
  2
JitterOff
 70
    20
177
     3
291
     1
 70
    58
 90
        2
176
     0
 90
        2
176
     0
 90
        0
176
     0
 90
        0
176
     0
 40
0.6
176
     0
 40
30.0
176
     0
 62
     7
420
 16777215
176
     0
 90
        1
176
     0
 90
        4
176
     0
 62
     7
176
     0
 62
   257
176
     0
 90
        1
176
     0
 90
        1
176
     0
 40
1.0
176
     0
 90
       10
176
     2
 62
     7
176
     0
 40
1.0
176
     0
 90
        1
176
     0
 90
        6
176
     0
 90
        2
176
     0
 62
     7
176
     0
 90
        5
176
     0
 90
        0
176
     0
 90
        0
176
     0
290
     0
176
     0
 90
        1
176
     0
 40
0.0
176
     0
 90
        0
176
     0
290
     0
176
     0
290
     1
176
     0
290
     1
176
     0
290
     0
176
     0
290
     0
176
     0
290
     0
176
     0
290
     0
176
     0
290
     0
176
     0
290
     0
176
     0
 90
       50
176
     0
 40
0.0
176
     0
 40
1.0
176
     0
 90
        0
176
     0
 62
    18
420
        0
176
     0
 90
       50
176
     0
 90
        3
176
     0
 62
     5
420
      255
176
     0
290
     0
176
     0
 90
       50
176
     0
 90
       50
176
     0
 90
       50
176
     0
290
     0
176
     0
 90
       50
176
     0
 62
   256
176
     0
 40
1.0
176
     0
 90
        2
176
     0
  1
strokes_ogs.tif
176
     0
290
     0
176
     0
 40
1.0
176
     0
 40
1.0
176
     0
  0
VISUALSTYLE
  5
38
102
{ACAD_REACTORS
330
2A
102
}
330
2A
100
AcDbVisualStyle
  2
Linepattern
 70
    14
177
     3
291
     1
 70
    58
 90
        2
176
     1
 90
        2
176
     1
 90
        0
176
     1
 90
        0
176
     1
 40
0.6
176
     1
 40
30.0
176
     1
 62
     7
420
 16777215
176
     1
 90
        1
176
     1
 90
        4
176
     1
 62
     7
176
     1
 62
   257
176
     1
 90
        7
176
     1
 90
        7
176
     1
 40
1.0
176
     1
 90
        8
176
     1
 62
     7
176
     1
 40
1.0
176
     1
 90
        1
176
     1
 90
        6
176
     1
 90
        2
176
     1
 62
     7
176
     1
 90
        5
176
     1
 90
        0
176
     1
 90
        0
176
     1
290
     0
176
     1
 90
        1
176
     1
 40
0.0
176
     1
 90
        0
176
     1
290
     0
176
     1
290
     1
176
     1
290
     1
176
     1
290
     0
176
     1
290
     0
176
     1
290
     0
176
     1
290
     0
176
     1
290
     0
176
     1
290
     0
176
     1
 90
       50
176
     1
 40
0.0
176
     1
 40
1.0
176
     1
 90
        0
176
     1
 62
    18
420
        0
176
     1
 90
       50
176
     1
 90
        3
176
     1
 62
     5
420
      255
176
     1
290
     0
176
     1
 90
       50
176
     1
 90
       50
176
     1
 90
       50
176
     1
290
     0
176
     1
 90
       50
176
     1
 62
   256
176
     0
 40
1.0
176
     0
 90
        2
176
     1
  1
strokes_ogs.tif
176
     1
290
     0
176
     1
 40
1.0
176
     1
 40
1.0
176
     1
  0
VISUALSTYLE
  5
3C
102
{ACAD_REACTORS
330
2A
102
}
330
2A
100
AcDbVisualStyle
  2
OverhangOff
 70
    21
177
     3
291
     1
 70
    58
 90
        2
176
     0
 90
        2
176
     0
 90
        0
176
     0
 90
        0
176
     0
 40
0.6
176
     0
 40
30.0
176
     0
 62
     7
420
 16777215
176
     0
 90
        1
176
     0
 90
        4
176
     0
 62
     7
176
     0
 62
   257
176
     0
 90
        1
176
     0
 90
        1
176
     0
 40
1.0
176
     0
 90
        9
176
     2
 62
     7
176
     0
 40
1.0
176
     0
 90
        1
176
     0
 90
        6
176
     0
 90
        2
176
     0
 62
     7
176
     0
 90
        5
176
     0
 90
        0
176
     0
 90
        0
176
     0
290
     0
176
     0
 90
        1
176
     0
 40
0.0
176
     0
 90
        0
176
     0
290
     0
176
     0
290
     1
176
     0
290
     1
176
     0
290
     0
176
     0
290
     0
176
     0
290
     0
176
     0
290
     0
176
     0
290
     0
176
     0
290
     0
176
     0
 90
       50
176
     0
 40
0.0
176
     0
 40
1.0
176
     0
 90
        0
176
     0
 62
    18
420
        0
176
     0
 90
       50
176
     0
 90
        3
176
     0
 62
     5
420
      255
176
     0
290
     0
176
     0
 90
       50
176
     0
 90
       50
176
     0
 90
       50
176
     0
290
     0
176
     0
 90
       50
176
     0
 62
   256
176
     0
 40
1.0
176
     0
 90
        2
176
     0
  1
strokes_ogs.tif
176
     0
290
     0
176
     0
 40
1.0
176
     0
 40
1.0
176
     0
  0
VISUALSTYLE
  5
33
102
{ACAD_REACTORS
330
2A
102
}
330
2A
100
AcDbVisualStyle
  2
Realistic
 70
     8
177
     3
291
     0
 70
    58
 90
        2
176
     1
 90
        3
176
     1
 90
        0
176
     1
 90
        2
176
     1
 40
0.6
176
     1
 40
30.0
176
     1
 62
     7
420
 16777215
176
     1
 90
        0
176
     1
 90
        0
176
     1
 62
     7
176
     1
 62
   257
176
     1
 90
        1
176
     1
 90
        1
176
     1
 40
1.0
176
     1
 90
        8
176
     1
 62
   257
176
     1
 40
1.0
176
     1
 90
        1
176
     1
 90
        6
176
     1
 90
        2
176
     1
 62
     7
176
     1
 90
        3
176
     1
 90
        0
176
     1
 90
        0
176
     1
290
     0
176
     1
 90
       13
176
     1
 40
0.0
176
     1
 90
        0
176
     1
290
     0
176
     1
290
     1
176
     1
290
     1
176
     1
290
     0
176
     1
290
     0
176
     1
290
     0
176
     1
290
     0
176
     1
290
     0
176
     1
290
     0
176
     1
 90
       50
176
     1
 40
0.0
176
     1
 40
1.0
176
     1
 90
        0
176
     1
 62
    18
420
        0
176
     1
 90
       50
176
     1
 90
        3
176
     1
 62
     5
420
      255
176
     1
290
     0
176
     1
 90
       50
176
     1
 90
       50
176
     1
 90
       50
176
     1
290
     0
176
     1
 90
       50
176
     1
 62
   256
176
     0
 40
1.0
176
     0
 90
        2
176
     1
  1
strokes_ogs.tif
176
     1
290
     0
176
     1
 40
1.0
176
     1
 40
1.0
176
     1
  0
VISUALSTYLE
  5
42
102
{ACAD_REACTORS
330
2A
102
}
330
2A
100
AcDbVisualStyle
  2
Shaded
 70
    27
177
     3
291
     0
 70
    58
 90
        2
176
     1
 90
        2
176
     1
 90
        1
176
     1
 90
        2
176
     1
 40
0.6
176
     1
 40
30.0
176
     1
 62
     7
420
 16777215
176
     1
 90
        0
176
     1
 90
        4
176
     1
 62
     7
176
     1
 62
   257
176
     1
 90
        1
176
     1
 90
        1
176
     1
 40
1.0
176
     1
 90
        8
176
     1
 62
   257
176
     1
 40
1.0
176
     1
 90
        1
176
     1
 90
        6
176
     1
 90
        2
176
     1
 62
     8
420
  7895160
176
     1
 90
        3
176
     1
 90
        0
176
     1
 90
        0
176
     1
290
     0
176
     1
 90
        5
176
     1
 40
0.0
176
     1
 90
        0
176
     1
290
     0
176
     1
290
     1
176
     1
290
     1
176
     1
290
     0
176
     1
290
     0
176
     1
290
     0
176
     1
290
     0
176
     1
290
     0
176
     1
290
     0
176
     1
 90
       50
176
     1
 40
0.0
176
     1
 40
1.0
176
     1
 90
        0
176
     1
 62
    18
420
        0
176
     1
 90
       50
176
     1
 90
        3
176
     1
 62
     5
420
      255
176
     1
290
     0
176
     1
 90
       50
176
     1
 90
       50
176
     1
 90
       50
176
     1
290
     0
176
     1
 90
       50
176
     1
 62
   256
176
     0
 40
1.0
176
     0
 90
        2
176
     1
  1
strokes_ogs.tif
176
     1
290
     0
176
     1
 40
1.0
176
     1
 40
1.0
176
     1
  0
VISUALSTYLE
  5
41
102
{ACAD_REACTORS
330
2A
102
}
330
2A
100
AcDbVisualStyle
  2
Shaded with edges
 70
    26
177
     3
291
     0
 70
    58
 90
        2
176
     1
 90
        2
176
     1
 90
        1
176
     1
 90
        2
176
     1
 40
0.6
176
     1
 40
30.0
176
     1
 62
     7
420
 16777215
176
     1
 90
        1
176
     1
 90
       10
176
     1
 62
     7
176
     1
 62
   257
176
     1
 90
        2
176
     1
 90
        1
176
     1
 40
1.0
176
     1
 90
        8
176
     1
 62
   257
176
     1
 40
1.0
176
     1
 90
        1
176
     1
 90
        6
176
     1
 90
        2
176
     1
 62
     7
176
     1
 90
        3
176
     1
 90
        0
176
     1
 90
        0
176
     1
290
     0
176
     1
 90
        5
176
     1
 40
0.0
176
     1
 90
        0
176
     1
290
     0
176
     1
290
     1
176
     1
290
     1
176
     1
290
     0
176
     1
290
     0
176
     1
290
     0
176
     1
290
     0
176
     1
290
     0
176
     1
290
     0
176
     1
 90
       50
176
     1
 40
0.0
176
     1
 40
1.0
176
     1
 90
        0
176
     1
 62
    18
420
        0
176
     1
 90
       50
176
     1
 90
        3
176
     1
 62
     5
420
      255
176
     1
290
     0
176
     1
 90
       50
176
     1
 90
       50
176
     1
 90
       50
176
     1
290
     0
176
     1
 90
       50
176
     1
 62
   256
176
     0
 40
1.0
176
     0
 90
        2
176
     1
  1
strokes_ogs.tif
176
     1
290
     0
176
     1
 40
1.0
176
     1
 40
1.0
176
     1
  0
VISUALSTYLE
  5
3E
102
{ACAD_REACTORS
330
2A
102
}
330
2A
100
AcDbVisualStyle
  2
Shades of Gray
 70
    23
177
     3
291
     0
 70
    58
 90
        2
176
     1
 90
        2
176
     1
 90
        3
176
     1
 90
        0
176
     1
 40
0.6
176
     1
 40
30.0
176
     1
 62
     7
420
 16777215
176
     1
 90
        2
176
     1
 90
        2
176
     1
 62
     7
176
     1
 62
     7
176
     1
 90
        1
176
     1
 90
        1
176
     1
 40
40.0
176
     1
 90
        8
176
     1
 62
     7
176
     1
 40
1.0
176
     1
 90
        1
176
     1
 90
        6
176
     1
 90
        2
176
     1
 62
     7
176
     1
 90
        3
176
     1
 90
        0
176
     1
 90
        0
176
     1
290
     0
176
     1
 90
        1
176
     1
 40
0.0
176
     1
 90
        0
176
     1
290
     0
176
     1
290
     1
176
     1
290
     1
176
     1
290
     0
176
     1
290
     0
176
     1
290
     0
176
     1
290
     0
176
     1
290
     0
176
     1
290
     0
176
     1
 90
       50
176
     1
 40
0.0
176
     1
 40
1.0
176
     1
 90
        0
176
     1
 62
    18
420
        0
176
     1
 90
       50
176
     1
 90
        3
176
     1
 62
     5
420
      255
176
     1
290
     0
176
     1
 90
       50
176
     1
 90
       50
176
     1
 90
       50
176
     1
290
     0
176
     1
 90
       50
176
     1
 62
   256
176
     0
 40
1.0
176
     0
 90
        2
176
     1
  1
strokes_ogs.tif
176
     1
290
     0
176
     1
 40
1.0
176
     1
 40
1.0
176
     1
  0
VISUALSTYLE
  5
3F
102
{ACAD_REACTORS
330
2A
102
}
330
2A
100
AcDbVisualStyle
  2
Sketchy
 70
    24
177
     3
291
     0
 70
    58
 90
        1
176
     1
 90
        2
176
     1
 90
        2
176
     1
 90
        0
176
     1
 40
0.6
176
     1
 40
30.0
176
     1
 62
     7
420
 16777215
176
     1
 90
        2
176
     1
 90
        2
176
     1
 62
     7
176
     1
 62
     7
176
     1
 90
        1
176
     1
 90
        1
176
     1
 40
40.0
176
     1
 90
       11
176
     1
 62
     7
176
     1
 40
1.0
176
     1
 90
        1
176
     1
 90
        6
176
     1
 90
        2
176
     1
 62
     7
176
     1
 90
        6
176
     1
 90
        0
176
     1
 90
        0
176
     1
290
     0
176
     1
 90
        1
176
     1
 40
0.0
176
     1
 90
        0
176
     1
290
     0
176
     1
290
     1
176
     1
290
     1
176
     1
290
     0
176
     1
290
     0
176
     1
290
     0
176
     1
290
     0
176
     1
290
     0
176
     1
290
     0
176
     1
 90
       50
176
     1
 40
0.0
176
     1
 40
1.0
176
     1
 90
        0
176
     1
 62
    18
420
        0
176
     1
 90
       50
176
     1
 90
        3
176
     1
 62
     5
420
      255
176
     1
290
     0
176
     1
 90
       50
176
     1
 90
       50
176
     1
 90
       50
176
     1
290
     0
176
     1
 90
       50
176
     1
 62
   256
176
     0
 40
1.0
176
     0
 90
        2
176
     1
  1
strokes_ogs.tif
176
     1
290
     0
176
     1
 40
1.0
176
     1
 40
1.0
176
     1
  0
VISUALSTYLE
  5
37
102
{ACAD_REACTORS
330
2A
102
}
330
2A
100
AcDbVisualStyle
  2
Thicken
 70
    13
177
     3
291
     1
 70
    58
 90
        2
176
     1
 90
        2
176
     1
 90
        0
176
     1
 90
        0
176
     1
 40
0.6
176
     1
 40
30.0
176
     1
 62
     7
420
 16777215
176
     1
 90
        1
176
     1
 90
        4
176
     1
 62
     7
176
     1
 62
   257
176
     1
 90
        1
176
     1
 90
        1
176
     1
 40
1.0
176
     1
 90
       12
176
     1
 62
     7
176
     1
 40
1.0
176
     1
 90
        1
176
     1
 90
        6
176
     1
 90
        2
176
     1
 62
     7
176
     1
 90
        5
176
     1
 90
        0
176
     1
 90
        0
176
     1
290
     0
176
     1
 90
        1
176
     1
 40
0.0
176
     1
 90
        0
176
     1
290
     0
176
     1
290
     1
176
     1
290
     1
176
     1
290
     0
176
     1
290
     0
176
     1
290
     0
176
     1
290
     0
176
     1
290
     0
176
     1
290
     0
176
     1
 90
       50
176
     1
 40
0.0
176
     1
 40
1.0
176
     1
 90
        0
176
     1
 62
    18
420
        0
176
     1
 90
       50
176
     1
 90
        3
176
     1
 62
     5
420
      255
176
     1
290
     0
176
     1
 90
       50
176
     1
 90
       50
176
     1
 90
       50
176
     1
290
     0
176
     1
 90
       50
176
     1
 62
   256
176
     0
 40
1.0
176
     0
 90
        2
176
     1
  1
strokes_ogs.tif
176
     1
290
     0
176
     1
 40
1.0
176
     1
 40
1.0
176
     1
  0
VISUALSTYLE
  5
30
102
{ACAD_REACTORS
330
2A
102
}
330
2A
100
AcDbVisualStyle
  2
Wireframe
 70
     5
177
     3
291
     0
 70
    58
 90
        0
176
     1
 90
        2
176
     1
 90
        0
176
     1
 90
        0
176
     1
 40
0.6
176
     1
 40
30.0
176
     1
 62
     7
420
 16777215
176
     1
 90
        1
176
     1
 90
        4
176
     1
 62
     7
176
     1
 62
   257
176
     1
 90
        1
176
     1
 90
        1
176
     1
 40
1.0
176
     1
 90
        0
176
     1
 62
   257
176
     1
 40
1.0
176
     1
 90
        1
176
     1
 90
        6
176
     1
 90
        2
176
     1
 62
     7
176
     1
 90
        3
176
     1
 90
        0
176
     1
 90
        0
176
     1
290
     0
176
     1
 90
        1
176
     1
 40
0.0
176
     1
 90
        0
176
     1
290
     0
176
     1
290
     1
176
     1
290
     1
176
     1
290
     0
176
     1
290
     0
176
     1
290
     0
176
     1
290
     0
176
     1
290
     0
176
     1
290
     0
176
     1
 90
       50
176
     1
 40
0.0
176
     1
 40
1.0
176
     1
 90
        0
176
     1
 62
    18
420
        0
176
     1
 90
       50
176
     1
 90
        3
176
     1
 62
     5
420
      255
176
     1
290
     0
176
     1
 90
       50
176
     1
 90
       50
176
     1
 90
       50
176
     1
290
     0
176
     1
 90
       50
176
     1
 62
   256
176
     0
 40
1.0
176
     0
 90
        2
176
     1
  1
strokes_ogs.tif
176
     1
290
     0
176
     1
 40
1.0
176
     1
 40
1.0
176
     1
  0
VISUALSTYLE
  5
40
102
{ACAD_REACTORS
330
2A
102
}
330
2A
100
AcDbVisualStyle
  2
X-Ray
 70
    25
177
     3
291
     0
 70
    58
 90
        2
176
     1
 90
        2
176
     1
 90
        1
176
     1
 90
        1
176
     1
 40
0.5
176
     1
 40
30.0
176
     1
 62
     7
420
 16777215
176
     1
 90
        1
176
     1
 90
        0
176
     1
 62
     7
176
     1
 62
   257
176
     1
 90
        1
176
     1
 90
        1
176
     1
 40
1.0
176
     1
 90
        8
176
     1
 62
     7
176
     1
 40
1.0
176
     1
 90
        1
176
     1
 90
        6
176
     1
 90
        2
176
     1
 62
     7
176
     1
 90
        3
176
     1
 90
        0
176
     1
 90
        0
176
     1
290
     0
176
     1
 90
       13
176
     1
 40
0.0
176
     1
 90
        0
176
     1
290
     0
176
     1
290
     1
176
     1
290
     1
176
     1
290
     0
176
     1
290
     0
176
     1
290
     0
176
     1
290
     0
176
     1
290
     0
176
     1
290
     0
176
     1
 90
       50
176
     1
 40
0.0
176
     1
 40
1.0
176
     1
 90
        0
176
     1
 62
    18
420
        0
176
     1
 90
       50
176
     1
 90
        3
176
     1
 62
     5
420
      255
176
     1
290
     0
176
     1
 90
       50
176
     1
 90
       50
176
     1
 90
       50
176
     1
290
     0
176
     1
 90
       50
176
     1
 62
   256
176
     0
 40
1.0
176
     0
 90
        2
176
     1
  1
strokes_ogs.tif
176
     1
290
     0
176
     1
 40
1.0
176
     1
 40
1.0
176
     1
  0
DICTIONARYVAR
  5
238
102
{ACAD_REACTORS
330
237
102
}
330
237
100
DictionaryVariables
280
     0
  1
1:1
  0
DICTIONARYVAR
  5
240
102
{ACAD_REACTORS
330
237
102
}
330
237
100
DictionaryVariables
280
     0
  1
3.500000
  0
DICTIONARYVAR
  5
241
102
{ACAD_REACTORS
330
237
102
}
330
237
100
DictionaryVariables
280
     0
  1
acadiso.lin
  0
DICTIONARYVAR
  5
23D
102
{ACAD_REACTORS
330
237
102
}
330
237
100
DictionaryVariables
280
     0
  1
Standard
  0
DICTIONARYVAR
  5
23C
102
{ACAD_REACTORS
330
237
102
}
330
237
100
DictionaryVariables
280
     0
  1
Standard
  0
DICTIONARY
  5
239
330
5A
100
AcDbDictionary
280
     1
281
     1
  3
ACAD_ROUNDTRIP_2008_TABLESTYLE_CELLSTYLEMAP
360
23A
  0
CELLSTYLEMAP
  5
23A
102
{ACAD_REACTORS
330
239
102
}
330
239
100
AcDbCellStyleMap
 90
        3
300
CELLSTYLE
  1
TABLEFORMAT_BEGIN
 90
        5
170
     1
 91
        0
 92
    32768
 62
   257
 93
        1
300
CONTENTFORMAT
  1
CONTENTFORMAT_BEGIN
 90
        0
 91
        0
 92
        4
 93
        0
300

 40
0.0
140
1.0
 94
        5
 62
     0
340
11
144
6.0
309
CONTENTFORMAT_END
171
     1
301
MARGIN
  1
CELLMARGIN_BEGIN
 40
1.5
 40
1.5
 40
1.5
 40
1.5
 40
1.5
 40
1.5
309
CELLMARGIN_END
 94
        6
 95
        1
302
GRIDFORMAT
  1
GRIDFORMAT_BEGIN
 90
        0
 91
        1
 62
     0
 92
       -2
340
14
 93
        0
 40
0.045
309
GRIDFORMAT_END
 95
        2
302
GRIDFORMAT
  1
GRIDFORMAT_BEGIN
 90
        0
 91
        1
 62
     0
 92
       -2
340
14
 93
        0
 40
0.045
309
GRIDFORMAT_END
 95
        4
302
GRIDFORMAT
  1
GRIDFORMAT_BEGIN
 90
        0
 91
        1
 62
     0
 92
       -2
340
14
 93
        0
 40
0.045
309
GRIDFORMAT_END
 95
        8
302
GRIDFORMAT
  1
GRIDFORMAT_BEGIN
 90
        0
 91
        1
 62
     0
 92
       -2
340
14
 93
        0
 40
0.045
309
GRIDFORMAT_END
 95
       16
302
GRIDFORMAT
  1
GRIDFORMAT_BEGIN
 90
        0
 91
        1
 62
     0
 92
       -2
340
14
 93
        0
 40
0.045
309
GRIDFORMAT_END
 95
       32
302
GRIDFORMAT
  1
GRIDFORMAT_BEGIN
 90
        0
 91
        1
 62
     0
 92
       -2
340
14
 93
        0
 40
0.045
309
GRIDFORMAT_END
309
TABLEFORMAT_END
  1
CELLSTYLE_BEGIN
 90
        1
 91
        1
300
_TITLE
309
CELLSTYLE_END
300
CELLSTYLE
  1
TABLEFORMAT_BEGIN
 90
        5
170
     1
 91
        0
 92
        0
 62
   257
 93
        1
300
CONTENTFORMAT
  1
CONTENTFORMAT_BEGIN
 90
        0
 91
        0
 92
        4
 93
        0
300

 40
0.0
140
1.0
 94
        5
 62
     0
340
11
144
4.5
309
CONTENTFORMAT_END
171
     1
301
MARGIN
  1
CELLMARGIN_BEGIN
 40
1.5
 40
1.5
 40
1.5
 40
1.5
 40
1.5
 40
1.5
309
CELLMARGIN_END
 94
        6
 95
        1
302
GRIDFORMAT
  1
GRIDFORMAT_BEGIN
 90
        0
 91
        1
 62
     0
 92
       -2
340
14
 93
        0
 40
0.045
309
GRIDFORMAT_END
 95
        2
302
GRIDFORMAT
  1
GRIDFORMAT_BEGIN
 90
        0
 91
        1
 62
     0
 92
       -2
340
14
 93
        0
 40
0.045
309
GRIDFORMAT_END
 95
        4
302
GRIDFORMAT
  1
GRIDFORMAT_BEGIN
 90
        0
 91
        1
 62
     0
 92
       -2
340
14
 93
        0
 40
0.045
309
GRIDFORMAT_END
 95
        8
302
GRIDFORMAT
  1
GRIDFORMAT_BEGIN
 90
        0
 91
        1
 62
     0
 92
       -2
340
14
 93
        0
 40
0.045
309
GRIDFORMAT_END
 95
       16
302
GRIDFORMAT
  1
GRIDFORMAT_BEGIN
 90
        0
 91
        1
 62
     0
 92
       -2
340
14
 93
        0
 40
0.045
309
GRIDFORMAT_END
 95
       32
302
GRIDFORMAT
  1
GRIDFORMAT_BEGIN
 90
        0
 91
        1
 62
     0
 92
       -2
340
14
 93
        0
 40
0.045
309
GRIDFORMAT_END
309
TABLEFORMAT_END
  1
CELLSTYLE_BEGIN
 90
        2
 91
        1
300
_HEADER
309
CELLSTYLE_END
300
CELLSTYLE
  1
TABLEFORMAT_BEGIN
 90
        5
170
     1
 91
        0
 92
        0
 62
   257
 93
        1
300
CONTENTFORMAT
  1
CONTENTFORMAT_BEGIN
 90
        0
 91
        0
 92
        4
 93
        0
300

 40
0.0
140
1.0
 94
        2
 62
     0
340
11
144
4.5
309
CONTENTFORMAT_END
171
     1
301
MARGIN
  1
CELLMARGIN_BEGIN
 40
1.5
 40
1.5
 40
1.5
 40
1.5
 40
1.5
 40
1.5
309
CELLMARGIN_END
 94
        6
 95
        1
302
GRIDFORMAT
  1
GRIDFORMAT_BEGIN
 90
        0
 91
        1
 62
     0
 92
       -2
340
14
 93
        0
 40
0.045
309
GRIDFORMAT_END
 95
        2
302
GRIDFORMAT
  1
GRIDFORMAT_BEGIN
 90
        0
 91
        1
 62
     0
 92
       -2
340
14
 93
        0
 40
0.045
309
GRIDFORMAT_END
 95
        4
302
GRIDFORMAT
  1
GRIDFORMAT_BEGIN
 90
        0
 91
        1
 62
     0
 92
       -2
340
14
 93
        0
 40
0.045
309
GRIDFORMAT_END
 95
        8
302
GRIDFORMAT
  1
GRIDFORMAT_BEGIN
 90
        0
 91
        1
 62
     0
 92
       -2
340
14
 93
        0
 40
0.045
309
GRIDFORMAT_END
 95
       16
302
GRIDFORMAT
  1
GRIDFORMAT_BEGIN
 90
        0
 91
        1
 62
     0
 92
       -2
340
14
 93
        0
 40
0.045
309
GRIDFORMAT_END
 95
       32
302
GRIDFORMAT
  1
GRIDFORMAT_BEGIN
 90
        0
 91
        1
 62
     0
 92
       -2
340
14
 93
        0
 40
0.045
309
GRIDFORMAT_END
309
TABLEFORMAT_END
  1
CELLSTYLE_BEGIN
 90
        3
 91
        2
300
_DATA
309
CELLSTYLE_END
  0
ENDSEC
  0
EOF
