  0
SECTION
  2
HEADER
  9
$ACADVER
  1
AC1027
  9
$ACADMAINTVER
 70
   105
  9
$DWGCODEPAGE
  3
ANSI_1252
  9
$COMMENTS
  1
File was created by Cadenas
  9
$LASTSAVEDBY
  1
psAdmin
  9
$CUSTOMPROPERTYTAG
  1
NB
  9
$CUSTOMPROPERTY
  1
01498
  9
$CUSTOMPROPERTYTAG
  1
NN
  9
$CUSTOMPROPERTY
  1
D0 fuse bases
  9
$CUSTOMPROPERTYTAG
  1
NT
  9
$CUSTOMPROPERTY
  1

  9
$CUSTOMPROPERTYTAG
  1
NBSYN
  9
$CUSTOMPROPERTY
  1
$ARTNR.
  9
$CUSTOMPROPERTYTAG
  1
LINA
  9
$CUSTOMPROPERTY
  1
01498000
  9
$CUSTOMPROPERTYTAG
  1
CATALOG
  9
$CUSTOMPROPERTY
  1
Wöhner
  9
$CUSTOMPROPERTYTAG
  1
ARTNR
  9
$CUSTOMPROPERTY
  1
01498
  9
$CUSTOMPROPERTYTAG
  1
BUSB
  9
$CUSTOMPROPERTY
  1
12, 15, 20, 25, 30 x 5, 10 and section busbars
  9
$CUSTOMPROPERTYTAG
  1
POF
  9
$CUSTOMPROPERTY
  1
CUSTO®60Classic
  9
$CUSTOMPROPERTYTAG
  1
TYPE
  9
$CUSTOMPROPERTY
  1
5683
  9
$CUSTOMPROPERTYTAG
  1
QNT
  9
$CUSTOMPROPERTY
  1
10
  9
$CUSTOMPROPERTYTAG
  1
W
  9
$CUSTOMPROPERTY
  1
36
  9
$CUSTOMPROPERTYTAG
  1
H
  9
$CUSTOMPROPERTY
  1
200
  9
$CUSTOMPROPERTYTAG
  1
D
  9
$CUSTOMPROPERTY
  1
43
  9
$CUSTOMPROPERTYTAG
  1
LINK
  9
$CUSTOMPROPERTY
  1
Product link
  9
$CUSTOMPROPERTYTAG
  1
COMPANY
  9
$CUSTOMPROPERTY
  1
woehner
  9
$REQUIREDVERSIONS
160
                 0
  9
$INSBASE
 10
0.0
 20
0.0
 30
0.0
  9
$EXTMIN
 10
-36.5
 20
-127.8333333333333
 30
0.0
  9
$EXTMAX
 10
35.45238095238095
 20
74.5
 30
0.0
  9
$LIMMIN
 10
0.0
 20
0.0
  9
$LIMMAX
 10
420.0
 20
297.0
  9
$ORTHOMODE
 70
     0
  9
$REGENMODE
 70
     1
  9
$FILLMODE
 70
     1
  9
$QTEXTMODE
 70
     0
  9
$MIRRTEXT
 70
     1
  9
$LTSCALE
 40
1.0
  9
$ATTMODE
 70
     1
  9
$TEXTSIZE
 40
2.5
  9
$TRACEWID
 40
1.0
  9
$TEXTSTYLE
  7
Standard
  9
$CLAYER
  8
0
  9
$CELTYPE
  6
ByLayer
  9
$CECOLOR
 62
   256
  9
$CELTSCALE
 40
1.0
  9
$DISPSILH
 70
     0
  9
$DIMSCALE
 40
1.0
  9
$DIMASZ
 40
2.5
  9
$DIMEXO
 40
0.625
  9
$DIMDLI
 40
3.75
  9
$DIMRND
 40
0.0
  9
$DIMDLE
 40
0.0
  9
$DIMEXE
 40
1.25
  9
$DIMTP
 40
0.0
  9
$DIMTM
 40
0.0
  9
$DIMTXT
 40
2.5
  9
$DIMCEN
 40
2.5
  9
$DIMTSZ
 40
0.0
  9
$DIMTOL
 70
     0
  9
$DIMLIM
 70
     0
  9
$DIMTIH
 70
     0
  9
$DIMTOH
 70
     0
  9
$DIMSE1
 70
     0
  9
$DIMSE2
 70
     0
  9
$DIMTAD
 70
     1
  9
$DIMZIN
 70
     8
  9
$DIMBLK
  1

  9
$DIMASO
 70
     1
  9
$DIMSHO
 70
     1
  9
$DIMPOST
  1

  9
$DIMAPOST
  1

  9
$DIMALT
 70
     0
  9
$DIMALTD
 70
     3
  9
$DIMALTF
 40
0.03937007874016
  9
$DIMLFAC
 40
1.0
  9
$DIMTOFL
 70
     1
  9
$DIMTVP
 40
0.0
  9
$DIMTIX
 70
     0
  9
$DIMSOXD
 70
     0
  9
$DIMSAH
 70
     0
  9
$DIMBLK1
  1

  9
$DIMBLK2
  1

  9
$DIMSTYLE
  2
ISO-25
  9
$DIMCLRD
 70
     0
  9
$DIMCLRE
 70
     0
  9
$DIMCLRT
 70
     0
  9
$DIMTFAC
 40
1.0
  9
$DIMGAP
 40
0.625
  9
$DIMJUST
 70
     0
  9
$DIMSD1
 70
     0
  9
$DIMSD2
 70
     0
  9
$DIMTOLJ
 70
     0
  9
$DIMTZIN
 70
     8
  9
$DIMALTZ
 70
     0
  9
$DIMALTTZ
 70
     0
  9
$DIMUPT
 70
     0
  9
$DIMDEC
 70
     2
  9
$DIMTDEC
 70
     2
  9
$DIMALTU
 70
     2
  9
$DIMALTTD
 70
     3
  9
$DIMTXSTY
  7
Standard
  9
$DIMAUNIT
 70
     0
  9
$DIMADEC
 70
     0
  9
$DIMALTRND
 40
0.0
  9
$DIMAZIN
 70
     0
  9
$DIMDSEP
 70
    44
  9
$DIMATFIT
 70
     3
  9
$DIMFRAC
 70
     0
  9
$DIMLDRBLK
  1

  9
$DIMLUNIT
 70
     2
  9
$DIMLWD
 70
    -2
  9
$DIMLWE
 70
    -2
  9
$DIMTMOVE
 70
     0
  9
$DIMFXL
 40
1.0
  9
$DIMFXLON
 70
     0
  9
$DIMJOGANG
 40
0.7853981633974483
  9
$DIMTFILL
 70
     0
  9
$DIMTFILLCLR
 70
     0
  9
$DIMARCSYM
 70
     0
  9
$DIMLTYPE
  6

  9
$DIMLTEX1
  6

  9
$DIMLTEX2
  6

  9
$DIMTXTDIRECTION
 70
     0
  9
$LUNITS
 70
     2
  9
$LUPREC
 70
     4
  9
$SKETCHINC
 40
1.0
  9
$FILLETRAD
 40
10.0
  9
$AUNITS
 70
     0
  9
$AUPREC
 70
     0
  9
$MENU
  1
.
  9
$ELEVATION
 40
0.0
  9
$PELEVATION
 40
0.0
  9
$THICKNESS
 40
0.0
  9
$LIMCHECK
 70
     0
  9
$CHAMFERA
 40
0.0
  9
$CHAMFERB
 40
0.0
  9
$CHAMFERC
 40
0.0
  9
$CHAMFERD
 40
0.0
  9
$SKPOLY
 70
     0
  9
$TDCREATE
 40
2460319.640481459
  9
$TDUCREATE
 40
2460319.598814792
  9
$TDUPDATE
 40
2460319.640481643
  9
$TDUUPDATE
 40
2460319.598814977
  9
$TDINDWG
 40
0.0000000116
  9
$TDUSRTIMER
 40
0.0000000116
  9
$USRTIMER
 70
     1
  9
$ANGBASE
 50
0.0
  9
$ANGDIR
 70
     0
  9
$PDMODE
 70
     0
  9
$PDSIZE
 40
0.0
  9
$PLINEWID
 40
0.0
  9
$SPLFRAME
 70
     0
  9
$SPLINETYPE
 70
     6
  9
$SPLINESEGS
 70
     8
  9
$HANDSEED
  5
237
  9
$SURFTAB1
 70
     6
  9
$SURFTAB2
 70
     6
  9
$SURFTYPE
 70
     6
  9
$SURFU
 70
     6
  9
$SURFV
 70
     6
  9
$UCSBASE
  2

  9
$UCSNAME
  2

  9
$UCSORG
 10
0.0
 20
0.0
 30
0.0
  9
$UCSXDIR
 10
1.0
 20
0.0
 30
0.0
  9
$UCSYDIR
 10
0.0
 20
1.0
 30
0.0
  9
$UCSORTHOREF
  2

  9
$UCSORTHOVIEW
 70
     0
  9
$UCSORGTOP
 10
0.0
 20
0.0
 30
0.0
  9
$UCSORGBOTTOM
 10
0.0
 20
0.0
 30
0.0
  9
$UCSORGLEFT
 10
0.0
 20
0.0
 30
0.0
  9
$UCSORGRIGHT
 10
0.0
 20
0.0
 30
0.0
  9
$UCSORGFRONT
 10
0.0
 20
0.0
 30
0.0
  9
$UCSORGBACK
 10
0.0
 20
0.0
 30
0.0
  9
$PUCSBASE
  2

  9
$PUCSNAME
  2

  9
$PUCSORG
 10
0.0
 20
0.0
 30
0.0
  9
$PUCSXDIR
 10
1.0
 20
0.0
 30
0.0
  9
$PUCSYDIR
 10
0.0
 20
1.0
 30
0.0
  9
$PUCSORTHOREF
  2

  9
$PUCSORTHOVIEW
 70
     0
  9
$PUCSORGTOP
 10
0.0
 20
0.0
 30
0.0
  9
$PUCSORGBOTTOM
 10
0.0
 20
0.0
 30
0.0
  9
$PUCSORGLEFT
 10
0.0
 20
0.0
 30
0.0
  9
$PUCSORGRIGHT
 10
0.0
 20
0.0
 30
0.0
  9
$PUCSORGFRONT
 10
0.0
 20
0.0
 30
0.0
  9
$PUCSORGBACK
 10
0.0
 20
0.0
 30
0.0
  9
$USERI1
 70
     0
  9
$USERI2
 70
     0
  9
$USERI3
 70
     0
  9
$USERI4
 70
     0
  9
$USERI5
 70
     0
  9
$USERR1
 40
0.0
  9
$USERR2
 40
0.0
  9
$USERR3
 40
0.0
  9
$USERR4
 40
0.0
  9
$USERR5
 40
0.0
  9
$WORLDVIEW
 70
     1
  9
$SHADEDGE
 70
     3
  9
$SHADEDIF
 70
    70
  9
$TILEMODE
 70
     1
  9
$MAXACTVP
 70
    64
  9
$PINSBASE
 10
0.0
 20
0.0
 30
0.0
  9
$PLIMCHECK
 70
     0
  9
$PEXTMIN
 10
1.000000000000000E+20
 20
1.000000000000000E+20
 30
1.000000000000000E+20
  9
$PEXTMAX
 10
-1.000000000000000E+20
 20
-1.000000000000000E+20
 30
-1.000000000000000E+20
  9
$PLIMMIN
 10
0.0
 20
0.0
  9
$PLIMMAX
 10
420.0
 20
297.0
  9
$UNITMODE
 70
     0
  9
$VISRETAIN
 70
     1
  9
$PLINEGEN
 70
     0
  9
$PSLTSCALE
 70
     1
  9
$TREEDEPTH
 70
  3020
  9
$CMLSTYLE
  2
Standard
  9
$CMLJUST
 70
     0
  9
$CMLSCALE
 40
20.0
  9
$PROXYGRAPHICS
 70
     1
  9
$MEASUREMENT
 70
     1
  9
$CELWEIGHT
370
    -1
  9
$ENDCAPS
280
     0
  9
$JOINSTYLE
280
     0
  9
$LWDISPLAY
290
     0
  9
$INSUNITS
 70
     4
  9
$HYPERLINKBASE
  1

  9
$STYLESHEET
  1

  9
$XEDIT
290
     1
  9
$CEPSNTYPE
380
     0
  9
$PSTYLEMODE
290
     1
  9
$FINGERPRINTGUID
  2
{db613f03-fe15-42c4-9941-b1358e3a7bd1}
  9
$VERSIONGUID
  2
{FAEB1C32-E019-11D5-929B-00C0DF256EC4}
  9
$EXTNAMES
290
     1
  9
$PSVPSCALE
 40
0.0
  9
$OLESTARTUP
290
     0
  9
$SORTENTS
280
   127
  9
$INDEXCTL
280
     0
  9
$HIDETEXT
280
     1
  9
$XCLIPFRAME
280
     2
  9
$HALOGAP
280
     0
  9
$OBSCOLOR
 70
   257
  9
$OBSLTYPE
280
     0
  9
$INTERSECTIONDISPLAY
280
     0
  9
$INTERSECTIONCOLOR
 70
   257
  9
$DIMASSOC
280
     2
  9
$PROJECTNAME
  1

  9
$CAMERADISPLAY
290
     0
  9
$LENSLENGTH
 40
50.0
  9
$CAMERAHEIGHT
 40
0.0
  9
$STEPSPERSEC
 40
2.0
  9
$STEPSIZE
 40
6.0
  9
$3DDWFPREC
 40
2.0
  9
$PSOLWIDTH
 40
5.0
  9
$PSOLHEIGHT
 40
80.0
  9
$LOFTANG1
 40
1.570796326794897
  9
$LOFTANG2
 40
1.570796326794897
  9
$LOFTMAG1
 40
0.0
  9
$LOFTMAG2
 40
0.0
  9
$LOFTPARAM
 70
     7
  9
$LOFTNORMALS
280
     1
  9
$LATITUDE
 40
37.795
  9
$LONGITUDE
 40
-122.394
  9
$NORTHDIRECTION
 40
0.0
  9
$TIMEZONE
 70
 -8000
  9
$LIGHTGLYPHDISPLAY
280
     1
  9
$TILEMODELIGHTSYNCH
280
     1
  9
$CMATERIAL
347
44
  9
$SOLIDHIST
280
     0
  9
$SHOWHIST
280
     1
  9
$DWFFRAME
280
     2
  9
$DGNFRAME
280
     2
  9
$REALWORLDSCALE
290
     1
  9
$INTERFERECOLOR
 62
   256
  9
$CSHADOW
280
     0
  9
$SHADOWPLANELOCATION
 40
0.0
  0
ENDSEC
  0
SECTION
  2
CLASSES
  0
CLASS
  1
ACDBDICTIONARYWDFLT
  2
AcDbDictionaryWithDefault
  3
ObjectDBX Classes
 90
        0
 91
        3
280
     0
281
     0
  0
CLASS
  1
VISUALSTYLE
  2
AcDbVisualStyle
  3
ObjectDBX Classes
 90
     4095
 91
        3
280
     0
281
     0
  0
CLASS
  1
MATERIAL
  2
AcDbMaterial
  3
ObjectDBX Classes
 90
     1153
 91
        3
280
     0
281
     0
  0
CLASS
  1
SCALE
  2
AcDbScale
  3
ObjectDBX Classes
 90
     1153
 91
        3
280
     0
281
     0
  0
CLASS
  1
TABLESTYLE
  2
AcDbTableStyle
  3
ObjectDBX Classes
 90
     4095
 91
        3
280
     0
281
     0
  0
CLASS
  1
MLEADERSTYLE
  2
AcDbMLeaderStyle
  3
ACDB_MLEADERSTYLE_CLASS
 90
     4095
 91
        3
280
     0
281
     0
  0
CLASS
  1
SUN
  2
AcDbSun
  3
SCENEOE
 90
     1153
 91
        3
280
     0
281
     0
  0
CLASS
  1
DICTIONARYVAR
  2
AcDbDictionaryVar
  3
ObjectDBX Classes
 90
        0
 91
        3
280
     0
281
     0
  0
CLASS
  1
CELLSTYLEMAP
  2
AcDbCellStyleMap
  3
ObjectDBX Classes
 90
     1152
 91
        3
280
     0
281
     0
  0
ENDSEC
  0
SECTION
  2
TABLES
  0
TABLE
  2
VPORT
  5
8
330
0
100
AcDbSymbolTable
 70
     1
  0
VPORT
  5
29
330
8
100
AcDbSymbolTableRecord
100
AcDbViewportTableRecord
  2
*Active
 70
     0
 10
0.0
 20
0.0
 11
1.0
 21
1.0
 12
-0.5238095238095184
 22
-26.66666666666669
 13
0.0
 23
0.0
 14
10.0
 24
10.0
 15
10.0
 25
10.0
 16
0.0
 26
0.0
 36
1.0
 17
0.0
 27
0.0
 37
0.0
 40
206.38
 41
0.3556130854318663
 42
50.0
 43
0.0
 44
0.0
 50
0.0
 51
0.0
 71
     0
 72
   100
 73
     1
 74
     3
 75
     0
 76
     0
 77
     0
 78
     0
281
     0
 65
     1
110
0.0
120
0.0
130
0.0
111
1.0
121
0.0
131
0.0
112
0.0
122
1.0
132
0.0
 79
     0
146
0.0
348
2F
 60
     3
 61
     5
292
     1
282
     1
141
0.0
142
0.0
 63
   250
361
5D
  0
ENDTAB
  0
TABLE
  2
LTYPE
  5
5
330
0
100
AcDbSymbolTable
 70
     3
  0
LTYPE
  5
14
330
5
100
AcDbSymbolTableRecord
100
AcDbLinetypeTableRecord
  2
ByBlock
 70
     0
  3

 72
    65
 73
     0
 40
0.0
  0
LTYPE
  5
15
330
5
100
AcDbSymbolTableRecord
100
AcDbLinetypeTableRecord
  2
ByLayer
 70
     0
  3

 72
    65
 73
     0
 40
0.0
  0
LTYPE
  5
16
330
5
100
AcDbSymbolTableRecord
100
AcDbLinetypeTableRecord
  2
Continuous
 70
     0
  3
Solid line
 72
    65
 73
     0
 40
0.0
  0
LTYPE
  5
CA
330
5
100
AcDbSymbolTableRecord
100
AcDbLinetypeTableRecord
  2
Dashed
 70
     0
  3

 72
    65
 73
     2
 40
2.0
 49
1.0
 74
     0
 49
-1.0
 74
     0
  0
LTYPE
  5
DB
330
5
100
AcDbSymbolTableRecord
100
AcDbLinetypeTableRecord
  2
Center
 70
     0
  3

 72
    65
 73
     4
 40
1.5
 49
0.45
 74
     0
 49
-0.5
 74
     0
 49
0.05
 74
     0
 49
-0.5
 74
     0
  0
ENDTAB
  0
TABLE
  2
LAYER
  5
2
330
0
100
AcDbSymbolTable
 70
     9
  0
LAYER
  5
10
330
2
100
AcDbSymbolTableRecord
100
AcDbLayerTableRecord
  2
0
 70
     0
 62
     7
  6
Continuous
370
    -3
390
F
347
46
348
0
  0
LAYER
  5
5E
330
2
100
AcDbSymbolTableRecord
100
AcDbLayerTableRecord
  2
attrib
 70
     0
 62
    -2
  6
Continuous
370
    35
390
F
347
46
348
0
  0
LAYER
  5
81
330
2
100
AcDbSymbolTableRecord
100
AcDbLayerTableRecord
  2
bold
 70
     0
 62
     7
  6
Continuous
370
    50
390
F
347
46
348
0
  0
LAYER
  5
CB
330
2
100
AcDbSymbolTableRecord
100
AcDbLayerTableRecord
  2
hidden
 70
     0
 62
    -6
  6
Dashed
370
    25
390
F
347
46
348
0
  0
LAYER
  5
DC
330
2
100
AcDbSymbolTableRecord
100
AcDbLayerTableRecord
  2
center
 70
     0
 62
    -7
  6
Center
370
    25
390
F
347
46
348
0
  0
LAYER
  5
E0
330
2
100
AcDbSymbolTableRecord
100
AcDbLayerTableRecord
  2
light
 70
     0
 62
    -3
  6
Continuous
370
    25
390
F
347
46
348
0
  0
LAYER
  5
1F4
330
2
100
AcDbSymbolTableRecord
100
AcDbLayerTableRecord
  2
dimension
 70
     0
 62
    -5
  6
Continuous
370
    25
390
F
347
46
348
0
  0
LAYER
  5
1F6
330
2
100
AcDbSymbolTableRecord
100
AcDbLayerTableRecord
  2
Defpoints
 70
     0
 62
     7
  6
Continuous
290
     0
370
    -3
390
F
347
46
348
0
  0
LAYER
  5
21F
330
2
100
AcDbSymbolTableRecord
100
AcDbLayerTableRecord
  2
connection
 70
     0
 62
    -7
  6
Continuous
370
    50
390
F
347
46
348
0
  0
ENDTAB
  0
TABLE
  2
STYLE
  5
3
330
0
100
AcDbSymbolTable
 70
     1
  0
STYLE
  5
11
330
3
100
AcDbSymbolTableRecord
100
AcDbTextStyleTableRecord
  2
Standard
 70
     0
 40
0.0
 41
1.0
 50
0.0
 71
     0
 42
2.5
  3
txt
  4

  0
ENDTAB
  0
TABLE
  2
VIEW
  5
6
330
0
100
AcDbSymbolTable
 70
     0
  0
ENDTAB
  0
TABLE
  2
UCS
  5
7
330
0
100
AcDbSymbolTable
 70
     0
  0
ENDTAB
  0
TABLE
  2
APPID
  5
9
330
0
100
AcDbSymbolTable
 70
     1
  0
APPID
  5
12
330
9
100
AcDbSymbolTableRecord
100
AcDbRegAppTableRecord
  2
ACAD
 70
     0
  0
ENDTAB
  0
TABLE
  2
DIMSTYLE
  5
A
330
0
100
AcDbSymbolTable
 70
     1
100
AcDbDimStyleTable
  0
DIMSTYLE
105
27
102
{ACAD_REACTORS
330
1F5
330
203
330
211
102
}
330
A
100
AcDbSymbolTableRecord
100
AcDbDimStyleTableRecord
  2
ISO-25
 70
     0
 41
2.5
 42
0.625
 43
3.75
 44
1.25
 73
     0
 74
     0
 77
     1
 78
     8
140
2.5
141
2.5
143
0.03937007874016
147
0.625
171
     3
172
     1
178
     0
271
     2
272
     2
274
     3
278
    44
283
     0
284
     8
340
11
  0
ENDTAB
  0
TABLE
  2
BLOCK_RECORD
  5
1
330
0
100
AcDbSymbolTable
 70
    11
  0
BLOCK_RECORD
  5
1F
330
1
100
AcDbSymbolTableRecord
100
AcDbBlockTableRecord
  2
*Model_Space
340
22
 70
     0
280
     1
281
     0
  0
BLOCK_RECORD
  5
1B
330
1
100
AcDbSymbolTableRecord
100
AcDbBlockTableRecord
  2
*Paper_Space
340
1E
 70
     0
280
     1
281
     0
  0
BLOCK_RECORD
  5
23
330
1
100
AcDbSymbolTableRecord
100
AcDbBlockTableRecord
  2
*Paper_Space0
340
26
 70
     0
280
     1
281
     0
  0
BLOCK_RECORD
  5
72
330
1
100
AcDbSymbolTableRecord
100
AcDbBlockTableRecord
  2
1_75033000_1_0_in_01498_0
340
0
102
{BLKREFS
331
73
102
}
 70
     0
280
     1
281
     0
  0
BLOCK_RECORD
  5
8B
330
1
100
AcDbSymbolTableRecord
100
AcDbBlockTableRecord
  2
2_75033000_2_0_in_01498_0
340
0
102
{BLKREFS
331
8C
102
}
 70
     0
280
     1
281
     0
  0
BLOCK_RECORD
  5
A3
330
1
100
AcDbSymbolTableRecord
100
AcDbBlockTableRecord
  2
3_75033000_3_0_in_01498_0
340
0
102
{BLKREFS
331
A4
102
}
 70
     0
280
     1
281
     0
  0
BLOCK_RECORD
  5
BB
330
1
100
AcDbSymbolTableRecord
100
AcDbBlockTableRecord
  2
4_30414000_1_0_in_01498_0
340
0
102
{BLKREFS
331
BC
102
}
 70
     0
280
     1
281
     0
  0
BLOCK_RECORD
  5
F6
330
1
100
AcDbSymbolTableRecord
100
AcDbBlockTableRecord
  2
5_30414000_2_0_in_01498_0
340
0
102
{BLKREFS
331
F7
102
}
 70
     0
280
     1
281
     0
  0
BLOCK_RECORD
  5
12C
330
1
100
AcDbSymbolTableRecord
100
AcDbBlockTableRecord
  2
6_30414000_3_0_in_01498_0
340
0
102
{BLKREFS
331
12D
102
}
 70
     0
280
     1
281
     0
  0
BLOCK_RECORD
  5
162
330
1
100
AcDbSymbolTableRecord
100
AcDbBlockTableRecord
  2
7_78552000_0_in_01498_0
340
0
102
{BLKREFS
331
163
102
}
 70
     0
280
     1
281
     0
  0
BLOCK_RECORD
  5
1F7
330
1
100
AcDbSymbolTableRecord
100
AcDbBlockTableRecord
  2
*D8
340
0
 70
     0
280
     1
281
     0
  0
BLOCK_RECORD
  5
204
330
1
100
AcDbSymbolTableRecord
100
AcDbBlockTableRecord
  2
*D9
340
0
 70
     0
280
     1
281
     0
  0
BLOCK_RECORD
  5
212
330
1
100
AcDbSymbolTableRecord
100
AcDbBlockTableRecord
  2
*D10
340
0
 70
     0
280
     1
281
     0
  0
ENDTAB
  0
ENDSEC
  0
SECTION
  2
BLOCKS
  0
BLOCK
  5
20
330
1F
100
AcDbEntity
  8
0
100
AcDbBlockBegin
  2
*Model_Space
 70
     2
 10
0.0
 20
0.0
 30
0.0
  3
*Model_Space
  1

  0
ENDBLK
  5
21
330
1F
100
AcDbEntity
  8
0
100
AcDbBlockEnd
  0
BLOCK
  5
1C
330
1B
100
AcDbEntity
 67
     1
  8
0
100
AcDbBlockBegin
  2
*Paper_Space
 70
     0
 10
0.0
 20
0.0
 30
0.0
  3
*Paper_Space
  1

  0
ENDBLK
  5
1D
330
1B
100
AcDbEntity
 67
     1
  8
0
100
AcDbBlockEnd
  0
BLOCK
  5
24
330
23
100
AcDbEntity
  8
0
100
AcDbBlockBegin
  2
*Paper_Space0
 70
     0
 10
0.0
 20
0.0
 30
0.0
  3
*Paper_Space0
  1

  0
ENDBLK
  5
25
330
23
100
AcDbEntity
  8
0
100
AcDbBlockEnd
  0
BLOCK
  5
74
330
72
100
AcDbEntity
  8
0
100
AcDbBlockBegin
  2
1_75033000_1_0_in_01498_0
 70
     2
 10
0.0
 20
0.0
 30
0.0
  3
1_75033000_1_0_in_01498_0
  1

  0
ATTDEF
  5
76
330
72
100
AcDbEntity
  8
attrib
100
AcDbText
 10
28.3071
 20
-52.06950000000001
 30
0.0
 40
0.5
  1
75033000
100
AcDbAttributeDefinition
  3

  2
NB
 70
     8
280
     0
  0
ATTDEF
  5
77
330
72
100
AcDbEntity
  8
attrib
100
AcDbText
 10
28.3071
 20
-52.56950000000001
 30
0.0
 40
0.5
  1
CUSTO60 Part
100
AcDbAttributeDefinition
  3

  2
NN
 70
     8
280
     0
  0
ATTDEF
  5
78
330
72
100
AcDbEntity
  8
attrib
100
AcDbText
 10
28.3071
 20
-53.06950000000001
 30
0.0
 40
0.5
  1

100
AcDbAttributeDefinition
  3

  2
NT
 70
     8
280
     0
  0
ATTDEF
  5
79
330
72
100
AcDbEntity
  8
attrib
100
AcDbText
 10
28.3071
 20
-53.56950000000001
 30
0.0
 40
0.5
  1
$ARTNR.
100
AcDbAttributeDefinition
  3

  2
NBSYN
 70
     8
280
     0
  0
ATTDEF
  5
7A
330
72
100
AcDbEntity
  8
attrib
100
AcDbText
 10
28.3071
 20
-54.06950000000001
 30
0.0
 40
0.5
  1
75033000
100
AcDbAttributeDefinition
  3

  2
LINA
 70
     8
280
     0
  0
ATTDEF
  5
7B
330
72
100
AcDbEntity
  8
attrib
100
AcDbText
 10
28.3071
 20
-54.56950000000001
 30
0.0
 40
0.5
  1
Wöhner
100
AcDbAttributeDefinition
  3

  2
CATALOG
 70
     8
280
     0
  0
ATTDEF
  5
7C
330
72
100
AcDbEntity
  8
attrib
100
AcDbText
 10
28.3071
 20
-55.06950000000001
 30
0.0
 40
0.5
  1
75033000
100
AcDbAttributeDefinition
  3

  2
ARTNR
 70
     8
280
     0
  0
ATTDEF
  5
7D
330
72
100
AcDbEntity
  8
attrib
100
AcDbText
 10
28.3071
 20
-55.56950000000001
 30
0.0
 40
0.5
  1
CUSTO®60Classic
100
AcDbAttributeDefinition
  3

  2
POF
 70
     8
280
     0
  0
ATTDEF
  5
7E
330
72
100
AcDbEntity
  8
attrib
100
AcDbText
 10
28.3071
 20
-56.06950000000001
 30
0.0
 40
0.5
  1
woehner
100
AcDbAttributeDefinition
  3

  2
COMPANY
 70
     8
280
     0
  0
ATTDEF
  5
7F
330
72
100
AcDbEntity
  8
attrib
100
AcDbText
 10
28.3071
 20
-56.56950000000001
 30
0.0
 40
0.5
  1
{$CADENAS_DATA/23d-libs/woehner/sys_60classic/parts/d0_fuse_base_custo_part1.prj},163 {VTYP=3D},{NB=75033000},{LINA=75033000},{NN=CUSTO60 Part},{DATE=21.03.2023 15:11:36},{GEOMDATE=21.12.2022 12:00:00},{VERSION=},{LINEID=380},{WBVAR=},{WBNUMERIC=}  {NB=75
100
AcDbAttributeDefinition
  3

  2
PSOL_0
 70
     9
280
     0
  0
ATTDEF
  5
80
330
72
100
AcDbEntity
  8
attrib
100
AcDbText
 10
28.3071
 20
-57.06950000000001
 30
0.0
 40
0.5
  1
033000},{LINA=75033000},{KT=DUMMY},{ARTNR=75033000},{POF=CUSTO®60Classic}
100
AcDbAttributeDefinition
  3

  2
PSOL_1
 70
     9
280
     0
  0
CIRCLE
  5
82
330
72
100
AcDbEntity
  8
bold
100
AcDbCircle
 10
13.5
 20
-66.0
 30
0.0
 40
8.0
  0
LINE
  5
83
330
72
100
AcDbEntity
  8
bold
100
AcDbLine
 10
13.95376344813461
 20
-85.17129168410517
 30
0.0
 11
23.3071
 21
-90.54820000000001
 31
0.0
  0
LINE
  5
84
330
72
100
AcDbEntity
  8
bold
100
AcDbLine
 10
23.3071
 20
-90.54820000000001
 30
0.0
 11
23.3071
 21
-60.9179
 31
0.0
  0
LINE
  5
85
330
72
100
AcDbEntity
  8
bold
100
AcDbLine
 10
23.3071
 20
-60.9179
 30
0.0
 11
12.19345226693103
 21
-52.06950000000001
 31
0.0
  0
LINE
  5
86
330
72
100
AcDbEntity
  8
bold
100
AcDbLine
 10
12.19345226693103
 20
-52.06950000000001
 30
0.0
 11
11.8883649078818
 21
-52.06950000000001
 31
0.0
  0
LINE
  5
87
330
72
100
AcDbEntity
  8
bold
100
AcDbLine
 10
11.8883649078818
 20
-52.06950000000001
 30
0.0
 11
0.4695999999999989
 21
-67.5417
 31
0.0
  0
LINE
  5
88
330
72
100
AcDbEntity
  8
bold
100
AcDbLine
 10
0.4695999999999989
 20
-67.5417
 30
0.0
 11
0.4696000000000006
 21
-75.62089352064501
 31
0.0
  0
LINE
  5
89
330
72
100
AcDbEntity
  8
bold
100
AcDbLine
 10
0.4696000000000006
 20
-75.62089352064501
 30
0.0
 11
14.73099226334293
 21
-83.8192725944434
 31
0.0
  0
LINE
  5
8A
330
72
100
AcDbEntity
  8
bold
100
AcDbLine
 10
14.73099226334293
 20
-83.8192725944434
 30
0.0
 11
13.95376344813461
 21
-85.17129168410517
 31
0.0
  0
ENDBLK
  5
75
330
72
100
AcDbEntity
  8
0
100
AcDbBlockEnd
  0
BLOCK
  5
8D
330
8B
100
AcDbEntity
  8
0
100
AcDbBlockBegin
  2
2_75033000_2_0_in_01498_0
 70
     2
 10
0.0
 20
0.0
 30
0.0
  3
2_75033000_2_0_in_01498_0
  1

  0
ATTDEF
  5
8F
330
8B
100
AcDbEntity
  8
attrib
100
AcDbText
 10
28.3071
 20
7.930500000000002
 30
0.0
 40
0.5
  1
75033000
100
AcDbAttributeDefinition
  3

  2
NB
 70
     8
280
     0
  0
ATTDEF
  5
90
330
8B
100
AcDbEntity
  8
attrib
100
AcDbText
 10
28.3071
 20
7.430500000000002
 30
0.0
 40
0.5
  1
CUSTO60 Part
100
AcDbAttributeDefinition
  3

  2
NN
 70
     8
280
     0
  0
ATTDEF
  5
91
330
8B
100
AcDbEntity
  8
attrib
100
AcDbText
 10
28.3071
 20
6.930500000000002
 30
0.0
 40
0.5
  1

100
AcDbAttributeDefinition
  3

  2
NT
 70
     8
280
     0
  0
ATTDEF
  5
92
330
8B
100
AcDbEntity
  8
attrib
100
AcDbText
 10
28.3071
 20
6.430500000000002
 30
0.0
 40
0.5
  1
$ARTNR.
100
AcDbAttributeDefinition
  3

  2
NBSYN
 70
     8
280
     0
  0
ATTDEF
  5
93
330
8B
100
AcDbEntity
  8
attrib
100
AcDbText
 10
28.3071
 20
5.930500000000002
 30
0.0
 40
0.5
  1
75033000
100
AcDbAttributeDefinition
  3

  2
LINA
 70
     8
280
     0
  0
ATTDEF
  5
94
330
8B
100
AcDbEntity
  8
attrib
100
AcDbText
 10
28.3071
 20
5.430500000000002
 30
0.0
 40
0.5
  1
Wöhner
100
AcDbAttributeDefinition
  3

  2
CATALOG
 70
     8
280
     0
  0
ATTDEF
  5
95
330
8B
100
AcDbEntity
  8
attrib
100
AcDbText
 10
28.3071
 20
4.930500000000002
 30
0.0
 40
0.5
  1
75033000
100
AcDbAttributeDefinition
  3

  2
ARTNR
 70
     8
280
     0
  0
ATTDEF
  5
96
330
8B
100
AcDbEntity
  8
attrib
100
AcDbText
 10
28.3071
 20
4.430500000000002
 30
0.0
 40
0.5
  1
CUSTO®60Classic
100
AcDbAttributeDefinition
  3

  2
POF
 70
     8
280
     0
  0
ATTDEF
  5
97
330
8B
100
AcDbEntity
  8
attrib
100
AcDbText
 10
28.3071
 20
3.930500000000002
 30
0.0
 40
0.5
  1
woehner
100
AcDbAttributeDefinition
  3

  2
COMPANY
 70
     8
280
     0
  0
ATTDEF
  5
98
330
8B
100
AcDbEntity
  8
attrib
100
AcDbText
 10
28.3071
 20
3.430500000000002
 30
0.0
 40
0.5
  1
{$CADENAS_DATA/23d-libs/woehner/sys_60classic/parts/d0_fuse_base_custo_part1.prj},163 {VTYP=3D},{NB=75033000},{LINA=75033000},{NN=CUSTO60 Part},{DATE=21.03.2023 15:11:36},{GEOMDATE=21.12.2022 12:00:00},{VERSION=},{LINEID=380},{WBVAR=},{WBNUMERIC=}  {NB=75
100
AcDbAttributeDefinition
  3

  2
PSOL_0
 70
     9
280
     0
  0
ATTDEF
  5
99
330
8B
100
AcDbEntity
  8
attrib
100
AcDbText
 10
28.3071
 20
2.930500000000002
 30
0.0
 40
0.5
  1
033000},{LINA=75033000},{KT=DUMMY},{ARTNR=75033000},{POF=CUSTO®60Classic}
100
AcDbAttributeDefinition
  3

  2
PSOL_1
 70
     9
280
     0
  0
LINE
  5
9A
330
8B
100
AcDbEntity
  8
bold
100
AcDbLine
 10
11.8883649078818
 20
7.930500000000002
 30
0.0
 11
0.4695999999999989
 21
-7.541700000000001
 31
0.0
  0
LINE
  5
9B
330
8B
100
AcDbEntity
  8
bold
100
AcDbLine
 10
0.4695999999999989
 20
-7.541700000000001
 30
0.0
 11
0.4696000000000006
 21
-15.620893520645
 31
0.0
  0
LINE
  5
9C
330
8B
100
AcDbEntity
  8
bold
100
AcDbLine
 10
12.19345226693103
 20
7.930500000000002
 30
0.0
 11
11.8883649078818
 21
7.930500000000002
 31
0.0
  0
LINE
  5
9D
330
8B
100
AcDbEntity
  8
bold
100
AcDbLine
 10
0.4696000000000006
 20
-15.620893520645
 30
0.0
 11
14.73099226334293
 21
-23.81927259444339
 31
0.0
  0
CIRCLE
  5
9E
330
8B
100
AcDbEntity
  8
bold
100
AcDbCircle
 10
13.5
 20
-6.0
 30
0.0
 40
8.0
  0
LINE
  5
9F
330
8B
100
AcDbEntity
  8
bold
100
AcDbLine
 10
14.73099226334293
 20
-23.81927259444339
 30
0.0
 11
13.95376344813461
 21
-25.17129168410517
 31
0.0
  0
LINE
  5
A0
330
8B
100
AcDbEntity
  8
bold
100
AcDbLine
 10
23.3071
 20
-30.5482
 30
0.0
 11
23.3071
 21
-0.9178999999999975
 31
0.0
  0
LINE
  5
A1
330
8B
100
AcDbEntity
  8
bold
100
AcDbLine
 10
23.3071
 20
-0.9178999999999975
 30
0.0
 11
12.19345226693103
 21
7.930500000000002
 31
0.0
  0
LINE
  5
A2
330
8B
100
AcDbEntity
  8
bold
100
AcDbLine
 10
13.95376344813461
 20
-25.17129168410517
 30
0.0
 11
23.3071
 21
-30.5482
 31
0.0
  0
ENDBLK
  5
8E
330
8B
100
AcDbEntity
  8
0
100
AcDbBlockEnd
  0
BLOCK
  5
A5
330
A3
100
AcDbEntity
  8
0
100
AcDbBlockBegin
  2
3_75033000_3_0_in_01498_0
 70
     2
 10
0.0
 20
0.0
 30
0.0
  3
3_75033000_3_0_in_01498_0
  1

  0
ATTDEF
  5
A7
330
A3
100
AcDbEntity
  8
attrib
100
AcDbText
 10
28.3071
 20
67.93050000000001
 30
0.0
 40
0.5
  1
75033000
100
AcDbAttributeDefinition
  3

  2
NB
 70
     8
280
     0
  0
ATTDEF
  5
A8
330
A3
100
AcDbEntity
  8
attrib
100
AcDbText
 10
28.3071
 20
67.43050000000001
 30
0.0
 40
0.5
  1
CUSTO60 Part
100
AcDbAttributeDefinition
  3

  2
NN
 70
     8
280
     0
  0
ATTDEF
  5
A9
330
A3
100
AcDbEntity
  8
attrib
100
AcDbText
 10
28.3071
 20
66.93050000000001
 30
0.0
 40
0.5
  1

100
AcDbAttributeDefinition
  3

  2
NT
 70
     8
280
     0
  0
ATTDEF
  5
AA
330
A3
100
AcDbEntity
  8
attrib
100
AcDbText
 10
28.3071
 20
66.43050000000001
 30
0.0
 40
0.5
  1
$ARTNR.
100
AcDbAttributeDefinition
  3

  2
NBSYN
 70
     8
280
     0
  0
ATTDEF
  5
AB
330
A3
100
AcDbEntity
  8
attrib
100
AcDbText
 10
28.3071
 20
65.93050000000001
 30
0.0
 40
0.5
  1
75033000
100
AcDbAttributeDefinition
  3

  2
LINA
 70
     8
280
     0
  0
ATTDEF
  5
AC
330
A3
100
AcDbEntity
  8
attrib
100
AcDbText
 10
28.3071
 20
65.43050000000001
 30
0.0
 40
0.5
  1
Wöhner
100
AcDbAttributeDefinition
  3

  2
CATALOG
 70
     8
280
     0
  0
ATTDEF
  5
AD
330
A3
100
AcDbEntity
  8
attrib
100
AcDbText
 10
28.3071
 20
64.93050000000001
 30
0.0
 40
0.5
  1
75033000
100
AcDbAttributeDefinition
  3

  2
ARTNR
 70
     8
280
     0
  0
ATTDEF
  5
AE
330
A3
100
AcDbEntity
  8
attrib
100
AcDbText
 10
28.3071
 20
64.43050000000001
 30
0.0
 40
0.5
  1
CUSTO®60Classic
100
AcDbAttributeDefinition
  3

  2
POF
 70
     8
280
     0
  0
ATTDEF
  5
AF
330
A3
100
AcDbEntity
  8
attrib
100
AcDbText
 10
28.3071
 20
63.93050000000001
 30
0.0
 40
0.5
  1
woehner
100
AcDbAttributeDefinition
  3

  2
COMPANY
 70
     8
280
     0
  0
ATTDEF
  5
B0
330
A3
100
AcDbEntity
  8
attrib
100
AcDbText
 10
28.3071
 20
63.43050000000001
 30
0.0
 40
0.5
  1
{$CADENAS_DATA/23d-libs/woehner/sys_60classic/parts/d0_fuse_base_custo_part1.prj},163 {VTYP=3D},{NB=75033000},{LINA=75033000},{NN=CUSTO60 Part},{DATE=21.03.2023 15:11:36},{GEOMDATE=21.12.2022 12:00:00},{VERSION=},{LINEID=380},{WBVAR=},{WBNUMERIC=}  {NB=75
100
AcDbAttributeDefinition
  3

  2
PSOL_0
 70
     9
280
     0
  0
ATTDEF
  5
B1
330
A3
100
AcDbEntity
  8
attrib
100
AcDbText
 10
28.3071
 20
62.93050000000001
 30
0.0
 40
0.5
  1
033000},{LINA=75033000},{KT=DUMMY},{ARTNR=75033000},{POF=CUSTO®60Classic}
100
AcDbAttributeDefinition
  3

  2
PSOL_1
 70
     9
280
     0
  0
LINE
  5
B2
330
A3
100
AcDbEntity
  8
bold
100
AcDbLine
 10
23.3071
 20
29.4518
 30
0.0
 11
23.3071
 21
59.0821
 31
0.0
  0
LINE
  5
B3
330
A3
100
AcDbEntity
  8
bold
100
AcDbLine
 10
13.95376344813461
 20
34.82870831589482
 30
0.0
 11
23.3071
 21
29.4518
 31
0.0
  0
LINE
  5
B4
330
A3
100
AcDbEntity
  8
bold
100
AcDbLine
 10
23.3071
 20
59.0821
 30
0.0
 11
12.19345226693103
 21
67.93050000000001
 31
0.0
  0
CIRCLE
  5
B5
330
A3
100
AcDbEntity
  8
bold
100
AcDbCircle
 10
13.5
 20
54.0
 30
0.0
 40
8.0
  0
LINE
  5
B6
330
A3
100
AcDbEntity
  8
bold
100
AcDbLine
 10
14.73099226334293
 20
36.18072740555661
 30
0.0
 11
13.95376344813461
 21
34.82870831589482
 31
0.0
  0
LINE
  5
B7
330
A3
100
AcDbEntity
  8
bold
100
AcDbLine
 10
0.4696000000000006
 20
44.379106479355
 30
0.0
 11
14.73099226334293
 21
36.18072740555661
 31
0.0
  0
LINE
  5
B8
330
A3
100
AcDbEntity
  8
bold
100
AcDbLine
 10
12.19345226693103
 20
67.93050000000001
 30
0.0
 11
11.8883649078818
 21
67.93050000000001
 31
0.0
  0
LINE
  5
B9
330
A3
100
AcDbEntity
  8
bold
100
AcDbLine
 10
11.8883649078818
 20
67.93050000000001
 30
0.0
 11
0.4695999999999989
 21
52.4583
 31
0.0
  0
LINE
  5
BA
330
A3
100
AcDbEntity
  8
bold
100
AcDbLine
 10
0.4695999999999989
 20
52.4583
 30
0.0
 11
0.4696000000000006
 21
44.379106479355
 31
0.0
  0
ENDBLK
  5
A6
330
A3
100
AcDbEntity
  8
0
100
AcDbBlockEnd
  0
BLOCK
  5
BD
330
BB
100
AcDbEntity
  8
0
100
AcDbBlockBegin
  2
4_30414000_1_0_in_01498_0
 70
     2
 10
0.0
 20
0.0
 30
0.0
  3
4_30414000_1_0_in_01498_0
  1

  0
ATTDEF
  5
BF
330
BB
100
AcDbEntity
  8
attrib
100
AcDbText
 10
26.95751334518895
 20
-85.2585962641514
 30
0.0
 40
0.5
  1
30414000
100
AcDbAttributeDefinition
  3

  2
NB
 70
     8
280
     0
  0
ATTDEF
  5
C0
330
BB
100
AcDbEntity
  8
attrib
100
AcDbText
 10
26.95751334518895
 20
-85.7585962641514
 30
0.0
 40
0.5
  1
CUSTO60 Part
100
AcDbAttributeDefinition
  3

  2
NN
 70
     8
280
     0
  0
ATTDEF
  5
C1
330
BB
100
AcDbEntity
  8
attrib
100
AcDbText
 10
26.95751334518895
 20
-86.2585962641514
 30
0.0
 40
0.5
  1

100
AcDbAttributeDefinition
  3

  2
NT
 70
     8
280
     0
  0
ATTDEF
  5
C2
330
BB
100
AcDbEntity
  8
attrib
100
AcDbText
 10
26.95751334518895
 20
-86.7585962641514
 30
0.0
 40
0.5
  1
$ARTNR.
100
AcDbAttributeDefinition
  3

  2
NBSYN
 70
     8
280
     0
  0
ATTDEF
  5
C3
330
BB
100
AcDbEntity
  8
attrib
100
AcDbText
 10
26.95751334518895
 20
-87.2585962641514
 30
0.0
 40
0.5
  1
30414000
100
AcDbAttributeDefinition
  3

  2
LINA
 70
     8
280
     0
  0
ATTDEF
  5
C4
330
BB
100
AcDbEntity
  8
attrib
100
AcDbText
 10
26.95751334518895
 20
-87.7585962641514
 30
0.0
 40
0.5
  1
Wöhner
100
AcDbAttributeDefinition
  3

  2
CATALOG
 70
     8
280
     0
  0
ATTDEF
  5
C5
330
BB
100
AcDbEntity
  8
attrib
100
AcDbText
 10
26.95751334518895
 20
-88.2585962641514
 30
0.0
 40
0.5
  1
30414000
100
AcDbAttributeDefinition
  3

  2
ARTNR
 70
     8
280
     0
  0
ATTDEF
  5
C6
330
BB
100
AcDbEntity
  8
attrib
100
AcDbText
 10
26.95751334518895
 20
-88.7585962641514
 30
0.0
 40
0.5
  1
CUSTO®60Classic
100
AcDbAttributeDefinition
  3

  2
POF
 70
     8
280
     0
  0
ATTDEF
  5
C7
330
BB
100
AcDbEntity
  8
attrib
100
AcDbText
 10
26.95751334518895
 20
-89.2585962641514
 30
0.0
 40
0.5
  1
woehner
100
AcDbAttributeDefinition
  3

  2
COMPANY
 70
     8
280
     0
  0
ATTDEF
  5
C8
330
BB
100
AcDbEntity
  8
attrib
100
AcDbText
 10
26.95751334518895
 20
-89.7585962641514
 30
0.0
 40
0.5
  1
{$CADENAS_DATA/23d-libs/woehner/sys_60classic/d_fuse_bases/parts/d_fuse_base_custo_part2.prj},163 {VTYP=3D},{NB=30414000},{LINA=30414000},{NN=CUSTO60 Part},{DATE=21.03.2023 15:11:35},{GEOMDATE=08.12.2022 06:03:00},{VERSION=},{LINEID=380},{WBVAR=},{WBNUMER
100
AcDbAttributeDefinition
  3

  2
PSOL_0
 70
     9
280
     0
  0
ATTDEF
  5
C9
330
BB
100
AcDbEntity
  8
attrib
100
AcDbText
 10
26.95751334518895
 20
-90.2585962641514
 30
0.0
 40
0.5
  1
IC=}  {NB=30414000},{LINA=30414000},{KT=DUMMY},{ARTNR=30414000},{POF=CUSTO®60Classic}
100
AcDbAttributeDefinition
  3

  2
PSOL_1
 70
     9
280
     0
  0
LINE
  5
CC
330
BB
100
AcDbEntity
  8
hidden
100
AcDbLine
 10
13.00689314291007
 20
-90.68670497817574
 30
0.0
 11
10.81010153777248
 21
-94.34801802398053
 31
0.0
  0
LINE
  5
CD
330
BB
100
AcDbEntity
  8
hidden
100
AcDbLine
 10
15.95506559748869
 20
-85.773092670123
 30
0.0
 11
13.73743688790925
 21
-89.46913416361092
 31
0.0
  0
LINE
  5
CE
330
BB
100
AcDbEntity
  8
hidden
100
AcDbLine
 10
18.15184835522459
 20
-93.77368341400546
 30
0.0
 11
15.95505675008699
 21
-97.43499645981025
 31
0.0
  0
LINE
  5
CF
330
BB
100
AcDbEntity
  8
hidden
100
AcDbLine
 10
21.1000208098032
 20
-88.86007110595273
 30
0.0
 11
18.88239210022376
 21
-92.55611259944065
 31
0.0
  0
LINE
  5
D0
330
BB
100
AcDbEntity
  8
hidden
100
AcDbLine
 10
9.952609002386732
 20
-93.83352161800892
 30
0.0
 11
10.88444614059043
 21
-94.39262486237827
 31
0.0
  0
LINE
  5
D1
330
BB
100
AcDbEntity
  8
hidden
100
AcDbLine
 10
10.06816489516796
 20
-93.64092879456128
 30
0.0
 11
9.952609002386732
 21
-93.83352161800892
 31
0.0
  0
LINE
  5
D2
330
BB
100
AcDbEntity
  8
hidden
100
AcDbLine
 10
15.09757306210294
 20
-85.2585962641514
 30
0.0
 11
14.84317893111499
 21
-85.68258575336104
 31
0.0
  0
LINE
  5
D3
330
BB
100
AcDbEntity
  8
hidden
100
AcDbLine
 10
16.02940135290494
 20
-97.479603298208
 30
0.0
 11
16.81254928547275
 21
-97.94949286578188
 31
0.0
  0
LINE
  5
D4
330
BB
100
AcDbEntity
  8
hidden
100
AcDbLine
 10
16.92810517825397
 20
-97.75690004233424
 30
0.0
 11
16.81254928547275
 21
-97.94949286578188
 31
0.0
  0
LINE
  5
D5
330
BB
100
AcDbEntity
  8
hidden
100
AcDbLine
 10
21.95751334518895
 20
-89.37456751192435
 30
0.0
 11
21.78004431260256
 21
-89.67034872426844
 31
0.0
  0
LINE
  5
D6
330
BB
100
AcDbEntity
  8
hidden
100
AcDbLine
 10
19.45231407546821
 20
-89.66259610011151
 30
0.0
 11
15.88777841365049
 21
-95.60347865370822
 31
0.0
  0
LINE
  5
D7
330
BB
100
AcDbEntity
  8
hidden
100
AcDbLine
 10
20.24252827441745
 20
-88.34557469998111
 30
0.0
 11
20.04582796723067
 21
-88.67340798154159
 31
0.0
  0
LINE
  5
D8
330
BB
100
AcDbEntity
  8
hidden
100
AcDbLine
 10
16.02234393392521
 20
-87.60461047622503
 30
0.0
 11
12.45780827210748
 21
-93.54549302982174
 31
0.0
  0
LINE
  5
D9
330
BB
100
AcDbEntity
  8
hidden
100
AcDbLine
 10
16.81255813287444
 20
-86.28758907609463
 30
0.0
 11
16.57739527648689
 21
-86.67952649608789
 31
0.0
  0
CIRCLE
  5
DA
330
BB
100
AcDbEntity
  8
hidden
100
AcDbCircle
 10
15.95506117378784
 20
-91.60404456496663
 30
0.0
 40
2.0
  0
LINE
  5
DD
330
BB
100
AcDbEntity
  8
center
100
AcDbLine
 10
13.85506117378784
 20
-91.60404456496663
 30
0.0
 11
18.05506117378784
 21
-91.60404456496663
 31
0.0
  0
LINE
  5
DE
330
BB
100
AcDbEntity
  8
center
100
AcDbLine
 10
15.95506117378784
 20
-93.70404456496662
 30
0.0
 11
15.95506117378784
 21
-89.50404456496663
 31
0.0
  0
LINE
  5
DF
330
BB
100
AcDbEntity
  8
bold
100
AcDbLine
 10
14.84317893111499
 20
-85.68258575336104
 30
0.0
 11
10.06816489516796
 21
-93.64092879456128
 31
0.0
  0
LINE
  5
E1
330
BB
100
AcDbEntity
  8
light
100
AcDbLine
 10
12.45780827210748
 20
-93.54549302982174
 30
0.0
 11
11.66759407315824
 21
-94.86251442995216
 31
0.0
  0
LINE
  5
E2
330
BB
100
AcDbEntity
  8
bold
100
AcDbLine
 10
10.88444614059043
 20
-94.39262486237827
 30
0.0
 11
16.02940135290494
 21
-97.479603298208
 31
0.0
  0
LINE
  5
E3
330
BB
100
AcDbEntity
  8
bold
100
AcDbLine
 10
21.78004431260256
 20
-89.67034872426844
 30
0.0
 11
16.92810517825397
 21
-97.75690004233424
 31
0.0
  0
LINE
  5
E4
330
BB
100
AcDbEntity
  8
light
100
AcDbLine
 10
15.88777841365049
 20
-95.60347865370822
 30
0.0
 11
15.09756421470124
 21
-96.92050005383864
 31
0.0
  0
LINE
  5
E5
330
BB
100
AcDbEntity
  8
light
100
AcDbLine
 10
20.04582796723067
 20
-88.67340798154159
 30
0.0
 11
19.45231407546821
 21
-89.66259610011151
 31
0.0
  0
LINE
  5
E6
330
BB
100
AcDbEntity
  8
light
100
AcDbLine
 10
16.57739527648689
 20
-86.67952649608789
 30
0.0
 11
16.02234393392521
 21
-87.60461047622503
 31
0.0
  0
LINE
  5
E7
330
BB
100
AcDbEntity
  8
bold
100
AcDbLine
 10
14.56652360599677
 20
-95.3553061424673
 30
0.0
 11
16.22077175243081
 21
-92.59823063955088
 31
0.0
  0
LINE
  5
E8
330
BB
100
AcDbEntity
  8
bold
100
AcDbLine
 10
16.22077175243081
 20
-92.59823063955088
 30
0.0
 11
18.15926225255062
 21
-93.76132693971061
 31
0.0
  0
LINE
  5
E9
330
BB
100
AcDbEntity
  8
bold
100
AcDbLine
 10
16.93648770277793
 20
-91.40537277357575
 30
0.0
 11
18.61157295365382
 21
-88.61356882297619
 31
0.0
  0
LINE
  5
EA
330
BB
100
AcDbEntity
  8
bold
100
AcDbLine
 10
18.87497820289773
 20
-92.56846907373549
 30
0.0
 11
16.93648770277793
 21
-91.40537277357575
 31
0.0
  0
LINE
  5
EB
330
BB
100
AcDbEntity
  8
bold
100
AcDbLine
 10
15.66851349070302
 20
-90.64458693806552
 30
0.0
 11
13.73002299058322
 21
-89.48149063790576
 31
0.0
  0
LINE
  5
EC
330
BB
100
AcDbEntity
  8
bold
100
AcDbLine
 10
17.34359874157891
 20
-87.85278298746596
 30
0.0
 11
15.66851349070302
 21
-90.64458693806552
 31
0.0
  0
ARC
  5
ED
330
BB
100
AcDbEntity
  8
light
100
AcDbCircle
 10
15.95506117378788
 20
-91.60404456496661
 30
0.0
 40
2.99999999999997
100
AcDbArc
 50
342.0449585901982
 51
44.76865957884554
  0
LINE
  5
EE
330
BB
100
AcDbEntity
  8
bold
100
AcDbLine
 10
18.15926225255062
 20
-93.76132693971061
 30
0.0
 11
18.87497820289773
 21
-92.56846907373549
 31
0.0
  0
ARC
  5
EF
330
BB
100
AcDbEntity
  8
light
100
AcDbCircle
 10
15.95506117378783
 20
-91.60404456496657
 30
0.0
 40
3.000000000000064
100
AcDbArc
 50
253.3037404211551
 51
315.2322740424136
  0
LINE
  5
F0
330
BB
100
AcDbEntity
  8
bold
100
AcDbLine
 10
14.9527975403559
 20
-91.83744480404063
 30
0.0
 11
13.29854939392186
 21
-94.59452030695707
 31
0.0
  0
LINE
  5
F1
330
BB
100
AcDbEntity
  8
bold
100
AcDbLine
 10
13.0143070402361
 20
-90.67434850388089
 30
0.0
 11
14.9527975403559
 21
-91.83744480404063
 31
0.0
  0
ARC
  5
F2
330
BB
100
AcDbEntity
  8
light
100
AcDbCircle
 10
15.95506117378786
 20
-91.60404456496663
 30
0.0
 40
3.00000000000002
100
AcDbArc
 50
162.8401259575858
 51
224.7686595788451
  0
LINE
  5
F3
330
BB
100
AcDbEntity
  8
bold
100
AcDbLine
 10
13.73002299058322
 20
-89.48149063790576
 30
0.0
 11
13.0143070402361
 21
-90.67434850388089
 31
0.0
  0
ARC
  5
F4
330
BB
100
AcDbEntity
  8
light
100
AcDbCircle
 10
15.95506117378784
 20
-91.60404456496664
 30
0.0
 40
3.000000000000014
100
AcDbArc
 50
73.30374042115457
 51
136.0274414098012
  0
CIRCLE
  5
F5
330
BB
100
AcDbEntity
  8
bold
100
AcDbCircle
 10
15.95506117378805
 20
-91.60404456496627
 30
0.0
 40
3.999999999999593
  0
ENDBLK
  5
BE
330
BB
100
AcDbEntity
  8
0
100
AcDbBlockEnd
  0
BLOCK
  5
F8
330
F6
100
AcDbEntity
  8
0
100
AcDbBlockBegin
  2
5_30414000_2_0_in_01498_0
 70
     2
 10
0.0
 20
0.0
 30
0.0
  3
5_30414000_2_0_in_01498_0
  1

  0
ATTDEF
  5
FA
330
F6
100
AcDbEntity
  8
attrib
100
AcDbText
 10
26.95751334518895
 20
-25.25859626415139
 30
0.0
 40
0.5
  1
30414000
100
AcDbAttributeDefinition
  3

  2
NB
 70
     8
280
     0
  0
ATTDEF
  5
FB
330
F6
100
AcDbEntity
  8
attrib
100
AcDbText
 10
26.95751334518895
 20
-25.75859626415139
 30
0.0
 40
0.5
  1
CUSTO60 Part
100
AcDbAttributeDefinition
  3

  2
NN
 70
     8
280
     0
  0
ATTDEF
  5
FC
330
F6
100
AcDbEntity
  8
attrib
100
AcDbText
 10
26.95751334518895
 20
-26.25859626415139
 30
0.0
 40
0.5
  1

100
AcDbAttributeDefinition
  3

  2
NT
 70
     8
280
     0
  0
ATTDEF
  5
FD
330
F6
100
AcDbEntity
  8
attrib
100
AcDbText
 10
26.95751334518895
 20
-26.75859626415139
 30
0.0
 40
0.5
  1
$ARTNR.
100
AcDbAttributeDefinition
  3

  2
NBSYN
 70
     8
280
     0
  0
ATTDEF
  5
FE
330
F6
100
AcDbEntity
  8
attrib
100
AcDbText
 10
26.95751334518895
 20
-27.25859626415139
 30
0.0
 40
0.5
  1
30414000
100
AcDbAttributeDefinition
  3

  2
LINA
 70
     8
280
     0
  0
ATTDEF
  5
FF
330
F6
100
AcDbEntity
  8
attrib
100
AcDbText
 10
26.95751334518895
 20
-27.75859626415139
 30
0.0
 40
0.5
  1
Wöhner
100
AcDbAttributeDefinition
  3

  2
CATALOG
 70
     8
280
     0
  0
ATTDEF
  5
100
330
F6
100
AcDbEntity
  8
attrib
100
AcDbText
 10
26.95751334518895
 20
-28.25859626415139
 30
0.0
 40
0.5
  1
30414000
100
AcDbAttributeDefinition
  3

  2
ARTNR
 70
     8
280
     0
  0
ATTDEF
  5
101
330
F6
100
AcDbEntity
  8
attrib
100
AcDbText
 10
26.95751334518895
 20
-28.75859626415139
 30
0.0
 40
0.5
  1
CUSTO®60Classic
100
AcDbAttributeDefinition
  3

  2
POF
 70
     8
280
     0
  0
ATTDEF
  5
102
330
F6
100
AcDbEntity
  8
attrib
100
AcDbText
 10
26.95751334518895
 20
-29.25859626415139
 30
0.0
 40
0.5
  1
woehner
100
AcDbAttributeDefinition
  3

  2
COMPANY
 70
     8
280
     0
  0
ATTDEF
  5
103
330
F6
100
AcDbEntity
  8
attrib
100
AcDbText
 10
26.95751334518895
 20
-29.75859626415139
 30
0.0
 40
0.5
  1
{$CADENAS_DATA/23d-libs/woehner/sys_60classic/d_fuse_bases/parts/d_fuse_base_custo_part2.prj},163 {VTYP=3D},{NB=30414000},{LINA=30414000},{NN=CUSTO60 Part},{DATE=21.03.2023 15:11:35},{GEOMDATE=08.12.2022 06:03:00},{VERSION=},{LINEID=380},{WBVAR=},{WBNUMER
100
AcDbAttributeDefinition
  3

  2
PSOL_0
 70
     9
280
     0
  0
ATTDEF
  5
104
330
F6
100
AcDbEntity
  8
attrib
100
AcDbText
 10
26.95751334518895
 20
-30.25859626415139
 30
0.0
 40
0.5
  1
IC=}  {NB=30414000},{LINA=30414000},{KT=DUMMY},{ARTNR=30414000},{POF=CUSTO®60Classic}
100
AcDbAttributeDefinition
  3

  2
PSOL_1
 70
     9
280
     0
  0
LINE
  5
105
330
F6
100
AcDbEntity
  8
hidden
100
AcDbLine
 10
13.00689314291008
 20
-30.68670497817574
 30
0.0
 11
10.81010153777248
 21
-34.34801802398054
 31
0.0
  0
LINE
  5
106
330
F6
100
AcDbEntity
  8
hidden
100
AcDbLine
 10
15.95506559748869
 20
-25.77309267012301
 30
0.0
 11
13.73743688790924
 21
-29.46913416361092
 31
0.0
  0
LINE
  5
107
330
F6
100
AcDbEntity
  8
hidden
100
AcDbLine
 10
18.15184835522459
 20
-33.77368341400547
 30
0.0
 11
15.95505675008699
 21
-37.43499645981026
 31
0.0
  0
LINE
  5
108
330
F6
100
AcDbEntity
  8
hidden
100
AcDbLine
 10
21.1000208098032
 20
-28.86007110595273
 30
0.0
 11
18.88239210022375
 21
-32.55611259944065
 31
0.0
  0
LINE
  5
109
330
F6
100
AcDbEntity
  8
hidden
100
AcDbLine
 10
9.952609002386732
 20
-33.83352161800892
 30
0.0
 11
10.88444614059043
 21
-34.39262486237828
 31
0.0
  0
LINE
  5
10A
330
F6
100
AcDbEntity
  8
hidden
100
AcDbLine
 10
10.06816489516796
 20
-33.64092879456127
 30
0.0
 11
9.952609002386732
 21
-33.83352161800892
 31
0.0
  0
LINE
  5
10B
330
F6
100
AcDbEntity
  8
hidden
100
AcDbLine
 10
15.09757306210294
 20
-25.25859626415139
 30
0.0
 11
14.84317893111499
 21
-25.68258575336104
 31
0.0
  0
LINE
  5
10C
330
F6
100
AcDbEntity
  8
hidden
100
AcDbLine
 10
16.02940135290494
 20
-37.479603298208
 30
0.0
 11
16.81254928547275
 21
-37.94949286578188
 31
0.0
  0
LINE
  5
10D
330
F6
100
AcDbEntity
  8
hidden
100
AcDbLine
 10
16.92810517825397
 20
-37.75690004233424
 30
0.0
 11
16.81254928547275
 21
-37.94949286578188
 31
0.0
  0
LINE
  5
10E
330
F6
100
AcDbEntity
  8
hidden
100
AcDbLine
 10
21.95751334518895
 20
-29.37456751192435
 30
0.0
 11
21.78004431260256
 21
-29.67034872426843
 31
0.0
  0
LINE
  5
10F
330
F6
100
AcDbEntity
  8
hidden
100
AcDbLine
 10
19.45231407546821
 20
-29.66259610011152
 30
0.0
 11
15.88777841365049
 21
-35.60347865370823
 31
0.0
  0
LINE
  5
110
330
F6
100
AcDbEntity
  8
hidden
100
AcDbLine
 10
20.24252827441745
 20
-28.34557469998111
 30
0.0
 11
20.04582796723068
 21
-28.67340798154158
 31
0.0
  0
LINE
  5
111
330
F6
100
AcDbEntity
  8
hidden
100
AcDbLine
 10
16.0223439339252
 20
-27.60461047622504
 30
0.0
 11
12.45780827210748
 21
-33.54549302982174
 31
0.0
  0
LINE
  5
112
330
F6
100
AcDbEntity
  8
hidden
100
AcDbLine
 10
16.81255813287444
 20
-26.28758907609463
 30
0.0
 11
16.57739527648689
 21
-26.67952649608788
 31
0.0
  0
CIRCLE
  5
113
330
F6
100
AcDbEntity
  8
hidden
100
AcDbCircle
 10
15.95506117378784
 20
-31.60404456496664
 30
0.0
 40
2.0
  0
LINE
  5
114
330
F6
100
AcDbEntity
  8
center
100
AcDbLine
 10
13.85506117378784
 20
-31.60404456496664
 30
0.0
 11
18.05506117378784
 21
-31.60404456496664
 31
0.0
  0
LINE
  5
115
330
F6
100
AcDbEntity
  8
center
100
AcDbLine
 10
15.95506117378784
 20
-33.70404456496664
 30
0.0
 11
15.95506117378784
 21
-29.50404456496663
 31
0.0
  0
LINE
  5
116
330
F6
100
AcDbEntity
  8
bold
100
AcDbLine
 10
14.84317893111499
 20
-25.68258575336104
 30
0.0
 11
10.06816489516796
 21
-33.64092879456127
 31
0.0
  0
LINE
  5
117
330
F6
100
AcDbEntity
  8
light
100
AcDbLine
 10
12.45780827210748
 20
-33.54549302982174
 30
0.0
 11
11.66759407315824
 21
-34.86251442995216
 31
0.0
  0
LINE
  5
118
330
F6
100
AcDbEntity
  8
bold
100
AcDbLine
 10
10.88444614059043
 20
-34.39262486237828
 30
0.0
 11
16.02940135290494
 21
-37.479603298208
 31
0.0
  0
LINE
  5
119
330
F6
100
AcDbEntity
  8
bold
100
AcDbLine
 10
21.78004431260256
 20
-29.67034872426843
 30
0.0
 11
16.92810517825397
 21
-37.75690004233424
 31
0.0
  0
LINE
  5
11A
330
F6
100
AcDbEntity
  8
light
100
AcDbLine
 10
15.88777841365049
 20
-35.60347865370823
 30
0.0
 11
15.09756421470124
 21
-36.92050005383864
 31
0.0
  0
LINE
  5
11B
330
F6
100
AcDbEntity
  8
light
100
AcDbLine
 10
20.04582796723068
 20
-28.67340798154158
 30
0.0
 11
19.45231407546821
 21
-29.66259610011152
 31
0.0
  0
LINE
  5
11C
330
F6
100
AcDbEntity
  8
light
100
AcDbLine
 10
16.57739527648689
 20
-26.67952649608788
 30
0.0
 11
16.0223439339252
 21
-27.60461047622504
 31
0.0
  0
LINE
  5
11D
330
F6
100
AcDbEntity
  8
bold
100
AcDbLine
 10
16.22077175243081
 20
-32.59823063955088
 30
0.0
 11
18.15926225255062
 21
-33.76132693971061
 31
0.0
  0
LINE
  5
11E
330
F6
100
AcDbEntity
  8
bold
100
AcDbLine
 10
14.56652360599677
 20
-35.35530614246731
 30
0.0
 11
16.22077175243081
 21
-32.59823063955088
 31
0.0
  0
LINE
  5
11F
330
F6
100
AcDbEntity
  8
bold
100
AcDbLine
 10
16.93648770277793
 20
-31.40537277357575
 30
0.0
 11
18.61157295365382
 21
-28.61356882297619
 31
0.0
  0
LINE
  5
120
330
F6
100
AcDbEntity
  8
bold
100
AcDbLine
 10
18.87497820289773
 20
-32.5684690737355
 30
0.0
 11
16.93648770277793
 21
-31.40537277357575
 31
0.0
  0
LINE
  5
121
330
F6
100
AcDbEntity
  8
bold
100
AcDbLine
 10
18.15926225255062
 20
-33.76132693971061
 30
0.0
 11
18.87497820289773
 21
-32.5684690737355
 31
0.0
  0
ARC
  5
122
330
F6
100
AcDbEntity
  8
light
100
AcDbCircle
 10
15.95506117378783
 20
-31.60404456496662
 30
0.0
 40
3.000000000000014
100
AcDbArc
 50
253.3037404211548
 51
315.2322740424145
  0
LINE
  5
123
330
F6
100
AcDbEntity
  8
bold
100
AcDbLine
 10
14.9527975403559
 20
-31.83744480404064
 30
0.0
 11
13.29854939392186
 21
-34.59452030695707
 31
0.0
  0
LINE
  5
124
330
F6
100
AcDbEntity
  8
bold
100
AcDbLine
 10
13.0143070402361
 20
-30.67434850388089
 30
0.0
 11
14.9527975403559
 21
-31.83744480404064
 31
0.0
  0
LINE
  5
125
330
F6
100
AcDbEntity
  8
bold
100
AcDbLine
 10
15.66851349070302
 20
-30.64458693806552
 30
0.0
 11
13.73002299058322
 21
-29.48149063790577
 31
0.0
  0
LINE
  5
126
330
F6
100
AcDbEntity
  8
bold
100
AcDbLine
 10
17.34359874157891
 20
-27.85278298746596
 30
0.0
 11
15.66851349070302
 21
-30.64458693806552
 31
0.0
  0
ARC
  5
127
330
F6
100
AcDbEntity
  8
light
100
AcDbCircle
 10
15.95506117378782
 20
-31.60404456496664
 30
0.0
 40
3.00000000000002
100
AcDbArc
 50
342.0449585901989
 51
44.7686595788452
  0
ARC
  5
128
330
F6
100
AcDbEntity
  8
light
100
AcDbCircle
 10
15.95506117378785
 20
-31.60404456496664
 30
0.0
 40
3.000000000000012
100
AcDbArc
 50
162.8401259575856
 51
224.7686595788453
  0
LINE
  5
129
330
F6
100
AcDbEntity
  8
bold
100
AcDbLine
 10
13.73002299058322
 20
-29.48149063790577
 30
0.0
 11
13.0143070402361
 21
-30.67434850388089
 31
0.0
  0
ARC
  5
12A
330
F6
100
AcDbEntity
  8
light
100
AcDbCircle
 10
15.95506117378784
 20
-31.60404456496662
 30
0.0
 40
2.999999999999994
100
AcDbArc
 50
73.30374042115439
 51
136.0274414098016
  0
CIRCLE
  5
12B
330
F6
100
AcDbEntity
  8
bold
100
AcDbCircle
 10
15.95506117378779
 20
-31.60404456496671
 30
0.0
 40
4.000000000000086
  0
ENDBLK
  5
F9
330
F6
100
AcDbEntity
  8
0
100
AcDbBlockEnd
  0
BLOCK
  5
12E
330
12C
100
AcDbEntity
  8
0
100
AcDbBlockBegin
  2
6_30414000_3_0_in_01498_0
 70
     2
 10
0.0
 20
0.0
 30
0.0
  3
6_30414000_3_0_in_01498_0
  1

  0
ATTDEF
  5
130
330
12C
100
AcDbEntity
  8
attrib
100
AcDbText
 10
26.95751334518895
 20
34.74140373584861
 30
0.0
 40
0.5
  1
30414000
100
AcDbAttributeDefinition
  3

  2
NB
 70
     8
280
     0
  0
ATTDEF
  5
131
330
12C
100
AcDbEntity
  8
attrib
100
AcDbText
 10
26.95751334518895
 20
34.24140373584861
 30
0.0
 40
0.5
  1
CUSTO60 Part
100
AcDbAttributeDefinition
  3

  2
NN
 70
     8
280
     0
  0
ATTDEF
  5
132
330
12C
100
AcDbEntity
  8
attrib
100
AcDbText
 10
26.95751334518895
 20
33.74140373584861
 30
0.0
 40
0.5
  1

100
AcDbAttributeDefinition
  3

  2
NT
 70
     8
280
     0
  0
ATTDEF
  5
133
330
12C
100
AcDbEntity
  8
attrib
100
AcDbText
 10
26.95751334518895
 20
33.24140373584861
 30
0.0
 40
0.5
  1
$ARTNR.
100
AcDbAttributeDefinition
  3

  2
NBSYN
 70
     8
280
     0
  0
ATTDEF
  5
134
330
12C
100
AcDbEntity
  8
attrib
100
AcDbText
 10
26.95751334518895
 20
32.74140373584861
 30
0.0
 40
0.5
  1
30414000
100
AcDbAttributeDefinition
  3

  2
LINA
 70
     8
280
     0
  0
ATTDEF
  5
135
330
12C
100
AcDbEntity
  8
attrib
100
AcDbText
 10
26.95751334518895
 20
32.24140373584861
 30
0.0
 40
0.5
  1
Wöhner
100
AcDbAttributeDefinition
  3

  2
CATALOG
 70
     8
280
     0
  0
ATTDEF
  5
136
330
12C
100
AcDbEntity
  8
attrib
100
AcDbText
 10
26.95751334518895
 20
31.74140373584861
 30
0.0
 40
0.5
  1
30414000
100
AcDbAttributeDefinition
  3

  2
ARTNR
 70
     8
280
     0
  0
ATTDEF
  5
137
330
12C
100
AcDbEntity
  8
attrib
100
AcDbText
 10
26.95751334518895
 20
31.24140373584861
 30
0.0
 40
0.5
  1
CUSTO®60Classic
100
AcDbAttributeDefinition
  3

  2
POF
 70
     8
280
     0
  0
ATTDEF
  5
138
330
12C
100
AcDbEntity
  8
attrib
100
AcDbText
 10
26.95751334518895
 20
30.74140373584861
 30
0.0
 40
0.5
  1
woehner
100
AcDbAttributeDefinition
  3

  2
COMPANY
 70
     8
280
     0
  0
ATTDEF
  5
139
330
12C
100
AcDbEntity
  8
attrib
100
AcDbText
 10
26.95751334518895
 20
30.24140373584861
 30
0.0
 40
0.5
  1
{$CADENAS_DATA/23d-libs/woehner/sys_60classic/d_fuse_bases/parts/d_fuse_base_custo_part2.prj},163 {VTYP=3D},{NB=30414000},{LINA=30414000},{NN=CUSTO60 Part},{DATE=21.03.2023 15:11:35},{GEOMDATE=08.12.2022 06:03:00},{VERSION=},{LINEID=380},{WBVAR=},{WBNUMER
100
AcDbAttributeDefinition
  3

  2
PSOL_0
 70
     9
280
     0
  0
ATTDEF
  5
13A
330
12C
100
AcDbEntity
  8
attrib
100
AcDbText
 10
26.95751334518895
 20
29.74140373584861
 30
0.0
 40
0.5
  1
IC=}  {NB=30414000},{LINA=30414000},{KT=DUMMY},{ARTNR=30414000},{POF=CUSTO®60Classic}
100
AcDbAttributeDefinition
  3

  2
PSOL_1
 70
     9
280
     0
  0
LINE
  5
13B
330
12C
100
AcDbEntity
  8
hidden
100
AcDbLine
 10
13.00689314291008
 20
29.31329502182426
 30
0.0
 11
10.81010153777248
 21
25.65198197601946
 31
0.0
  0
LINE
  5
13C
330
12C
100
AcDbEntity
  8
hidden
100
AcDbLine
 10
15.95506559748869
 20
34.22690732987699
 30
0.0
 11
13.73743688790924
 21
30.53086583638907
 31
0.0
  0
LINE
  5
13D
330
12C
100
AcDbEntity
  8
hidden
100
AcDbLine
 10
18.15184835522459
 20
26.22631658599454
 30
0.0
 11
15.95505675008699
 21
22.56500354018974
 31
0.0
  0
LINE
  5
13E
330
12C
100
AcDbEntity
  8
hidden
100
AcDbLine
 10
21.1000208098032
 20
31.13992889404727
 30
0.0
 11
18.88239210022376
 21
27.44388740055935
 31
0.0
  0
LINE
  5
13F
330
12C
100
AcDbEntity
  8
hidden
100
AcDbLine
 10
9.952609002386732
 20
26.16647838199108
 30
0.0
 11
10.88444614059043
 21
25.60737513762172
 31
0.0
  0
LINE
  5
140
330
12C
100
AcDbEntity
  8
hidden
100
AcDbLine
 10
10.06816489516796
 20
26.35907120543872
 30
0.0
 11
9.952609002386732
 21
26.16647838199108
 31
0.0
  0
LINE
  5
141
330
12C
100
AcDbEntity
  8
hidden
100
AcDbLine
 10
15.09757306210294
 20
34.74140373584861
 30
0.0
 11
14.84317893111499
 21
34.31741424663896
 31
0.0
  0
LINE
  5
142
330
12C
100
AcDbEntity
  8
hidden
100
AcDbLine
 10
16.02940135290494
 20
22.520396701792
 30
0.0
 11
16.81254928547275
 21
22.05050713421812
 31
0.0
  0
LINE
  5
143
330
12C
100
AcDbEntity
  8
hidden
100
AcDbLine
 10
16.92810517825397
 20
22.24309995766576
 30
0.0
 11
16.81254928547275
 21
22.05050713421812
 31
0.0
  0
LINE
  5
144
330
12C
100
AcDbEntity
  8
hidden
100
AcDbLine
 10
21.95751334518895
 20
30.62543248807564
 30
0.0
 11
21.78004431260257
 21
30.32965127573157
 31
0.0
  0
LINE
  5
145
330
12C
100
AcDbEntity
  8
hidden
100
AcDbLine
 10
19.45231407546821
 20
30.33740389988847
 30
0.0
 11
15.88777841365049
 21
24.39652134629177
 31
0.0
  0
LINE
  5
146
330
12C
100
AcDbEntity
  8
hidden
100
AcDbLine
 10
20.24252827441745
 20
31.65442530001889
 30
0.0
 11
20.04582796723068
 21
31.32659201845842
 31
0.0
  0
LINE
  5
147
330
12C
100
AcDbEntity
  8
hidden
100
AcDbLine
 10
16.0223439339252
 20
32.39538952377496
 30
0.0
 11
12.45780827210748
 21
26.45450697017825
 31
0.0
  0
LINE
  5
148
330
12C
100
AcDbEntity
  8
hidden
100
AcDbLine
 10
16.81255813287444
 20
33.71241092390537
 30
0.0
 11
16.57739527648689
 21
33.32047350391211
 31
0.0
  0
CIRCLE
  5
149
330
12C
100
AcDbEntity
  8
hidden
100
AcDbCircle
 10
15.95506117378784
 20
28.39595543503336
 30
0.0
 40
2.0
  0
LINE
  5
14A
330
12C
100
AcDbEntity
  8
center
100
AcDbLine
 10
13.85506117378784
 20
28.39595543503336
 30
0.0
 11
18.05506117378784
 21
28.39595543503336
 31
0.0
  0
LINE
  5
14B
330
12C
100
AcDbEntity
  8
center
100
AcDbLine
 10
15.95506117378784
 20
26.29595543503336
 30
0.0
 11
15.95506117378784
 21
30.49595543503337
 31
0.0
  0
LINE
  5
14C
330
12C
100
AcDbEntity
  8
bold
100
AcDbLine
 10
14.84317893111499
 20
34.31741424663896
 30
0.0
 11
10.06816489516796
 21
26.35907120543872
 31
0.0
  0
LINE
  5
14D
330
12C
100
AcDbEntity
  8
light
100
AcDbLine
 10
12.45780827210748
 20
26.45450697017825
 30
0.0
 11
11.66759407315824
 21
25.13748557004784
 31
0.0
  0
LINE
  5
14E
330
12C
100
AcDbEntity
  8
bold
100
AcDbLine
 10
10.88444614059043
 20
25.60737513762172
 30
0.0
 11
16.02940135290494
 21
22.520396701792
 31
0.0
  0
LINE
  5
14F
330
12C
100
AcDbEntity
  8
bold
100
AcDbLine
 10
21.78004431260257
 20
30.32965127573157
 30
0.0
 11
16.92810517825397
 21
22.24309995766576
 31
0.0
  0
LINE
  5
150
330
12C
100
AcDbEntity
  8
light
100
AcDbLine
 10
15.88777841365049
 20
24.39652134629177
 30
0.0
 11
15.09756421470124
 21
23.07949994616136
 31
0.0
  0
LINE
  5
151
330
12C
100
AcDbEntity
  8
light
100
AcDbLine
 10
20.04582796723068
 20
31.32659201845842
 30
0.0
 11
19.45231407546821
 21
30.33740389988847
 31
0.0
  0
LINE
  5
152
330
12C
100
AcDbEntity
  8
light
100
AcDbLine
 10
16.57739527648689
 20
33.32047350391211
 30
0.0
 11
16.0223439339252
 21
32.39538952377496
 31
0.0
  0
LINE
  5
153
330
12C
100
AcDbEntity
  8
bold
100
AcDbLine
 10
17.34359874157891
 20
32.14721701253404
 30
0.0
 11
15.66851349070302
 21
29.35541306193448
 31
0.0
  0
LINE
  5
154
330
12C
100
AcDbEntity
  8
bold
100
AcDbLine
 10
15.66851349070302
 20
29.35541306193448
 30
0.0
 11
13.73002299058322
 21
30.51850936209422
 31
0.0
  0
LINE
  5
155
330
12C
100
AcDbEntity
  8
bold
100
AcDbLine
 10
13.0143070402361
 20
29.3256514961191
 30
0.0
 11
14.9527975403559
 21
28.16255519595936
 31
0.0
  0
LINE
  5
156
330
12C
100
AcDbEntity
  8
bold
100
AcDbLine
 10
14.9527975403559
 20
28.16255519595936
 30
0.0
 11
13.29854939392186
 21
25.40547969304292
 31
0.0
  0
LINE
  5
157
330
12C
100
AcDbEntity
  8
bold
100
AcDbLine
 10
14.56652360599677
 20
24.64469385753269
 30
0.0
 11
16.22077175243081
 21
27.40176936044913
 31
0.0
  0
LINE
  5
158
330
12C
100
AcDbEntity
  8
bold
100
AcDbLine
 10
16.22077175243081
 20
27.40176936044913
 30
0.0
 11
18.15926225255062
 21
26.23867306028938
 31
0.0
  0
LINE
  5
159
330
12C
100
AcDbEntity
  8
bold
100
AcDbLine
 10
18.15926225255062
 20
26.23867306028938
 30
0.0
 11
18.87497820289773
 21
27.4315309262645
 31
0.0
  0
LINE
  5
15A
330
12C
100
AcDbEntity
  8
bold
100
AcDbLine
 10
18.87497820289773
 20
27.4315309262645
 30
0.0
 11
16.93648770277793
 21
28.59462722642424
 31
0.0
  0
LINE
  5
15B
330
12C
100
AcDbEntity
  8
bold
100
AcDbLine
 10
16.93648770277793
 20
28.59462722642424
 30
0.0
 11
18.61157295365382
 21
31.38643117702381
 31
0.0
  0
ARC
  5
15C
330
12C
100
AcDbEntity
  8
light
100
AcDbCircle
 10
15.95506117378782
 20
28.39595543503336
 30
0.0
 40
3.000000000000025
100
AcDbArc
 50
342.0449585901989
 51
44.76865957884519
  0
ARC
  5
15D
330
12C
100
AcDbEntity
  8
light
100
AcDbCircle
 10
15.95506117378784
 20
28.39595543503339
 30
0.0
 40
3.000000000000029
100
AcDbArc
 50
253.3037404211548
 51
315.2322740424141
  0
ARC
  5
15E
330
12C
100
AcDbEntity
  8
light
100
AcDbCircle
 10
15.95506117378786
 20
28.39595543503336
 30
0.0
 40
3.000000000000014
100
AcDbArc
 50
162.8401259575856
 51
224.7686595788453
  0
LINE
  5
15F
330
12C
100
AcDbEntity
  8
bold
100
AcDbLine
 10
13.73002299058322
 20
30.51850936209422
 30
0.0
 11
13.0143070402361
 21
29.3256514961191
 31
0.0
  0
ARC
  5
160
330
12C
100
AcDbEntity
  8
light
100
AcDbCircle
 10
15.95506117378785
 20
28.39595543503334
 30
0.0
 40
3.000000000000022
100
AcDbArc
 50
73.30374042115477
 51
136.0274414098012
  0
CIRCLE
  5
161
330
12C
100
AcDbEntity
  8
bold
100
AcDbCircle
 10
15.95506117378781
 20
28.39595543503334
 30
0.0
 40
4.000000000000039
  0
ENDBLK
  5
12F
330
12C
100
AcDbEntity
  8
0
100
AcDbBlockEnd
  0
BLOCK
  5
164
330
162
100
AcDbEntity
  8
0
100
AcDbBlockBegin
  2
7_78552000_0_in_01498_0
 70
     2
 10
0.0
 20
0.0
 30
0.0
  3
7_78552000_0_in_01498_0
  1

  0
ATTDEF
  5
166
330
162
100
AcDbEntity
  8
attrib
100
AcDbText
 10
32.0
 20
74.0
 30
0.0
 40
0.5
  1
78552000
100
AcDbAttributeDefinition
  3

  2
NB
 70
     8
280
     0
  0
ATTDEF
  5
167
330
162
100
AcDbEntity
  8
attrib
100
AcDbText
 10
32.0
 20
73.5
 30
0.0
 40
0.5
  1
CUSTO60 Base
100
AcDbAttributeDefinition
  3

  2
NN
 70
     8
280
     0
  0
ATTDEF
  5
168
330
162
100
AcDbEntity
  8
attrib
100
AcDbText
 10
32.0
 20
73.0
 30
0.0
 40
0.5
  1

100
AcDbAttributeDefinition
  3

  2
NT
 70
     8
280
     0
  0
ATTDEF
  5
169
330
162
100
AcDbEntity
  8
attrib
100
AcDbText
 10
32.0
 20
72.5
 30
0.0
 40
0.5
  1
$ARTNR.
100
AcDbAttributeDefinition
  3

  2
NBSYN
 70
     8
280
     0
  0
ATTDEF
  5
16A
330
162
100
AcDbEntity
  8
attrib
100
AcDbText
 10
32.0
 20
72.0
 30
0.0
 40
0.5
  1
78552000
100
AcDbAttributeDefinition
  3

  2
LINA
 70
     8
280
     0
  0
ATTDEF
  5
16B
330
162
100
AcDbEntity
  8
attrib
100
AcDbText
 10
32.0
 20
71.5
 30
0.0
 40
0.5
  1
Wöhner
100
AcDbAttributeDefinition
  3

  2
CATALOG
 70
     8
280
     0
  0
ATTDEF
  5
16C
330
162
100
AcDbEntity
  8
attrib
100
AcDbText
 10
32.0
 20
71.0
 30
0.0
 40
0.5
  1
78552000
100
AcDbAttributeDefinition
  3

  2
ARTNR
 70
     8
280
     0
  0
ATTDEF
  5
16D
330
162
100
AcDbEntity
  8
attrib
100
AcDbText
 10
32.0
 20
70.5
 30
0.0
 40
0.5
  1
CUSTO®60Classic
100
AcDbAttributeDefinition
  3

  2
POF
 70
     8
280
     0
  0
ATTDEF
  5
16E
330
162
100
AcDbEntity
  8
attrib
100
AcDbText
 10
32.0
 20
70.0
 30
0.0
 40
0.5
  1
5683
100
AcDbAttributeDefinition
  3

  2
TYPE
 70
     8
280
     0
  0
ATTDEF
  5
16F
330
162
100
AcDbEntity
  8
attrib
100
AcDbText
 10
32.0
 20
69.5
 30
0.0
 40
0.5
  1
1
100
AcDbAttributeDefinition
  3

  2
VER
 70
     8
280
     0
  0
ATTDEF
  5
170
330
162
100
AcDbEntity
  8
attrib
100
AcDbText
 10
32.0
 20
69.0
 30
0.0
 40
0.5
  1
36
100
AcDbAttributeDefinition
  3

  2
W
 70
     8
280
     0
  0
ATTDEF
  5
171
330
162
100
AcDbEntity
  8
attrib
100
AcDbText
 10
32.0
 20
68.5
 30
0.0
 40
0.5
  1
woehner
100
AcDbAttributeDefinition
  3

  2
COMPANY
 70
     8
280
     0
  0
ATTDEF
  5
172
330
162
100
AcDbEntity
  8
attrib
100
AcDbText
 10
32.0
 20
68.0
 30
0.0
 40
0.5
  1
{$CADENAS_DATA/23d-libs/woehner/sys_60classic/parts/d0_fuse_base_custo_base.prj},163 {VTYP=3D},{NB=78552000},{LINA=78552000},{NN=CUSTO60 Base},{DATE=03.05.2023 05:49:35},{GEOMDATE=28.04.2023 06:33:00},{VERSION=},{LINEID=380},{WBVAR=},{WBNUMERIC=}  {NB=785
100
AcDbAttributeDefinition
  3

  2
PSOL_0
 70
     9
280
     0
  0
ATTDEF
  5
173
330
162
100
AcDbEntity
  8
attrib
100
AcDbText
 10
32.0
 20
67.5
 30
0.0
 40
0.5
  1
52000},{LINA=78552000},{KT=DUMMY},{ARTNR=78552000},{POF=CUSTO®60Classic},{TYPE=5683},{VER=1},{W=36}
100
AcDbAttributeDefinition
  3

  2
PSOL_1
 70
     9
280
     0
  0
LINE
  5
174
330
162
100
AcDbEntity
  8
hidden
100
AcDbLine
 10
9.000000000000002
 20
-60.6380973526182
 30
0.0
 11
9.000000000000002
 21
-59.5
 31
0.0
  0
LINE
  5
175
330
162
100
AcDbEntity
  8
hidden
100
AcDbLine
 10
18.0
 20
-60.6380973526182
 30
0.0
 11
18.0
 21
-59.5
 31
0.0
  0
LINE
  5
176
330
162
100
AcDbEntity
  8
hidden
100
AcDbLine
 10
18.0
 20
-0.6380973526181983
 30
0.0
 11
18.0
 21
0.5000000000000004
 31
0.0
  0
LINE
  5
177
330
162
100
AcDbEntity
  8
hidden
100
AcDbLine
 10
9.000000000000002
 20
-0.6380973526181949
 30
0.0
 11
9.000000000000002
 21
0.5000000000000004
 31
0.0
  0
LINE
  5
178
330
162
100
AcDbEntity
  8
hidden
100
AcDbLine
 10
18.0
 20
59.3619026473818
 30
0.0
 11
18.0
 21
60.5
 31
0.0
  0
LINE
  5
179
330
162
100
AcDbEntity
  8
hidden
100
AcDbLine
 10
9.000000000000002
 20
59.3619026473818
 30
0.0
 11
9.000000000000002
 21
60.5
 31
0.0
  0
LINE
  5
17A
330
162
100
AcDbEntity
  8
hidden
100
AcDbLine
 10
8.0
 20
-59.5
 30
0.0
 11
10.9019237886467
 21
-59.5
 31
0.0
  0
LINE
  5
17B
330
162
100
AcDbEntity
  8
hidden
100
AcDbLine
 10
21.0
 20
-8.0
 30
0.0
 11
21.0
 21
19.0
 31
0.0
  0
LINE
  5
17C
330
162
100
AcDbEntity
  8
hidden
100
AcDbLine
 10
20.20820393249937
 20
-8.0
 30
0.0
 11
21.0
 21
-8.0
 31
0.0
  0
LINE
  5
17D
330
162
100
AcDbEntity
  8
hidden
100
AcDbLine
 10
6.0
 20
-8.0
 30
0.0
 11
6.0
 21
4.400000000000001
 31
0.0
  0
LINE
  5
17E
330
162
100
AcDbEntity
  8
hidden
100
AcDbLine
 10
6.0
 20
-8.0
 30
0.0
 11
6.791796067500631
 21
-8.0
 31
0.0
  0
LINE
  5
17F
330
162
100
AcDbEntity
  8
hidden
100
AcDbLine
 10
8.0
 20
0.5000000000000004
 30
0.0
 11
8.0
 21
-1.669872981077806
 31
0.0
  0
LINE
  5
180
330
162
100
AcDbEntity
  8
hidden
100
AcDbLine
 10
20.20820393249937
 20
52.0
 30
0.0
 11
21.0
 21
52.0
 31
0.0
  0
LINE
  5
181
330
162
100
AcDbEntity
  8
hidden
100
AcDbLine
 10
16.09807621135332
 20
60.5
 30
0.0
 11
19.0
 21
60.5
 31
0.0
  0
LINE
  5
182
330
162
100
AcDbEntity
  8
hidden
100
AcDbLine
 10
19.0
 20
58.33012701892219
 30
0.0
 11
19.0
 21
60.5
 31
0.0
  0
LINE
  5
183
330
162
100
AcDbEntity
  8
hidden
100
AcDbLine
 10
6.0
 20
-68.0
 30
0.0
 11
6.0
 21
-55.6
 31
0.0
  0
LINE
  5
184
330
162
100
AcDbEntity
  8
hidden
100
AcDbLine
 10
6.0
 20
-68.0
 30
0.0
 11
6.791796067500632
 21
-68.0
 31
0.0
  0
LINE
  5
185
330
162
100
AcDbEntity
  8
hidden
100
AcDbLine
 10
8.0
 20
-61.66987298107781
 30
0.0
 11
8.0
 21
-59.5
 31
0.0
  0
LINE
  5
186
330
162
100
AcDbEntity
  8
hidden
100
AcDbLine
 10
16.09807621135332
 20
0.4999999999999996
 30
0.0
 11
19.0
 21
0.5000000000000004
 31
0.0
  0
LINE
  5
187
330
162
100
AcDbEntity
  8
hidden
100
AcDbLine
 10
19.0
 20
-1.669872981077806
 30
0.0
 11
19.0
 21
0.5000000000000004
 31
0.0
  0
LINE
  5
188
330
162
100
AcDbEntity
  8
hidden
100
AcDbLine
 10
16.0980762113533
 20
-59.5
 30
0.0
 11
19.0
 21
-59.5
 31
0.0
  0
LINE
  5
189
330
162
100
AcDbEntity
  8
hidden
100
AcDbLine
 10
8.0
 20
60.5
 30
0.0
 11
10.90192378864668
 21
60.5
 31
0.0
  0
LINE
  5
18A
330
162
100
AcDbEntity
  8
hidden
100
AcDbLine
 10
8.0
 20
0.5000000000000004
 30
0.0
 11
10.90192378864669
 21
0.5000000000000004
 31
0.0
  0
LINE
  5
18B
330
162
100
AcDbEntity
  8
hidden
100
AcDbLine
 10
21.0
 20
-68.0
 30
0.0
 11
21.0
 21
-41.0
 31
0.0
  0
LINE
  5
18C
330
162
100
AcDbEntity
  8
hidden
100
AcDbLine
 10
19.0
 20
-61.66987298107781
 30
0.0
 11
19.0
 21
-59.5
 31
0.0
  0
LINE
  5
18D
330
162
100
AcDbEntity
  8
hidden
100
AcDbLine
 10
20.20820393249937
 20
-68.0
 30
0.0
 11
21.0
 21
-68.0
 31
0.0
  0
LINE
  5
18E
330
162
100
AcDbEntity
  8
hidden
100
AcDbLine
 10
6.0
 20
52.0
 30
0.0
 11
6.0
 21
74.0
 31
0.0
  0
LINE
  5
18F
330
162
100
AcDbEntity
  8
hidden
100
AcDbLine
 10
6.0
 20
52.0
 30
0.0
 11
6.791796067500632
 21
52.0
 31
0.0
  0
LINE
  5
190
330
162
100
AcDbEntity
  8
hidden
100
AcDbLine
 10
8.0
 20
58.33012701892219
 30
0.0
 11
8.0
 21
60.5
 31
0.0
  0
LINE
  5
191
330
162
100
AcDbEntity
  8
hidden
100
AcDbLine
 10
10.0
 20
-41.0
 30
0.0
 11
21.0
 21
-41.0
 31
0.0
  0
LINE
  5
192
330
162
100
AcDbEntity
  8
hidden
100
AcDbLine
 10
6.0
 20
0.0
 30
0.0
 11
9.894448724536007
 21
0.0
 31
0.0
  0
LINE
  5
193
330
162
100
AcDbEntity
  8
hidden
100
AcDbLine
 10
10.0
 20
19.0
 30
0.0
 11
21.0
 21
19.0
 31
0.0
  0
LINE
  5
194
330
162
100
AcDbEntity
  8
hidden
100
AcDbLine
 10
17.10555127546399
 20
60.0
 30
0.0
 11
21.0
 21
60.0
 31
0.0
  0
LINE
  5
195
330
162
100
AcDbEntity
  8
hidden
100
AcDbLine
 10
17.10555127546398
 20
-60.0
 30
0.0
 11
21.0
 21
-60.0
 31
0.0
  0
LINE
  5
196
330
162
100
AcDbEntity
  8
hidden
100
AcDbLine
 10
6.0
 20
-60.0
 30
0.0
 11
9.894448724536018
 21
-60.0
 31
0.0
  0
LINE
  5
197
330
162
100
AcDbEntity
  8
hidden
100
AcDbLine
 10
21.0
 20
52.0
 30
0.0
 11
21.0
 21
73.99999999999999
 31
0.0
  0
LINE
  5
198
330
162
100
AcDbEntity
  8
hidden
100
AcDbLine
 10
6.0
 20
60.0
 30
0.0
 11
9.894448724536007
 21
60.0
 31
0.0
  0
LINE
  5
199
330
162
100
AcDbEntity
  8
hidden
100
AcDbLine
 10
17.10555127546399
 20
-0.0000000000000017
 30
0.0
 11
21.0
 21
0.0
 31
0.0
  0
LINE
  5
19A
330
162
100
AcDbEntity
  8
hidden
100
AcDbLine
 10
14.20978925072731
 20
35.27407493866797
 30
0.0
 11
23.02937901442115
 21
29.98231198061112
 31
0.0
  0
CIRCLE
  5
19B
330
162
100
AcDbEntity
  8
hidden
100
AcDbCircle
 10
13.5
 20
54.0
 30
0.0
 40
9.000000000000002
  0
LINE
  5
19C
330
162
100
AcDbEntity
  8
hidden
100
AcDbLine
 10
14.20978925072731
 20
-24.72592506133203
 30
0.0
 11
23.02937901442115
 21
-30.01768801938889
 31
0.0
  0
LINE
  5
19D
330
162
100
AcDbEntity
  8
hidden
100
AcDbLine
 10
23.02937901442115
 20
-30.01768801938889
 30
0.0
 11
22.86392952846
 21
-30.29343668847272
 31
0.0
  0
LINE
  5
19E
330
162
100
AcDbEntity
  8
hidden
100
AcDbLine
 10
23.02937901442115
 20
29.98231198061112
 30
0.0
 11
22.86392952846
 21
29.70656331152729
 31
0.0
  0
CIRCLE
  5
19F
330
162
100
AcDbEntity
  8
hidden
100
AcDbCircle
 10
13.5
 20
-66.0
 30
0.0
 40
9.000000000000002
  0
CIRCLE
  5
1A0
330
162
100
AcDbEntity
  8
hidden
100
AcDbCircle
 10
13.5
 20
-6.0
 30
0.0
 40
9.000000000000002
  0
LINE
  5
1A1
330
162
100
AcDbEntity
  8
hidden
100
AcDbLine
 10
14.2097892507273
 20
-84.72592506133203
 30
0.0
 11
23.02937901442115
 21
-90.01768801938888
 31
0.0
  0
LINE
  5
1A2
330
162
100
AcDbEntity
  8
hidden
100
AcDbLine
 10
23.02937901442115
 20
-90.01768801938888
 30
0.0
 11
22.86392952846
 21
-90.29343668847271
 31
0.0
  0
LINE
  5
1A3
330
162
100
AcDbEntity
  8
center
100
AcDbLine
 10
4.049999999999997
 20
54.0
 30
0.0
 11
22.95
 21
54.0
 31
0.0
  0
LINE
  5
1A4
330
162
100
AcDbEntity
  8
center
100
AcDbLine
 10
13.5
 20
44.55
 30
0.0
 11
13.5
 21
63.45
 31
0.0
  0
LINE
  5
1A5
330
162
100
AcDbEntity
  8
center
100
AcDbLine
 10
4.049999999999997
 20
-66.0
 30
0.0
 11
22.95
 21
-66.0
 31
0.0
  0
LINE
  5
1A6
330
162
100
AcDbEntity
  8
center
100
AcDbLine
 10
13.5
 20
-75.45
 30
0.0
 11
13.5
 21
-56.55
 31
0.0
  0
LINE
  5
1A7
330
162
100
AcDbEntity
  8
center
100
AcDbLine
 10
4.049999999999997
 20
-6.0
 30
0.0
 11
22.95
 21
-6.0
 31
0.0
  0
LINE
  5
1A8
330
162
100
AcDbEntity
  8
center
100
AcDbLine
 10
13.5
 20
-15.45
 30
0.0
 11
13.5
 21
3.450000000000003
 31
0.0
  0
LINE
  5
1A9
330
162
100
AcDbEntity
  8
bold
100
AcDbLine
 10
9.000000000000002
 20
-68.0
 30
0.0
 11
9.000000000000002
 21
-60.6380973526182
 31
0.0
  0
LINE
  5
1AA
330
162
100
AcDbEntity
  8
bold
100
AcDbLine
 10
18.0
 20
-68.0
 30
0.0
 11
18.0
 21
-60.6380973526182
 31
0.0
  0
LINE
  5
1AB
330
162
100
AcDbEntity
  8
bold
100
AcDbLine
 10
18.0
 20
-8.0
 30
0.0
 11
18.0
 21
-0.6380973526181983
 31
0.0
  0
LINE
  5
1AC
330
162
100
AcDbEntity
  8
bold
100
AcDbLine
 10
9.000000000000002
 20
-8.0
 30
0.0
 11
9.000000000000002
 21
-0.6380973526181949
 31
0.0
  0
LINE
  5
1AD
330
162
100
AcDbEntity
  8
bold
100
AcDbLine
 10
18.0
 20
52.0
 30
0.0
 11
18.0
 21
59.3619026473818
 31
0.0
  0
LINE
  5
1AE
330
162
100
AcDbEntity
  8
bold
100
AcDbLine
 10
9.000000000000002
 20
52.0
 30
0.0
 11
9.000000000000002
 21
59.3619026473818
 31
0.0
  0
LINE
  5
1AF
330
162
100
AcDbEntity
  8
bold
100
AcDbLine
 10
6.791796067500631
 20
-8.0
 30
0.0
 11
20.20820393249937
 21
-8.0
 31
0.0
  0
LINE
  5
1B0
330
162
100
AcDbEntity
  8
bold
100
AcDbLine
 10
19.0
 20
-8.0
 30
0.0
 11
19.0
 21
-1.669872981077806
 31
0.0
  0
LINE
  5
1B1
330
162
100
AcDbEntity
  8
bold
100
AcDbLine
 10
8.0
 20
-8.0
 30
0.0
 11
8.0
 21
-1.669872981077806
 31
0.0
  0
LINE
  5
1B2
330
162
100
AcDbEntity
  8
bold
100
AcDbLine
 10
10.90192378864668
 20
60.5
 30
0.0
 11
16.09807621135332
 21
60.5
 31
0.0
  0
LINE
  5
1B3
330
162
100
AcDbEntity
  8
bold
100
AcDbLine
 10
10.9019237886467
 20
-59.5
 30
0.0
 11
16.0980762113533
 21
-59.5
 31
0.0
  0
LINE
  5
1B4
330
162
100
AcDbEntity
  8
bold
100
AcDbLine
 10
19.0
 20
52.0
 30
0.0
 11
19.0
 21
58.33012701892219
 31
0.0
  0
LINE
  5
1B5
330
162
100
AcDbEntity
  8
bold
100
AcDbLine
 10
6.791796067500632
 20
52.0
 30
0.0
 11
20.20820393249937
 21
52.0
 31
0.0
  0
LINE
  5
1B6
330
162
100
AcDbEntity
  8
bold
100
AcDbLine
 10
8.0
 20
-68.0
 30
0.0
 11
8.0
 21
-61.66987298107781
 31
0.0
  0
LINE
  5
1B7
330
162
100
AcDbEntity
  8
bold
100
AcDbLine
 10
10.90192378864669
 20
0.5000000000000004
 30
0.0
 11
16.09807621135332
 21
0.4999999999999996
 31
0.0
  0
LINE
  5
1B8
330
162
100
AcDbEntity
  8
bold
100
AcDbLine
 10
19.0
 20
-68.0
 30
0.0
 11
19.0
 21
-61.66987298107781
 31
0.0
  0
LINE
  5
1B9
330
162
100
AcDbEntity
  8
bold
100
AcDbLine
 10
6.791796067500632
 20
-68.0
 30
0.0
 11
20.20820393249937
 21
-68.0
 31
0.0
  0
LINE
  5
1BA
330
162
100
AcDbEntity
  8
bold
100
AcDbLine
 10
8.0
 20
52.0
 30
0.0
 11
8.0
 21
58.33012701892219
 31
0.0
  0
CIRCLE
  5
1BB
330
162
100
AcDbEntity
  8
bold
100
AcDbCircle
 10
13.5
 20
-66.0
 30
0.0
 40
6.999999999999999
  0
CIRCLE
  5
1BC
330
162
100
AcDbEntity
  8
bold
100
AcDbCircle
 10
13.5
 20
54.0
 30
0.0
 40
6.999999999999999
  0
CIRCLE
  5
1BD
330
162
100
AcDbEntity
  8
bold
100
AcDbCircle
 10
13.5
 20
-6.0
 30
0.0
 40
7.0
  0
LINE
  5
1BE
330
162
100
AcDbEntity
  8
bold
100
AcDbLine
 10
-9.000000000000002
 20
-4.0
 30
0.0
 11
-9.000000000000002
 21
-32.0
 31
0.0
  0
LINE
  5
1BF
330
162
100
AcDbEntity
  8
bold
100
AcDbLine
 10
0.0
 20
-32.0
 30
0.0
 11
-9.000000000000002
 21
-32.0
 31
0.0
  0
LINE
  5
1C0
330
162
100
AcDbEntity
  8
bold
100
AcDbLine
 10
-9.000000000000002
 20
-4.0
 30
0.0
 11
0.0
 21
-4.0
 31
0.0
  0
LINE
  5
1C1
330
162
100
AcDbEntity
  8
bold
100
AcDbLine
 10
-9.000000000000002
 20
-102.0
 30
0.0
 11
21.4
 21
-102.0
 31
0.0
  0
LINE
  5
1C2
330
162
100
AcDbEntity
  8
bold
100
AcDbLine
 10
-9.000000000000002
 20
-63.99999999999999
 30
0.0
 11
-9.000000000000002
 21
-102.0
 31
0.0
  0
LINE
  5
1C3
330
162
100
AcDbEntity
  8
bold
100
AcDbLine
 10
-9.000000000000002
 20
-63.99999999999999
 30
0.0
 11
0.0
 21
-64.0
 31
0.0
  0
LINE
  5
1C4
330
162
100
AcDbEntity
  8
bold
100
AcDbLine
 10
-9.000000000000002
 20
74.0
 30
0.0
 11
-9.000000000000002
 21
28.0
 31
0.0
  0
LINE
  5
1C5
330
162
100
AcDbEntity
  8
bold
100
AcDbLine
 10
-0.0000000000000017
 20
28.0
 30
0.0
 11
-9.000000000000002
 21
28.0
 31
0.0
  0
LINE
  5
1C6
330
162
100
AcDbEntity
  8
bold
100
AcDbLine
 10
21.4
 20
-102.0
 30
0.0
 11
27.0
 21
-92.66668271648706
 31
0.0
  0
LINE
  5
1C7
330
162
100
AcDbEntity
  8
bold
100
AcDbLine
 10
27.0
 20
74.0
 30
0.0
 11
-9.000000000000002
 21
74.0
 31
0.0
  0
LINE
  5
1C8
330
162
100
AcDbEntity
  8
bold
100
AcDbLine
 10
27.0
 20
74.0
 30
0.0
 11
27.0
 21
-92.66668271648706
 31
0.0
  0
LINE
  5
1C9
330
162
100
AcDbEntity
  8
bold
100
AcDbLine
 10
0.0
 20
28.0
 30
0.0
 11
0.0
 21
74.0
 31
0.0
  0
LINE
  5
1CA
330
162
100
AcDbEntity
  8
bold
100
AcDbLine
 10
0.0
 20
-102.0
 30
0.0
 11
0.0
 21
-64.0
 31
0.0
  0
LINE
  5
1CB
330
162
100
AcDbEntity
  8
bold
100
AcDbLine
 10
10.0
 20
-50.0
 30
0.0
 11
10.0
 21
-38.0
 31
0.0
  0
LINE
  5
1CC
330
162
100
AcDbEntity
  8
bold
100
AcDbLine
 10
10.0
 20
-38.0
 30
0.0
 11
0.0
 21
-32.0
 31
0.0
  0
LINE
  5
1CD
330
162
100
AcDbEntity
  8
bold
100
AcDbLine
 10
0.0
 20
-32.0
 30
0.0
 11
0.0
 21
-4.0
 31
0.0
  0
LINE
  5
1CE
330
162
100
AcDbEntity
  8
bold
100
AcDbLine
 10
10.0
 20
10.0
 30
0.0
 11
10.0
 21
22.0
 31
0.0
  0
LINE
  5
1CF
330
162
100
AcDbEntity
  8
bold
100
AcDbLine
 10
10.0
 20
22.0
 30
0.0
 11
0.0
 21
28.0
 31
0.0
  0
LINE
  5
1D0
330
162
100
AcDbEntity
  8
bold
100
AcDbLine
 10
24.0
 20
-33.3333619937269
 30
0.0
 11
24.0
 21
2.000002362600936
 31
0.0
  0
LINE
  5
1D1
330
162
100
AcDbEntity
  8
bold
100
AcDbLine
 10
14.0
 20
10.00000000000001
 30
0.0
 11
24.0
 21
26.66663800627311
 31
0.0
  0
LINE
  5
1D2
330
162
100
AcDbEntity
  8
bold
100
AcDbLine
 10
23.99999999999998
 20
-97.66667411836906
 30
0.0
 11
24.0
 21
-57.99999763739907
 31
0.0
  0
LINE
  5
1D3
330
162
100
AcDbEntity
  8
bold
100
AcDbLine
 10
14.0
 20
-49.99999999999999
 30
0.0
 11
24.0
 21
-33.3333619937269
 31
0.0
  0
LINE
  5
1D4
330
162
100
AcDbEntity
  8
bold
100
AcDbLine
 10
11.8692
 20
-22.5513
 30
0.0
 11
4.558799580046186
 21
-34.73527974802771
 31
0.0
  0
LINE
  5
1D5
330
162
100
AcDbEntity
  8
bold
100
AcDbLine
 10
0.0
 20
-64.0
 30
0.0
 11
10.0
 21
-50.0
 31
0.0
  0
LINE
  5
1D6
330
162
100
AcDbEntity
  8
bold
100
AcDbLine
 10
24.0
 20
26.66663800627311
 30
0.0
 11
24.0
 21
74.0
 31
0.0
  0
LINE
  5
1D7
330
162
100
AcDbEntity
  8
bold
100
AcDbLine
 10
0.0
 20
44.57023224635503
 30
0.0
 11
11.8692
 21
37.4487
 31
0.0
  0
LINE
  5
1D8
330
162
100
AcDbEntity
  8
bold
100
AcDbLine
 10
24.0
 20
2.000002362600936
 30
0.0
 11
14.0
 21
10.00000000000001
 31
0.0
  0
LINE
  5
1D9
330
162
100
AcDbEntity
  8
bold
100
AcDbLine
 10
9.058836704894338
 20
22.5646979770634
 30
0.0
 11
11.00000203337165
 21
25.79996796106936
 31
0.0
  0
LINE
  5
1DA
330
162
100
AcDbEntity
  8
bold
100
AcDbLine
 10
9.058836704894338
 20
-37.4353020229366
 30
0.0
 11
11.00000203337165
 21
-34.20003203893064
 31
0.0
  0
LINE
  5
1DB
330
162
100
AcDbEntity
  8
bold
100
AcDbLine
 10
24.0
 20
-57.99999763739907
 30
0.0
 11
14.0
 21
-49.99999999999999
 31
0.0
  0
LINE
  5
1DC
330
162
100
AcDbEntity
  8
bold
100
AcDbLine
 10
14.0293946107729
 20
35.38231190876746
 30
0.0
 11
14.20978925072731
 21
35.27407493866797
 31
0.0
  0
LINE
  5
1DD
330
162
100
AcDbEntity
  8
bold
100
AcDbLine
 10
0.0
 20
-4.0
 30
0.0
 11
10.0
 21
10.0
 31
0.0
  0
LINE
  5
1DE
330
162
100
AcDbEntity
  8
bold
100
AcDbLine
 10
16.14495724568616
 20
22.71298952523964
 30
0.0
 11
10.0
 21
12.47141172745201
 31
0.0
  0
LINE
  5
1DF
330
162
100
AcDbEntity
  8
bold
100
AcDbLine
 10
0.0
 20
-15.42976775364497
 30
0.0
 11
11.8692
 21
-22.5513
 31
0.0
  0
LINE
  5
1E0
330
162
100
AcDbEntity
  8
bold
100
AcDbLine
 10
8.999986443837926
 20
-33.00002062164242
 30
0.0
 11
14.02939461077291
 21
-24.61768809123254
 31
0.0
  0
LINE
  5
1E1
330
162
100
AcDbEntity
  8
bold
100
AcDbLine
 10
14.02939461077291
 20
-24.61768809123254
 30
0.0
 11
14.20978925072731
 21
-24.72592506133203
 31
0.0
  0
LINE
  5
1E2
330
162
100
AcDbEntity
  8
bold
100
AcDbLine
 10
22.86392952846
 20
-30.29343668847272
 30
0.0
 11
17.99997084748616
 21
-38.40002054979877
 31
0.0
  0
LINE
  5
1E3
330
162
100
AcDbEntity
  8
bold
100
AcDbLine
 10
17.99997084748616
 20
-38.40002054979877
 30
0.0
 11
16.14495724568616
 21
-37.28701047476036
 31
0.0
  0
LINE
  5
1E4
330
162
100
AcDbEntity
  8
bold
100
AcDbLine
 10
11.8692
 20
37.4487
 30
0.0
 11
4.558799580046181
 21
25.26472025197229
 31
0.0
  0
LINE
  5
1E5
330
162
100
AcDbEntity
  8
bold
100
AcDbLine
 10
0.0
 20
-75.42976775364498
 30
0.0
 11
11.8692
 21
-82.5513
 31
0.0
  0
LINE
  5
1E6
330
162
100
AcDbEntity
  8
bold
100
AcDbLine
 10
11.00000203337165
 20
25.79996796106936
 30
0.0
 11
8.999986443837926
 21
26.99997937835758
 31
0.0
  0
LINE
  5
1E7
330
162
100
AcDbEntity
  8
bold
100
AcDbLine
 10
8.999986443837926
 20
26.99997937835758
 30
0.0
 11
14.0293946107729
 21
35.38231190876746
 31
0.0
  0
LINE
  5
1E8
330
162
100
AcDbEntity
  8
bold
100
AcDbLine
 10
11.00000203337165
 20
-94.20003203893064
 30
0.0
 11
8.999986443837926
 21
-93.00002062164242
 31
0.0
  0
LINE
  5
1E9
330
162
100
AcDbEntity
  8
bold
100
AcDbLine
 10
8.999986443837926
 20
-93.00002062164242
 30
0.0
 11
14.02939461077291
 21
-84.61768809123255
 31
0.0
  0
LINE
  5
1EA
330
162
100
AcDbEntity
  8
bold
100
AcDbLine
 10
22.86392952846
 20
29.70656331152729
 30
0.0
 11
17.99997084748616
 21
21.59997945020123
 31
0.0
  0
LINE
  5
1EB
330
162
100
AcDbEntity
  8
bold
100
AcDbLine
 10
17.99997084748616
 20
21.59997945020123
 30
0.0
 11
16.14495724568616
 21
22.71298952523964
 31
0.0
  0
LINE
  5
1EC
330
162
100
AcDbEntity
  8
bold
100
AcDbLine
 10
17.99997084748616
 20
-98.40002054979877
 30
0.0
 11
16.14495724568616
 21
-97.28701047476036
 31
0.0
  0
LINE
  5
1ED
330
162
100
AcDbEntity
  8
bold
100
AcDbLine
 10
11.00000203337165
 20
-34.20003203893064
 30
0.0
 11
8.999986443837926
 21
-33.00002062164242
 31
0.0
  0
LINE
  5
1EE
330
162
100
AcDbEntity
  8
bold
100
AcDbLine
 10
16.14495724568616
 20
-37.28701047476036
 30
0.0
 11
10.0
 21
-47.52858827254799
 31
0.0
  0
LINE
  5
1EF
330
162
100
AcDbEntity
  8
bold
100
AcDbLine
 10
11.8692
 20
-82.5513
 30
0.0
 11
0.1999599332992222
 21
-102.0
 31
0.0
  0
LINE
  5
1F0
330
162
100
AcDbEntity
  8
bold
100
AcDbLine
 10
6.320013208910741
 20
-102.0
 30
0.0
 11
11.00000203337165
 21
-94.20003203893064
 31
0.0
  0
LINE
  5
1F1
330
162
100
AcDbEntity
  8
bold
100
AcDbLine
 10
14.02939461077291
 20
-84.61768809123255
 30
0.0
 11
14.2097892507273
 21
-84.72592506133203
 31
0.0
  0
LINE
  5
1F2
330
162
100
AcDbEntity
  8
bold
100
AcDbLine
 10
22.86392952846
 20
-90.29343668847271
 30
0.0
 11
17.99997084748616
 21
-98.40002054979877
 31
0.0
  0
LINE
  5
1F3
330
162
100
AcDbEntity
  8
bold
100
AcDbLine
 10
16.14495724568616
 20
-97.28701047476036
 30
0.0
 11
13.31715866779317
 21
-102.0
 31
0.0
  0
ENDBLK
  5
165
330
162
100
AcDbEntity
  8
0
100
AcDbBlockEnd
  0
BLOCK
  5
1F8
330
1F7
100
AcDbEntity
  8
0
100
AcDbBlockBegin
  2
*D8
 70
     1
 10
0.0
 20
0.0
 30
0.0
  3
*D8
  1

  0
LINE
  5
1FA
330
1F7
100
AcDbEntity
  8
dimension
 62
     0
370
    -2
100
AcDbLine
 10
-9.0
 20
-102.0
 30
0.0
 11
-9.0
 21
-127.0
 31
0.0
  0
LINE
  5
1FB
330
1F7
100
AcDbEntity
  8
dimension
 62
     0
370
    -2
100
AcDbLine
 10
27.0
 20
-92.67
 30
0.0
 11
27.0
 21
-127.0
 31
0.0
  0
LINE
  5
1FC
330
1F7
100
AcDbEntity
  8
dimension
 62
     0
370
    -2
100
AcDbLine
 10
-4.0
 20
-127.0
 30
0.0
 11
22.0
 21
-127.0
 31
0.0
  0
SOLID
  5
1FD
330
1F7
100
AcDbEntity
  8
dimension
 62
     0
100
AcDbTrace
 10
-4.0
 20
-126.1666666666667
 30
0.0
 11
-4.0
 21
-127.8333333333333
 31
0.0
 12
-9.0
 22
-127.0
 32
0.0
 13
-9.0
 23
-127.0
 33
0.0
  0
SOLID
  5
1FE
330
1F7
100
AcDbEntity
  8
dimension
 62
     0
100
AcDbTrace
 10
22.0
 20
-127.8333333333333
 30
0.0
 11
22.0
 21
-126.1666666666667
 31
0.0
 12
27.0
 22
-127.0
 32
0.0
 13
27.0
 23
-127.0
 33
0.0
  0
MTEXT
  5
1FF
330
1F7
100
AcDbEntity
  8
dimension
 62
     0
100
AcDbMText
 10
9.0
 20
-123.0
 30
0.0
 40
5.0
 41
0.0
 46
0.0
 71
     5
 72
     1
  1
36
 73
     1
 44
1.0
  0
POINT
  5
200
330
1F7
100
AcDbEntity
  8
Defpoints
 62
     0
100
AcDbPoint
 10
-9.0
 20
-102.0
 30
0.0
  0
POINT
  5
201
330
1F7
100
AcDbEntity
  8
Defpoints
 62
     0
100
AcDbPoint
 10
27.0
 20
-92.67
 30
0.0
  0
POINT
  5
202
330
1F7
100
AcDbEntity
  8
Defpoints
 62
     0
100
AcDbPoint
 10
27.0
 20
-124.5
 30
0.0
  0
ENDBLK
  5
1F9
330
1F7
100
AcDbEntity
  8
0
100
AcDbBlockEnd
  0
BLOCK
  5
205
330
204
100
AcDbEntity
  8
0
100
AcDbBlockBegin
  2
*D9
 70
     1
 10
0.0
 20
0.0
 30
0.0
  3
*D9
  1

  0
LINE
  5
207
330
204
100
AcDbEntity
  8
dimension
 62
     0
370
    -2
100
AcDbLine
 10
13.5
 20
54.0
 30
0.0
 11
-34.0
 21
54.0
 31
0.0
  0
LINE
  5
208
330
204
100
AcDbEntity
  8
dimension
 62
     0
370
    -2
100
AcDbLine
 10
13.5
 20
-6.0
 30
0.0
 11
-34.0
 21
-6.0
 31
0.0
  0
LINE
  5
209
330
204
100
AcDbEntity
  8
dimension
 62
     0
370
    -2
100
AcDbLine
 10
-34.0
 20
49.0
 30
0.0
 11
-34.0
 21
29.42857142857143
 31
0.0
  0
LINE
  5
20A
330
204
100
AcDbEntity
  8
dimension
 62
     0
370
    -2
100
AcDbLine
 10
-34.0
 20
-1.0
 30
0.0
 11
-34.0
 21
18.57142857142857
 31
0.0
  0
SOLID
  5
20B
330
204
100
AcDbEntity
  8
dimension
 62
     0
100
AcDbTrace
 10
-33.16666666666666
 20
49.0
 30
0.0
 11
-34.83333333333334
 21
49.0
 31
0.0
 12
-34.0
 22
54.0
 32
0.0
 13
-34.0
 23
54.0
 33
0.0
  0
SOLID
  5
20C
330
204
100
AcDbEntity
  8
dimension
 62
     0
100
AcDbTrace
 10
-34.83333333333334
 20
-0.9999999999999999
 30
0.0
 11
-33.16666666666666
 21
-1.0
 31
0.0
 12
-34.0
 22
-6.0
 32
0.0
 13
-34.0
 23
-6.0
 33
0.0
  0
MTEXT
  5
20D
330
204
100
AcDbEntity
  8
dimension
 62
     0
100
AcDbMText
 10
-34.0
 20
24.0
 30
0.0
 40
5.0
 41
0.0
 46
0.0
 71
     5
 72
     1
  1
60
 11
6.123233995736766E-17
 21
1.0
 31
0.0
 73
     1
 44
1.0
  0
POINT
  5
20E
330
204
100
AcDbEntity
  8
Defpoints
 62
     0
100
AcDbPoint
 10
13.5
 20
54.0
 30
0.0
  0
POINT
  5
20F
330
204
100
AcDbEntity
  8
Defpoints
 62
     0
100
AcDbPoint
 10
13.5
 20
-6.0
 30
0.0
  0
POINT
  5
210
330
204
100
AcDbEntity
  8
Defpoints
 62
     0
100
AcDbPoint
 10
-31.5
 20
-5.999999999999997
 30
0.0
  0
ENDBLK
  5
206
330
204
100
AcDbEntity
  8
0
100
AcDbBlockEnd
  0
BLOCK
  5
213
330
212
100
AcDbEntity
  8
0
100
AcDbBlockBegin
  2
*D10
 70
     1
 10
0.0
 20
0.0
 30
0.0
  3
*D10
  1

  0
LINE
  5
215
330
212
100
AcDbEntity
  8
dimension
 62
     0
370
    -2
100
AcDbLine
 10
13.5
 20
-6.0
 30
0.0
 11
-34.0
 21
-5.999999999999997
 31
0.0
  0
LINE
  5
216
330
212
100
AcDbEntity
  8
dimension
 62
     0
370
    -2
100
AcDbLine
 10
13.5
 20
-66.0
 30
0.0
 11
-34.0
 21
-66.0
 31
0.0
  0
LINE
  5
217
330
212
100
AcDbEntity
  8
dimension
 62
     0
370
    -2
100
AcDbLine
 10
-34.0
 20
-11.0
 30
0.0
 11
-34.0
 21
-30.57142857142857
 31
0.0
  0
LINE
  5
218
330
212
100
AcDbEntity
  8
dimension
 62
     0
370
    -2
100
AcDbLine
 10
-34.0
 20
-61.0
 30
0.0
 11
-34.0
 21
-41.42857142857143
 31
0.0
  0
SOLID
  5
219
330
212
100
AcDbEntity
  8
dimension
 62
     0
100
AcDbTrace
 10
-33.16666666666666
 20
-11.0
 30
0.0
 11
-34.83333333333334
 21
-11.0
 31
0.0
 12
-34.0
 22
-5.999999999999997
 32
0.0
 13
-34.0
 23
-5.999999999999997
 33
0.0
  0
SOLID
  5
21A
330
212
100
AcDbEntity
  8
dimension
 62
     0
100
AcDbTrace
 10
-34.83333333333334
 20
-61.0
 30
0.0
 11
-33.16666666666666
 21
-61.0
 31
0.0
 12
-34.0
 22
-66.0
 32
0.0
 13
-34.0
 23
-66.0
 33
0.0
  0
MTEXT
  5
21B
330
212
100
AcDbEntity
  8
dimension
 62
     0
100
AcDbMText
 10
-34.0
 20
-36.0
 30
0.0
 40
5.0
 41
0.0
 46
0.0
 71
     5
 72
     1
  1
60
 11
6.123233995736766E-17
 21
1.0
 31
0.0
 73
     1
 44
1.0
  0
POINT
  5
21C
330
212
100
AcDbEntity
  8
Defpoints
 62
     0
100
AcDbPoint
 10
13.5
 20
-6.0
 30
0.0
  0
POINT
  5
21D
330
212
100
AcDbEntity
  8
Defpoints
 62
     0
100
AcDbPoint
 10
13.5
 20
-66.0
 30
0.0
  0
POINT
  5
21E
330
212
100
AcDbEntity
  8
Defpoints
 62
     0
100
AcDbPoint
 10
-31.5
 20
-66.0
 30
0.0
  0
ENDBLK
  5
214
330
212
100
AcDbEntity
  8
0
100
AcDbBlockEnd
  0
ENDSEC
  0
SECTION
  2
ENTITIES
  0
ATTDEF
  5
5F
330
1F
100
AcDbEntity
  8
attrib
100
AcDbText
 10
32.0
 20
74.0
 30
0.0
 40
0.5
  1
01498
100
AcDbAttributeDefinition
  3

  2
NB
 70
     8
280
     0
  0
ATTDEF
  5
60
330
1F
100
AcDbEntity
  8
attrib
100
AcDbText
 10
32.0
 20
73.5
 30
0.0
 40
0.5
  1
D0 fuse bases
100
AcDbAttributeDefinition
  3

  2
NN
 70
     8
280
     0
  0
ATTDEF
  5
61
330
1F
100
AcDbEntity
  8
attrib
100
AcDbText
 10
32.0
 20
73.0
 30
0.0
 40
0.5
  1

100
AcDbAttributeDefinition
  3

  2
NT
 70
     8
280
     0
  0
ATTDEF
  5
62
330
1F
100
AcDbEntity
  8
attrib
100
AcDbText
 10
32.0
 20
72.5
 30
0.0
 40
0.5
  1
$ARTNR.
100
AcDbAttributeDefinition
  3

  2
NBSYN
 70
     8
280
     0
  0
ATTDEF
  5
63
330
1F
100
AcDbEntity
  8
attrib
100
AcDbText
 10
32.0
 20
72.0
 30
0.0
 40
0.5
  1
01498000
100
AcDbAttributeDefinition
  3

  2
LINA
 70
     8
280
     0
  0
ATTDEF
  5
64
330
1F
100
AcDbEntity
  8
attrib
100
AcDbText
 10
32.0
 20
71.5
 30
0.0
 40
0.5
  1
Wöhner
100
AcDbAttributeDefinition
  3

  2
CATALOG
 70
     8
280
     0
  0
ATTDEF
  5
65
330
1F
100
AcDbEntity
  8
attrib
100
AcDbText
 10
32.0
 20
71.0
 30
0.0
 40
0.5
  1
01498
100
AcDbAttributeDefinition
  3

  2
ARTNR
 70
     8
280
     0
  0
ATTDEF
  5
66
330
1F
100
AcDbEntity
  8
attrib
100
AcDbText
 10
32.0
 20
70.5
 30
0.0
 40
0.5
  1
12, 15, 20, 25, 30 x 5, 10 and section busbars
100
AcDbAttributeDefinition
  3

  2
BUSB
 70
     8
280
     0
  0
ATTDEF
  5
67
330
1F
100
AcDbEntity
  8
attrib
100
AcDbText
 10
32.0
 20
70.0
 30
0.0
 40
0.5
  1
CUSTO®60Classic
100
AcDbAttributeDefinition
  3

  2
POF
 70
     8
280
     0
  0
ATTDEF
  5
68
330
1F
100
AcDbEntity
  8
attrib
100
AcDbText
 10
32.0
 20
69.5
 30
0.0
 40
0.5
  1
5683
100
AcDbAttributeDefinition
  3

  2
TYPE
 70
     8
280
     0
  0
ATTDEF
  5
69
330
1F
100
AcDbEntity
  8
attrib
100
AcDbText
 10
32.0
 20
69.0
 30
0.0
 40
0.5
  1
10
100
AcDbAttributeDefinition
  3

  2
QNT
 70
     8
280
     0
  0
ATTDEF
  5
6A
330
1F
100
AcDbEntity
  8
attrib
100
AcDbText
 10
32.0
 20
68.5
 30
0.0
 40
0.5
  1
36
100
AcDbAttributeDefinition
  3

  2
W
 70
     8
280
     0
  0
ATTDEF
  5
6B
330
1F
100
AcDbEntity
  8
attrib
100
AcDbText
 10
32.0
 20
68.0
 30
0.0
 40
0.5
  1
200
100
AcDbAttributeDefinition
  3

  2
H
 70
     8
280
     0
  0
ATTDEF
  5
6C
330
1F
100
AcDbEntity
  8
attrib
100
AcDbText
 10
32.0
 20
67.5
 30
0.0
 40
0.5
  1
43
100
AcDbAttributeDefinition
  3

  2
D
 70
     8
280
     0
  0
ATTDEF
  5
6D
330
1F
100
AcDbEntity
  8
attrib
100
AcDbText
 10
32.0
 20
67.0
 30
0.0
 40
0.5
  1
Product link
100
AcDbAttributeDefinition
  3

  2
LINK
 70
     8
280
     0
  0
ATTDEF
  5
6E
330
1F
100
AcDbEntity
  8
attrib
100
AcDbText
 10
32.0
 20
66.5
 30
0.0
 40
0.5
  1
woehner
100
AcDbAttributeDefinition
  3

  2
COMPANY
 70
     8
280
     0
  0
ATTDEF
  5
6F
330
1F
100
AcDbEntity
  8
attrib
100
AcDbText
 10
32.0
 20
66.0
 30
0.0
 40
0.5
  1
{$CADENAS_DATA/23d-libs/woehner/sys_60classic/d0_fuse_base_custo_asmtab.prj},181 {VTYP=3D},{STYP=ASSTAB},{NB=01498},{LINA=01498000},{NN=D0-Sicherungshalter},{DATE=21.03.2023 15:11:36},{GEOMDATE=22.12.2022 06:11:54},{VERSION=},{LINEID=930},{WBVAR=},{WBNUME
100
AcDbAttributeDefinition
  3

  2
PSOL_0
 70
     9
280
     0
  0
ATTDEF
  5
70
330
1F
100
AcDbEntity
  8
attrib
100
AcDbText
 10
32.0
 20
65.5
 30
0.0
 40
0.5
  1
RIC=}  {NB=01498},{LINA=01498000},{KT=DUMMY},{EAN=4021267014988},{ARTICLEORDER=46},{BOM=01498000},{ARTNR=01498},{BUSB=12, 15, 20, 25, 30 x 5, 10 and section busbars},{BE=D0-fuse base, busbar mounted, 36mm},{POF=CUSTO®60Classic},{TYPE=5683},{QNT=10},{W=36}
100
AcDbAttributeDefinition
  3

  2
PSOL_1
 70
     9
280
     0
  0
ATTDEF
  5
71
330
1F
100
AcDbEntity
  8
attrib
100
AcDbText
 10
32.0
 20
65.0
 30
0.0
 40
0.5
  1
,{H=200},{D=43},{CONCA=},{BUSIN=},{IPR=},{IPRF=},{SEARCH=},{EDZ=},{IODD=},{DIST=7.5},{LINK=Product link},{LINKX=https://www.woehner.de/de/produkte/01498.html},{VER1=1},{VER2=2},{PRA=1},{PPATH=parts/d0_fuse_base_custo_asmtpl.prj}
100
AcDbAttributeDefinition
  3

  2
PSOL_2
 70
     9
280
     0
  0
INSERT
  5
73
330
1F
100
AcDbEntity
  8
0
100
AcDbBlockReference
  2
1_75033000_1_0_in_01498_0
 10
0.0
 20
0.0
 30
0.0
  0
INSERT
  5
8C
330
1F
100
AcDbEntity
  8
0
100
AcDbBlockReference
  2
2_75033000_2_0_in_01498_0
 10
0.0
 20
0.0
 30
0.0
  0
INSERT
  5
A4
330
1F
100
AcDbEntity
  8
0
100
AcDbBlockReference
  2
3_75033000_3_0_in_01498_0
 10
0.0
 20
0.0
 30
0.0
  0
INSERT
  5
BC
330
1F
100
AcDbEntity
  8
0
100
AcDbBlockReference
  2
4_30414000_1_0_in_01498_0
 10
0.0
 20
0.0
 30
0.0
  0
INSERT
  5
F7
330
1F
100
AcDbEntity
  8
0
100
AcDbBlockReference
  2
5_30414000_2_0_in_01498_0
 10
0.0
 20
0.0
 30
0.0
  0
INSERT
  5
12D
330
1F
100
AcDbEntity
  8
0
100
AcDbBlockReference
  2
6_30414000_3_0_in_01498_0
 10
0.0
 20
0.0
 30
0.0
  0
INSERT
  5
163
330
1F
100
AcDbEntity
  8
0
100
AcDbBlockReference
  2
7_78552000_0_in_01498_0
 10
0.0
 20
0.0
 30
0.0
  0
DIMENSION
  5
1F5
330
1F
100
AcDbEntity
  8
dimension
100
AcDbDimension
280
     0
  2
*D8
 10
27.0
 20
-127.0
 30
0.0
 11
9.0
 21
-127.0
 31
0.0
 70
   160
  1
36
 71
     5
 42
36.0
 73
     0
 74
     0
 75
     0
  3
ISO-25
100
AcDbAlignedDimension
 13
-9.0
 23
-102.0
 33
0.0
 14
27.0
 24
-92.67
 34
0.0
100
AcDbRotatedDimension
1001
ACAD
1000
DSTYLE
1002
{
1070
   147
1040
1.5
1070
    42
1040
0.0
1070
    44
1040
0.0
1070
    41
1040
5.0
1070
   140
1040
5.0
1002
}
  0
DIMENSION
  5
203
330
1F
100
AcDbEntity
  8
dimension
100
AcDbDimension
280
     0
  2
*D9
 10
-34.0
 20
-6.0
 30
0.0
 11
-34.0
 21
24.0
 31
0.0
 70
   160
  1
60
 71
     5
 42
60.0
 73
     0
 74
     0
 75
     0
 53
90.0
  3
ISO-25
100
AcDbAlignedDimension
 13
13.5
 23
54.0
 33
0.0
 14
13.5
 24
-6.0
 34
0.0
 50
90.0
100
AcDbRotatedDimension
1001
ACAD
1000
DSTYLE
1002
{
1070
   147
1040
1.5
1070
    42
1040
0.0
1070
    44
1040
0.0
1070
    41
1040
5.0
1070
   140
1040
5.0
1002
}
  0
DIMENSION
  5
211
330
1F
100
AcDbEntity
  8
dimension
100
AcDbDimension
280
     0
  2
*D10
 10
-34.0
 20
-66.0
 30
0.0
 11
-34.0
 21
-36.0
 31
0.0
 70
   160
  1
60
 71
     5
 42
60.0
 73
     0
 74
     0
 75
     0
 53
90.0
  3
ISO-25
100
AcDbAlignedDimension
 13
13.5
 23
-6.0
 33
0.0
 14
13.5
 24
-66.0
 34
0.0
 50
90.0
100
AcDbRotatedDimension
1001
ACAD
1000
DSTYLE
1002
{
1070
   147
1040
1.5
1070
    42
1040
0.0
1070
    44
1040
0.0
1070
    41
1040
5.0
1070
   140
1040
5.0
1002
}
  0
POINT
  5
220
330
1F
100
AcDbEntity
  8
connection
100
AcDbPoint
 10
13.5
 20
-6.0
 30
0.0
  0
POINT
  5
221
330
1F
100
AcDbEntity
  8
connection
100
AcDbPoint
 10
13.5
 20
54.0
 30
0.0
  0
POINT
  5
222
330
1F
100
AcDbEntity
  8
connection
100
AcDbPoint
 10
13.38257914392974
 20
-95.8915072418954
 30
0.0
  0
POINT
  5
223
330
1F
100
AcDbEntity
  8
connection
100
AcDbPoint
 10
13.38257914392974
 20
-35.8915072418954
 30
0.0
  0
POINT
  5
224
330
1F
100
AcDbEntity
  8
connection
100
AcDbPoint
 10
13.38257914392974
 20
24.1084927581046
 30
0.0
  0
POINT
  5
225
330
1F
100
AcDbEntity
  8
connection
100
AcDbPoint
 10
0.0
 20
0.0
 30
0.0
  0
POINT
  5
226
330
1F
100
AcDbEntity
  8
connection
100
AcDbPoint
 10
13.5
 20
54.0
 30
0.0
  0
POINT
  5
227
330
1F
100
AcDbEntity
  8
connection
100
AcDbPoint
 10
13.5
 20
-6.0
 30
0.0
  0
POINT
  5
228
330
1F
100
AcDbEntity
  8
connection
100
AcDbPoint
 10
13.5
 20
-66.0
 30
0.0
  0
POINT
  5
229
330
1F
100
AcDbEntity
  8
connection
100
AcDbPoint
 10
13.38257914392974
 20
24.1084927581046
 30
0.0
  0
POINT
  5
22A
330
1F
100
AcDbEntity
  8
connection
100
AcDbPoint
 10
13.38257914392974
 20
-35.8915072418954
 30
0.0
  0
POINT
  5
22B
330
1F
100
AcDbEntity
  8
connection
100
AcDbPoint
 10
13.38257914392974
 20
-95.8915072418954
 30
0.0
  0
ENDSEC
  0
SECTION
  2
OBJECTS
  0
DICTIONARY
  5
C
330
0
100
AcDbDictionary
281
     1
  3
ACAD_DETAILVIEWSTYLE
350
233
  3
ACAD_GROUP
350
D
  3
ACAD_LAYOUT
350
1A
  3
ACAD_MATERIAL
350
43
  3
ACAD_MLEADERSTYLE
350
5B
  3
ACAD_MLINESTYLE
350
17
  3
ACAD_PLOTSETTINGS
350
19
  3
ACAD_PLOTSTYLENAME
350
E
  3
ACAD_SCALELIST
350
47
  3
ACAD_SECTIONVIEWSTYLE
350
234
  3
ACAD_TABLESTYLE
350
59
  3
ACAD_VISUALSTYLE
350
2A
  3
ACDB_RECOMPOSE_DATA
350
230
  3
AcDbVariableDictionary
350
22C
  0
SUN
  5
5D
330
29
100
AcDbSun
 90
        1
290
     0
 63
     7
421
 16777215
 40
1.0
291
     1
 91
  2455826
 92
 54000000
292
     0
 70
     2
 71
   256
280
     1
  0
DICTIONARY
  5
233
102
{ACAD_REACTORS
330
C
102
}
330
C
100
AcDbDictionary
281
     1
  0
DICTIONARY
  5
D
102
{ACAD_REACTORS
330
C
102
}
330
C
100
AcDbDictionary
281
     1
  0
DICTIONARY
  5
1A
102
{ACAD_REACTORS
330
C
102
}
330
C
100
AcDbDictionary
281
     1
  3
Layout1
350
1E
  3
Layout2
350
26
  3
Model
350
22
  0
DICTIONARY
  5
43
102
{ACAD_REACTORS
330
C
102
}
330
C
100
AcDbDictionary
281
     1
  3
ByBlock
350
45
  3
ByLayer
350
44
  3
Global
350
46
  0
DICTIONARY
  5
5B
102
{ACAD_REACTORS
330
C
102
}
330
C
100
AcDbDictionary
281
     1
  3
Standard
350
5C
  0
DICTIONARY
  5
17
102
{ACAD_REACTORS
330
C
102
}
330
C
100
AcDbDictionary
281
     1
  3
Standard
350
18
  0
DICTIONARY
  5
19
102
{ACAD_REACTORS
330
C
102
}
330
C
100
AcDbDictionary
281
     1
  0
ACDBDICTIONARYWDFLT
  5
E
102
{ACAD_REACTORS
330
C
102
}
330
C
100
AcDbDictionary
281
     1
  3
Normal
350
F
100
AcDbDictionaryWithDefault
340
F
  0
DICTIONARY
  5
47
102
{ACAD_REACTORS
330
C
102
}
330
C
100
AcDbDictionary
281
     1
  3
A0
350
48
  3
A1
350
49
  3
A2
350
4A
  3
A3
350
4B
  3
A4
350
4C
  3
A5
350
4D
  3
A6
350
4E
  3
A7
350
4F
  3
A8
350
50
  3
A9
350
51
  3
B0
350
52
  3
B1
350
53
  3
B2
350
54
  3
B3
350
55
  3
B4
350
56
  3
B5
350
57
  3
B6
350
58
  0
DICTIONARY
  5
234
102
{ACAD_REACTORS
330
C
102
}
330
C
100
AcDbDictionary
281
     1
  0
DICTIONARY
  5
59
102
{ACAD_REACTORS
330
C
102
}
330
C
100
AcDbDictionary
281
     1
  3
Standard
350
5A
  0
DICTIONARY
  5
2A
102
{ACAD_REACTORS
330
C
102
}
330
C
100
AcDbDictionary
281
     1
  3
2dWireframe
350
2F
  3
Basic
350
32
  3
Brighten
350
36
  3
ColorChange
350
3A
  3
Conceptual
350
34
  3
Dim
350
35
  3
EdgeColorOff
350
3D
  3
Facepattern
350
39
  3
Flat
350
2B
  3
FlatWithEdges
350
2C
  3
Gouraud
350
2D
  3
GouraudWithEdges
350
2E
  3
Hidden
350
31
  3
JitterOff
350
3B
  3
Linepattern
350
38
  3
OverhangOff
350
3C
  3
Realistic
350
33
  3
Shaded
350
42
  3
Shaded with edges
350
41
  3
Shades of Gray
350
3E
  3
Sketchy
350
3F
  3
Thicken
350
37
  3
Wireframe
350
30
  3
X-Ray
350
40
  0
XRECORD
  5
230
102
{ACAD_REACTORS
330
C
102
}
330
C
100
AcDbXrecord
280
     1
 90
        1
330
5A
  0
DICTIONARY
  5
22C
102
{ACAD_REACTORS
330
C
102
}
330
C
100
AcDbDictionary
281
     1
  3
CANNOSCALE
350
22D
  3
CENTEREXE
350
235
  3
CENTERLTYPEFILE
350
236
  3
CMLEADERSTYLE
350
232
  3
CTABLESTYLE
350
231
  0
LAYOUT
  5
1E
102
{ACAD_REACTORS
330
1A
102
}
330
1A
100
AcDbPlotSettings
  1

  2
none_device
  4

  6

 40
0.0
 41
0.0
 42
0.0
 43
0.0
 44
0.0
 45
0.0
 46
0.0
 47
0.0
 48
0.0
 49
0.0
140
0.0
141
0.0
142
1.0
143
1.0
 70
   688
 72
     1
 73
     0
 74
     5
  7

 75
    16
 76
     0
 77
     2
 78
   300
147
1.0
148
0.0
149
0.0
100
AcDbLayout
  1
Layout1
 70
     1
 71
     1
 10
0.0
 20
0.0
 11
420.0
 21
297.0
 12
0.0
 22
0.0
 32
0.0
 14
1.000000000000000E+20
 24
1.000000000000000E+20
 34
1.000000000000000E+20
 15
-1.000000000000000E+20
 25
-1.000000000000000E+20
 35
-1.000000000000000E+20
146
0.0
 13
0.0
 23
0.0
 33
0.0
 16
1.0
 26
0.0
 36
0.0
 17
0.0
 27
1.0
 37
0.0
 76
     0
330
1B
  0
LAYOUT
  5
26
102
{ACAD_REACTORS
330
1A
102
}
330
1A
100
AcDbPlotSettings
  1

  2
none_device
  4

  6

 40
0.0
 41
0.0
 42
0.0
 43
0.0
 44
0.0
 45
0.0
 46
0.0
 47
0.0
 48
0.0
 49
0.0
140
0.0
141
0.0
142
1.0
143
1.0
 70
   688
 72
     1
 73
     0
 74
     5
  7

 75
    16
 76
     0
 77
     2
 78
   300
147
1.0
148
0.0
149
0.0
100
AcDbLayout
  1
Layout2
 70
     1
 71
     2
 10
0.0
 20
0.0
 11
0.0
 21
0.0
 12
0.0
 22
0.0
 32
0.0
 14
0.0
 24
0.0
 34
0.0
 15
0.0
 25
0.0
 35
0.0
146
0.0
 13
0.0
 23
0.0
 33
0.0
 16
1.0
 26
0.0
 36
0.0
 17
0.0
 27
1.0
 37
0.0
 76
     0
330
23
  0
LAYOUT
  5
22
102
{ACAD_REACTORS
330
1A
102
}
330
1A
100
AcDbPlotSettings
  1

  2
none_device
  4
Letter_(8.50_x_11.00_Inches)
  6

 40
6.35
 41
6.35
 42
6.35000508
 43
6.35000508
 44
215.9
 45
279.4
 46
0.0
 47
0.0
 48
0.0
 49
0.0
140
0.0
141
0.0
142
1.0
143
1.0
 70
  1712
 72
     1
 73
     0
 74
     0
  7

 75
     0
 76
     0
 77
     2
 78
   300
147
1.0
148
0.0
149
0.0
100
AcDbLayout
  1
Model
 70
     1
 71
     0
 10
0.0
 20
0.0
 11
420.0
 21
297.0
 12
0.0
 22
0.0
 32
0.0
 14
-36.5
 24
-127.8333333333333
 34
0.0
 15
35.45238095238095
 25
74.5
 35
0.0
146
0.0
 13
0.0
 23
0.0
 33
0.0
 16
1.0
 26
0.0
 36
0.0
 17
0.0
 27
1.0
 37
0.0
 76
     0
330
1F
331
29
  0
MATERIAL
  5
45
102
{ACAD_REACTORS
330
43
102
}
330
43
100
AcDbMaterial
  1
ByBlock
 72
     1
 94
      127
  0
MATERIAL
  5
44
102
{ACAD_REACTORS
330
43
102
}
330
43
100
AcDbMaterial
  1
ByLayer
 72
     1
 94
      127
  0
MATERIAL
  5
46
102
{ACAD_REACTORS
330
43
102
}
330
43
100
AcDbMaterial
  1
Global
 72
     1
 94
      127
  0
MLEADERSTYLE
  5
5C
102
{ACAD_REACTORS
330
5B
102
}
330
5B
100
AcDbMLeaderStyle
179
     2
170
     2
171
     1
172
     0
 90
        2
 40
0.0
 41
0.0
173
     1
 91
-1056964608
340
14
 92
       -2
290
     1
 42
2.0
291
     1
 43
8.0
  3
Standard
341
0
 44
4.0
300

342
11
174
     1
178
     6
175
     1
176
     0
 93
-1056964608
 45
4.0
292
     0
297
     0
 46
4.0
343
0
 94
-1056964608
 47
1.0
 49
1.0
140
1.0
293
     1
141
0.0
294
     1
177
     0
142
1.0
295
     0
296
     0
143
3.75
271
     0
272
     9
273
     9
298
     0
  0
MLINESTYLE
  5
18
102
{ACAD_REACTORS
330
17
102
}
330
17
100
AcDbMlineStyle
  2
Standard
 70
     0
  3

 62
   256
 51
90.0
 52
90.0
 71
     2
 49
0.5
 62
   256
  6
BYLAYER
 49
-0.5
 62
   256
  6
BYLAYER
  0
ACDBPLACEHOLDER
  5
F
102
{ACAD_REACTORS
330
E
102
}
330
E
  0
SCALE
  5
48
102
{ACAD_REACTORS
330
47
102
}
330
47
100
AcDbScale
 70
     0
300
1:1
140
1.0
141
1.0
290
     1
  0
SCALE
  5
49
102
{ACAD_REACTORS
330
47
102
}
330
47
100
AcDbScale
 70
     0
300
1:2
140
1.0
141
2.0
290
     0
  0
SCALE
  5
4A
102
{ACAD_REACTORS
330
47
102
}
330
47
100
AcDbScale
 70
     0
300
1:4
140
1.0
141
4.0
290
     0
  0
SCALE
  5
4B
102
{ACAD_REACTORS
330
47
102
}
330
47
100
AcDbScale
 70
     0
300
1:5
140
1.0
141
5.0
290
     0
  0
SCALE
  5
4C
102
{ACAD_REACTORS
330
47
102
}
330
47
100
AcDbScale
 70
     0
300
1:8
140
1.0
141
8.0
290
     0
  0
SCALE
  5
4D
102
{ACAD_REACTORS
330
47
102
}
330
47
100
AcDbScale
 70
     0
300
1:10
140
1.0
141
10.0
290
     0
  0
SCALE
  5
4E
102
{ACAD_REACTORS
330
47
102
}
330
47
100
AcDbScale
 70
     0
300
1:16
140
1.0
141
16.0
290
     0
  0
SCALE
  5
4F
102
{ACAD_REACTORS
330
47
102
}
330
47
100
AcDbScale
 70
     0
300
1:20
140
1.0
141
20.0
290
     0
  0
SCALE
  5
50
102
{ACAD_REACTORS
330
47
102
}
330
47
100
AcDbScale
 70
     0
300
1:30
140
1.0
141
30.0
290
     0
  0
SCALE
  5
51
102
{ACAD_REACTORS
330
47
102
}
330
47
100
AcDbScale
 70
     0
300
1:40
140
1.0
141
40.0
290
     0
  0
SCALE
  5
52
102
{ACAD_REACTORS
330
47
102
}
330
47
100
AcDbScale
 70
     0
300
1:50
140
1.0
141
50.0
290
     0
  0
SCALE
  5
53
102
{ACAD_REACTORS
330
47
102
}
330
47
100
AcDbScale
 70
     0
300
1:100
140
1.0
141
100.0
290
     0
  0
SCALE
  5
54
102
{ACAD_REACTORS
330
47
102
}
330
47
100
AcDbScale
 70
     0
300
2:1
140
2.0
141
1.0
290
     0
  0
SCALE
  5
55
102
{ACAD_REACTORS
330
47
102
}
330
47
100
AcDbScale
 70
     0
300
4:1
140
4.0
141
1.0
290
     0
  0
SCALE
  5
56
102
{ACAD_REACTORS
330
47
102
}
330
47
100
AcDbScale
 70
     0
300
8:1
140
8.0
141
1.0
290
     0
  0
SCALE
  5
57
102
{ACAD_REACTORS
330
47
102
}
330
47
100
AcDbScale
 70
     0
300
10:1
140
10.0
141
1.0
290
     0
  0
SCALE
  5
58
102
{ACAD_REACTORS
330
47
102
}
330
47
100
AcDbScale
 70
     0
300
100:1
140
100.0
141
1.0
290
     0
  0
TABLESTYLE
  5
5A
102
{ACAD_REACTORS
330
59
102
}
102
{ACAD_XDICTIONARY
360
22E
102
}
330
59
100
AcDbTableStyle
  3
Standard
 70
     0
 71
     0
 40
0.06
 41
0.06
280
     0
281
     0
  7
Standard
140
4.5
170
     2
 62
     0
 63
   257
283
     0
 90
        4
 91
        0
  1

274
    -2
284
     1
 64
     0
275
    -2
285
     1
 65
     0
276
    -2
286
     1
 66
     0
277
    -2
287
     1
 67
     0
278
    -2
288
     1
 68
     0
279
    -2
289
     1
 69
     0
  7
Standard
140
6.0
170
     5
 62
     0
 63
   257
283
     0
 90
        4
 91
        0
  1

274
    -2
284
     1
 64
     0
275
    -2
285
     1
 65
     0
276
    -2
286
     1
 66
     0
277
    -2
287
     1
 67
     0
278
    -2
288
     1
 68
     0
279
    -2
289
     1
 69
     0
  7
Standard
140
4.5
170
     5
 62
     0
 63
   257
283
     0
 90
        4
 91
        0
  1

274
    -2
284
     1
 64
     0
275
    -2
285
     1
 65
     0
276
    -2
286
     1
 66
     0
277
    -2
287
     1
 67
     0
278
    -2
288
     1
 68
     0
279
    -2
289
     1
 69
     0
  0
VISUALSTYLE
  5
2F
102
{ACAD_REACTORS
330
2A
102
}
330
2A
100
AcDbVisualStyle
  2
2dWireframe
 70
     4
177
     3
291
     0
 70
    58
 90
        0
176
     1
 90
        2
176
     1
 90
        0
176
     1
 90
        0
176
     1
 40
0.6
176
     1
 40
30.0
176
     1
 62
     7
420
 16777215
176
     1
 90
        1
176
     1
 90
        4
176
     1
 62
     7
176
     1
 62
   257
176
     1
 90
        1
176
     1
 90
        1
176
     1
 40
1.0
176
     1
 90
        0
176
     1
 62
   257
176
     1
 40
1.0
176
     1
 90
        1
176
     1
 90
        6
176
     1
 90
        2
176
     1
 62
     7
176
     1
 90
        5
176
     1
 90
        0
176
     1
 90
        0
176
     1
290
     0
176
     1
 90
        1
176
     1
 40
0.0
176
     1
 90
        0
176
     1
290
     1
176
     1
290
     1
176
     1
290
     0
176
     1
290
     0
176
     1
290
     0
176
     1
290
     0
176
     1
290
     0
176
     1
290
     0
176
     1
290
     0
176
     1
 90
       50
176
     1
 40
0.0
176
     1
 40
1.0
176
     1
 90
        0
176
     1
 62
    18
420
        0
176
     1
 90
       50
176
     1
 90
        3
176
     1
 62
     5
420
      255
176
     1
290
     0
176
     1
 90
       50
176
     1
 90
       50
176
     1
 90
       50
176
     1
290
     0
176
     1
 90
       50
176
     1
 62
   256
176
     0
 40
1.0
176
     0
 90
        2
176
     1
  1
strokes_ogs.tif
176
     1
290
     0
176
     1
 40
1.0
176
     1
 40
1.0
176
     1
  0
VISUALSTYLE
  5
32
102
{ACAD_REACTORS
330
2A
102
}
330
2A
100
AcDbVisualStyle
  2
Basic
 70
     7
177
     3
291
     1
 70
    58
 90
        1
176
     1
 90
        0
176
     1
 90
        1
176
     1
 90
        0
176
     1
 40
0.6
176
     1
 40
30.0
176
     1
 62
     7
420
 16777215
176
     1
 90
        0
176
     1
 90
        4
176
     1
 62
     7
176
     1
 62
   257
176
     1
 90
        1
176
     1
 90
        1
176
     1
 40
1.0
176
     1
 90
        8
176
     1
 62
     7
176
     1
 40
1.0
176
     1
 90
        1
176
     1
 90
        6
176
     1
 90
        2
176
     1
 62
     7
176
     1
 90
        5
176
     1
 90
        0
176
     1
 90
        0
176
     1
290
     0
176
     1
 90
        1
176
     1
 40
0.0
176
     1
 90
        0
176
     1
290
     0
176
     1
290
     1
176
     1
290
     1
176
     1
290
     0
176
     1
290
     0
176
     1
290
     0
176
     1
290
     0
176
     1
290
     0
176
     1
290
     0
176
     1
 90
       50
176
     1
 40
0.0
176
     1
 40
1.0
176
     1
 90
        0
176
     1
 62
    18
420
        0
176
     1
 90
       50
176
     1
 90
        3
176
     1
 62
     5
420
      255
176
     1
290
     0
176
     1
 90
       50
176
     1
 90
       50
176
     1
 90
       50
176
     1
290
     0
176
     1
 90
       50
176
     1
 62
   256
176
     0
 40
1.0
176
     0
 90
        2
176
     1
  1
strokes_ogs.tif
176
     1
290
     0
176
     1
 40
1.0
176
     1
 40
1.0
176
     1
  0
VISUALSTYLE
  5
36
102
{ACAD_REACTORS
330
2A
102
}
330
2A
100
AcDbVisualStyle
  2
Brighten
 70
    12
177
     3
291
     1
 70
    58
 90
        2
176
     1
 90
        2
176
     1
 90
        0
176
     1
 90
        0
176
     1
 40
0.6
176
     1
 40
30.0
176
     1
 62
     7
420
 16777215
176
     1
 90
        1
176
     1
 90
        4
176
     1
 62
     7
176
     1
 62
   257
176
     1
 90
        1
176
     1
 90
        1
176
     1
 40
1.0
176
     1
 90
        8
176
     1
 62
     7
176
     1
 40
1.0
176
     1
 90
        1
176
     1
 90
        6
176
     1
 90
        2
176
     1
 62
     7
176
     1
 90
        5
176
     1
 90
        0
176
     1
 90
        0
176
     1
290
     0
176
     1
 90
        1
176
     1
 40
50.0
176
     1
 90
        0
176
     1
290
     0
176
     1
290
     1
176
     1
290
     1
176
     1
290
     0
176
     1
290
     0
176
     1
290
     0
176
     1
290
     0
176
     1
290
     0
176
     1
290
     0
176
     1
 90
       50
176
     1
 40
0.0
176
     1
 40
1.0
176
     1
 90
        0
176
     1
 62
    18
420
        0
176
     1
 90
       50
176
     1
 90
        3
176
     1
 62
     5
420
      255
176
     1
290
     0
176
     1
 90
       50
176
     1
 90
       50
176
     1
 90
       50
176
     1
290
     0
176
     1
 90
       50
176
     1
 62
   256
176
     0
 40
1.0
176
     0
 90
        2
176
     1
  1
strokes_ogs.tif
176
     1
290
     0
176
     1
 40
1.0
176
     1
 40
1.0
176
     1
  0
VISUALSTYLE
  5
3A
102
{ACAD_REACTORS
330
2A
102
}
330
2A
100
AcDbVisualStyle
  2
ColorChange
 70
    16
177
     3
291
     1
 70
    58
 90
        2
176
     1
 90
        2
176
     1
 90
        3
176
     1
 90
        0
176
     1
 40
0.6
176
     1
 40
30.0
176
     1
 62
     8
420
  8421504
176
     1
 90
        1
176
     1
 90
        4
176
     1
 62
     7
176
     1
 62
   257
176
     1
 90
        1
176
     1
 90
        1
176
     1
 40
1.0
176
     1
 90
        8
176
     1
 62
     8
420
  8421504
176
     1
 40
1.0
176
     1
 90
        1
176
     1
 90
        6
176
     1
 90
        2
176
     1
 62
     7
176
     1
 90
        5
176
     1
 90
        0
176
     1
 90
        0
176
     1
290
     0
176
     1
 90
        1
176
     1
 40
0.0
176
     1
 90
        0
176
     1
290
     0
176
     1
290
     1
176
     1
290
     1
176
     1
290
     0
176
     1
290
     0
176
     1
290
     0
176
     1
290
     0
176
     1
290
     0
176
     1
290
     0
176
     1
 90
       50
176
     1
 40
0.0
176
     1
 40
1.0
176
     1
 90
        0
176
     1
 62
    18
420
        0
176
     1
 90
       50
176
     1
 90
        3
176
     1
 62
     5
420
      255
176
     1
290
     0
176
     1
 90
       50
176
     1
 90
       50
176
     1
 90
       50
176
     1
290
     0
176
     1
 90
       50
176
     1
 62
   256
176
     0
 40
1.0
176
     0
 90
        2
176
     1
  1
strokes_ogs.tif
176
     1
290
     0
176
     1
 40
1.0
176
     1
 40
1.0
176
     1
  0
VISUALSTYLE
  5
34
102
{ACAD_REACTORS
330
2A
102
}
330
2A
100
AcDbVisualStyle
  2
Conceptual
 70
     9
177
     3
291
     0
 70
    58
 90
        3
176
     1
 90
        2
176
     1
 90
        0
176
     1
 90
        0
176
     1
 40
0.6
176
     1
 40
30.0
176
     1
 62
     7
420
 16777215
176
     1
 90
        2
176
     1
 90
        2
176
     1
 62
     7
176
     1
 62
   257
176
     1
 90
        1
176
     1
 90
        1
176
     1
 40
179.0
176
     1
 90
        8
176
     1
 62
     7
176
     1
 40
1.0
176
     1
 90
        1
176
     1
 90
        6
176
     1
 90
        2
176
     1
 62
     7
176
     1
 90
        3
176
     1
 90
        0
176
     1
 90
        0
176
     1
290
     0
176
     1
 90
        1
176
     1
 40
0.0
176
     1
 90
        0
176
     1
290
     0
176
     1
290
     1
176
     1
290
     1
176
     1
290
     0
176
     1
290
     0
176
     1
290
     0
176
     1
290
     0
176
     1
290
     0
176
     1
290
     0
176
     1
 90
       50
176
     1
 40
0.0
176
     1
 40
1.0
176
     1
 90
        0
176
     1
 62
    18
420
        0
176
     1
 90
       50
176
     1
 90
        3
176
     1
 62
     5
420
      255
176
     1
290
     0
176
     1
 90
       50
176
     1
 90
       50
176
     1
 90
       50
176
     1
290
     0
176
     1
 90
       50
176
     1
 62
   256
176
     0
 40
1.0
176
     0
 90
        2
176
     1
  1
strokes_ogs.tif
176
     1
290
     0
176
     1
 40
1.0
176
     1
 40
1.0
176
     1
  0
VISUALSTYLE
  5
35
102
{ACAD_REACTORS
330
2A
102
}
330
2A
100
AcDbVisualStyle
  2
Dim
 70
    11
177
     3
291
     1
 70
    58
 90
        2
176
     1
 90
        2
176
     1
 90
        0
176
     1
 90
        0
176
     1
 40
0.6
176
     1
 40
30.0
176
     1
 62
     7
420
 16777215
176
     1
 90
        1
176
     1
 90
        4
176
     1
 62
     7
176
     1
 62
   257
176
     1
 90
        1
176
     1
 90
        1
176
     1
 40
1.0
176
     1
 90
        8
176
     1
 62
     7
176
     1
 40
1.0
176
     1
 90
        1
176
     1
 90
        6
176
     1
 90
        2
176
     1
 62
     7
176
     1
 90
        5
176
     1
 90
        0
176
     1
 90
        0
176
     1
290
     0
176
     1
 90
        1
176
     1
 40
-50.0
176
     1
 90
        0
176
     1
290
     0
176
     1
290
     1
176
     1
290
     1
176
     1
290
     0
176
     1
290
     0
176
     1
290
     0
176
     1
290
     0
176
     1
290
     0
176
     1
290
     0
176
     1
 90
       50
176
     1
 40
0.0
176
     1
 40
1.0
176
     1
 90
        0
176
     1
 62
    18
420
        0
176
     1
 90
       50
176
     1
 90
        3
176
     1
 62
     5
420
      255
176
     1
290
     0
176
     1
 90
       50
176
     1
 90
       50
176
     1
 90
       50
176
     1
290
     0
176
     1
 90
       50
176
     1
 62
   256
176
     0
 40
1.0
176
     0
 90
        2
176
     1
  1
strokes_ogs.tif
176
     1
290
     0
176
     1
 40
1.0
176
     1
 40
1.0
176
     1
  0
VISUALSTYLE
  5
3D
102
{ACAD_REACTORS
330
2A
102
}
330
2A
100
AcDbVisualStyle
  2
EdgeColorOff
 70
    22
177
     3
291
     1
 70
    58
 90
        2
176
     0
 90
        2
176
     0
 90
        0
176
     0
 90
        0
176
     0
 40
0.6
176
     0
 40
30.0
176
     0
 62
     7
420
 16777215
176
     0
 90
        1
176
     0
 90
        4
176
     0
 62
     7
176
     0
 62
   257
176
     0
 90
        1
176
     0
 90
        1
176
     0
 40
1.0
176
     0
 90
        8
176
     2
 62
     7
176
     0
 40
1.0
176
     0
 90
        1
176
     0
 90
        6
176
     0
 90
        2
176
     0
 62
     7
176
     0
 90
        5
176
     0
 90
        0
176
     0
 90
        0
176
     0
290
     0
176
     0
 90
        1
176
     0
 40
0.0
176
     0
 90
        0
176
     0
290
     0
176
     0
290
     1
176
     0
290
     1
176
     0
290
     0
176
     0
290
     0
176
     0
290
     0
176
     0
290
     0
176
     0
290
     0
176
     0
290
     0
176
     0
 90
       50
176
     0
 40
0.0
176
     0
 40
1.0
176
     0
 90
        0
176
     0
 62
    18
420
        0
176
     0
 90
       50
176
     0
 90
        3
176
     0
 62
     5
420
      255
176
     0
290
     0
176
     0
 90
       50
176
     0
 90
       50
176
     0
 90
       50
176
     0
290
     0
176
     0
 90
       50
176
     0
 62
   256
176
     0
 40
1.0
176
     0
 90
        2
176
     0
  1
strokes_ogs.tif
176
     0
290
     0
176
     0
 40
1.0
176
     0
 40
1.0
176
     0
  0
VISUALSTYLE
  5
39
102
{ACAD_REACTORS
330
2A
102
}
330
2A
100
AcDbVisualStyle
  2
Facepattern
 70
    15
177
     3
291
     1
 70
    58
 90
        2
176
     1
 90
        2
176
     1
 90
        0
176
     1
 90
        0
176
     1
 40
0.6
176
     1
 40
30.0
176
     1
 62
     7
420
 16777215
176
     1
 90
        1
176
     1
 90
        4
176
     1
 62
     7
176
     1
 62
   257
176
     1
 90
        1
176
     1
 90
        1
176
     1
 40
1.0
176
     1
 90
        8
176
     1
 62
     7
176
     1
 40
1.0
176
     1
 90
        1
176
     1
 90
        6
176
     1
 90
        2
176
     1
 62
     7
176
     1
 90
        5
176
     1
 90
        0
176
     1
 90
        0
176
     1
290
     0
176
     1
 90
        1
176
     1
 40
0.0
176
     1
 90
        0
176
     1
290
     0
176
     1
290
     1
176
     1
290
     1
176
     1
290
     0
176
     1
290
     0
176
     1
290
     0
176
     1
290
     0
176
     1
290
     0
176
     1
290
     0
176
     1
 90
       50
176
     1
 40
0.0
176
     1
 40
1.0
176
     1
 90
        0
176
     1
 62
    18
420
        0
176
     1
 90
       50
176
     1
 90
        3
176
     1
 62
     5
420
      255
176
     1
290
     0
176
     1
 90
       50
176
     1
 90
       50
176
     1
 90
       50
176
     1
290
     0
176
     1
 90
       50
176
     1
 62
   256
176
     0
 40
1.0
176
     0
 90
        2
176
     1
  1
strokes_ogs.tif
176
     1
290
     0
176
     1
 40
1.0
176
     1
 40
1.0
176
     1
  0
VISUALSTYLE
  5
2B
102
{ACAD_REACTORS
330
2A
102
}
330
2A
100
AcDbVisualStyle
  2
Flat
 70
     0
177
     3
291
     1
 70
    58
 90
        2
176
     1
 90
        1
176
     1
 90
        1
176
     1
 90
        2
176
     1
 40
0.6
176
     1
 40
30.0
176
     1
 62
     7
420
 16777215
176
     1
 90
        0
176
     1
 90
        0
176
     1
 62
     7
176
     1
 62
   257
176
     1
 90
        1
176
     1
 90
        1
176
     1
 40
1.0
176
     1
 90
        8
176
     1
 62
     7
176
     1
 40
1.0
176
     1
 90
        1
176
     1
 90
        6
176
     1
 90
        2
176
     1
 62
     7
176
     1
 90
        5
176
     1
 90
        0
176
     1
 90
        0
176
     1
290
     0
176
     1
 90
       13
176
     1
 40
0.0
176
     1
 90
        0
176
     1
290
     0
176
     1
290
     1
176
     1
290
     1
176
     1
290
     0
176
     1
290
     0
176
     1
290
     0
176
     1
290
     0
176
     1
290
     0
176
     1
290
     0
176
     1
 90
       50
176
     1
 40
0.0
176
     1
 40
1.0
176
     1
 90
        0
176
     1
 62
    18
420
        0
176
     1
 90
       50
176
     1
 90
        3
176
     1
 62
     5
420
      255
176
     1
290
     0
176
     1
 90
       50
176
     1
 90
       50
176
     1
 90
       50
176
     1
290
     0
176
     1
 90
       50
176
     1
 62
   256
176
     0
 40
1.0
176
     0
 90
        2
176
     1
  1
strokes_ogs.tif
176
     1
290
     0
176
     1
 40
1.0
176
     1
 40
1.0
176
     1
  0
VISUALSTYLE
  5
2C
102
{ACAD_REACTORS
330
2A
102
}
330
2A
100
AcDbVisualStyle
  2
FlatWithEdges
 70
     1
177
     3
291
     1
 70
    58
 90
        2
176
     1
 90
        1
176
     1
 90
        1
176
     1
 90
        2
176
     1
 40
0.6
176
     1
 40
30.0
176
     1
 62
     7
420
 16777215
176
     1
 90
        1
176
     1
 90
        0
176
     1
 62
     7
176
     1
 62
   257
176
     1
 90
        1
176
     1
 90
        1
176
     1
 40
1.0
176
     1
 90
        0
176
     1
 62
   257
176
     1
 40
1.0
176
     1
 90
        1
176
     1
 90
        6
176
     1
 90
        2
176
     1
 62
     7
176
     1
 90
        5
176
     1
 90
        0
176
     1
 90
        0
176
     1
290
     0
176
     1
 90
       13
176
     1
 40
0.0
176
     1
 90
        0
176
     1
290
     0
176
     1
290
     1
176
     1
290
     1
176
     1
290
     0
176
     1
290
     0
176
     1
290
     0
176
     1
290
     0
176
     1
290
     0
176
     1
290
     0
176
     1
 90
       50
176
     1
 40
0.0
176
     1
 40
1.0
176
     1
 90
        0
176
     1
 62
    18
420
        0
176
     1
 90
       50
176
     1
 90
        3
176
     1
 62
     5
420
      255
176
     1
290
     0
176
     1
 90
       50
176
     1
 90
       50
176
     1
 90
       50
176
     1
290
     0
176
     1
 90
       50
176
     1
 62
   256
176
     0
 40
1.0
176
     0
 90
        2
176
     1
  1
strokes_ogs.tif
176
     1
290
     0
176
     1
 40
1.0
176
     1
 40
1.0
176
     1
  0
VISUALSTYLE
  5
2D
102
{ACAD_REACTORS
330
2A
102
}
330
2A
100
AcDbVisualStyle
  2
Gouraud
 70
     2
177
     3
291
     1
 70
    58
 90
        2
176
     1
 90
        2
176
     1
 90
        1
176
     1
 90
        2
176
     1
 40
0.6
176
     1
 40
30.0
176
     1
 62
     7
420
 16777215
176
     1
 90
        0
176
     1
 90
        0
176
     1
 62
     7
176
     1
 62
   257
176
     1
 90
        1
176
     1
 90
        1
176
     1
 40
1.0
176
     1
 90
        0
176
     1
 62
     7
176
     1
 40
1.0
176
     1
 90
        1
176
     1
 90
        6
176
     1
 90
        2
176
     1
 62
     7
176
     1
 90
        5
176
     1
 90
        0
176
     1
 90
        0
176
     1
290
     0
176
     1
 90
       13
176
     1
 40
0.0
176
     1
 90
        0
176
     1
290
     0
176
     1
290
     1
176
     1
290
     1
176
     1
290
     0
176
     1
290
     0
176
     1
290
     0
176
     1
290
     0
176
     1
290
     0
176
     1
290
     0
176
     1
 90
       50
176
     1
 40
0.0
176
     1
 40
1.0
176
     1
 90
        0
176
     1
 62
    18
420
        0
176
     1
 90
       50
176
     1
 90
        3
176
     1
 62
     5
420
      255
176
     1
290
     0
176
     1
 90
       50
176
     1
 90
       50
176
     1
 90
       50
176
     1
290
     0
176
     1
 90
       50
176
     1
 62
   256
176
     0
 40
1.0
176
     0
 90
        2
176
     1
  1
strokes_ogs.tif
176
     1
290
     0
176
     1
 40
1.0
176
     1
 40
1.0
176
     1
  0
VISUALSTYLE
  5
2E
102
{ACAD_REACTORS
330
2A
102
}
330
2A
100
AcDbVisualStyle
  2
GouraudWithEdges
 70
     3
177
     3
291
     1
 70
    58
 90
        2
176
     1
 90
        2
176
     1
 90
        1
176
     1
 90
        2
176
     1
 40
0.6
176
     1
 40
30.0
176
     1
 62
     7
420
 16777215
176
     1
 90
        1
176
     1
 90
        0
176
     1
 62
     7
176
     1
 62
   257
176
     1
 90
        1
176
     1
 90
        1
176
     1
 40
1.0
176
     1
 90
        0
176
     1
 62
   257
176
     1
 40
1.0
176
     1
 90
        1
176
     1
 90
        6
176
     1
 90
        2
176
     1
 62
     7
176
     1
 90
        5
176
     1
 90
        0
176
     1
 90
        0
176
     1
290
     0
176
     1
 90
       13
176
     1
 40
0.0
176
     1
 90
        0
176
     1
290
     0
176
     1
290
     1
176
     1
290
     1
176
     1
290
     0
176
     1
290
     0
176
     1
290
     0
176
     1
290
     0
176
     1
290
     0
176
     1
290
     0
176
     1
 90
       50
176
     1
 40
0.0
176
     1
 40
1.0
176
     1
 90
        0
176
     1
 62
    18
420
        0
176
     1
 90
       50
176
     1
 90
        3
176
     1
 62
     5
420
      255
176
     1
290
     0
176
     1
 90
       50
176
     1
 90
       50
176
     1
 90
       50
176
     1
290
     0
176
     1
 90
       50
176
     1
 62
   256
176
     0
 40
1.0
176
     0
 90
        2
176
     1
  1
strokes_ogs.tif
176
     1
290
     0
176
     1
 40
1.0
176
     1
 40
1.0
176
     1
  0
VISUALSTYLE
  5
31
102
{ACAD_REACTORS
330
2A
102
}
330
2A
100
AcDbVisualStyle
  2
Hidden
 70
     6
177
     3
291
     0
 70
    58
 90
        1
176
     1
 90
        2
176
     1
 90
        2
176
     1
 90
        0
176
     1
 40
0.6
176
     1
 40
30.0
176
     1
 62
     7
420
 16777215
176
     1
 90
        2
176
     1
 90
        2
176
     1
 62
     7
176
     1
 62
   257
176
     1
 90
        2
176
     1
 90
        1
176
     1
 40
40.0
176
     1
 90
        0
176
     1
 62
   257
176
     1
 40
1.0
176
     1
 90
        1
176
     1
 90
        6
176
     1
 90
        2
176
     1
 62
     7
176
     1
 90
        3
176
     1
 90
        0
176
     1
 90
        0
176
     1
290
     0
176
     1
 90
        1
176
     1
 40
0.0
176
     1
 90
        0
176
     1
290
     0
176
     1
290
     1
176
     1
290
     1
176
     1
290
     0
176
     1
290
     0
176
     1
290
     0
176
     1
290
     0
176
     1
290
     0
176
     1
290
     0
176
     1
 90
       50
176
     1
 40
0.0
176
     1
 40
1.0
176
     1
 90
        0
176
     1
 62
    18
420
        0
176
     1
 90
       50
176
     1
 90
        3
176
     1
 62
     5
420
      255
176
     1
290
     0
176
     1
 90
       50
176
     1
 90
       50
176
     1
 90
       50
176
     1
290
     0
176
     1
 90
       50
176
     1
 62
   256
176
     0
 40
1.0
176
     0
 90
        2
176
     1
  1
strokes_ogs.tif
176
     1
290
     0
176
     1
 40
1.0
176
     1
 40
1.0
176
     1
  0
VISUALSTYLE
  5
3B
102
{ACAD_REACTORS
330
2A
102
}
330
2A
100
AcDbVisualStyle
  2
JitterOff
 70
    20
177
     3
291
     1
 70
    58
 90
        2
176
     0
 90
        2
176
     0
 90
        0
176
     0
 90
        0
176
     0
 40
0.6
176
     0
 40
30.0
176
     0
 62
     7
420
 16777215
176
     0
 90
        1
176
     0
 90
        4
176
     0
 62
     7
176
     0
 62
   257
176
     0
 90
        1
176
     0
 90
        1
176
     0
 40
1.0
176
     0
 90
       10
176
     2
 62
     7
176
     0
 40
1.0
176
     0
 90
        1
176
     0
 90
        6
176
     0
 90
        2
176
     0
 62
     7
176
     0
 90
        5
176
     0
 90
        0
176
     0
 90
        0
176
     0
290
     0
176
     0
 90
        1
176
     0
 40
0.0
176
     0
 90
        0
176
     0
290
     0
176
     0
290
     1
176
     0
290
     1
176
     0
290
     0
176
     0
290
     0
176
     0
290
     0
176
     0
290
     0
176
     0
290
     0
176
     0
290
     0
176
     0
 90
       50
176
     0
 40
0.0
176
     0
 40
1.0
176
     0
 90
        0
176
     0
 62
    18
420
        0
176
     0
 90
       50
176
     0
 90
        3
176
     0
 62
     5
420
      255
176
     0
290
     0
176
     0
 90
       50
176
     0
 90
       50
176
     0
 90
       50
176
     0
290
     0
176
     0
 90
       50
176
     0
 62
   256
176
     0
 40
1.0
176
     0
 90
        2
176
     0
  1
strokes_ogs.tif
176
     0
290
     0
176
     0
 40
1.0
176
     0
 40
1.0
176
     0
  0
VISUALSTYLE
  5
38
102
{ACAD_REACTORS
330
2A
102
}
330
2A
100
AcDbVisualStyle
  2
Linepattern
 70
    14
177
     3
291
     1
 70
    58
 90
        2
176
     1
 90
        2
176
     1
 90
        0
176
     1
 90
        0
176
     1
 40
0.6
176
     1
 40
30.0
176
     1
 62
     7
420
 16777215
176
     1
 90
        1
176
     1
 90
        4
176
     1
 62
     7
176
     1
 62
   257
176
     1
 90
        7
176
     1
 90
        7
176
     1
 40
1.0
176
     1
 90
        8
176
     1
 62
     7
176
     1
 40
1.0
176
     1
 90
        1
176
     1
 90
        6
176
     1
 90
        2
176
     1
 62
     7
176
     1
 90
        5
176
     1
 90
        0
176
     1
 90
        0
176
     1
290
     0
176
     1
 90
        1
176
     1
 40
0.0
176
     1
 90
        0
176
     1
290
     0
176
     1
290
     1
176
     1
290
     1
176
     1
290
     0
176
     1
290
     0
176
     1
290
     0
176
     1
290
     0
176
     1
290
     0
176
     1
290
     0
176
     1
 90
       50
176
     1
 40
0.0
176
     1
 40
1.0
176
     1
 90
        0
176
     1
 62
    18
420
        0
176
     1
 90
       50
176
     1
 90
        3
176
     1
 62
     5
420
      255
176
     1
290
     0
176
     1
 90
       50
176
     1
 90
       50
176
     1
 90
       50
176
     1
290
     0
176
     1
 90
       50
176
     1
 62
   256
176
     0
 40
1.0
176
     0
 90
        2
176
     1
  1
strokes_ogs.tif
176
     1
290
     0
176
     1
 40
1.0
176
     1
 40
1.0
176
     1
  0
VISUALSTYLE
  5
3C
102
{ACAD_REACTORS
330
2A
102
}
330
2A
100
AcDbVisualStyle
  2
OverhangOff
 70
    21
177
     3
291
     1
 70
    58
 90
        2
176
     0
 90
        2
176
     0
 90
        0
176
     0
 90
        0
176
     0
 40
0.6
176
     0
 40
30.0
176
     0
 62
     7
420
 16777215
176
     0
 90
        1
176
     0
 90
        4
176
     0
 62
     7
176
     0
 62
   257
176
     0
 90
        1
176
     0
 90
        1
176
     0
 40
1.0
176
     0
 90
        9
176
     2
 62
     7
176
     0
 40
1.0
176
     0
 90
        1
176
     0
 90
        6
176
     0
 90
        2
176
     0
 62
     7
176
     0
 90
        5
176
     0
 90
        0
176
     0
 90
        0
176
     0
290
     0
176
     0
 90
        1
176
     0
 40
0.0
176
     0
 90
        0
176
     0
290
     0
176
     0
290
     1
176
     0
290
     1
176
     0
290
     0
176
     0
290
     0
176
     0
290
     0
176
     0
290
     0
176
     0
290
     0
176
     0
290
     0
176
     0
 90
       50
176
     0
 40
0.0
176
     0
 40
1.0
176
     0
 90
        0
176
     0
 62
    18
420
        0
176
     0
 90
       50
176
     0
 90
        3
176
     0
 62
     5
420
      255
176
     0
290
     0
176
     0
 90
       50
176
     0
 90
       50
176
     0
 90
       50
176
     0
290
     0
176
     0
 90
       50
176
     0
 62
   256
176
     0
 40
1.0
176
     0
 90
        2
176
     0
  1
strokes_ogs.tif
176
     0
290
     0
176
     0
 40
1.0
176
     0
 40
1.0
176
     0
  0
VISUALSTYLE
  5
33
102
{ACAD_REACTORS
330
2A
102
}
330
2A
100
AcDbVisualStyle
  2
Realistic
 70
     8
177
     3
291
     0
 70
    58
 90
        2
176
     1
 90
        3
176
     1
 90
        0
176
     1
 90
        2
176
     1
 40
0.6
176
     1
 40
30.0
176
     1
 62
     7
420
 16777215
176
     1
 90
        0
176
     1
 90
        0
176
     1
 62
     7
176
     1
 62
   257
176
     1
 90
        1
176
     1
 90
        1
176
     1
 40
1.0
176
     1
 90
        8
176
     1
 62
   257
176
     1
 40
1.0
176
     1
 90
        1
176
     1
 90
        6
176
     1
 90
        2
176
     1
 62
     7
176
     1
 90
        3
176
     1
 90
        0
176
     1
 90
        0
176
     1
290
     0
176
     1
 90
       13
176
     1
 40
0.0
176
     1
 90
        0
176
     1
290
     0
176
     1
290
     1
176
     1
290
     1
176
     1
290
     0
176
     1
290
     0
176
     1
290
     0
176
     1
290
     0
176
     1
290
     0
176
     1
290
     0
176
     1
 90
       50
176
     1
 40
0.0
176
     1
 40
1.0
176
     1
 90
        0
176
     1
 62
    18
420
        0
176
     1
 90
       50
176
     1
 90
        3
176
     1
 62
     5
420
      255
176
     1
290
     0
176
     1
 90
       50
176
     1
 90
       50
176
     1
 90
       50
176
     1
290
     0
176
     1
 90
       50
176
     1
 62
   256
176
     0
 40
1.0
176
     0
 90
        2
176
     1
  1
strokes_ogs.tif
176
     1
290
     0
176
     1
 40
1.0
176
     1
 40
1.0
176
     1
  0
VISUALSTYLE
  5
42
102
{ACAD_REACTORS
330
2A
102
}
330
2A
100
AcDbVisualStyle
  2
Shaded
 70
    27
177
     3
291
     0
 70
    58
 90
        2
176
     1
 90
        2
176
     1
 90
        1
176
     1
 90
        2
176
     1
 40
0.6
176
     1
 40
30.0
176
     1
 62
     7
420
 16777215
176
     1
 90
        0
176
     1
 90
        4
176
     1
 62
     7
176
     1
 62
   257
176
     1
 90
        1
176
     1
 90
        1
176
     1
 40
1.0
176
     1
 90
        8
176
     1
 62
   257
176
     1
 40
1.0
176
     1
 90
        1
176
     1
 90
        6
176
     1
 90
        2
176
     1
 62
     8
420
  7895160
176
     1
 90
        3
176
     1
 90
        0
176
     1
 90
        0
176
     1
290
     0
176
     1
 90
        5
176
     1
 40
0.0
176
     1
 90
        0
176
     1
290
     0
176
     1
290
     1
176
     1
290
     1
176
     1
290
     0
176
     1
290
     0
176
     1
290
     0
176
     1
290
     0
176
     1
290
     0
176
     1
290
     0
176
     1
 90
       50
176
     1
 40
0.0
176
     1
 40
1.0
176
     1
 90
        0
176
     1
 62
    18
420
        0
176
     1
 90
       50
176
     1
 90
        3
176
     1
 62
     5
420
      255
176
     1
290
     0
176
     1
 90
       50
176
     1
 90
       50
176
     1
 90
       50
176
     1
290
     0
176
     1
 90
       50
176
     1
 62
   256
176
     0
 40
1.0
176
     0
 90
        2
176
     1
  1
strokes_ogs.tif
176
     1
290
     0
176
     1
 40
1.0
176
     1
 40
1.0
176
     1
  0
VISUALSTYLE
  5
41
102
{ACAD_REACTORS
330
2A
102
}
330
2A
100
AcDbVisualStyle
  2
Shaded with edges
 70
    26
177
     3
291
     0
 70
    58
 90
        2
176
     1
 90
        2
176
     1
 90
        1
176
     1
 90
        2
176
     1
 40
0.6
176
     1
 40
30.0
176
     1
 62
     7
420
 16777215
176
     1
 90
        1
176
     1
 90
       10
176
     1
 62
     7
176
     1
 62
   257
176
     1
 90
        2
176
     1
 90
        1
176
     1
 40
1.0
176
     1
 90
        8
176
     1
 62
   257
176
     1
 40
1.0
176
     1
 90
        1
176
     1
 90
        6
176
     1
 90
        2
176
     1
 62
     7
176
     1
 90
        3
176
     1
 90
        0
176
     1
 90
        0
176
     1
290
     0
176
     1
 90
        5
176
     1
 40
0.0
176
     1
 90
        0
176
     1
290
     0
176
     1
290
     1
176
     1
290
     1
176
     1
290
     0
176
     1
290
     0
176
     1
290
     0
176
     1
290
     0
176
     1
290
     0
176
     1
290
     0
176
     1
 90
       50
176
     1
 40
0.0
176
     1
 40
1.0
176
     1
 90
        0
176
     1
 62
    18
420
        0
176
     1
 90
       50
176
     1
 90
        3
176
     1
 62
     5
420
      255
176
     1
290
     0
176
     1
 90
       50
176
     1
 90
       50
176
     1
 90
       50
176
     1
290
     0
176
     1
 90
       50
176
     1
 62
   256
176
     0
 40
1.0
176
     0
 90
        2
176
     1
  1
strokes_ogs.tif
176
     1
290
     0
176
     1
 40
1.0
176
     1
 40
1.0
176
     1
  0
VISUALSTYLE
  5
3E
102
{ACAD_REACTORS
330
2A
102
}
330
2A
100
AcDbVisualStyle
  2
Shades of Gray
 70
    23
177
     3
291
     0
 70
    58
 90
        2
176
     1
 90
        2
176
     1
 90
        3
176
     1
 90
        0
176
     1
 40
0.6
176
     1
 40
30.0
176
     1
 62
     7
420
 16777215
176
     1
 90
        2
176
     1
 90
        2
176
     1
 62
     7
176
     1
 62
     7
176
     1
 90
        1
176
     1
 90
        1
176
     1
 40
40.0
176
     1
 90
        8
176
     1
 62
     7
176
     1
 40
1.0
176
     1
 90
        1
176
     1
 90
        6
176
     1
 90
        2
176
     1
 62
     7
176
     1
 90
        3
176
     1
 90
        0
176
     1
 90
        0
176
     1
290
     0
176
     1
 90
        1
176
     1
 40
0.0
176
     1
 90
        0
176
     1
290
     0
176
     1
290
     1
176
     1
290
     1
176
     1
290
     0
176
     1
290
     0
176
     1
290
     0
176
     1
290
     0
176
     1
290
     0
176
     1
290
     0
176
     1
 90
       50
176
     1
 40
0.0
176
     1
 40
1.0
176
     1
 90
        0
176
     1
 62
    18
420
        0
176
     1
 90
       50
176
     1
 90
        3
176
     1
 62
     5
420
      255
176
     1
290
     0
176
     1
 90
       50
176
     1
 90
       50
176
     1
 90
       50
176
     1
290
     0
176
     1
 90
       50
176
     1
 62
   256
176
     0
 40
1.0
176
     0
 90
        2
176
     1
  1
strokes_ogs.tif
176
     1
290
     0
176
     1
 40
1.0
176
     1
 40
1.0
176
     1
  0
VISUALSTYLE
  5
3F
102
{ACAD_REACTORS
330
2A
102
}
330
2A
100
AcDbVisualStyle
  2
Sketchy
 70
    24
177
     3
291
     0
 70
    58
 90
        1
176
     1
 90
        2
176
     1
 90
        2
176
     1
 90
        0
176
     1
 40
0.6
176
     1
 40
30.0
176
     1
 62
     7
420
 16777215
176
     1
 90
        2
176
     1
 90
        2
176
     1
 62
     7
176
     1
 62
     7
176
     1
 90
        1
176
     1
 90
        1
176
     1
 40
40.0
176
     1
 90
       11
176
     1
 62
     7
176
     1
 40
1.0
176
     1
 90
        1
176
     1
 90
        6
176
     1
 90
        2
176
     1
 62
     7
176
     1
 90
        6
176
     1
 90
        0
176
     1
 90
        0
176
     1
290
     0
176
     1
 90
        1
176
     1
 40
0.0
176
     1
 90
        0
176
     1
290
     0
176
     1
290
     1
176
     1
290
     1
176
     1
290
     0
176
     1
290
     0
176
     1
290
     0
176
     1
290
     0
176
     1
290
     0
176
     1
290
     0
176
     1
 90
       50
176
     1
 40
0.0
176
     1
 40
1.0
176
     1
 90
        0
176
     1
 62
    18
420
        0
176
     1
 90
       50
176
     1
 90
        3
176
     1
 62
     5
420
      255
176
     1
290
     0
176
     1
 90
       50
176
     1
 90
       50
176
     1
 90
       50
176
     1
290
     0
176
     1
 90
       50
176
     1
 62
   256
176
     0
 40
1.0
176
     0
 90
        2
176
     1
  1
strokes_ogs.tif
176
     1
290
     0
176
     1
 40
1.0
176
     1
 40
1.0
176
     1
  0
VISUALSTYLE
  5
37
102
{ACAD_REACTORS
330
2A
102
}
330
2A
100
AcDbVisualStyle
  2
Thicken
 70
    13
177
     3
291
     1
 70
    58
 90
        2
176
     1
 90
        2
176
     1
 90
        0
176
     1
 90
        0
176
     1
 40
0.6
176
     1
 40
30.0
176
     1
 62
     7
420
 16777215
176
     1
 90
        1
176
     1
 90
        4
176
     1
 62
     7
176
     1
 62
   257
176
     1
 90
        1
176
     1
 90
        1
176
     1
 40
1.0
176
     1
 90
       12
176
     1
 62
     7
176
     1
 40
1.0
176
     1
 90
        1
176
     1
 90
        6
176
     1
 90
        2
176
     1
 62
     7
176
     1
 90
        5
176
     1
 90
        0
176
     1
 90
        0
176
     1
290
     0
176
     1
 90
        1
176
     1
 40
0.0
176
     1
 90
        0
176
     1
290
     0
176
     1
290
     1
176
     1
290
     1
176
     1
290
     0
176
     1
290
     0
176
     1
290
     0
176
     1
290
     0
176
     1
290
     0
176
     1
290
     0
176
     1
 90
       50
176
     1
 40
0.0
176
     1
 40
1.0
176
     1
 90
        0
176
     1
 62
    18
420
        0
176
     1
 90
       50
176
     1
 90
        3
176
     1
 62
     5
420
      255
176
     1
290
     0
176
     1
 90
       50
176
     1
 90
       50
176
     1
 90
       50
176
     1
290
     0
176
     1
 90
       50
176
     1
 62
   256
176
     0
 40
1.0
176
     0
 90
        2
176
     1
  1
strokes_ogs.tif
176
     1
290
     0
176
     1
 40
1.0
176
     1
 40
1.0
176
     1
  0
VISUALSTYLE
  5
30
102
{ACAD_REACTORS
330
2A
102
}
330
2A
100
AcDbVisualStyle
  2
Wireframe
 70
     5
177
     3
291
     0
 70
    58
 90
        0
176
     1
 90
        2
176
     1
 90
        0
176
     1
 90
        0
176
     1
 40
0.6
176
     1
 40
30.0
176
     1
 62
     7
420
 16777215
176
     1
 90
        1
176
     1
 90
        4
176
     1
 62
     7
176
     1
 62
   257
176
     1
 90
        1
176
     1
 90
        1
176
     1
 40
1.0
176
     1
 90
        0
176
     1
 62
   257
176
     1
 40
1.0
176
     1
 90
        1
176
     1
 90
        6
176
     1
 90
        2
176
     1
 62
     7
176
     1
 90
        3
176
     1
 90
        0
176
     1
 90
        0
176
     1
290
     0
176
     1
 90
        1
176
     1
 40
0.0
176
     1
 90
        0
176
     1
290
     0
176
     1
290
     1
176
     1
290
     1
176
     1
290
     0
176
     1
290
     0
176
     1
290
     0
176
     1
290
     0
176
     1
290
     0
176
     1
290
     0
176
     1
 90
       50
176
     1
 40
0.0
176
     1
 40
1.0
176
     1
 90
        0
176
     1
 62
    18
420
        0
176
     1
 90
       50
176
     1
 90
        3
176
     1
 62
     5
420
      255
176
     1
290
     0
176
     1
 90
       50
176
     1
 90
       50
176
     1
 90
       50
176
     1
290
     0
176
     1
 90
       50
176
     1
 62
   256
176
     0
 40
1.0
176
     0
 90
        2
176
     1
  1
strokes_ogs.tif
176
     1
290
     0
176
     1
 40
1.0
176
     1
 40
1.0
176
     1
  0
VISUALSTYLE
  5
40
102
{ACAD_REACTORS
330
2A
102
}
330
2A
100
AcDbVisualStyle
  2
X-Ray
 70
    25
177
     3
291
     0
 70
    58
 90
        2
176
     1
 90
        2
176
     1
 90
        1
176
     1
 90
        1
176
     1
 40
0.5
176
     1
 40
30.0
176
     1
 62
     7
420
 16777215
176
     1
 90
        1
176
     1
 90
        0
176
     1
 62
     7
176
     1
 62
   257
176
     1
 90
        1
176
     1
 90
        1
176
     1
 40
1.0
176
     1
 90
        8
176
     1
 62
     7
176
     1
 40
1.0
176
     1
 90
        1
176
     1
 90
        6
176
     1
 90
        2
176
     1
 62
     7
176
     1
 90
        3
176
     1
 90
        0
176
     1
 90
        0
176
     1
290
     0
176
     1
 90
       13
176
     1
 40
0.0
176
     1
 90
        0
176
     1
290
     0
176
     1
290
     1
176
     1
290
     1
176
     1
290
     0
176
     1
290
     0
176
     1
290
     0
176
     1
290
     0
176
     1
290
     0
176
     1
290
     0
176
     1
 90
       50
176
     1
 40
0.0
176
     1
 40
1.0
176
     1
 90
        0
176
     1
 62
    18
420
        0
176
     1
 90
       50
176
     1
 90
        3
176
     1
 62
     5
420
      255
176
     1
290
     0
176
     1
 90
       50
176
     1
 90
       50
176
     1
 90
       50
176
     1
290
     0
176
     1
 90
       50
176
     1
 62
   256
176
     0
 40
1.0
176
     0
 90
        2
176
     1
  1
strokes_ogs.tif
176
     1
290
     0
176
     1
 40
1.0
176
     1
 40
1.0
176
     1
  0
DICTIONARYVAR
  5
22D
102
{ACAD_REACTORS
330
22C
102
}
330
22C
100
DictionaryVariables
280
     0
  1
1:1
  0
DICTIONARYVAR
  5
235
102
{ACAD_REACTORS
330
22C
102
}
330
22C
100
DictionaryVariables
280
     0
  1
3.500000
  0
DICTIONARYVAR
  5
236
102
{ACAD_REACTORS
330
22C
102
}
330
22C
100
DictionaryVariables
280
     0
  1
acadiso.lin
  0
DICTIONARYVAR
  5
232
102
{ACAD_REACTORS
330
22C
102
}
330
22C
100
DictionaryVariables
280
     0
  1
Standard
  0
DICTIONARYVAR
  5
231
102
{ACAD_REACTORS
330
22C
102
}
330
22C
100
DictionaryVariables
280
     0
  1
Standard
  0
DICTIONARY
  5
22E
330
5A
100
AcDbDictionary
280
     1
281
     1
  3
ACAD_ROUNDTRIP_2008_TABLESTYLE_CELLSTYLEMAP
360
22F
  0
CELLSTYLEMAP
  5
22F
102
{ACAD_REACTORS
330
22E
102
}
330
22E
100
AcDbCellStyleMap
 90
        3
300
CELLSTYLE
  1
TABLEFORMAT_BEGIN
 90
        5
170
     1
 91
        0
 92
    32768
 62
   257
 93
        1
300
CONTENTFORMAT
  1
CONTENTFORMAT_BEGIN
 90
        0
 91
        0
 92
        4
 93
        0
300

 40
0.0
140
1.0
 94
        5
 62
     0
340
11
144
6.0
309
CONTENTFORMAT_END
171
     1
301
MARGIN
  1
CELLMARGIN_BEGIN
 40
1.5
 40
1.5
 40
1.5
 40
1.5
 40
1.5
 40
1.5
309
CELLMARGIN_END
 94
        6
 95
        1
302
GRIDFORMAT
  1
GRIDFORMAT_BEGIN
 90
        0
 91
        1
 62
     0
 92
       -2
340
14
 93
        0
 40
0.045
309
GRIDFORMAT_END
 95
        2
302
GRIDFORMAT
  1
GRIDFORMAT_BEGIN
 90
        0
 91
        1
 62
     0
 92
       -2
340
14
 93
        0
 40
0.045
309
GRIDFORMAT_END
 95
        4
302
GRIDFORMAT
  1
GRIDFORMAT_BEGIN
 90
        0
 91
        1
 62
     0
 92
       -2
340
14
 93
        0
 40
0.045
309
GRIDFORMAT_END
 95
        8
302
GRIDFORMAT
  1
GRIDFORMAT_BEGIN
 90
        0
 91
        1
 62
     0
 92
       -2
340
14
 93
        0
 40
0.045
309
GRIDFORMAT_END
 95
       16
302
GRIDFORMAT
  1
GRIDFORMAT_BEGIN
 90
        0
 91
        1
 62
     0
 92
       -2
340
14
 93
        0
 40
0.045
309
GRIDFORMAT_END
 95
       32
302
GRIDFORMAT
  1
GRIDFORMAT_BEGIN
 90
        0
 91
        1
 62
     0
 92
       -2
340
14
 93
        0
 40
0.045
309
GRIDFORMAT_END
309
TABLEFORMAT_END
  1
CELLSTYLE_BEGIN
 90
        1
 91
        1
300
_TITLE
309
CELLSTYLE_END
300
CELLSTYLE
  1
TABLEFORMAT_BEGIN
 90
        5
170
     1
 91
        0
 92
        0
 62
   257
 93
        1
300
CONTENTFORMAT
  1
CONTENTFORMAT_BEGIN
 90
        0
 91
        0
 92
        4
 93
        0
300

 40
0.0
140
1.0
 94
        5
 62
     0
340
11
144
4.5
309
CONTENTFORMAT_END
171
     1
301
MARGIN
  1
CELLMARGIN_BEGIN
 40
1.5
 40
1.5
 40
1.5
 40
1.5
 40
1.5
 40
1.5
309
CELLMARGIN_END
 94
        6
 95
        1
302
GRIDFORMAT
  1
GRIDFORMAT_BEGIN
 90
        0
 91
        1
 62
     0
 92
       -2
340
14
 93
        0
 40
0.045
309
GRIDFORMAT_END
 95
        2
302
GRIDFORMAT
  1
GRIDFORMAT_BEGIN
 90
        0
 91
        1
 62
     0
 92
       -2
340
14
 93
        0
 40
0.045
309
GRIDFORMAT_END
 95
        4
302
GRIDFORMAT
  1
GRIDFORMAT_BEGIN
 90
        0
 91
        1
 62
     0
 92
       -2
340
14
 93
        0
 40
0.045
309
GRIDFORMAT_END
 95
        8
302
GRIDFORMAT
  1
GRIDFORMAT_BEGIN
 90
        0
 91
        1
 62
     0
 92
       -2
340
14
 93
        0
 40
0.045
309
GRIDFORMAT_END
 95
       16
302
GRIDFORMAT
  1
GRIDFORMAT_BEGIN
 90
        0
 91
        1
 62
     0
 92
       -2
340
14
 93
        0
 40
0.045
309
GRIDFORMAT_END
 95
       32
302
GRIDFORMAT
  1
GRIDFORMAT_BEGIN
 90
        0
 91
        1
 62
     0
 92
       -2
340
14
 93
        0
 40
0.045
309
GRIDFORMAT_END
309
TABLEFORMAT_END
  1
CELLSTYLE_BEGIN
 90
        2
 91
        1
300
_HEADER
309
CELLSTYLE_END
300
CELLSTYLE
  1
TABLEFORMAT_BEGIN
 90
        5
170
     1
 91
        0
 92
        0
 62
   257
 93
        1
300
CONTENTFORMAT
  1
CONTENTFORMAT_BEGIN
 90
        0
 91
        0
 92
        4
 93
        0
300

 40
0.0
140
1.0
 94
        2
 62
     0
340
11
144
4.5
309
CONTENTFORMAT_END
171
     1
301
MARGIN
  1
CELLMARGIN_BEGIN
 40
1.5
 40
1.5
 40
1.5
 40
1.5
 40
1.5
 40
1.5
309
CELLMARGIN_END
 94
        6
 95
        1
302
GRIDFORMAT
  1
GRIDFORMAT_BEGIN
 90
        0
 91
        1
 62
     0
 92
       -2
340
14
 93
        0
 40
0.045
309
GRIDFORMAT_END
 95
        2
302
GRIDFORMAT
  1
GRIDFORMAT_BEGIN
 90
        0
 91
        1
 62
     0
 92
       -2
340
14
 93
        0
 40
0.045
309
GRIDFORMAT_END
 95
        4
302
GRIDFORMAT
  1
GRIDFORMAT_BEGIN
 90
        0
 91
        1
 62
     0
 92
       -2
340
14
 93
        0
 40
0.045
309
GRIDFORMAT_END
 95
        8
302
GRIDFORMAT
  1
GRIDFORMAT_BEGIN
 90
        0
 91
        1
 62
     0
 92
       -2
340
14
 93
        0
 40
0.045
309
GRIDFORMAT_END
 95
       16
302
GRIDFORMAT
  1
GRIDFORMAT_BEGIN
 90
        0
 91
        1
 62
     0
 92
       -2
340
14
 93
        0
 40
0.045
309
GRIDFORMAT_END
 95
       32
302
GRIDFORMAT
  1
GRIDFORMAT_BEGIN
 90
        0
 91
        1
 62
     0
 92
       -2
340
14
 93
        0
 40
0.045
309
GRIDFORMAT_END
309
TABLEFORMAT_END
  1
CELLSTYLE_BEGIN
 90
        3
 91
        2
300
_DATA
309
CELLSTYLE_END
  0
ENDSEC
  0
EOF
