  0
SECTION
  2
HEADER
  9
$ACADVER
  1
AC1027
  9
$ACADMAINTVER
 70
   105
  9
$DWGCODEPAGE
  3
ANSI_1252
  9
$COMMENTS
  1
File was created by Cadenas
  9
$LASTSAVEDBY
  1
psAdmin
  9
$CUSTOMPROPERTYTAG
  1
NB
  9
$CUSTOMPROPERTY
  1
30322
  9
$CUSTOMPROPERTYTAG
  1
NN
  9
$CUSTOMPROPERTY
  1
Busbar connectors, longitudinal
  9
$CUSTOMPROPERTYTAG
  1
NT
  9
$CUSTOMPROPERTY
  1

  9
$CUSTOMPROPERTYTAG
  1
NBSYN
  9
$CUSTOMPROPERTY
  1
$ARTNR.
  9
$CUSTOMPROPERTYTAG
  1
LINA
  9
$CUSTOMPROPERTY
  1
30322000
  9
$CUSTOMPROPERTYTAG
  1
CATALOG
  9
$CUSTOMPROPERTY
  1
Wöhner
  9
$CUSTOMPROPERTYTAG
  1
ARTNR
  9
$CUSTOMPROPERTY
  1
30322
  9
$CUSTOMPROPERTYTAG
  1
BUSB
  9
$CUSTOMPROPERTY
  1
double-T section
  9
$CUSTOMPROPERTYTAG
  1
QNT
  9
$CUSTOMPROPERTY
  1
1
  9
$CUSTOMPROPERTYTAG
  1
W
  9
$CUSTOMPROPERTY
  1
150
  9
$CUSTOMPROPERTYTAG
  1
H
  9
$CUSTOMPROPERTY
  1
45
  9
$CUSTOMPROPERTYTAG
  1
D
  9
$CUSTOMPROPERTY
  1
105
  9
$CUSTOMPROPERTYTAG
  1
LINK
  9
$CUSTOMPROPERTY
  1
Product link
  9
$CUSTOMPROPERTYTAG
  1
COMPANY
  9
$CUSTOMPROPERTY
  1
woehner
  9
$REQUIREDVERSIONS
160
                 0
  9
$INSBASE
 10
0.0
 20
0.0
 30
0.0
  9
$EXTMIN
 10
-25.0
 20
-115.6666666666667
 30
0.0
  9
$EXTMAX
 10
153.0
 20
48.1
 30
0.0
  9
$LIMMIN
 10
0.0
 20
0.0
  9
$LIMMAX
 10
420.0
 20
297.0
  9
$ORTHOMODE
 70
     0
  9
$REGENMODE
 70
     1
  9
$FILLMODE
 70
     1
  9
$QTEXTMODE
 70
     0
  9
$MIRRTEXT
 70
     1
  9
$LTSCALE
 40
1.0
  9
$ATTMODE
 70
     1
  9
$TEXTSIZE
 40
2.5
  9
$TRACEWID
 40
1.0
  9
$TEXTSTYLE
  7
Standard
  9
$CLAYER
  8
0
  9
$CELTYPE
  6
ByLayer
  9
$CECOLOR
 62
   256
  9
$CELTSCALE
 40
1.0
  9
$DISPSILH
 70
     0
  9
$DIMSCALE
 40
1.0
  9
$DIMASZ
 40
2.5
  9
$DIMEXO
 40
0.625
  9
$DIMDLI
 40
3.75
  9
$DIMRND
 40
0.0
  9
$DIMDLE
 40
0.0
  9
$DIMEXE
 40
1.25
  9
$DIMTP
 40
0.0
  9
$DIMTM
 40
0.0
  9
$DIMTXT
 40
2.5
  9
$DIMCEN
 40
2.5
  9
$DIMTSZ
 40
0.0
  9
$DIMTOL
 70
     0
  9
$DIMLIM
 70
     0
  9
$DIMTIH
 70
     0
  9
$DIMTOH
 70
     0
  9
$DIMSE1
 70
     0
  9
$DIMSE2
 70
     0
  9
$DIMTAD
 70
     1
  9
$DIMZIN
 70
     8
  9
$DIMBLK
  1

  9
$DIMASO
 70
     1
  9
$DIMSHO
 70
     1
  9
$DIMPOST
  1

  9
$DIMAPOST
  1

  9
$DIMALT
 70
     0
  9
$DIMALTD
 70
     3
  9
$DIMALTF
 40
0.03937007874016
  9
$DIMLFAC
 40
1.0
  9
$DIMTOFL
 70
     1
  9
$DIMTVP
 40
0.0
  9
$DIMTIX
 70
     0
  9
$DIMSOXD
 70
     0
  9
$DIMSAH
 70
     0
  9
$DIMBLK1
  1

  9
$DIMBLK2
  1

  9
$DIMSTYLE
  2
ISO-25
  9
$DIMCLRD
 70
     0
  9
$DIMCLRE
 70
     0
  9
$DIMCLRT
 70
     0
  9
$DIMTFAC
 40
1.0
  9
$DIMGAP
 40
0.625
  9
$DIMJUST
 70
     0
  9
$DIMSD1
 70
     0
  9
$DIMSD2
 70
     0
  9
$DIMTOLJ
 70
     0
  9
$DIMTZIN
 70
     8
  9
$DIMALTZ
 70
     0
  9
$DIMALTTZ
 70
     0
  9
$DIMUPT
 70
     0
  9
$DIMDEC
 70
     2
  9
$DIMTDEC
 70
     2
  9
$DIMALTU
 70
     2
  9
$DIMALTTD
 70
     3
  9
$DIMTXSTY
  7
Standard
  9
$DIMAUNIT
 70
     0
  9
$DIMADEC
 70
     0
  9
$DIMALTRND
 40
0.0
  9
$DIMAZIN
 70
     0
  9
$DIMDSEP
 70
    44
  9
$DIMATFIT
 70
     3
  9
$DIMFRAC
 70
     0
  9
$DIMLDRBLK
  1

  9
$DIMLUNIT
 70
     2
  9
$DIMLWD
 70
    -2
  9
$DIMLWE
 70
    -2
  9
$DIMTMOVE
 70
     0
  9
$DIMFXL
 40
1.0
  9
$DIMFXLON
 70
     0
  9
$DIMJOGANG
 40
0.7853981633974483
  9
$DIMTFILL
 70
     0
  9
$DIMTFILLCLR
 70
     0
  9
$DIMARCSYM
 70
     0
  9
$DIMLTYPE
  6

  9
$DIMLTEX1
  6

  9
$DIMLTEX2
  6

  9
$DIMTXTDIRECTION
 70
     0
  9
$LUNITS
 70
     2
  9
$LUPREC
 70
     4
  9
$SKETCHINC
 40
1.0
  9
$FILLETRAD
 40
10.0
  9
$AUNITS
 70
     0
  9
$AUPREC
 70
     0
  9
$MENU
  1
.
  9
$ELEVATION
 40
0.0
  9
$PELEVATION
 40
0.0
  9
$THICKNESS
 40
0.0
  9
$LIMCHECK
 70
     0
  9
$CHAMFERA
 40
0.0
  9
$CHAMFERB
 40
0.0
  9
$CHAMFERC
 40
0.0
  9
$CHAMFERD
 40
0.0
  9
$SKPOLY
 70
     0
  9
$TDCREATE
 40
2460326.671985845
  9
$TDUCREATE
 40
2460326.630319178
  9
$TDUPDATE
 40
2460326.67198603
  9
$TDUUPDATE
 40
2460326.630319363
  9
$TDINDWG
 40
0.0000000116
  9
$TDUSRTIMER
 40
0.0000000116
  9
$USRTIMER
 70
     1
  9
$ANGBASE
 50
0.0
  9
$ANGDIR
 70
     0
  9
$PDMODE
 70
     0
  9
$PDSIZE
 40
0.0
  9
$PLINEWID
 40
0.0
  9
$SPLFRAME
 70
     0
  9
$SPLINETYPE
 70
     6
  9
$SPLINESEGS
 70
     8
  9
$HANDSEED
  5
196
  9
$SURFTAB1
 70
     6
  9
$SURFTAB2
 70
     6
  9
$SURFTYPE
 70
     6
  9
$SURFU
 70
     6
  9
$SURFV
 70
     6
  9
$UCSBASE
  2

  9
$UCSNAME
  2

  9
$UCSORG
 10
0.0
 20
0.0
 30
0.0
  9
$UCSXDIR
 10
1.0
 20
0.0
 30
0.0
  9
$UCSYDIR
 10
0.0
 20
1.0
 30
0.0
  9
$UCSORTHOREF
  2

  9
$UCSORTHOVIEW
 70
     0
  9
$UCSORGTOP
 10
0.0
 20
0.0
 30
0.0
  9
$UCSORGBOTTOM
 10
0.0
 20
0.0
 30
0.0
  9
$UCSORGLEFT
 10
0.0
 20
0.0
 30
0.0
  9
$UCSORGRIGHT
 10
0.0
 20
0.0
 30
0.0
  9
$UCSORGFRONT
 10
0.0
 20
0.0
 30
0.0
  9
$UCSORGBACK
 10
0.0
 20
0.0
 30
0.0
  9
$PUCSBASE
  2

  9
$PUCSNAME
  2

  9
$PUCSORG
 10
0.0
 20
0.0
 30
0.0
  9
$PUCSXDIR
 10
1.0
 20
0.0
 30
0.0
  9
$PUCSYDIR
 10
0.0
 20
1.0
 30
0.0
  9
$PUCSORTHOREF
  2

  9
$PUCSORTHOVIEW
 70
     0
  9
$PUCSORGTOP
 10
0.0
 20
0.0
 30
0.0
  9
$PUCSORGBOTTOM
 10
0.0
 20
0.0
 30
0.0
  9
$PUCSORGLEFT
 10
0.0
 20
0.0
 30
0.0
  9
$PUCSORGRIGHT
 10
0.0
 20
0.0
 30
0.0
  9
$PUCSORGFRONT
 10
0.0
 20
0.0
 30
0.0
  9
$PUCSORGBACK
 10
0.0
 20
0.0
 30
0.0
  9
$USERI1
 70
     0
  9
$USERI2
 70
     0
  9
$USERI3
 70
     0
  9
$USERI4
 70
     0
  9
$USERI5
 70
     0
  9
$USERR1
 40
0.0
  9
$USERR2
 40
0.0
  9
$USERR3
 40
0.0
  9
$USERR4
 40
0.0
  9
$USERR5
 40
0.0
  9
$WORLDVIEW
 70
     1
  9
$SHADEDGE
 70
     3
  9
$SHADEDIF
 70
    70
  9
$TILEMODE
 70
     1
  9
$MAXACTVP
 70
    64
  9
$PINSBASE
 10
0.0
 20
0.0
 30
0.0
  9
$PLIMCHECK
 70
     0
  9
$PEXTMIN
 10
1.000000000000000E+20
 20
1.000000000000000E+20
 30
1.000000000000000E+20
  9
$PEXTMAX
 10
-1.000000000000000E+20
 20
-1.000000000000000E+20
 30
-1.000000000000000E+20
  9
$PLIMMIN
 10
0.0
 20
0.0
  9
$PLIMMAX
 10
420.0
 20
297.0
  9
$UNITMODE
 70
     0
  9
$VISRETAIN
 70
     1
  9
$PLINEGEN
 70
     0
  9
$PSLTSCALE
 70
     1
  9
$TREEDEPTH
 70
  3020
  9
$CMLSTYLE
  2
Standard
  9
$CMLJUST
 70
     0
  9
$CMLSCALE
 40
20.0
  9
$PROXYGRAPHICS
 70
     1
  9
$MEASUREMENT
 70
     1
  9
$CELWEIGHT
370
    -1
  9
$ENDCAPS
280
     0
  9
$JOINSTYLE
280
     0
  9
$LWDISPLAY
290
     0
  9
$INSUNITS
 70
     4
  9
$HYPERLINKBASE
  1

  9
$STYLESHEET
  1

  9
$XEDIT
290
     1
  9
$CEPSNTYPE
380
     0
  9
$PSTYLEMODE
290
     1
  9
$FINGERPRINTGUID
  2
{b5f5496b-f010-4b01-a300-66b86d3aa391}
  9
$VERSIONGUID
  2
{FAEB1C32-E019-11D5-929B-00C0DF256EC4}
  9
$EXTNAMES
290
     1
  9
$PSVPSCALE
 40
0.0
  9
$OLESTARTUP
290
     0
  9
$SORTENTS
280
   127
  9
$INDEXCTL
280
     0
  9
$HIDETEXT
280
     1
  9
$XCLIPFRAME
280
     2
  9
$HALOGAP
280
     0
  9
$OBSCOLOR
 70
   257
  9
$OBSLTYPE
280
     0
  9
$INTERSECTIONDISPLAY
280
     0
  9
$INTERSECTIONCOLOR
 70
   257
  9
$DIMASSOC
280
     2
  9
$PROJECTNAME
  1

  9
$CAMERADISPLAY
290
     0
  9
$LENSLENGTH
 40
50.0
  9
$CAMERAHEIGHT
 40
0.0
  9
$STEPSPERSEC
 40
2.0
  9
$STEPSIZE
 40
6.0
  9
$3DDWFPREC
 40
2.0
  9
$PSOLWIDTH
 40
5.0
  9
$PSOLHEIGHT
 40
80.0
  9
$LOFTANG1
 40
1.570796326794897
  9
$LOFTANG2
 40
1.570796326794897
  9
$LOFTMAG1
 40
0.0
  9
$LOFTMAG2
 40
0.0
  9
$LOFTPARAM
 70
     7
  9
$LOFTNORMALS
280
     1
  9
$LATITUDE
 40
37.795
  9
$LONGITUDE
 40
-122.394
  9
$NORTHDIRECTION
 40
0.0
  9
$TIMEZONE
 70
 -8000
  9
$LIGHTGLYPHDISPLAY
280
     1
  9
$TILEMODELIGHTSYNCH
280
     1
  9
$CMATERIAL
347
44
  9
$SOLIDHIST
280
     0
  9
$SHOWHIST
280
     1
  9
$DWFFRAME
280
     2
  9
$DGNFRAME
280
     2
  9
$REALWORLDSCALE
290
     1
  9
$INTERFERECOLOR
 62
   256
  9
$CSHADOW
280
     0
  9
$SHADOWPLANELOCATION
 40
0.0
  0
ENDSEC
  0
SECTION
  2
CLASSES
  0
CLASS
  1
ACDBDICTIONARYWDFLT
  2
AcDbDictionaryWithDefault
  3
ObjectDBX Classes
 90
        0
 91
        3
280
     0
281
     0
  0
CLASS
  1
VISUALSTYLE
  2
AcDbVisualStyle
  3
ObjectDBX Classes
 90
     4095
 91
        3
280
     0
281
     0
  0
CLASS
  1
MATERIAL
  2
AcDbMaterial
  3
ObjectDBX Classes
 90
     1153
 91
        3
280
     0
281
     0
  0
CLASS
  1
SCALE
  2
AcDbScale
  3
ObjectDBX Classes
 90
     1153
 91
        3
280
     0
281
     0
  0
CLASS
  1
TABLESTYLE
  2
AcDbTableStyle
  3
ObjectDBX Classes
 90
     4095
 91
        3
280
     0
281
     0
  0
CLASS
  1
MLEADERSTYLE
  2
AcDbMLeaderStyle
  3
ACDB_MLEADERSTYLE_CLASS
 90
     4095
 91
        3
280
     0
281
     0
  0
CLASS
  1
SUN
  2
AcDbSun
  3
SCENEOE
 90
     1153
 91
        3
280
     0
281
     0
  0
CLASS
  1
DICTIONARYVAR
  2
AcDbDictionaryVar
  3
ObjectDBX Classes
 90
        0
 91
        3
280
     0
281
     0
  0
CLASS
  1
CELLSTYLEMAP
  2
AcDbCellStyleMap
  3
ObjectDBX Classes
 90
     1152
 91
        3
280
     0
281
     0
  0
ENDSEC
  0
SECTION
  2
TABLES
  0
TABLE
  2
VPORT
  5
8
330
0
100
AcDbSymbolTable
 70
     1
  0
VPORT
  5
29
330
8
100
AcDbSymbolTableRecord
100
AcDbViewportTableRecord
  2
*Active
 70
     0
 10
0.0
 20
0.0
 11
1.0
 21
1.0
 12
64.0
 22
-33.78333333333333
 13
0.0
 23
0.0
 14
10.0
 24
10.0
 15
10.0
 25
10.0
 16
0.0
 26
0.0
 36
1.0
 17
0.0
 27
0.0
 37
0.0
 40
167.0420000000001
 41
1.086912273559943
 42
50.0
 43
0.0
 44
0.0
 50
0.0
 51
0.0
 71
     0
 72
   100
 73
     1
 74
     3
 75
     0
 76
     0
 77
     0
 78
     0
281
     0
 65
     1
110
0.0
120
0.0
130
0.0
111
1.0
121
0.0
131
0.0
112
0.0
122
1.0
132
0.0
 79
     0
146
0.0
348
2F
 60
     3
 61
     5
292
     1
282
     1
141
0.0
142
0.0
 63
   250
361
5D
  0
ENDTAB
  0
TABLE
  2
LTYPE
  5
5
330
0
100
AcDbSymbolTable
 70
     3
  0
LTYPE
  5
14
330
5
100
AcDbSymbolTableRecord
100
AcDbLinetypeTableRecord
  2
ByBlock
 70
     0
  3

 72
    65
 73
     0
 40
0.0
  0
LTYPE
  5
15
330
5
100
AcDbSymbolTableRecord
100
AcDbLinetypeTableRecord
  2
ByLayer
 70
     0
  3

 72
    65
 73
     0
 40
0.0
  0
LTYPE
  5
16
330
5
100
AcDbSymbolTableRecord
100
AcDbLinetypeTableRecord
  2
Continuous
 70
     0
  3
Solid line
 72
    65
 73
     0
 40
0.0
  0
LTYPE
  5
8C
330
5
100
AcDbSymbolTableRecord
100
AcDbLinetypeTableRecord
  2
Center
 70
     0
  3

 72
    65
 73
     4
 40
1.5
 49
0.45
 74
     0
 49
-0.5
 74
     0
 49
0.05
 74
     0
 49
-0.5
 74
     0
  0
LTYPE
  5
C8
330
5
100
AcDbSymbolTableRecord
100
AcDbLinetypeTableRecord
  2
Dashed
 70
     0
  3

 72
    65
 73
     2
 40
2.0
 49
1.0
 74
     0
 49
-1.0
 74
     0
  0
ENDTAB
  0
TABLE
  2
LAYER
  5
2
330
0
100
AcDbSymbolTable
 70
     9
  0
LAYER
  5
10
330
2
100
AcDbSymbolTableRecord
100
AcDbLayerTableRecord
  2
0
 70
     0
 62
     7
  6
Continuous
370
    -3
390
F
347
46
348
0
  0
LAYER
  5
5E
330
2
100
AcDbSymbolTableRecord
100
AcDbLayerTableRecord
  2
attrib
 70
     0
 62
    -2
  6
Continuous
370
    35
390
F
347
46
348
0
  0
LAYER
  5
8D
330
2
100
AcDbSymbolTableRecord
100
AcDbLayerTableRecord
  2
center
 70
     0
 62
    -7
  6
Center
370
    25
390
F
347
46
348
0
  0
LAYER
  5
C9
330
2
100
AcDbSymbolTableRecord
100
AcDbLayerTableRecord
  2
hidden
 70
     0
 62
    -6
  6
Dashed
370
    25
390
F
347
46
348
0
  0
LAYER
  5
D9
330
2
100
AcDbSymbolTableRecord
100
AcDbLayerTableRecord
  2
bold
 70
     0
 62
     7
  6
Continuous
370
    50
390
F
347
46
348
0
  0
LAYER
  5
E3
330
2
100
AcDbSymbolTableRecord
100
AcDbLayerTableRecord
  2
light
 70
     0
 62
    -3
  6
Continuous
370
    25
390
F
347
46
348
0
  0
LAYER
  5
156
330
2
100
AcDbSymbolTableRecord
100
AcDbLayerTableRecord
  2
dimension
 70
     0
 62
    -5
  6
Continuous
370
    25
390
F
347
46
348
0
  0
LAYER
  5
158
330
2
100
AcDbSymbolTableRecord
100
AcDbLayerTableRecord
  2
Defpoints
 70
     0
 62
     7
  6
Continuous
290
     0
370
    -3
390
F
347
46
348
0
  0
LAYER
  5
180
330
2
100
AcDbSymbolTableRecord
100
AcDbLayerTableRecord
  2
connection
 70
     0
 62
    -7
  6
Continuous
370
    50
390
F
347
46
348
0
  0
ENDTAB
  0
TABLE
  2
STYLE
  5
3
330
0
100
AcDbSymbolTable
 70
     1
  0
STYLE
  5
11
330
3
100
AcDbSymbolTableRecord
100
AcDbTextStyleTableRecord
  2
Standard
 70
     0
 40
0.0
 41
1.0
 50
0.0
 71
     0
 42
2.5
  3
txt
  4

  0
ENDTAB
  0
TABLE
  2
VIEW
  5
6
330
0
100
AcDbSymbolTable
 70
     0
  0
ENDTAB
  0
TABLE
  2
UCS
  5
7
330
0
100
AcDbSymbolTable
 70
     0
  0
ENDTAB
  0
TABLE
  2
APPID
  5
9
330
0
100
AcDbSymbolTable
 70
     1
  0
APPID
  5
12
330
9
100
AcDbSymbolTableRecord
100
AcDbRegAppTableRecord
  2
ACAD
 70
     0
  0
ENDTAB
  0
TABLE
  2
DIMSTYLE
  5
A
330
0
100
AcDbSymbolTable
 70
     1
100
AcDbDimStyleTable
  0
DIMSTYLE
105
27
102
{ACAD_REACTORS
330
157
330
165
330
172
102
}
330
A
100
AcDbSymbolTableRecord
100
AcDbDimStyleTableRecord
  2
ISO-25
 70
     0
 41
2.5
 42
0.625
 43
3.75
 44
1.25
 73
     0
 74
     0
 77
     1
 78
     8
140
2.5
141
2.5
143
0.03937007874016
147
0.625
171
     3
172
     1
178
     0
271
     2
272
     2
274
     3
278
    44
283
     0
284
     8
340
11
  0
ENDTAB
  0
TABLE
  2
BLOCK_RECORD
  5
1
330
0
100
AcDbSymbolTable
 70
     9
  0
BLOCK_RECORD
  5
1F
330
1
100
AcDbSymbolTableRecord
100
AcDbBlockTableRecord
  2
*Model_Space
340
22
 70
     0
280
     1
281
     0
  0
BLOCK_RECORD
  5
1B
330
1
100
AcDbSymbolTableRecord
100
AcDbBlockTableRecord
  2
*Paper_Space
340
1E
 70
     0
280
     1
281
     0
  0
BLOCK_RECORD
  5
23
330
1
100
AcDbSymbolTableRecord
100
AcDbBlockTableRecord
  2
*Paper_Space0
340
26
 70
     0
280
     1
281
     0
  0
BLOCK_RECORD
  5
70
330
1
100
AcDbSymbolTableRecord
100
AcDbBlockTableRecord
  2
1_30322_1_1_0_in_30322_0
340
0
102
{BLKREFS
331
71
102
}
 70
     0
280
     1
281
     0
  0
BLOCK_RECORD
  5
8F
330
1
100
AcDbSymbolTableRecord
100
AcDbBlockTableRecord
  2
2_30322_1_2_0_in_30322_0
340
0
102
{BLKREFS
331
90
102
}
 70
     0
280
     1
281
     0
  0
BLOCK_RECORD
  5
AC
330
1
100
AcDbSymbolTableRecord
100
AcDbBlockTableRecord
  2
3_30322_1_3_0_in_30322_0
340
0
102
{BLKREFS
331
AD
102
}
 70
     0
280
     1
281
     0
  0
BLOCK_RECORD
  5
EB
330
1
100
AcDbSymbolTableRecord
100
AcDbBlockTableRecord
  2
4_30322_2_0_in_30322_0
340
0
102
{BLKREFS
331
EC
102
}
 70
     0
280
     1
281
     0
  0
BLOCK_RECORD
  5
11B
330
1
100
AcDbSymbolTableRecord
100
AcDbBlockTableRecord
  2
5_30322_1_4_0_in_30322_0
340
0
102
{BLKREFS
331
11C
102
}
 70
     0
280
     1
281
     0
  0
BLOCK_RECORD
  5
159
330
1
100
AcDbSymbolTableRecord
100
AcDbBlockTableRecord
  2
*D6
340
0
 70
     0
280
     1
281
     0
  0
BLOCK_RECORD
  5
166
330
1
100
AcDbSymbolTableRecord
100
AcDbBlockTableRecord
  2
*D7
340
0
 70
     0
280
     1
281
     0
  0
BLOCK_RECORD
  5
173
330
1
100
AcDbSymbolTableRecord
100
AcDbBlockTableRecord
  2
*D8
340
0
 70
     0
280
     1
281
     0
  0
ENDTAB
  0
ENDSEC
  0
SECTION
  2
BLOCKS
  0
BLOCK
  5
20
330
1F
100
AcDbEntity
  8
0
100
AcDbBlockBegin
  2
*Model_Space
 70
     2
 10
0.0
 20
0.0
 30
0.0
  3
*Model_Space
  1

  0
ENDBLK
  5
21
330
1F
100
AcDbEntity
  8
0
100
AcDbBlockEnd
  0
BLOCK
  5
1C
330
1B
100
AcDbEntity
 67
     1
  8
0
100
AcDbBlockBegin
  2
*Paper_Space
 70
     0
 10
0.0
 20
0.0
 30
0.0
  3
*Paper_Space
  1

  0
ENDBLK
  5
1D
330
1B
100
AcDbEntity
 67
     1
  8
0
100
AcDbBlockEnd
  0
BLOCK
  5
24
330
23
100
AcDbEntity
  8
0
100
AcDbBlockBegin
  2
*Paper_Space0
 70
     0
 10
0.0
 20
0.0
 30
0.0
  3
*Paper_Space0
  1

  0
ENDBLK
  5
25
330
23
100
AcDbEntity
  8
0
100
AcDbBlockEnd
  0
BLOCK
  5
72
330
70
100
AcDbEntity
  8
0
100
AcDbBlockBegin
  2
1_30322_1_1_0_in_30322_0
 70
     2
 10
0.0
 20
0.0
 30
0.0
  3
1_30322_1_1_0_in_30322_0
  1

  0
ATTDEF
  5
74
330
70
100
AcDbEntity
  8
attrib
100
AcDbText
 10
105.0
 20
16.05
 30
0.0
 40
0.5
  1
30322_1
100
AcDbAttributeDefinition
  3

  2
NB
 70
     8
280
     0
  0
ATTDEF
  5
75
330
70
100
AcDbEntity
  8
attrib
100
AcDbText
 10
105.0
 20
15.55
 30
0.0
 40
0.5
  1
Busbar connectors, longitudinal body
100
AcDbAttributeDefinition
  3

  2
NN
 70
     8
280
     0
  0
ATTDEF
  5
76
330
70
100
AcDbEntity
  8
attrib
100
AcDbText
 10
105.0
 20
15.05
 30
0.0
 40
0.5
  1

100
AcDbAttributeDefinition
  3

  2
NT
 70
     8
280
     0
  0
ATTDEF
  5
77
330
70
100
AcDbEntity
  8
attrib
100
AcDbText
 10
105.0
 20
14.55
 30
0.0
 40
0.5
  1
$BOM.
100
AcDbAttributeDefinition
  3

  2
NBSYN
 70
     8
280
     0
  0
ATTDEF
  5
78
330
70
100
AcDbEntity
  8
attrib
100
AcDbText
 10
105.0
 20
14.05
 30
0.0
 40
0.5
  1
30322_1
100
AcDbAttributeDefinition
  3

  2
LINA
 70
     8
280
     0
  0
ATTDEF
  5
79
330
70
100
AcDbEntity
  8
attrib
100
AcDbText
 10
105.0
 20
13.55
 30
0.0
 40
0.5
  1
Wöhner
100
AcDbAttributeDefinition
  3

  2
CATALOG
 70
     8
280
     0
  0
ATTDEF
  5
7A
330
70
100
AcDbEntity
  8
attrib
100
AcDbText
 10
105.0
 20
13.05
 30
0.0
 40
0.5
  1

100
AcDbAttributeDefinition
  3

  2
SYSTEM30
 70
     8
280
     0
  0
ATTDEF
  5
7B
330
70
100
AcDbEntity
  8
attrib
100
AcDbText
 10
105.0
 20
12.55
 30
0.0
 40
0.5
  1
30322_1
100
AcDbAttributeDefinition
  3

  2
BOM
 70
     8
280
     0
  0
ATTDEF
  5
7C
330
70
100
AcDbEntity
  8
attrib
100
AcDbText
 10
105.0
 20
12.05
 30
0.0
 40
0.5
  1
30322
100
AcDbAttributeDefinition
  3

  2
ARTNR
 70
     8
280
     0
  0
ATTDEF
  5
7D
330
70
100
AcDbEntity
  8
attrib
100
AcDbText
 10
105.0
 20
11.55
 30
0.0
 40
0.5
  1

100
AcDbAttributeDefinition
  3

  2
QNT
 70
     8
280
     0
  0
ATTDEF
  5
7E
330
70
100
AcDbEntity
  8
attrib
100
AcDbText
 10
105.0
 20
11.05
 30
0.0
 40
0.5
  1
150
100
AcDbAttributeDefinition
  3

  2
W
 70
     8
280
     0
  0
ATTDEF
  5
7F
330
70
100
AcDbEntity
  8
attrib
100
AcDbText
 10
105.0
 20
10.55
 30
0.0
 40
0.5
  1
45
100
AcDbAttributeDefinition
  3

  2
H
 70
     8
280
     0
  0
ATTDEF
  5
80
330
70
100
AcDbEntity
  8
attrib
100
AcDbText
 10
105.0
 20
10.05
 30
0.0
 40
0.5
  1
105
100
AcDbAttributeDefinition
  3

  2
D
 70
     8
280
     0
  0
ATTDEF
  5
81
330
70
100
AcDbEntity
  8
attrib
100
AcDbText
 10
105.0
 20
9.55
 30
0.0
 40
0.5
  1
0
100
AcDbAttributeDefinition
  3

  2
SX
 70
     8
280
     0
  0
ATTDEF
  5
82
330
70
100
AcDbEntity
  8
attrib
100
AcDbText
 10
105.0
 20
9.05
 30
0.0
 40
0.5
  1
0
100
AcDbAttributeDefinition
  3

  2
XY
 70
     8
280
     0
  0
ATTDEF
  5
83
330
70
100
AcDbEntity
  8
attrib
100
AcDbText
 10
105.0
 20
8.55
 30
0.0
 40
0.5
  1
0.000
100
AcDbAttributeDefinition
  3

  2
SCREW
 70
     8
280
     0
  0
ATTDEF
  5
84
330
70
100
AcDbEntity
  8
attrib
100
AcDbText
 10
105.0
 20
8.05
 30
0.0
 40
0.5
  1

100
AcDbAttributeDefinition
  3

  2
LINK
 70
     8
280
     0
  0
ATTDEF
  5
85
330
70
100
AcDbEntity
  8
attrib
100
AcDbText
 10
105.0
 20
7.550000000000001
 30
0.0
 40
0.5
  1

100
AcDbAttributeDefinition
  3

  2
SCREWCFG
 70
     8
280
     0
  0
ATTDEF
  5
86
330
70
100
AcDbEntity
  8
attrib
100
AcDbText
 10
105.0
 20
7.050000000000001
 30
0.0
 40
0.5
  1

100
AcDbAttributeDefinition
  3

  2
B2CFG
 70
     8
280
     0
  0
ATTDEF
  5
87
330
70
100
AcDbEntity
  8
attrib
100
AcDbText
 10
105.0
 20
6.550000000000001
 30
0.0
 40
0.5
  1
4
100
AcDbAttributeDefinition
  3

  2
VER
 70
     8
280
     0
  0
ATTDEF
  5
88
330
70
100
AcDbEntity
  8
attrib
100
AcDbText
 10
105.0
 20
6.050000000000001
 30
0.0
 40
0.5
  1
woehner
100
AcDbAttributeDefinition
  3

  2
COMPANY
 70
     8
280
     0
  0
ATTDEF
  5
89
330
70
100
AcDbEntity
  8
attrib
100
AcDbText
 10
105.0
 20
5.550000000000001
 30
0.0
 40
0.5
  1
{$CADENAS_DATA/23d-libs/woehner/sys_60classic/connection_technology_and_covers/parts/bus_conn_longitudal_body.prj},185 {VTYP=3D},{NB=30322_1},{LINA=30322_1},{NN=Busbar connectors, longitudinal body},{DATE=07.06.2023 08:36:13},{GEOMDATE=06.06.2023 11:11:00
100
AcDbAttributeDefinition
  3

  2
PSOL_0
 70
     9
280
     0
  0
ATTDEF
  5
8A
330
70
100
AcDbEntity
  8
attrib
100
AcDbText
 10
105.0
 20
5.050000000000001
 30
0.0
 40
0.5
  1
},{VERSION=},{LINEID=450},{WBVAR=},{WBNUMERIC=}  {NB=30322_1},{LINA=30322_1},{KT=DUMMY},{SYSTEM30=MIN},{BOM=30322_1},{ARTNR=30322},{BUSB=},{POF=},{TYPE=},{QNT=MIN},{W=150},{H=45},{D=105},{SX=0},{XY=0},{SCREW=0.000},{CONCA=},{SCR=},{IPR=},{SEARCH=},{EDZ=},
100
AcDbAttributeDefinition
  3

  2
PSOL_1
 70
     9
280
     0
  0
ATTDEF
  5
8B
330
70
100
AcDbEntity
  8
attrib
100
AcDbText
 10
105.0
 20
4.550000000000001
 30
0.0
 40
0.5
  1
{IODD=},{DIST=4},{LINK=},{LINKX=https://www.woehner.de/de/produkte/30322.html},{SCREWCFG=MIN},{B2CFG=MIN},{VER=4}
100
AcDbAttributeDefinition
  3

  2
PSOL_2
 70
     9
280
     0
  0
LINE
  5
8E
330
70
100
AcDbEntity
  8
center
100
AcDbLine
 10
100.0
 20
16.05
 30
0.0
 11
100.0
 21
-18.05
 31
0.0
  0
ENDBLK
  5
73
330
70
100
AcDbEntity
  8
0
100
AcDbBlockEnd
  0
BLOCK
  5
91
330
8F
100
AcDbEntity
  8
0
100
AcDbBlockBegin
  2
2_30322_1_2_0_in_30322_0
 70
     2
 10
0.0
 20
0.0
 30
0.0
  3
2_30322_1_2_0_in_30322_0
  1

  0
ATTDEF
  5
93
330
8F
100
AcDbEntity
  8
attrib
100
AcDbText
 10
5.0
 20
16.05
 30
0.0
 40
0.5
  1
30322_1
100
AcDbAttributeDefinition
  3

  2
NB
 70
     8
280
     0
  0
ATTDEF
  5
94
330
8F
100
AcDbEntity
  8
attrib
100
AcDbText
 10
5.0
 20
15.55
 30
0.0
 40
0.5
  1
Busbar connectors, longitudinal body
100
AcDbAttributeDefinition
  3

  2
NN
 70
     8
280
     0
  0
ATTDEF
  5
95
330
8F
100
AcDbEntity
  8
attrib
100
AcDbText
 10
5.0
 20
15.05
 30
0.0
 40
0.5
  1

100
AcDbAttributeDefinition
  3

  2
NT
 70
     8
280
     0
  0
ATTDEF
  5
96
330
8F
100
AcDbEntity
  8
attrib
100
AcDbText
 10
5.0
 20
14.55
 30
0.0
 40
0.5
  1
$BOM.
100
AcDbAttributeDefinition
  3

  2
NBSYN
 70
     8
280
     0
  0
ATTDEF
  5
97
330
8F
100
AcDbEntity
  8
attrib
100
AcDbText
 10
5.0
 20
14.05
 30
0.0
 40
0.5
  1
30322_1
100
AcDbAttributeDefinition
  3

  2
LINA
 70
     8
280
     0
  0
ATTDEF
  5
98
330
8F
100
AcDbEntity
  8
attrib
100
AcDbText
 10
5.0
 20
13.55
 30
0.0
 40
0.5
  1
Wöhner
100
AcDbAttributeDefinition
  3

  2
CATALOG
 70
     8
280
     0
  0
ATTDEF
  5
99
330
8F
100
AcDbEntity
  8
attrib
100
AcDbText
 10
5.0
 20
13.05
 30
0.0
 40
0.5
  1

100
AcDbAttributeDefinition
  3

  2
SYSTEM30
 70
     8
280
     0
  0
ATTDEF
  5
9A
330
8F
100
AcDbEntity
  8
attrib
100
AcDbText
 10
5.0
 20
12.55
 30
0.0
 40
0.5
  1
30322_1
100
AcDbAttributeDefinition
  3

  2
BOM
 70
     8
280
     0
  0
ATTDEF
  5
9B
330
8F
100
AcDbEntity
  8
attrib
100
AcDbText
 10
5.0
 20
12.05
 30
0.0
 40
0.5
  1
30322
100
AcDbAttributeDefinition
  3

  2
ARTNR
 70
     8
280
     0
  0
ATTDEF
  5
9C
330
8F
100
AcDbEntity
  8
attrib
100
AcDbText
 10
5.0
 20
11.55
 30
0.0
 40
0.5
  1

100
AcDbAttributeDefinition
  3

  2
QNT
 70
     8
280
     0
  0
ATTDEF
  5
9D
330
8F
100
AcDbEntity
  8
attrib
100
AcDbText
 10
5.0
 20
11.05
 30
0.0
 40
0.5
  1
150
100
AcDbAttributeDefinition
  3

  2
W
 70
     8
280
     0
  0
ATTDEF
  5
9E
330
8F
100
AcDbEntity
  8
attrib
100
AcDbText
 10
5.0
 20
10.55
 30
0.0
 40
0.5
  1
45
100
AcDbAttributeDefinition
  3

  2
H
 70
     8
280
     0
  0
ATTDEF
  5
9F
330
8F
100
AcDbEntity
  8
attrib
100
AcDbText
 10
5.0
 20
10.05
 30
0.0
 40
0.5
  1
105
100
AcDbAttributeDefinition
  3

  2
D
 70
     8
280
     0
  0
ATTDEF
  5
A0
330
8F
100
AcDbEntity
  8
attrib
100
AcDbText
 10
5.0
 20
9.55
 30
0.0
 40
0.5
  1
0
100
AcDbAttributeDefinition
  3

  2
SX
 70
     8
280
     0
  0
ATTDEF
  5
A1
330
8F
100
AcDbEntity
  8
attrib
100
AcDbText
 10
5.0
 20
9.05
 30
0.0
 40
0.5
  1
0
100
AcDbAttributeDefinition
  3

  2
XY
 70
     8
280
     0
  0
ATTDEF
  5
A2
330
8F
100
AcDbEntity
  8
attrib
100
AcDbText
 10
5.0
 20
8.55
 30
0.0
 40
0.5
  1
0.000
100
AcDbAttributeDefinition
  3

  2
SCREW
 70
     8
280
     0
  0
ATTDEF
  5
A3
330
8F
100
AcDbEntity
  8
attrib
100
AcDbText
 10
5.0
 20
8.05
 30
0.0
 40
0.5
  1

100
AcDbAttributeDefinition
  3

  2
LINK
 70
     8
280
     0
  0
ATTDEF
  5
A4
330
8F
100
AcDbEntity
  8
attrib
100
AcDbText
 10
5.0
 20
7.550000000000001
 30
0.0
 40
0.5
  1

100
AcDbAttributeDefinition
  3

  2
SCREWCFG
 70
     8
280
     0
  0
ATTDEF
  5
A5
330
8F
100
AcDbEntity
  8
attrib
100
AcDbText
 10
5.0
 20
7.050000000000001
 30
0.0
 40
0.5
  1

100
AcDbAttributeDefinition
  3

  2
B2CFG
 70
     8
280
     0
  0
ATTDEF
  5
A6
330
8F
100
AcDbEntity
  8
attrib
100
AcDbText
 10
5.0
 20
6.550000000000001
 30
0.0
 40
0.5
  1
4
100
AcDbAttributeDefinition
  3

  2
VER
 70
     8
280
     0
  0
ATTDEF
  5
A7
330
8F
100
AcDbEntity
  8
attrib
100
AcDbText
 10
5.0
 20
6.050000000000001
 30
0.0
 40
0.5
  1
woehner
100
AcDbAttributeDefinition
  3

  2
COMPANY
 70
     8
280
     0
  0
ATTDEF
  5
A8
330
8F
100
AcDbEntity
  8
attrib
100
AcDbText
 10
5.0
 20
5.550000000000001
 30
0.0
 40
0.5
  1
{$CADENAS_DATA/23d-libs/woehner/sys_60classic/connection_technology_and_covers/parts/bus_conn_longitudal_body.prj},185 {VTYP=3D},{NB=30322_1},{LINA=30322_1},{NN=Busbar connectors, longitudinal body},{DATE=07.06.2023 08:36:13},{GEOMDATE=06.06.2023 11:11:00
100
AcDbAttributeDefinition
  3

  2
PSOL_0
 70
     9
280
     0
  0
ATTDEF
  5
A9
330
8F
100
AcDbEntity
  8
attrib
100
AcDbText
 10
5.0
 20
5.050000000000001
 30
0.0
 40
0.5
  1
},{VERSION=},{LINEID=450},{WBVAR=},{WBNUMERIC=}  {NB=30322_1},{LINA=30322_1},{KT=DUMMY},{SYSTEM30=MIN},{BOM=30322_1},{ARTNR=30322},{BUSB=},{POF=},{TYPE=},{QNT=MIN},{W=150},{H=45},{D=105},{SX=0},{XY=0},{SCREW=0.000},{CONCA=},{SCR=},{IPR=},{SEARCH=},{EDZ=},
100
AcDbAttributeDefinition
  3

  2
PSOL_1
 70
     9
280
     0
  0
ATTDEF
  5
AA
330
8F
100
AcDbEntity
  8
attrib
100
AcDbText
 10
5.0
 20
4.550000000000001
 30
0.0
 40
0.5
  1
{IODD=},{DIST=4},{LINK=},{LINKX=https://www.woehner.de/de/produkte/30322.html},{SCREWCFG=MIN},{B2CFG=MIN},{VER=4}
100
AcDbAttributeDefinition
  3

  2
PSOL_2
 70
     9
280
     0
  0
LINE
  5
AB
330
8F
100
AcDbEntity
  8
center
100
AcDbLine
 10
0.0
 20
16.05
 30
0.0
 11
0.0
 21
-18.05
 31
0.0
  0
ENDBLK
  5
92
330
8F
100
AcDbEntity
  8
0
100
AcDbBlockEnd
  0
BLOCK
  5
AE
330
AC
100
AcDbEntity
  8
0
100
AcDbBlockBegin
  2
3_30322_1_3_0_in_30322_0
 70
     2
 10
0.0
 20
0.0
 30
0.0
  3
3_30322_1_3_0_in_30322_0
  1

  0
ATTDEF
  5
B0
330
AC
100
AcDbEntity
  8
attrib
100
AcDbText
 10
121.0
 20
14.5
 30
0.0
 40
0.5
  1
30322_1
100
AcDbAttributeDefinition
  3

  2
NB
 70
     8
280
     0
  0
ATTDEF
  5
B1
330
AC
100
AcDbEntity
  8
attrib
100
AcDbText
 10
121.0
 20
14.0
 30
0.0
 40
0.5
  1
Busbar connectors, longitudinal body
100
AcDbAttributeDefinition
  3

  2
NN
 70
     8
280
     0
  0
ATTDEF
  5
B2
330
AC
100
AcDbEntity
  8
attrib
100
AcDbText
 10
121.0
 20
13.5
 30
0.0
 40
0.5
  1

100
AcDbAttributeDefinition
  3

  2
NT
 70
     8
280
     0
  0
ATTDEF
  5
B3
330
AC
100
AcDbEntity
  8
attrib
100
AcDbText
 10
121.0
 20
13.0
 30
0.0
 40
0.5
  1
$BOM.
100
AcDbAttributeDefinition
  3

  2
NBSYN
 70
     8
280
     0
  0
ATTDEF
  5
B4
330
AC
100
AcDbEntity
  8
attrib
100
AcDbText
 10
121.0
 20
12.5
 30
0.0
 40
0.5
  1
30322_1
100
AcDbAttributeDefinition
  3

  2
LINA
 70
     8
280
     0
  0
ATTDEF
  5
B5
330
AC
100
AcDbEntity
  8
attrib
100
AcDbText
 10
121.0
 20
12.0
 30
0.0
 40
0.5
  1
Wöhner
100
AcDbAttributeDefinition
  3

  2
CATALOG
 70
     8
280
     0
  0
ATTDEF
  5
B6
330
AC
100
AcDbEntity
  8
attrib
100
AcDbText
 10
121.0
 20
11.5
 30
0.0
 40
0.5
  1

100
AcDbAttributeDefinition
  3

  2
SYSTEM30
 70
     8
280
     0
  0
ATTDEF
  5
B7
330
AC
100
AcDbEntity
  8
attrib
100
AcDbText
 10
121.0
 20
11.0
 30
0.0
 40
0.5
  1
30322_1
100
AcDbAttributeDefinition
  3

  2
BOM
 70
     8
280
     0
  0
ATTDEF
  5
B8
330
AC
100
AcDbEntity
  8
attrib
100
AcDbText
 10
121.0
 20
10.5
 30
0.0
 40
0.5
  1
30322
100
AcDbAttributeDefinition
  3

  2
ARTNR
 70
     8
280
     0
  0
ATTDEF
  5
B9
330
AC
100
AcDbEntity
  8
attrib
100
AcDbText
 10
121.0
 20
10.0
 30
0.0
 40
0.5
  1

100
AcDbAttributeDefinition
  3

  2
QNT
 70
     8
280
     0
  0
ATTDEF
  5
BA
330
AC
100
AcDbEntity
  8
attrib
100
AcDbText
 10
121.0
 20
9.5
 30
0.0
 40
0.5
  1
150
100
AcDbAttributeDefinition
  3

  2
W
 70
     8
280
     0
  0
ATTDEF
  5
BB
330
AC
100
AcDbEntity
  8
attrib
100
AcDbText
 10
121.0
 20
9.0
 30
0.0
 40
0.5
  1
45
100
AcDbAttributeDefinition
  3

  2
H
 70
     8
280
     0
  0
ATTDEF
  5
BC
330
AC
100
AcDbEntity
  8
attrib
100
AcDbText
 10
121.0
 20
8.5
 30
0.0
 40
0.5
  1
105
100
AcDbAttributeDefinition
  3

  2
D
 70
     8
280
     0
  0
ATTDEF
  5
BD
330
AC
100
AcDbEntity
  8
attrib
100
AcDbText
 10
121.0
 20
8.0
 30
0.0
 40
0.5
  1
0
100
AcDbAttributeDefinition
  3

  2
SX
 70
     8
280
     0
  0
ATTDEF
  5
BE
330
AC
100
AcDbEntity
  8
attrib
100
AcDbText
 10
121.0
 20
7.5
 30
0.0
 40
0.5
  1
0
100
AcDbAttributeDefinition
  3

  2
XY
 70
     8
280
     0
  0
ATTDEF
  5
BF
330
AC
100
AcDbEntity
  8
attrib
100
AcDbText
 10
121.0
 20
7.0
 30
0.0
 40
0.5
  1
0.000
100
AcDbAttributeDefinition
  3

  2
SCREW
 70
     8
280
     0
  0
ATTDEF
  5
C0
330
AC
100
AcDbEntity
  8
attrib
100
AcDbText
 10
121.0
 20
6.5
 30
0.0
 40
0.5
  1

100
AcDbAttributeDefinition
  3

  2
LINK
 70
     8
280
     0
  0
ATTDEF
  5
C1
330
AC
100
AcDbEntity
  8
attrib
100
AcDbText
 10
121.0
 20
6.0
 30
0.0
 40
0.5
  1

100
AcDbAttributeDefinition
  3

  2
SCREWCFG
 70
     8
280
     0
  0
ATTDEF
  5
C2
330
AC
100
AcDbEntity
  8
attrib
100
AcDbText
 10
121.0
 20
5.5
 30
0.0
 40
0.5
  1

100
AcDbAttributeDefinition
  3

  2
B2CFG
 70
     8
280
     0
  0
ATTDEF
  5
C3
330
AC
100
AcDbEntity
  8
attrib
100
AcDbText
 10
121.0
 20
5.0
 30
0.0
 40
0.5
  1
4
100
AcDbAttributeDefinition
  3

  2
VER
 70
     8
280
     0
  0
ATTDEF
  5
C4
330
AC
100
AcDbEntity
  8
attrib
100
AcDbText
 10
121.0
 20
4.5
 30
0.0
 40
0.5
  1
woehner
100
AcDbAttributeDefinition
  3

  2
COMPANY
 70
     8
280
     0
  0
ATTDEF
  5
C5
330
AC
100
AcDbEntity
  8
attrib
100
AcDbText
 10
121.0
 20
4.0
 30
0.0
 40
0.5
  1
{$CADENAS_DATA/23d-libs/woehner/sys_60classic/connection_technology_and_covers/parts/bus_conn_longitudal_body.prj},185 {VTYP=3D},{NB=30322_1},{LINA=30322_1},{NN=Busbar connectors, longitudinal body},{DATE=07.06.2023 08:36:13},{GEOMDATE=06.06.2023 11:11:00
100
AcDbAttributeDefinition
  3

  2
PSOL_0
 70
     9
280
     0
  0
ATTDEF
  5
C6
330
AC
100
AcDbEntity
  8
attrib
100
AcDbText
 10
121.0
 20
3.5
 30
0.0
 40
0.5
  1
},{VERSION=},{LINEID=450},{WBVAR=},{WBNUMERIC=}  {NB=30322_1},{LINA=30322_1},{KT=DUMMY},{SYSTEM30=MIN},{BOM=30322_1},{ARTNR=30322},{BUSB=},{POF=},{TYPE=},{QNT=MIN},{W=150},{H=45},{D=105},{SX=0},{XY=0},{SCREW=0.000},{CONCA=},{SCR=},{IPR=},{SEARCH=},{EDZ=},
100
AcDbAttributeDefinition
  3

  2
PSOL_1
 70
     9
280
     0
  0
ATTDEF
  5
C7
330
AC
100
AcDbEntity
  8
attrib
100
AcDbText
 10
121.0
 20
3.0
 30
0.0
 40
0.5
  1
{IODD=},{DIST=4},{LINK=},{LINKX=https://www.woehner.de/de/produkte/30322.html},{SCREWCFG=MIN},{B2CFG=MIN},{VER=4}
100
AcDbAttributeDefinition
  3

  2
PSOL_2
 70
     9
280
     0
  0
LINE
  5
CA
330
AC
100
AcDbEntity
  8
hidden
100
AcDbLine
 10
95.5841
 20
4.500000000000001
 30
0.0
 11
95.5841
 21
14.5
 31
0.0
  0
LINE
  5
CB
330
AC
100
AcDbEntity
  8
hidden
100
AcDbLine
 10
104.4159
 20
4.500000000000001
 30
0.0
 11
104.4159
 21
14.5
 31
0.0
  0
LINE
  5
CC
330
AC
100
AcDbEntity
  8
hidden
100
AcDbLine
 10
95.5841
 20
4.500000000000001
 30
0.0
 11
104.4159
 21
4.500000000000001
 31
0.0
  0
LINE
  5
CD
330
AC
100
AcDbEntity
  8
hidden
100
AcDbLine
 10
100.0
 20
4.500000000000001
 30
0.0
 11
100.0
 21
14.5
 31
0.0
  0
LINE
  5
CE
330
AC
100
AcDbEntity
  8
hidden
100
AcDbLine
 10
92.0
 20
-8.0
 30
0.0
 11
92.0
 21
-13.0
 31
0.0
  0
LINE
  5
CF
330
AC
100
AcDbEntity
  8
hidden
100
AcDbLine
 10
108.0
 20
-13.0
 30
0.0
 11
108.0
 21
-8.0
 31
0.0
  0
LINE
  5
D0
330
AC
100
AcDbEntity
  8
hidden
100
AcDbLine
 10
92.0
 20
-13.0
 30
0.0
 11
88.00000000000001
 21
-14.0
 31
0.0
  0
LINE
  5
D1
330
AC
100
AcDbEntity
  8
hidden
100
AcDbLine
 10
112.0
 20
-14.0
 30
0.0
 11
108.0
 21
-13.0
 31
0.0
  0
LINE
  5
D2
330
AC
100
AcDbEntity
  8
hidden
100
AcDbLine
 10
108.0
 20
-13.0
 30
0.0
 11
92.0
 21
-13.0
 31
0.0
  0
LINE
  5
D3
330
AC
100
AcDbEntity
  8
hidden
100
AcDbLine
 10
88.00000000000001
 20
-14.0
 30
0.0
 11
88.00000000000001
 21
-16.5
 31
0.0
  0
LINE
  5
D4
330
AC
100
AcDbEntity
  8
hidden
100
AcDbLine
 10
112.0
 20
-16.5
 30
0.0
 11
112.0
 21
-14.0
 31
0.0
  0
LINE
  5
D5
330
AC
100
AcDbEntity
  8
hidden
100
AcDbLine
 10
112.0
 20
-14.0
 30
0.0
 11
88.00000000000001
 21
-14.0
 31
0.0
  0
LINE
  5
D6
330
AC
100
AcDbEntity
  8
hidden
100
AcDbLine
 10
116.0
 20
-88.2
 30
0.0
 11
84.0
 21
-88.2
 31
0.0
  0
LINE
  5
D7
330
AC
100
AcDbEntity
  8
hidden
100
AcDbLine
 10
116.0
 20
-9.000000000000002
 30
0.0
 11
84.0
 21
-9.000000000000002
 31
0.0
  0
LINE
  5
D8
330
AC
100
AcDbEntity
  8
hidden
100
AcDbLine
 10
116.0
 20
-76.20000000000002
 30
0.0
 11
84.0
 21
-76.20000000000002
 31
0.0
  0
LINE
  5
DA
330
AC
100
AcDbEntity
  8
bold
100
AcDbLine
 10
93.0
 20
14.5
 30
0.0
 11
92.0
 21
13.5
 31
0.0
  0
LINE
  5
DB
330
AC
100
AcDbEntity
  8
bold
100
AcDbLine
 10
108.0
 20
13.5
 30
0.0
 11
107.0
 21
14.5
 31
0.0
  0
LINE
  5
DC
330
AC
100
AcDbEntity
  8
bold
100
AcDbLine
 10
107.0
 20
14.5
 30
0.0
 11
93.0
 21
14.5
 31
0.0
  0
LINE
  5
DD
330
AC
100
AcDbEntity
  8
bold
100
AcDbLine
 10
92.0
 20
13.5
 30
0.0
 11
92.0
 21
0.0
 31
0.0
  0
LINE
  5
DE
330
AC
100
AcDbEntity
  8
bold
100
AcDbLine
 10
108.0
 20
0.0
 30
0.0
 11
108.0
 21
13.5
 31
0.0
  0
LINE
  5
DF
330
AC
100
AcDbEntity
  8
bold
100
AcDbLine
 10
108.0
 20
13.5
 30
0.0
 11
92.0
 21
13.5
 31
0.0
  0
LINE
  5
E0
330
AC
100
AcDbEntity
  8
bold
100
AcDbLine
 10
116.0
 20
0.0
 30
0.0
 11
84.0
 21
0.0
 31
0.0
  0
LINE
  5
E1
330
AC
100
AcDbEntity
  8
bold
100
AcDbLine
 10
116.0
 20
-10.0
 30
0.0
 11
84.0
 21
-10.0
 31
0.0
  0
LINE
  5
E2
330
AC
100
AcDbEntity
  8
bold
100
AcDbLine
 10
116.0
 20
-8.0
 30
0.0
 11
84.0
 21
-8.0
 31
0.0
  0
LINE
  5
E4
330
AC
100
AcDbEntity
  8
light
100
AcDbLine
 10
116.0
 20
-5.0
 30
0.0
 11
84.0
 21
-5.0
 31
0.0
  0
LINE
  5
E5
330
AC
100
AcDbEntity
  8
bold
100
AcDbLine
 10
116.0
 20
-90.0
 30
0.0
 11
84.0
 21
-90.0
 31
0.0
  0
LINE
  5
E6
330
AC
100
AcDbEntity
  8
light
100
AcDbLine
 10
116.0
 20
-88.0
 30
0.0
 11
84.0
 21
-88.0
 31
0.0
  0
LINE
  5
E7
330
AC
100
AcDbEntity
  8
bold
100
AcDbLine
 10
84.0
 20
0.0
 30
0.0
 11
84.0
 21
-90.0
 31
0.0
  0
LINE
  5
E8
330
AC
100
AcDbEntity
  8
bold
100
AcDbLine
 10
116.0
 20
-76.0
 30
0.0
 11
84.0
 21
-76.0
 31
0.0
  0
LINE
  5
E9
330
AC
100
AcDbEntity
  8
bold
100
AcDbLine
 10
116.0
 20
0.0
 30
0.0
 11
116.0
 21
-90.0
 31
0.0
  0
LINE
  5
EA
330
AC
100
AcDbEntity
  8
bold
100
AcDbLine
 10
116.0
 20
-74.0
 30
0.0
 11
84.0
 21
-74.0
 31
0.0
  0
ENDBLK
  5
AF
330
AC
100
AcDbEntity
  8
0
100
AcDbBlockEnd
  0
BLOCK
  5
ED
330
EB
100
AcDbEntity
  8
0
100
AcDbBlockBegin
  2
4_30322_2_0_in_30322_0
 70
     2
 10
0.0
 20
0.0
 30
0.0
  3
4_30322_2_0_in_30322_0
  1

  0
ATTDEF
  5
EF
330
EB
100
AcDbEntity
  8
attrib
100
AcDbText
 10
130.0
 20
-0.5222761148103423
 30
0.0
 40
0.5
  1
30322_2
100
AcDbAttributeDefinition
  3

  2
NB
 70
     8
280
     0
  0
ATTDEF
  5
F0
330
EB
100
AcDbEntity
  8
attrib
100
AcDbText
 10
130.0
 20
-1.022276114810342
 30
0.0
 40
0.5
  1
Busbar connectors, longitudinal body 2
100
AcDbAttributeDefinition
  3

  2
NN
 70
     8
280
     0
  0
ATTDEF
  5
F1
330
EB
100
AcDbEntity
  8
attrib
100
AcDbText
 10
130.0
 20
-1.522276114810342
 30
0.0
 40
0.5
  1

100
AcDbAttributeDefinition
  3

  2
NT
 70
     8
280
     0
  0
ATTDEF
  5
F2
330
EB
100
AcDbEntity
  8
attrib
100
AcDbText
 10
130.0
 20
-2.022276114810342
 30
0.0
 40
0.5
  1
$BOM.
100
AcDbAttributeDefinition
  3

  2
NBSYN
 70
     8
280
     0
  0
ATTDEF
  5
F3
330
EB
100
AcDbEntity
  8
attrib
100
AcDbText
 10
130.0
 20
-2.522276114810342
 30
0.0
 40
0.5
  1
30322_2
100
AcDbAttributeDefinition
  3

  2
LINA
 70
     8
280
     0
  0
ATTDEF
  5
F4
330
EB
100
AcDbEntity
  8
attrib
100
AcDbText
 10
130.0
 20
-3.022276114810342
 30
0.0
 40
0.5
  1
Wöhner
100
AcDbAttributeDefinition
  3

  2
CATALOG
 70
     8
280
     0
  0
ATTDEF
  5
F5
330
EB
100
AcDbEntity
  8
attrib
100
AcDbText
 10
130.0
 20
-3.522276114810342
 30
0.0
 40
0.5
  1

100
AcDbAttributeDefinition
  3

  2
SYSTEM30
 70
     8
280
     0
  0
ATTDEF
  5
F6
330
EB
100
AcDbEntity
  8
attrib
100
AcDbText
 10
130.0
 20
-4.022276114810342
 30
0.0
 40
0.5
  1
30322
100
AcDbAttributeDefinition
  3

  2
ARTNR
 70
     8
280
     0
  0
ATTDEF
  5
F7
330
EB
100
AcDbEntity
  8
attrib
100
AcDbText
 10
130.0
 20
-4.522276114810342
 30
0.0
 40
0.5
  1

100
AcDbAttributeDefinition
  3

  2
QNT
 70
     8
280
     0
  0
ATTDEF
  5
F8
330
EB
100
AcDbEntity
  8
attrib
100
AcDbText
 10
130.0
 20
-5.022276114810342
 30
0.0
 40
0.5
  1
150.000
100
AcDbAttributeDefinition
  3

  2
W
 70
     8
280
     0
  0
ATTDEF
  5
F9
330
EB
100
AcDbEntity
  8
attrib
100
AcDbText
 10
130.0
 20
-5.522276114810342
 30
0.0
 40
0.5
  1
45
100
AcDbAttributeDefinition
  3

  2
H
 70
     8
280
     0
  0
ATTDEF
  5
FA
330
EB
100
AcDbEntity
  8
attrib
100
AcDbText
 10
130.0
 20
-6.022276114810342
 30
0.0
 40
0.5
  1
105
100
AcDbAttributeDefinition
  3

  2
D
 70
     8
280
     0
  0
ATTDEF
  5
FB
330
EB
100
AcDbEntity
  8
attrib
100
AcDbText
 10
130.0
 20
-6.522276114810342
 30
0.0
 40
0.5
  1
0.000
100
AcDbAttributeDefinition
  3

  2
SX
 70
     8
280
     0
  0
ATTDEF
  5
FC
330
EB
100
AcDbEntity
  8
attrib
100
AcDbText
 10
130.0
 20
-7.022276114810342
 30
0.0
 40
0.5
  1
0.000
100
AcDbAttributeDefinition
  3

  2
XY
 70
     8
280
     0
  0
ATTDEF
  5
FD
330
EB
100
AcDbEntity
  8
attrib
100
AcDbText
 10
130.0
 20
-7.522276114810342
 30
0.0
 40
0.5
  1

100
AcDbAttributeDefinition
  3

  2
LINK
 70
     8
280
     0
  0
ATTDEF
  5
FE
330
EB
100
AcDbEntity
  8
attrib
100
AcDbText
 10
130.0
 20
-8.022276114810342
 30
0.0
 40
0.5
  1

100
AcDbAttributeDefinition
  3

  2
SCREWCFG
 70
     8
280
     0
  0
ATTDEF
  5
FF
330
EB
100
AcDbEntity
  8
attrib
100
AcDbText
 10
130.0
 20
-8.522276114810342
 30
0.0
 40
0.5
  1

100
AcDbAttributeDefinition
  3

  2
B2CFG
 70
     8
280
     0
  0
ATTDEF
  5
100
330
EB
100
AcDbEntity
  8
attrib
100
AcDbText
 10
130.0
 20
-9.022276114810342
 30
0.0
 40
0.5
  1
3
100
AcDbAttributeDefinition
  3

  2
VER
 70
     8
280
     0
  0
ATTDEF
  5
101
330
EB
100
AcDbEntity
  8
attrib
100
AcDbText
 10
130.0
 20
-9.522276114810342
 30
0.0
 40
0.5
  1
woehner
100
AcDbAttributeDefinition
  3

  2
COMPANY
 70
     8
280
     0
  0
ATTDEF
  5
102
330
EB
100
AcDbEntity
  8
attrib
100
AcDbText
 10
130.0
 20
-10.02227611481034
 30
0.0
 40
0.5
  1
{$CADENAS_DATA/23d-libs/woehner/sys_60classic/connection_technology_and_covers/parts/bus_conn_longitudal_body2.prj},187 {VTYP=3D},{NB=30322_2},{LINA=30322_2},{NN=Busbar connectors, longitudinal body 2},{DATE=07.06.2023 08:36:13},{GEOMDATE=06.06.2023 10:59
100
AcDbAttributeDefinition
  3

  2
PSOL_0
 70
     9
280
     0
  0
ATTDEF
  5
103
330
EB
100
AcDbEntity
  8
attrib
100
AcDbText
 10
130.0
 20
-10.52227611481034
 30
0.0
 40
0.5
  1
:00},{VERSION=},{LINEID=430},{WBVAR=},{WBNUMERIC=}  {NB=30322_2},{LINA=30322_2},{KT=DUMMY},{SYSTEM30=MIN},{BOM=30322_2},{ARTNR=30322},{BUSB=},{POF=},{TYPE=},{QNT=MIN},{W=150.000},{H=45},{D=105},{SX=0.000},{XY=0.000},{CONCA=},{SCR=},{IPR=},{SEARCH=},{EDZ=}
100
AcDbAttributeDefinition
  3

  2
PSOL_1
 70
     9
280
     0
  0
ATTDEF
  5
104
330
EB
100
AcDbEntity
  8
attrib
100
AcDbText
 10
130.0
 20
-11.02227611481034
 30
0.0
 40
0.5
  1
,{IODD=},{DIST=4},{LINK=},{LINKX=https://www.woehner.de/de/produkte/30322.html},{SCREWCFG=MIN},{B2CFG=MIN},{VER=3}
100
AcDbAttributeDefinition
  3

  2
PSOL_2
 70
     9
280
     0
  0
LINE
  5
105
330
EB
100
AcDbEntity
  8
hidden
100
AcDbLine
 10
116.0
 20
-16.5
 30
0.0
 11
84.0
 21
-16.5
 31
0.0
  0
LINE
  5
106
330
EB
100
AcDbEntity
  8
hidden
100
AcDbLine
 10
84.0
 20
-36.50000000000001
 30
0.0
 11
116.0
 21
-36.5
 31
0.0
  0
LINE
  5
107
330
EB
100
AcDbEntity
  8
hidden
100
AcDbLine
 10
16.0
 20
-16.5
 30
0.0
 11
-16.0
 21
-16.5
 31
0.0
  0
LINE
  5
108
330
EB
100
AcDbEntity
  8
hidden
100
AcDbLine
 10
-16.0
 20
-36.5
 30
0.0
 11
16.00000000000001
 21
-36.5
 31
0.0
  0
LINE
  5
109
330
EB
100
AcDbEntity
  8
bold
100
AcDbLine
 10
38.518936987064
 20
-35.07115043874616
 30
0.0
 11
48.46791111376204
 21
-23.21442478062692
 31
0.0
  0
ARC
  5
10A
330
EB
100
AcDbEntity
  8
bold
100
AcDbCircle
 10
64.54524078541192
 20
-32.50000000000003
 30
0.0
 40
3.999999999999975
100
AcDbArc
 50
219.9999999999996
 51
270.0000000000002
  0
ARC
  5
10B
330
EB
100
AcDbEntity
  8
bold
100
AcDbCircle
 10
49.99999999999999
 20
-24.49999999999998
 30
0.0
 40
2.0
100
AcDbArc
 50
39.99999999999962
 51
140.0000000000003
  0
LINE
  5
10C
330
EB
100
AcDbEntity
  8
bold
100
AcDbLine
 10
51.53208888623796
 20
-23.21442478062691
 30
0.0
 11
61.48106301293601
 21
-35.07115043874615
 31
0.0
  0
LINE
  5
10D
330
EB
100
AcDbEntity
  8
bold
100
AcDbLine
 10
84.0
 20
-16.5
 30
0.0
 11
74.33105012119287
 21
-16.5
 31
0.0
  0
LINE
  5
10E
330
EB
100
AcDbEntity
  8
bold
100
AcDbLine
 10
125.0
 20
-16.5
 30
0.0
 11
116.0
 21
-16.5
 31
0.0
  0
ARC
  5
10F
330
EB
100
AcDbEntity
  8
bold
100
AcDbCircle
 10
35.45475921458805
 20
-32.49999999999994
 30
0.0
 40
4.000000000000064
100
AcDbArc
 50
270.0000000000004
 51
319.9999999999995
  0
LINE
  5
110
330
EB
100
AcDbEntity
  8
bold
100
AcDbLine
 10
125.0
 20
-36.5
 30
0.0
 11
125.0
 21
-16.5
 31
0.0
  0
LINE
  5
111
330
EB
100
AcDbEntity
  8
bold
100
AcDbLine
 10
116.0
 20
-36.5
 30
0.0
 11
125.0
 21
-36.5
 31
0.0
  0
LINE
  5
112
330
EB
100
AcDbEntity
  8
bold
100
AcDbLine
 10
64.54524078541193
 20
-36.50000000000001
 30
0.0
 11
84.0
 21
-36.50000000000001
 31
0.0
  0
LINE
  5
113
330
EB
100
AcDbEntity
  8
bold
100
AcDbLine
 10
-25.0
 20
-16.5
 30
0.0
 11
-25.0
 21
-36.5
 31
0.0
  0
ARC
  5
114
330
EB
100
AcDbEntity
  8
bold
100
AcDbCircle
 10
50.00000000000001
 20
-24.49999999999999
 30
0.0
 40
24.0
100
AcDbArc
 50
23.3424840713068
 51
156.6575155949804
  0
LINE
  5
115
330
EB
100
AcDbEntity
  8
bold
100
AcDbLine
 10
-16.0
 20
-16.5
 30
0.0
 11
-25.0
 21
-16.5
 31
0.0
  0
LINE
  5
116
330
EB
100
AcDbEntity
  8
bold
100
AcDbLine
 10
25.66894987880712
 20
-16.5
 30
0.0
 11
16.0
 21
-16.5
 31
0.0
  0
ARC
  5
117
330
EB
100
AcDbEntity
  8
bold
100
AcDbCircle
 10
25.66894987880713
 20
-14.0
 30
0.0
 40
2.499999999999996
100
AcDbArc
 50
269.9999999999998
 51
336.6575155949805
  0
ARC
  5
118
330
EB
100
AcDbEntity
  8
bold
100
AcDbCircle
 10
74.33105012119292
 20
-13.99999999999994
 30
0.0
 40
2.500000000000056
100
AcDbArc
 50
203.3424876086631
 51
269.999999999999
  0
LINE
  5
119
330
EB
100
AcDbEntity
  8
bold
100
AcDbLine
 10
16.00000000000001
 20
-36.5
 30
0.0
 11
35.45475921458808
 21
-36.5
 31
0.0
  0
LINE
  5
11A
330
EB
100
AcDbEntity
  8
bold
100
AcDbLine
 10
-25.0
 20
-36.5
 30
0.0
 11
-16.0
 21
-36.5
 31
0.0
  0
ENDBLK
  5
EE
330
EB
100
AcDbEntity
  8
0
100
AcDbBlockEnd
  0
BLOCK
  5
11D
330
11B
100
AcDbEntity
  8
0
100
AcDbBlockBegin
  2
5_30322_1_4_0_in_30322_0
 70
     2
 10
0.0
 20
0.0
 30
0.0
  3
5_30322_1_4_0_in_30322_0
  1

  0
ATTDEF
  5
11F
330
11B
100
AcDbEntity
  8
attrib
100
AcDbText
 10
21.0
 20
14.5
 30
0.0
 40
0.5
  1
30322_1
100
AcDbAttributeDefinition
  3

  2
NB
 70
     8
280
     0
  0
ATTDEF
  5
120
330
11B
100
AcDbEntity
  8
attrib
100
AcDbText
 10
21.0
 20
14.0
 30
0.0
 40
0.5
  1
Busbar connectors, longitudinal body
100
AcDbAttributeDefinition
  3

  2
NN
 70
     8
280
     0
  0
ATTDEF
  5
121
330
11B
100
AcDbEntity
  8
attrib
100
AcDbText
 10
21.0
 20
13.5
 30
0.0
 40
0.5
  1

100
AcDbAttributeDefinition
  3

  2
NT
 70
     8
280
     0
  0
ATTDEF
  5
122
330
11B
100
AcDbEntity
  8
attrib
100
AcDbText
 10
21.0
 20
13.0
 30
0.0
 40
0.5
  1
$BOM.
100
AcDbAttributeDefinition
  3

  2
NBSYN
 70
     8
280
     0
  0
ATTDEF
  5
123
330
11B
100
AcDbEntity
  8
attrib
100
AcDbText
 10
21.0
 20
12.5
 30
0.0
 40
0.5
  1
30322_1
100
AcDbAttributeDefinition
  3

  2
LINA
 70
     8
280
     0
  0
ATTDEF
  5
124
330
11B
100
AcDbEntity
  8
attrib
100
AcDbText
 10
21.0
 20
12.0
 30
0.0
 40
0.5
  1
Wöhner
100
AcDbAttributeDefinition
  3

  2
CATALOG
 70
     8
280
     0
  0
ATTDEF
  5
125
330
11B
100
AcDbEntity
  8
attrib
100
AcDbText
 10
21.0
 20
11.5
 30
0.0
 40
0.5
  1

100
AcDbAttributeDefinition
  3

  2
SYSTEM30
 70
     8
280
     0
  0
ATTDEF
  5
126
330
11B
100
AcDbEntity
  8
attrib
100
AcDbText
 10
21.0
 20
11.0
 30
0.0
 40
0.5
  1
30322_1
100
AcDbAttributeDefinition
  3

  2
BOM
 70
     8
280
     0
  0
ATTDEF
  5
127
330
11B
100
AcDbEntity
  8
attrib
100
AcDbText
 10
21.0
 20
10.5
 30
0.0
 40
0.5
  1
30322
100
AcDbAttributeDefinition
  3

  2
ARTNR
 70
     8
280
     0
  0
ATTDEF
  5
128
330
11B
100
AcDbEntity
  8
attrib
100
AcDbText
 10
21.0
 20
10.0
 30
0.0
 40
0.5
  1

100
AcDbAttributeDefinition
  3

  2
QNT
 70
     8
280
     0
  0
ATTDEF
  5
129
330
11B
100
AcDbEntity
  8
attrib
100
AcDbText
 10
21.0
 20
9.5
 30
0.0
 40
0.5
  1
150
100
AcDbAttributeDefinition
  3

  2
W
 70
     8
280
     0
  0
ATTDEF
  5
12A
330
11B
100
AcDbEntity
  8
attrib
100
AcDbText
 10
21.0
 20
9.0
 30
0.0
 40
0.5
  1
45
100
AcDbAttributeDefinition
  3

  2
H
 70
     8
280
     0
  0
ATTDEF
  5
12B
330
11B
100
AcDbEntity
  8
attrib
100
AcDbText
 10
21.0
 20
8.5
 30
0.0
 40
0.5
  1
105
100
AcDbAttributeDefinition
  3

  2
D
 70
     8
280
     0
  0
ATTDEF
  5
12C
330
11B
100
AcDbEntity
  8
attrib
100
AcDbText
 10
21.0
 20
8.0
 30
0.0
 40
0.5
  1
0
100
AcDbAttributeDefinition
  3

  2
SX
 70
     8
280
     0
  0
ATTDEF
  5
12D
330
11B
100
AcDbEntity
  8
attrib
100
AcDbText
 10
21.0
 20
7.5
 30
0.0
 40
0.5
  1
0
100
AcDbAttributeDefinition
  3

  2
XY
 70
     8
280
     0
  0
ATTDEF
  5
12E
330
11B
100
AcDbEntity
  8
attrib
100
AcDbText
 10
21.0
 20
7.0
 30
0.0
 40
0.5
  1
0.000
100
AcDbAttributeDefinition
  3

  2
SCREW
 70
     8
280
     0
  0
ATTDEF
  5
12F
330
11B
100
AcDbEntity
  8
attrib
100
AcDbText
 10
21.0
 20
6.5
 30
0.0
 40
0.5
  1

100
AcDbAttributeDefinition
  3

  2
LINK
 70
     8
280
     0
  0
ATTDEF
  5
130
330
11B
100
AcDbEntity
  8
attrib
100
AcDbText
 10
21.0
 20
6.0
 30
0.0
 40
0.5
  1

100
AcDbAttributeDefinition
  3

  2
SCREWCFG
 70
     8
280
     0
  0
ATTDEF
  5
131
330
11B
100
AcDbEntity
  8
attrib
100
AcDbText
 10
21.0
 20
5.5
 30
0.0
 40
0.5
  1

100
AcDbAttributeDefinition
  3

  2
B2CFG
 70
     8
280
     0
  0
ATTDEF
  5
132
330
11B
100
AcDbEntity
  8
attrib
100
AcDbText
 10
21.0
 20
5.0
 30
0.0
 40
0.5
  1
4
100
AcDbAttributeDefinition
  3

  2
VER
 70
     8
280
     0
  0
ATTDEF
  5
133
330
11B
100
AcDbEntity
  8
attrib
100
AcDbText
 10
21.0
 20
4.5
 30
0.0
 40
0.5
  1
woehner
100
AcDbAttributeDefinition
  3

  2
COMPANY
 70
     8
280
     0
  0
ATTDEF
  5
134
330
11B
100
AcDbEntity
  8
attrib
100
AcDbText
 10
21.0
 20
4.0
 30
0.0
 40
0.5
  1
{$CADENAS_DATA/23d-libs/woehner/sys_60classic/connection_technology_and_covers/parts/bus_conn_longitudal_body.prj},185 {VTYP=3D},{NB=30322_1},{LINA=30322_1},{NN=Busbar connectors, longitudinal body},{DATE=07.06.2023 08:36:13},{GEOMDATE=06.06.2023 11:11:00
100
AcDbAttributeDefinition
  3

  2
PSOL_0
 70
     9
280
     0
  0
ATTDEF
  5
135
330
11B
100
AcDbEntity
  8
attrib
100
AcDbText
 10
21.0
 20
3.5
 30
0.0
 40
0.5
  1
},{VERSION=},{LINEID=450},{WBVAR=},{WBNUMERIC=}  {NB=30322_1},{LINA=30322_1},{KT=DUMMY},{SYSTEM30=MIN},{BOM=30322_1},{ARTNR=30322},{BUSB=},{POF=},{TYPE=},{QNT=MIN},{W=150},{H=45},{D=105},{SX=0},{XY=0},{SCREW=0.000},{CONCA=},{SCR=},{IPR=},{SEARCH=},{EDZ=},
100
AcDbAttributeDefinition
  3

  2
PSOL_1
 70
     9
280
     0
  0
ATTDEF
  5
136
330
11B
100
AcDbEntity
  8
attrib
100
AcDbText
 10
21.0
 20
3.0
 30
0.0
 40
0.5
  1
{IODD=},{DIST=4},{LINK=},{LINKX=https://www.woehner.de/de/produkte/30322.html},{SCREWCFG=MIN},{B2CFG=MIN},{VER=4}
100
AcDbAttributeDefinition
  3

  2
PSOL_2
 70
     9
280
     0
  0
LINE
  5
137
330
11B
100
AcDbEntity
  8
hidden
100
AcDbLine
 10
-4.4159
 20
4.500000000000001
 30
0.0
 11
-4.4159
 21
14.5
 31
0.0
  0
LINE
  5
138
330
11B
100
AcDbEntity
  8
hidden
100
AcDbLine
 10
4.4159
 20
4.500000000000001
 30
0.0
 11
4.4159
 21
14.5
 31
0.0
  0
LINE
  5
139
330
11B
100
AcDbEntity
  8
hidden
100
AcDbLine
 10
0.0
 20
4.500000000000001
 30
0.0
 11
0.0
 21
14.5
 31
0.0
  0
LINE
  5
13A
330
11B
100
AcDbEntity
  8
hidden
100
AcDbLine
 10
-4.4159
 20
4.500000000000001
 30
0.0
 11
4.4159
 21
4.500000000000001
 31
0.0
  0
LINE
  5
13B
330
11B
100
AcDbEntity
  8
hidden
100
AcDbLine
 10
-8.0
 20
-8.0
 30
0.0
 11
-8.0
 21
-13.0
 31
0.0
  0
LINE
  5
13C
330
11B
100
AcDbEntity
  8
hidden
100
AcDbLine
 10
8.0
 20
-13.0
 30
0.0
 11
8.0
 21
-8.0
 31
0.0
  0
LINE
  5
13D
330
11B
100
AcDbEntity
  8
hidden
100
AcDbLine
 10
-12.0
 20
-14.0
 30
0.0
 11
-12.0
 21
-16.5
 31
0.0
  0
LINE
  5
13E
330
11B
100
AcDbEntity
  8
hidden
100
AcDbLine
 10
12.0
 20
-16.5
 30
0.0
 11
12.0
 21
-14.0
 31
0.0
  0
LINE
  5
13F
330
11B
100
AcDbEntity
  8
hidden
100
AcDbLine
 10
-8.0
 20
-13.0
 30
0.0
 11
-12.0
 21
-14.0
 31
0.0
  0
LINE
  5
140
330
11B
100
AcDbEntity
  8
hidden
100
AcDbLine
 10
12.0
 20
-14.0
 30
0.0
 11
8.0
 21
-13.0
 31
0.0
  0
LINE
  5
141
330
11B
100
AcDbEntity
  8
hidden
100
AcDbLine
 10
12.0
 20
-14.0
 30
0.0
 11
-12.0
 21
-14.0
 31
0.0
  0
LINE
  5
142
330
11B
100
AcDbEntity
  8
hidden
100
AcDbLine
 10
8.0
 20
-13.0
 30
0.0
 11
-8.0
 21
-13.0
 31
0.0
  0
LINE
  5
143
330
11B
100
AcDbEntity
  8
hidden
100
AcDbLine
 10
16.0
 20
-76.20000000000002
 30
0.0
 11
-16.0
 21
-76.20000000000002
 31
0.0
  0
LINE
  5
144
330
11B
100
AcDbEntity
  8
hidden
100
AcDbLine
 10
16.0
 20
-9.000000000000002
 30
0.0
 11
-16.0
 21
-9.000000000000002
 31
0.0
  0
LINE
  5
145
330
11B
100
AcDbEntity
  8
hidden
100
AcDbLine
 10
16.0
 20
-88.2
 30
0.0
 11
-16.0
 21
-88.2
 31
0.0
  0
LINE
  5
146
330
11B
100
AcDbEntity
  8
bold
100
AcDbLine
 10
-7.0
 20
14.5
 30
0.0
 11
-8.0
 21
13.5
 31
0.0
  0
LINE
  5
147
330
11B
100
AcDbEntity
  8
bold
100
AcDbLine
 10
8.0
 20
13.5
 30
0.0
 11
7.0
 21
14.5
 31
0.0
  0
LINE
  5
148
330
11B
100
AcDbEntity
  8
bold
100
AcDbLine
 10
7.0
 20
14.5
 30
0.0
 11
-7.0
 21
14.5
 31
0.0
  0
LINE
  5
149
330
11B
100
AcDbEntity
  8
bold
100
AcDbLine
 10
-8.0
 20
13.5
 30
0.0
 11
-8.0
 21
0.0
 31
0.0
  0
LINE
  5
14A
330
11B
100
AcDbEntity
  8
bold
100
AcDbLine
 10
8.0
 20
0.0
 30
0.0
 11
8.0
 21
13.5
 31
0.0
  0
LINE
  5
14B
330
11B
100
AcDbEntity
  8
bold
100
AcDbLine
 10
8.0
 20
13.5
 30
0.0
 11
-8.0
 21
13.5
 31
0.0
  0
LINE
  5
14C
330
11B
100
AcDbEntity
  8
bold
100
AcDbLine
 10
16.0
 20
-10.0
 30
0.0
 11
-16.0
 21
-10.0
 31
0.0
  0
LINE
  5
14D
330
11B
100
AcDbEntity
  8
bold
100
AcDbLine
 10
16.0
 20
-8.0
 30
0.0
 11
-16.0
 21
-8.0
 31
0.0
  0
LINE
  5
14E
330
11B
100
AcDbEntity
  8
light
100
AcDbLine
 10
16.0
 20
-5.0
 30
0.0
 11
-16.0
 21
-5.0
 31
0.0
  0
LINE
  5
14F
330
11B
100
AcDbEntity
  8
bold
100
AcDbLine
 10
16.0
 20
0.0
 30
0.0
 11
-16.0
 21
0.0
 31
0.0
  0
LINE
  5
150
330
11B
100
AcDbEntity
  8
bold
100
AcDbLine
 10
16.0
 20
-90.0
 30
0.0
 11
-16.0
 21
-90.0
 31
0.0
  0
LINE
  5
151
330
11B
100
AcDbEntity
  8
light
100
AcDbLine
 10
16.0
 20
-88.0
 30
0.0
 11
-16.0
 21
-88.0
 31
0.0
  0
LINE
  5
152
330
11B
100
AcDbEntity
  8
bold
100
AcDbLine
 10
-16.0
 20
0.0
 30
0.0
 11
-16.0
 21
-90.0
 31
0.0
  0
LINE
  5
153
330
11B
100
AcDbEntity
  8
bold
100
AcDbLine
 10
16.0
 20
-76.0
 30
0.0
 11
-16.0
 21
-76.0
 31
0.0
  0
LINE
  5
154
330
11B
100
AcDbEntity
  8
bold
100
AcDbLine
 10
16.0
 20
0.0
 30
0.0
 11
16.0
 21
-90.0
 31
0.0
  0
LINE
  5
155
330
11B
100
AcDbEntity
  8
bold
100
AcDbLine
 10
16.0
 20
-74.0
 30
0.0
 11
-16.0
 21
-74.0
 31
0.0
  0
ENDBLK
  5
11E
330
11B
100
AcDbEntity
  8
0
100
AcDbBlockEnd
  0
BLOCK
  5
15A
330
159
100
AcDbEntity
  8
0
100
AcDbBlockBegin
  2
*D6
 70
     1
 10
0.0
 20
0.0
 30
0.0
  3
*D6
  1

  0
LINE
  5
15C
330
159
100
AcDbEntity
  8
dimension
 62
     0
370
    -2
100
AcDbLine
 10
-25.0
 20
-16.5
 30
0.0
 11
-25.0
 21
39.0
 31
0.0
  0
LINE
  5
15D
330
159
100
AcDbEntity
  8
dimension
 62
     0
370
    -2
100
AcDbLine
 10
125.0
 20
-16.5
 30
0.0
 11
125.0
 21
39.0
 31
0.0
  0
LINE
  5
15E
330
159
100
AcDbEntity
  8
dimension
 62
     0
370
    -2
100
AcDbLine
 10
-18.0
 20
39.0
 30
0.0
 11
118.0
 21
39.0
 31
0.0
  0
SOLID
  5
15F
330
159
100
AcDbEntity
  8
dimension
 62
     0
100
AcDbTrace
 10
-18.0
 20
40.16666666666666
 30
0.0
 11
-18.0
 21
37.83333333333334
 31
0.0
 12
-25.0
 22
39.0
 32
0.0
 13
-25.0
 23
39.0
 33
0.0
  0
SOLID
  5
160
330
159
100
AcDbEntity
  8
dimension
 62
     0
100
AcDbTrace
 10
118.0
 20
37.83333333333334
 30
0.0
 11
118.0
 21
40.16666666666666
 31
0.0
 12
125.0
 22
39.0
 32
0.0
 13
125.0
 23
39.0
 33
0.0
  0
MTEXT
  5
161
330
159
100
AcDbEntity
  8
dimension
 62
     0
100
AcDbMText
 10
50.0
 20
44.6
 30
0.0
 40
7.0
 41
0.0
 46
0.0
 71
     5
 72
     1
  1
150
 73
     1
 44
1.0
  0
POINT
  5
162
330
159
100
AcDbEntity
  8
Defpoints
 62
     0
100
AcDbPoint
 10
-25.0
 20
-16.5
 30
0.0
  0
POINT
  5
163
330
159
100
AcDbEntity
  8
Defpoints
 62
     0
100
AcDbPoint
 10
125.0
 20
-16.5
 30
0.0
  0
POINT
  5
164
330
159
100
AcDbEntity
  8
Defpoints
 62
     0
100
AcDbPoint
 10
125.0
 20
35.5
 30
0.0
  0
ENDBLK
  5
15B
330
159
100
AcDbEntity
  8
0
100
AcDbBlockEnd
  0
BLOCK
  5
167
330
166
100
AcDbEntity
  8
0
100
AcDbBlockBegin
  2
*D7
 70
     1
 10
0.0
 20
0.0
 30
0.0
  3
*D7
  1

  0
LINE
  5
169
330
166
100
AcDbEntity
  8
dimension
 62
     0
370
    -2
100
AcDbLine
 10
84.0
 20
-90.0
 30
0.0
 11
84.0
 21
-114.5
 31
0.0
  0
LINE
  5
16A
330
166
100
AcDbEntity
  8
dimension
 62
     0
370
    -2
100
AcDbLine
 10
116.0
 20
-90.0
 30
0.0
 11
116.0
 21
-114.5
 31
0.0
  0
LINE
  5
16B
330
166
100
AcDbEntity
  8
dimension
 62
     0
370
    -2
100
AcDbLine
 10
91.0
 20
-114.5
 30
0.0
 11
109.0
 21
-114.5
 31
0.0
  0
SOLID
  5
16C
330
166
100
AcDbEntity
  8
dimension
 62
     0
100
AcDbTrace
 10
91.0
 20
-113.3333333333333
 30
0.0
 11
91.0
 21
-115.6666666666667
 31
0.0
 12
84.0
 22
-114.5
 32
0.0
 13
84.0
 23
-114.5
 33
0.0
  0
SOLID
  5
16D
330
166
100
AcDbEntity
  8
dimension
 62
     0
100
AcDbTrace
 10
109.0
 20
-115.6666666666667
 30
0.0
 11
109.0
 21
-113.3333333333333
 31
0.0
 12
116.0
 22
-114.5
 32
0.0
 13
116.0
 23
-114.5
 33
0.0
  0
MTEXT
  5
16E
330
166
100
AcDbEntity
  8
dimension
 62
     0
100
AcDbMText
 10
100.0
 20
-108.9
 30
0.0
 40
7.0
 41
0.0
 46
0.0
 71
     5
 72
     1
  1
32
 73
     1
 44
1.0
  0
POINT
  5
16F
330
166
100
AcDbEntity
  8
Defpoints
 62
     0
100
AcDbPoint
 10
84.0
 20
-90.0
 30
0.0
  0
POINT
  5
170
330
166
100
AcDbEntity
  8
Defpoints
 62
     0
100
AcDbPoint
 10
116.0
 20
-90.0
 30
0.0
  0
POINT
  5
171
330
166
100
AcDbEntity
  8
Defpoints
 62
     0
100
AcDbPoint
 10
116.0
 20
-111.0
 30
0.0
  0
ENDBLK
  5
168
330
166
100
AcDbEntity
  8
0
100
AcDbBlockEnd
  0
BLOCK
  5
174
330
173
100
AcDbEntity
  8
0
100
AcDbBlockBegin
  2
*D8
 70
     1
 10
0.0
 20
0.0
 30
0.0
  3
*D8
  1

  0
LINE
  5
176
330
173
100
AcDbEntity
  8
dimension
 62
     0
370
    -2
100
AcDbLine
 10
116.0
 20
0.0
 30
0.0
 11
149.5
 21
-0.0000000000000005
 31
0.0
  0
LINE
  5
177
330
173
100
AcDbEntity
  8
dimension
 62
     0
370
    -2
100
AcDbLine
 10
116.0
 20
-90.0
 30
0.0
 11
149.5
 21
-90.0
 31
0.0
  0
LINE
  5
178
330
173
100
AcDbEntity
  8
dimension
 62
     0
370
    -2
100
AcDbLine
 10
149.5
 20
-7.000000000000001
 30
0.0
 11
149.5
 21
-37.23333333333335
 31
0.0
  0
LINE
  5
179
330
173
100
AcDbEntity
  8
dimension
 62
     0
370
    -2
100
AcDbLine
 10
149.5
 20
-83.0
 30
0.0
 11
149.5
 21
-52.76666666666666
 31
0.0
  0
SOLID
  5
17A
330
173
100
AcDbEntity
  8
dimension
 62
     0
100
AcDbTrace
 10
150.6666666666667
 20
-7.000000000000001
 30
0.0
 11
148.3333333333333
 21
-7.000000000000001
 31
0.0
 12
149.5
 22
-0.0000000000000005
 32
0.0
 13
149.5
 23
-0.0000000000000005
 33
0.0
  0
SOLID
  5
17B
330
173
100
AcDbEntity
  8
dimension
 62
     0
100
AcDbTrace
 10
148.3333333333333
 20
-83.0
 30
0.0
 11
150.6666666666667
 21
-83.0
 31
0.0
 12
149.5
 22
-90.0
 32
0.0
 13
149.5
 23
-90.0
 33
0.0
  0
MTEXT
  5
17C
330
173
100
AcDbEntity
  8
dimension
 62
     0
100
AcDbMText
 10
149.5
 20
-45.0
 30
0.0
 40
7.0
 41
0.0
 46
0.0
 71
     5
 72
     1
  1
90
 11
6.123233995736766E-17
 21
1.0
 31
0.0
 73
     1
 44
1.0
  0
POINT
  5
17D
330
173
100
AcDbEntity
  8
Defpoints
 62
     0
100
AcDbPoint
 10
116.0
 20
0.0
 30
0.0
  0
POINT
  5
17E
330
173
100
AcDbEntity
  8
Defpoints
 62
     0
100
AcDbPoint
 10
116.0
 20
-90.0
 30
0.0
  0
POINT
  5
17F
330
173
100
AcDbEntity
  8
Defpoints
 62
     0
100
AcDbPoint
 10
146.0
 20
-90.0
 30
0.0
  0
ENDBLK
  5
175
330
173
100
AcDbEntity
  8
0
100
AcDbBlockEnd
  0
ENDSEC
  0
SECTION
  2
ENTITIES
  0
ATTDEF
  5
5F
330
1F
100
AcDbEntity
  8
attrib
100
AcDbText
 10
130.0
 20
16.05
 30
0.0
 40
0.5
  1
30322
100
AcDbAttributeDefinition
  3

  2
NB
 70
     8
280
     0
  0
ATTDEF
  5
60
330
1F
100
AcDbEntity
  8
attrib
100
AcDbText
 10
130.0
 20
15.55
 30
0.0
 40
0.5
  1
Busbar connectors, longitudinal
100
AcDbAttributeDefinition
  3

  2
NN
 70
     8
280
     0
  0
ATTDEF
  5
61
330
1F
100
AcDbEntity
  8
attrib
100
AcDbText
 10
130.0
 20
15.05
 30
0.0
 40
0.5
  1

100
AcDbAttributeDefinition
  3

  2
NT
 70
     8
280
     0
  0
ATTDEF
  5
62
330
1F
100
AcDbEntity
  8
attrib
100
AcDbText
 10
130.0
 20
14.55
 30
0.0
 40
0.5
  1
$ARTNR.
100
AcDbAttributeDefinition
  3

  2
NBSYN
 70
     8
280
     0
  0
ATTDEF
  5
63
330
1F
100
AcDbEntity
  8
attrib
100
AcDbText
 10
130.0
 20
14.05
 30
0.0
 40
0.5
  1
30322000
100
AcDbAttributeDefinition
  3

  2
LINA
 70
     8
280
     0
  0
ATTDEF
  5
64
330
1F
100
AcDbEntity
  8
attrib
100
AcDbText
 10
130.0
 20
13.55
 30
0.0
 40
0.5
  1
Wöhner
100
AcDbAttributeDefinition
  3

  2
CATALOG
 70
     8
280
     0
  0
ATTDEF
  5
65
330
1F
100
AcDbEntity
  8
attrib
100
AcDbText
 10
130.0
 20
13.05
 30
0.0
 40
0.5
  1
30322
100
AcDbAttributeDefinition
  3

  2
ARTNR
 70
     8
280
     0
  0
ATTDEF
  5
66
330
1F
100
AcDbEntity
  8
attrib
100
AcDbText
 10
130.0
 20
12.55
 30
0.0
 40
0.5
  1
double-T section
100
AcDbAttributeDefinition
  3

  2
BUSB
 70
     8
280
     0
  0
ATTDEF
  5
67
330
1F
100
AcDbEntity
  8
attrib
100
AcDbText
 10
130.0
 20
12.05
 30
0.0
 40
0.5
  1
1
100
AcDbAttributeDefinition
  3

  2
QNT
 70
     8
280
     0
  0
ATTDEF
  5
68
330
1F
100
AcDbEntity
  8
attrib
100
AcDbText
 10
130.0
 20
11.55
 30
0.0
 40
0.5
  1
150
100
AcDbAttributeDefinition
  3

  2
W
 70
     8
280
     0
  0
ATTDEF
  5
69
330
1F
100
AcDbEntity
  8
attrib
100
AcDbText
 10
130.0
 20
11.05
 30
0.0
 40
0.5
  1
45
100
AcDbAttributeDefinition
  3

  2
H
 70
     8
280
     0
  0
ATTDEF
  5
6A
330
1F
100
AcDbEntity
  8
attrib
100
AcDbText
 10
130.0
 20
10.55
 30
0.0
 40
0.5
  1
105
100
AcDbAttributeDefinition
  3

  2
D
 70
     8
280
     0
  0
ATTDEF
  5
6B
330
1F
100
AcDbEntity
  8
attrib
100
AcDbText
 10
130.0
 20
10.05
 30
0.0
 40
0.5
  1
Product link
100
AcDbAttributeDefinition
  3

  2
LINK
 70
     8
280
     0
  0
ATTDEF
  5
6C
330
1F
100
AcDbEntity
  8
attrib
100
AcDbText
 10
130.0
 20
9.55
 30
0.0
 40
0.5
  1
woehner
100
AcDbAttributeDefinition
  3

  2
COMPANY
 70
     8
280
     0
  0
ATTDEF
  5
6D
330
1F
100
AcDbEntity
  8
attrib
100
AcDbText
 10
130.0
 20
9.05
 30
0.0
 40
0.5
  1
{$CADENAS_DATA/23d-libs/woehner/sys_60classic/connection_technology_and_covers/bus_conn_longitudal_asmtab.prj},186 {VTYP=3D},{STYP=ASSTAB},{NB=30322},{LINA=30322000},{NN=Schienen-Längsverbindung},{DATE=07.06.2023 08:36:13},{GEOMDATE=06.06.2023 11:26:11},{
100
AcDbAttributeDefinition
  3

  2
PSOL_0
 70
     9
280
     0
  0
ATTDEF
  5
6E
330
1F
100
AcDbEntity
  8
attrib
100
AcDbText
 10
130.0
 20
8.55
 30
0.0
 40
0.5
  1
VERSION=},{LINEID=480},{WBVAR=},{WBNUMERIC=}  {NB=30322},{LINA=30322000},{KT=DUMMY},{SYSTEM30=0},{BOM=30322000},{ARTNR=30322},{BUSB=double-T section},{POF=},{TYPE=},{QNT=1},{W=150},{H=45},{D=105},{CONCA=},{SCR=},{IPR=},{SEARCH=},{EDZ=},{IODD=},{DIST=7.0},
100
AcDbAttributeDefinition
  3

  2
PSOL_1
 70
     9
280
     0
  0
ATTDEF
  5
6F
330
1F
100
AcDbEntity
  8
attrib
100
AcDbText
 10
130.0
 20
8.05
 30
0.0
 40
0.5
  1
{LINK=Product link},{LINKX=https://www.woehner.de/de/produkte/30322.html},{SCREWCFG=MIN},{B2CFG=MIN},{PPATH=parts/bus_conn_longitudal_asmtpl.prj},{VER=2}
100
AcDbAttributeDefinition
  3

  2
PSOL_2
 70
     9
280
     0
  0
INSERT
  5
71
330
1F
100
AcDbEntity
  8
0
100
AcDbBlockReference
  2
1_30322_1_1_0_in_30322_0
 10
0.0
 20
0.0
 30
0.0
  0
INSERT
  5
90
330
1F
100
AcDbEntity
  8
0
100
AcDbBlockReference
  2
2_30322_1_2_0_in_30322_0
 10
0.0
 20
0.0
 30
0.0
  0
INSERT
  5
AD
330
1F
100
AcDbEntity
  8
0
100
AcDbBlockReference
  2
3_30322_1_3_0_in_30322_0
 10
0.0
 20
0.0
 30
0.0
  0
INSERT
  5
EC
330
1F
100
AcDbEntity
  8
0
100
AcDbBlockReference
  2
4_30322_2_0_in_30322_0
 10
0.0
 20
0.0
 30
0.0
  0
INSERT
  5
11C
330
1F
100
AcDbEntity
  8
0
100
AcDbBlockReference
  2
5_30322_1_4_0_in_30322_0
 10
0.0
 20
0.0
 30
0.0
  0
DIMENSION
  5
157
330
1F
100
AcDbEntity
  8
dimension
100
AcDbDimension
280
     0
  2
*D6
 10
125.0
 20
39.0
 30
0.0
 11
50.0
 21
39.0
 31
0.0
 70
   160
  1
150
 71
     5
 42
150.0
 73
     0
 74
     0
 75
     0
  3
ISO-25
100
AcDbAlignedDimension
 13
-25.0
 23
-16.5
 33
0.0
 14
125.0
 24
-16.5
 34
0.0
100
AcDbRotatedDimension
1001
ACAD
1000
DSTYLE
1002
{
1070
   147
1040
2.1
1070
    42
1040
0.0
1070
    44
1040
0.0
1070
    41
1040
7.0
1070
   140
1040
7.0
1002
}
  0
DIMENSION
  5
165
330
1F
100
AcDbEntity
  8
dimension
100
AcDbDimension
280
     0
  2
*D7
 10
116.0
 20
-114.5
 30
0.0
 11
100.0
 21
-114.5
 31
0.0
 70
   160
  1
32
 71
     5
 42
32.0
 73
     0
 74
     0
 75
     0
  3
ISO-25
100
AcDbAlignedDimension
 13
84.0
 23
-90.0
 33
0.0
 14
116.0
 24
-90.0
 34
0.0
100
AcDbRotatedDimension
1001
ACAD
1000
DSTYLE
1002
{
1070
   147
1040
2.1
1070
    42
1040
0.0
1070
    44
1040
0.0
1070
    41
1040
7.0
1070
   140
1040
7.0
1002
}
  0
DIMENSION
  5
172
330
1F
100
AcDbEntity
  8
dimension
100
AcDbDimension
280
     0
  2
*D8
 10
149.5
 20
-90.0
 30
0.0
 11
149.5
 21
-45.0
 31
0.0
 70
   160
  1
90
 71
     5
 42
90.0
 73
     0
 74
     0
 75
     0
 53
90.0
  3
ISO-25
100
AcDbAlignedDimension
 13
116.0
 23
0.0
 33
0.0
 14
116.0
 24
-90.0
 34
0.0
 50
90.0
100
AcDbRotatedDimension
1001
ACAD
1000
DSTYLE
1002
{
1070
   147
1040
2.1
1070
    42
1040
0.0
1070
    44
1040
0.0
1070
    41
1040
7.0
1070
   140
1040
7.0
1002
}
  0
POINT
  5
181
330
1F
100
AcDbEntity
  8
connection
100
AcDbPoint
 10
-25.0
 20
-36.5
 30
0.0
  0
POINT
  5
182
330
1F
100
AcDbEntity
  8
connection
100
AcDbPoint
 10
125.0
 20
-36.5
 30
0.0
  0
POINT
  5
183
330
1F
100
AcDbEntity
  8
connection
100
AcDbPoint
 10
75.0
 20
-36.5
 30
0.0
  0
POINT
  5
184
330
1F
100
AcDbEntity
  8
connection
100
AcDbPoint
 10
125.0
 20
-36.5
 30
0.0
  0
POINT
  5
185
330
1F
100
AcDbEntity
  8
connection
100
AcDbPoint
 10
100.0
 20
0.0
 30
0.0
  0
POINT
  5
186
330
1F
100
AcDbEntity
  8
connection
100
AcDbPoint
 10
-25.0
 20
-36.5
 30
0.0
  0
POINT
  5
187
330
1F
100
AcDbEntity
  8
connection
100
AcDbPoint
 10
125.0
 20
-36.5
 30
0.0
  0
POINT
  5
188
330
1F
100
AcDbEntity
  8
connection
100
AcDbPoint
 10
-25.0
 20
-36.5
 30
0.0
  0
POINT
  5
189
330
1F
100
AcDbEntity
  8
connection
100
AcDbPoint
 10
25.0
 20
-36.5
 30
0.0
  0
POINT
  5
18A
330
1F
100
AcDbEntity
  8
connection
100
AcDbPoint
 10
0.0
 20
0.0
 30
0.0
  0
ENDSEC
  0
SECTION
  2
OBJECTS
  0
DICTIONARY
  5
C
330
0
100
AcDbDictionary
281
     1
  3
ACAD_DETAILVIEWSTYLE
350
192
  3
ACAD_GROUP
350
D
  3
ACAD_LAYOUT
350
1A
  3
ACAD_MATERIAL
350
43
  3
ACAD_MLEADERSTYLE
350
5B
  3
ACAD_MLINESTYLE
350
17
  3
ACAD_PLOTSETTINGS
350
19
  3
ACAD_PLOTSTYLENAME
350
E
  3
ACAD_SCALELIST
350
47
  3
ACAD_SECTIONVIEWSTYLE
350
193
  3
ACAD_TABLESTYLE
350
59
  3
ACAD_VISUALSTYLE
350
2A
  3
ACDB_RECOMPOSE_DATA
350
18F
  3
AcDbVariableDictionary
350
18B
  0
SUN
  5
5D
330
29
100
AcDbSun
 90
        1
290
     0
 63
     7
421
 16777215
 40
1.0
291
     1
 91
  2455826
 92
 54000000
292
     0
 70
     2
 71
   256
280
     1
  0
DICTIONARY
  5
192
102
{ACAD_REACTORS
330
C
102
}
330
C
100
AcDbDictionary
281
     1
  0
DICTIONARY
  5
D
102
{ACAD_REACTORS
330
C
102
}
330
C
100
AcDbDictionary
281
     1
  0
DICTIONARY
  5
1A
102
{ACAD_REACTORS
330
C
102
}
330
C
100
AcDbDictionary
281
     1
  3
Layout1
350
1E
  3
Layout2
350
26
  3
Model
350
22
  0
DICTIONARY
  5
43
102
{ACAD_REACTORS
330
C
102
}
330
C
100
AcDbDictionary
281
     1
  3
ByBlock
350
45
  3
ByLayer
350
44
  3
Global
350
46
  0
DICTIONARY
  5
5B
102
{ACAD_REACTORS
330
C
102
}
330
C
100
AcDbDictionary
281
     1
  3
Standard
350
5C
  0
DICTIONARY
  5
17
102
{ACAD_REACTORS
330
C
102
}
330
C
100
AcDbDictionary
281
     1
  3
Standard
350
18
  0
DICTIONARY
  5
19
102
{ACAD_REACTORS
330
C
102
}
330
C
100
AcDbDictionary
281
     1
  0
ACDBDICTIONARYWDFLT
  5
E
102
{ACAD_REACTORS
330
C
102
}
330
C
100
AcDbDictionary
281
     1
  3
Normal
350
F
100
AcDbDictionaryWithDefault
340
F
  0
DICTIONARY
  5
47
102
{ACAD_REACTORS
330
C
102
}
330
C
100
AcDbDictionary
281
     1
  3
A0
350
48
  3
A1
350
49
  3
A2
350
4A
  3
A3
350
4B
  3
A4
350
4C
  3
A5
350
4D
  3
A6
350
4E
  3
A7
350
4F
  3
A8
350
50
  3
A9
350
51
  3
B0
350
52
  3
B1
350
53
  3
B2
350
54
  3
B3
350
55
  3
B4
350
56
  3
B5
350
57
  3
B6
350
58
  0
DICTIONARY
  5
193
102
{ACAD_REACTORS
330
C
102
}
330
C
100
AcDbDictionary
281
     1
  0
DICTIONARY
  5
59
102
{ACAD_REACTORS
330
C
102
}
330
C
100
AcDbDictionary
281
     1
  3
Standard
350
5A
  0
DICTIONARY
  5
2A
102
{ACAD_REACTORS
330
C
102
}
330
C
100
AcDbDictionary
281
     1
  3
2dWireframe
350
2F
  3
Basic
350
32
  3
Brighten
350
36
  3
ColorChange
350
3A
  3
Conceptual
350
34
  3
Dim
350
35
  3
EdgeColorOff
350
3D
  3
Facepattern
350
39
  3
Flat
350
2B
  3
FlatWithEdges
350
2C
  3
Gouraud
350
2D
  3
GouraudWithEdges
350
2E
  3
Hidden
350
31
  3
JitterOff
350
3B
  3
Linepattern
350
38
  3
OverhangOff
350
3C
  3
Realistic
350
33
  3
Shaded
350
42
  3
Shaded with edges
350
41
  3
Shades of Gray
350
3E
  3
Sketchy
350
3F
  3
Thicken
350
37
  3
Wireframe
350
30
  3
X-Ray
350
40
  0
XRECORD
  5
18F
102
{ACAD_REACTORS
330
C
102
}
330
C
100
AcDbXrecord
280
     1
 90
        1
330
5A
  0
DICTIONARY
  5
18B
102
{ACAD_REACTORS
330
C
102
}
330
C
100
AcDbDictionary
281
     1
  3
CANNOSCALE
350
18C
  3
CENTEREXE
350
194
  3
CENTERLTYPEFILE
350
195
  3
CMLEADERSTYLE
350
191
  3
CTABLESTYLE
350
190
  0
LAYOUT
  5
1E
102
{ACAD_REACTORS
330
1A
102
}
330
1A
100
AcDbPlotSettings
  1

  2
none_device
  4

  6

 40
0.0
 41
0.0
 42
0.0
 43
0.0
 44
0.0
 45
0.0
 46
0.0
 47
0.0
 48
0.0
 49
0.0
140
0.0
141
0.0
142
1.0
143
1.0
 70
   688
 72
     1
 73
     0
 74
     5
  7

 75
    16
 76
     0
 77
     2
 78
   300
147
1.0
148
0.0
149
0.0
100
AcDbLayout
  1
Layout1
 70
     1
 71
     1
 10
0.0
 20
0.0
 11
420.0
 21
297.0
 12
0.0
 22
0.0
 32
0.0
 14
1.000000000000000E+20
 24
1.000000000000000E+20
 34
1.000000000000000E+20
 15
-1.000000000000000E+20
 25
-1.000000000000000E+20
 35
-1.000000000000000E+20
146
0.0
 13
0.0
 23
0.0
 33
0.0
 16
1.0
 26
0.0
 36
0.0
 17
0.0
 27
1.0
 37
0.0
 76
     0
330
1B
  0
LAYOUT
  5
26
102
{ACAD_REACTORS
330
1A
102
}
330
1A
100
AcDbPlotSettings
  1

  2
none_device
  4

  6

 40
0.0
 41
0.0
 42
0.0
 43
0.0
 44
0.0
 45
0.0
 46
0.0
 47
0.0
 48
0.0
 49
0.0
140
0.0
141
0.0
142
1.0
143
1.0
 70
   688
 72
     1
 73
     0
 74
     5
  7

 75
    16
 76
     0
 77
     2
 78
   300
147
1.0
148
0.0
149
0.0
100
AcDbLayout
  1
Layout2
 70
     1
 71
     2
 10
0.0
 20
0.0
 11
0.0
 21
0.0
 12
0.0
 22
0.0
 32
0.0
 14
0.0
 24
0.0
 34
0.0
 15
0.0
 25
0.0
 35
0.0
146
0.0
 13
0.0
 23
0.0
 33
0.0
 16
1.0
 26
0.0
 36
0.0
 17
0.0
 27
1.0
 37
0.0
 76
     0
330
23
  0
LAYOUT
  5
22
102
{ACAD_REACTORS
330
1A
102
}
330
1A
100
AcDbPlotSettings
  1

  2
none_device
  4
Letter_(8.50_x_11.00_Inches)
  6

 40
6.35
 41
6.35
 42
6.35000508
 43
6.35000508
 44
215.9
 45
279.4
 46
0.0
 47
0.0
 48
0.0
 49
0.0
140
0.0
141
0.0
142
1.0
143
1.0
 70
  1712
 72
     1
 73
     0
 74
     0
  7

 75
     0
 76
     0
 77
     2
 78
   300
147
1.0
148
0.0
149
0.0
100
AcDbLayout
  1
Model
 70
     1
 71
     0
 10
0.0
 20
0.0
 11
420.0
 21
297.0
 12
0.0
 22
0.0
 32
0.0
 14
-25.0
 24
-115.6666666666667
 34
0.0
 15
153.0
 25
48.1
 35
0.0
146
0.0
 13
0.0
 23
0.0
 33
0.0
 16
1.0
 26
0.0
 36
0.0
 17
0.0
 27
1.0
 37
0.0
 76
     0
330
1F
331
29
  0
MATERIAL
  5
45
102
{ACAD_REACTORS
330
43
102
}
330
43
100
AcDbMaterial
  1
ByBlock
 72
     1
 94
      127
  0
MATERIAL
  5
44
102
{ACAD_REACTORS
330
43
102
}
330
43
100
AcDbMaterial
  1
ByLayer
 72
     1
 94
      127
  0
MATERIAL
  5
46
102
{ACAD_REACTORS
330
43
102
}
330
43
100
AcDbMaterial
  1
Global
 72
     1
 94
      127
  0
MLEADERSTYLE
  5
5C
102
{ACAD_REACTORS
330
5B
102
}
330
5B
100
AcDbMLeaderStyle
179
     2
170
     2
171
     1
172
     0
 90
        2
 40
0.0
 41
0.0
173
     1
 91
-1056964608
340
14
 92
       -2
290
     1
 42
2.0
291
     1
 43
8.0
  3
Standard
341
0
 44
4.0
300

342
11
174
     1
178
     6
175
     1
176
     0
 93
-1056964608
 45
4.0
292
     0
297
     0
 46
4.0
343
0
 94
-1056964608
 47
1.0
 49
1.0
140
1.0
293
     1
141
0.0
294
     1
177
     0
142
1.0
295
     0
296
     0
143
3.75
271
     0
272
     9
273
     9
298
     0
  0
MLINESTYLE
  5
18
102
{ACAD_REACTORS
330
17
102
}
330
17
100
AcDbMlineStyle
  2
Standard
 70
     0
  3

 62
   256
 51
90.0
 52
90.0
 71
     2
 49
0.5
 62
   256
  6
BYLAYER
 49
-0.5
 62
   256
  6
BYLAYER
  0
ACDBPLACEHOLDER
  5
F
102
{ACAD_REACTORS
330
E
102
}
330
E
  0
SCALE
  5
48
102
{ACAD_REACTORS
330
47
102
}
330
47
100
AcDbScale
 70
     0
300
1:1
140
1.0
141
1.0
290
     1
  0
SCALE
  5
49
102
{ACAD_REACTORS
330
47
102
}
330
47
100
AcDbScale
 70
     0
300
1:2
140
1.0
141
2.0
290
     0
  0
SCALE
  5
4A
102
{ACAD_REACTORS
330
47
102
}
330
47
100
AcDbScale
 70
     0
300
1:4
140
1.0
141
4.0
290
     0
  0
SCALE
  5
4B
102
{ACAD_REACTORS
330
47
102
}
330
47
100
AcDbScale
 70
     0
300
1:5
140
1.0
141
5.0
290
     0
  0
SCALE
  5
4C
102
{ACAD_REACTORS
330
47
102
}
330
47
100
AcDbScale
 70
     0
300
1:8
140
1.0
141
8.0
290
     0
  0
SCALE
  5
4D
102
{ACAD_REACTORS
330
47
102
}
330
47
100
AcDbScale
 70
     0
300
1:10
140
1.0
141
10.0
290
     0
  0
SCALE
  5
4E
102
{ACAD_REACTORS
330
47
102
}
330
47
100
AcDbScale
 70
     0
300
1:16
140
1.0
141
16.0
290
     0
  0
SCALE
  5
4F
102
{ACAD_REACTORS
330
47
102
}
330
47
100
AcDbScale
 70
     0
300
1:20
140
1.0
141
20.0
290
     0
  0
SCALE
  5
50
102
{ACAD_REACTORS
330
47
102
}
330
47
100
AcDbScale
 70
     0
300
1:30
140
1.0
141
30.0
290
     0
  0
SCALE
  5
51
102
{ACAD_REACTORS
330
47
102
}
330
47
100
AcDbScale
 70
     0
300
1:40
140
1.0
141
40.0
290
     0
  0
SCALE
  5
52
102
{ACAD_REACTORS
330
47
102
}
330
47
100
AcDbScale
 70
     0
300
1:50
140
1.0
141
50.0
290
     0
  0
SCALE
  5
53
102
{ACAD_REACTORS
330
47
102
}
330
47
100
AcDbScale
 70
     0
300
1:100
140
1.0
141
100.0
290
     0
  0
SCALE
  5
54
102
{ACAD_REACTORS
330
47
102
}
330
47
100
AcDbScale
 70
     0
300
2:1
140
2.0
141
1.0
290
     0
  0
SCALE
  5
55
102
{ACAD_REACTORS
330
47
102
}
330
47
100
AcDbScale
 70
     0
300
4:1
140
4.0
141
1.0
290
     0
  0
SCALE
  5
56
102
{ACAD_REACTORS
330
47
102
}
330
47
100
AcDbScale
 70
     0
300
8:1
140
8.0
141
1.0
290
     0
  0
SCALE
  5
57
102
{ACAD_REACTORS
330
47
102
}
330
47
100
AcDbScale
 70
     0
300
10:1
140
10.0
141
1.0
290
     0
  0
SCALE
  5
58
102
{ACAD_REACTORS
330
47
102
}
330
47
100
AcDbScale
 70
     0
300
100:1
140
100.0
141
1.0
290
     0
  0
TABLESTYLE
  5
5A
102
{ACAD_REACTORS
330
59
102
}
102
{ACAD_XDICTIONARY
360
18D
102
}
330
59
100
AcDbTableStyle
  3
Standard
 70
     0
 71
     0
 40
0.06
 41
0.06
280
     0
281
     0
  7
Standard
140
4.5
170
     2
 62
     0
 63
   257
283
     0
 90
        4
 91
        0
  1

274
    -2
284
     1
 64
     0
275
    -2
285
     1
 65
     0
276
    -2
286
     1
 66
     0
277
    -2
287
     1
 67
     0
278
    -2
288
     1
 68
     0
279
    -2
289
     1
 69
     0
  7
Standard
140
6.0
170
     5
 62
     0
 63
   257
283
     0
 90
        4
 91
        0
  1

274
    -2
284
     1
 64
     0
275
    -2
285
     1
 65
     0
276
    -2
286
     1
 66
     0
277
    -2
287
     1
 67
     0
278
    -2
288
     1
 68
     0
279
    -2
289
     1
 69
     0
  7
Standard
140
4.5
170
     5
 62
     0
 63
   257
283
     0
 90
        4
 91
        0
  1

274
    -2
284
     1
 64
     0
275
    -2
285
     1
 65
     0
276
    -2
286
     1
 66
     0
277
    -2
287
     1
 67
     0
278
    -2
288
     1
 68
     0
279
    -2
289
     1
 69
     0
  0
VISUALSTYLE
  5
2F
102
{ACAD_REACTORS
330
2A
102
}
330
2A
100
AcDbVisualStyle
  2
2dWireframe
 70
     4
177
     3
291
     0
 70
    58
 90
        0
176
     1
 90
        2
176
     1
 90
        0
176
     1
 90
        0
176
     1
 40
0.6
176
     1
 40
30.0
176
     1
 62
     7
420
 16777215
176
     1
 90
        1
176
     1
 90
        4
176
     1
 62
     7
176
     1
 62
   257
176
     1
 90
        1
176
     1
 90
        1
176
     1
 40
1.0
176
     1
 90
        0
176
     1
 62
   257
176
     1
 40
1.0
176
     1
 90
        1
176
     1
 90
        6
176
     1
 90
        2
176
     1
 62
     7
176
     1
 90
        5
176
     1
 90
        0
176
     1
 90
        0
176
     1
290
     0
176
     1
 90
        1
176
     1
 40
0.0
176
     1
 90
        0
176
     1
290
     1
176
     1
290
     1
176
     1
290
     0
176
     1
290
     0
176
     1
290
     0
176
     1
290
     0
176
     1
290
     0
176
     1
290
     0
176
     1
290
     0
176
     1
 90
       50
176
     1
 40
0.0
176
     1
 40
1.0
176
     1
 90
        0
176
     1
 62
    18
420
        0
176
     1
 90
       50
176
     1
 90
        3
176
     1
 62
     5
420
      255
176
     1
290
     0
176
     1
 90
       50
176
     1
 90
       50
176
     1
 90
       50
176
     1
290
     0
176
     1
 90
       50
176
     1
 62
   256
176
     0
 40
1.0
176
     0
 90
        2
176
     1
  1
strokes_ogs.tif
176
     1
290
     0
176
     1
 40
1.0
176
     1
 40
1.0
176
     1
  0
VISUALSTYLE
  5
32
102
{ACAD_REACTORS
330
2A
102
}
330
2A
100
AcDbVisualStyle
  2
Basic
 70
     7
177
     3
291
     1
 70
    58
 90
        1
176
     1
 90
        0
176
     1
 90
        1
176
     1
 90
        0
176
     1
 40
0.6
176
     1
 40
30.0
176
     1
 62
     7
420
 16777215
176
     1
 90
        0
176
     1
 90
        4
176
     1
 62
     7
176
     1
 62
   257
176
     1
 90
        1
176
     1
 90
        1
176
     1
 40
1.0
176
     1
 90
        8
176
     1
 62
     7
176
     1
 40
1.0
176
     1
 90
        1
176
     1
 90
        6
176
     1
 90
        2
176
     1
 62
     7
176
     1
 90
        5
176
     1
 90
        0
176
     1
 90
        0
176
     1
290
     0
176
     1
 90
        1
176
     1
 40
0.0
176
     1
 90
        0
176
     1
290
     0
176
     1
290
     1
176
     1
290
     1
176
     1
290
     0
176
     1
290
     0
176
     1
290
     0
176
     1
290
     0
176
     1
290
     0
176
     1
290
     0
176
     1
 90
       50
176
     1
 40
0.0
176
     1
 40
1.0
176
     1
 90
        0
176
     1
 62
    18
420
        0
176
     1
 90
       50
176
     1
 90
        3
176
     1
 62
     5
420
      255
176
     1
290
     0
176
     1
 90
       50
176
     1
 90
       50
176
     1
 90
       50
176
     1
290
     0
176
     1
 90
       50
176
     1
 62
   256
176
     0
 40
1.0
176
     0
 90
        2
176
     1
  1
strokes_ogs.tif
176
     1
290
     0
176
     1
 40
1.0
176
     1
 40
1.0
176
     1
  0
VISUALSTYLE
  5
36
102
{ACAD_REACTORS
330
2A
102
}
330
2A
100
AcDbVisualStyle
  2
Brighten
 70
    12
177
     3
291
     1
 70
    58
 90
        2
176
     1
 90
        2
176
     1
 90
        0
176
     1
 90
        0
176
     1
 40
0.6
176
     1
 40
30.0
176
     1
 62
     7
420
 16777215
176
     1
 90
        1
176
     1
 90
        4
176
     1
 62
     7
176
     1
 62
   257
176
     1
 90
        1
176
     1
 90
        1
176
     1
 40
1.0
176
     1
 90
        8
176
     1
 62
     7
176
     1
 40
1.0
176
     1
 90
        1
176
     1
 90
        6
176
     1
 90
        2
176
     1
 62
     7
176
     1
 90
        5
176
     1
 90
        0
176
     1
 90
        0
176
     1
290
     0
176
     1
 90
        1
176
     1
 40
50.0
176
     1
 90
        0
176
     1
290
     0
176
     1
290
     1
176
     1
290
     1
176
     1
290
     0
176
     1
290
     0
176
     1
290
     0
176
     1
290
     0
176
     1
290
     0
176
     1
290
     0
176
     1
 90
       50
176
     1
 40
0.0
176
     1
 40
1.0
176
     1
 90
        0
176
     1
 62
    18
420
        0
176
     1
 90
       50
176
     1
 90
        3
176
     1
 62
     5
420
      255
176
     1
290
     0
176
     1
 90
       50
176
     1
 90
       50
176
     1
 90
       50
176
     1
290
     0
176
     1
 90
       50
176
     1
 62
   256
176
     0
 40
1.0
176
     0
 90
        2
176
     1
  1
strokes_ogs.tif
176
     1
290
     0
176
     1
 40
1.0
176
     1
 40
1.0
176
     1
  0
VISUALSTYLE
  5
3A
102
{ACAD_REACTORS
330
2A
102
}
330
2A
100
AcDbVisualStyle
  2
ColorChange
 70
    16
177
     3
291
     1
 70
    58
 90
        2
176
     1
 90
        2
176
     1
 90
        3
176
     1
 90
        0
176
     1
 40
0.6
176
     1
 40
30.0
176
     1
 62
     8
420
  8421504
176
     1
 90
        1
176
     1
 90
        4
176
     1
 62
     7
176
     1
 62
   257
176
     1
 90
        1
176
     1
 90
        1
176
     1
 40
1.0
176
     1
 90
        8
176
     1
 62
     8
420
  8421504
176
     1
 40
1.0
176
     1
 90
        1
176
     1
 90
        6
176
     1
 90
        2
176
     1
 62
     7
176
     1
 90
        5
176
     1
 90
        0
176
     1
 90
        0
176
     1
290
     0
176
     1
 90
        1
176
     1
 40
0.0
176
     1
 90
        0
176
     1
290
     0
176
     1
290
     1
176
     1
290
     1
176
     1
290
     0
176
     1
290
     0
176
     1
290
     0
176
     1
290
     0
176
     1
290
     0
176
     1
290
     0
176
     1
 90
       50
176
     1
 40
0.0
176
     1
 40
1.0
176
     1
 90
        0
176
     1
 62
    18
420
        0
176
     1
 90
       50
176
     1
 90
        3
176
     1
 62
     5
420
      255
176
     1
290
     0
176
     1
 90
       50
176
     1
 90
       50
176
     1
 90
       50
176
     1
290
     0
176
     1
 90
       50
176
     1
 62
   256
176
     0
 40
1.0
176
     0
 90
        2
176
     1
  1
strokes_ogs.tif
176
     1
290
     0
176
     1
 40
1.0
176
     1
 40
1.0
176
     1
  0
VISUALSTYLE
  5
34
102
{ACAD_REACTORS
330
2A
102
}
330
2A
100
AcDbVisualStyle
  2
Conceptual
 70
     9
177
     3
291
     0
 70
    58
 90
        3
176
     1
 90
        2
176
     1
 90
        0
176
     1
 90
        0
176
     1
 40
0.6
176
     1
 40
30.0
176
     1
 62
     7
420
 16777215
176
     1
 90
        2
176
     1
 90
        2
176
     1
 62
     7
176
     1
 62
   257
176
     1
 90
        1
176
     1
 90
        1
176
     1
 40
179.0
176
     1
 90
        8
176
     1
 62
     7
176
     1
 40
1.0
176
     1
 90
        1
176
     1
 90
        6
176
     1
 90
        2
176
     1
 62
     7
176
     1
 90
        3
176
     1
 90
        0
176
     1
 90
        0
176
     1
290
     0
176
     1
 90
        1
176
     1
 40
0.0
176
     1
 90
        0
176
     1
290
     0
176
     1
290
     1
176
     1
290
     1
176
     1
290
     0
176
     1
290
     0
176
     1
290
     0
176
     1
290
     0
176
     1
290
     0
176
     1
290
     0
176
     1
 90
       50
176
     1
 40
0.0
176
     1
 40
1.0
176
     1
 90
        0
176
     1
 62
    18
420
        0
176
     1
 90
       50
176
     1
 90
        3
176
     1
 62
     5
420
      255
176
     1
290
     0
176
     1
 90
       50
176
     1
 90
       50
176
     1
 90
       50
176
     1
290
     0
176
     1
 90
       50
176
     1
 62
   256
176
     0
 40
1.0
176
     0
 90
        2
176
     1
  1
strokes_ogs.tif
176
     1
290
     0
176
     1
 40
1.0
176
     1
 40
1.0
176
     1
  0
VISUALSTYLE
  5
35
102
{ACAD_REACTORS
330
2A
102
}
330
2A
100
AcDbVisualStyle
  2
Dim
 70
    11
177
     3
291
     1
 70
    58
 90
        2
176
     1
 90
        2
176
     1
 90
        0
176
     1
 90
        0
176
     1
 40
0.6
176
     1
 40
30.0
176
     1
 62
     7
420
 16777215
176
     1
 90
        1
176
     1
 90
        4
176
     1
 62
     7
176
     1
 62
   257
176
     1
 90
        1
176
     1
 90
        1
176
     1
 40
1.0
176
     1
 90
        8
176
     1
 62
     7
176
     1
 40
1.0
176
     1
 90
        1
176
     1
 90
        6
176
     1
 90
        2
176
     1
 62
     7
176
     1
 90
        5
176
     1
 90
        0
176
     1
 90
        0
176
     1
290
     0
176
     1
 90
        1
176
     1
 40
-50.0
176
     1
 90
        0
176
     1
290
     0
176
     1
290
     1
176
     1
290
     1
176
     1
290
     0
176
     1
290
     0
176
     1
290
     0
176
     1
290
     0
176
     1
290
     0
176
     1
290
     0
176
     1
 90
       50
176
     1
 40
0.0
176
     1
 40
1.0
176
     1
 90
        0
176
     1
 62
    18
420
        0
176
     1
 90
       50
176
     1
 90
        3
176
     1
 62
     5
420
      255
176
     1
290
     0
176
     1
 90
       50
176
     1
 90
       50
176
     1
 90
       50
176
     1
290
     0
176
     1
 90
       50
176
     1
 62
   256
176
     0
 40
1.0
176
     0
 90
        2
176
     1
  1
strokes_ogs.tif
176
     1
290
     0
176
     1
 40
1.0
176
     1
 40
1.0
176
     1
  0
VISUALSTYLE
  5
3D
102
{ACAD_REACTORS
330
2A
102
}
330
2A
100
AcDbVisualStyle
  2
EdgeColorOff
 70
    22
177
     3
291
     1
 70
    58
 90
        2
176
     0
 90
        2
176
     0
 90
        0
176
     0
 90
        0
176
     0
 40
0.6
176
     0
 40
30.0
176
     0
 62
     7
420
 16777215
176
     0
 90
        1
176
     0
 90
        4
176
     0
 62
     7
176
     0
 62
   257
176
     0
 90
        1
176
     0
 90
        1
176
     0
 40
1.0
176
     0
 90
        8
176
     2
 62
     7
176
     0
 40
1.0
176
     0
 90
        1
176
     0
 90
        6
176
     0
 90
        2
176
     0
 62
     7
176
     0
 90
        5
176
     0
 90
        0
176
     0
 90
        0
176
     0
290
     0
176
     0
 90
        1
176
     0
 40
0.0
176
     0
 90
        0
176
     0
290
     0
176
     0
290
     1
176
     0
290
     1
176
     0
290
     0
176
     0
290
     0
176
     0
290
     0
176
     0
290
     0
176
     0
290
     0
176
     0
290
     0
176
     0
 90
       50
176
     0
 40
0.0
176
     0
 40
1.0
176
     0
 90
        0
176
     0
 62
    18
420
        0
176
     0
 90
       50
176
     0
 90
        3
176
     0
 62
     5
420
      255
176
     0
290
     0
176
     0
 90
       50
176
     0
 90
       50
176
     0
 90
       50
176
     0
290
     0
176
     0
 90
       50
176
     0
 62
   256
176
     0
 40
1.0
176
     0
 90
        2
176
     0
  1
strokes_ogs.tif
176
     0
290
     0
176
     0
 40
1.0
176
     0
 40
1.0
176
     0
  0
VISUALSTYLE
  5
39
102
{ACAD_REACTORS
330
2A
102
}
330
2A
100
AcDbVisualStyle
  2
Facepattern
 70
    15
177
     3
291
     1
 70
    58
 90
        2
176
     1
 90
        2
176
     1
 90
        0
176
     1
 90
        0
176
     1
 40
0.6
176
     1
 40
30.0
176
     1
 62
     7
420
 16777215
176
     1
 90
        1
176
     1
 90
        4
176
     1
 62
     7
176
     1
 62
   257
176
     1
 90
        1
176
     1
 90
        1
176
     1
 40
1.0
176
     1
 90
        8
176
     1
 62
     7
176
     1
 40
1.0
176
     1
 90
        1
176
     1
 90
        6
176
     1
 90
        2
176
     1
 62
     7
176
     1
 90
        5
176
     1
 90
        0
176
     1
 90
        0
176
     1
290
     0
176
     1
 90
        1
176
     1
 40
0.0
176
     1
 90
        0
176
     1
290
     0
176
     1
290
     1
176
     1
290
     1
176
     1
290
     0
176
     1
290
     0
176
     1
290
     0
176
     1
290
     0
176
     1
290
     0
176
     1
290
     0
176
     1
 90
       50
176
     1
 40
0.0
176
     1
 40
1.0
176
     1
 90
        0
176
     1
 62
    18
420
        0
176
     1
 90
       50
176
     1
 90
        3
176
     1
 62
     5
420
      255
176
     1
290
     0
176
     1
 90
       50
176
     1
 90
       50
176
     1
 90
       50
176
     1
290
     0
176
     1
 90
       50
176
     1
 62
   256
176
     0
 40
1.0
176
     0
 90
        2
176
     1
  1
strokes_ogs.tif
176
     1
290
     0
176
     1
 40
1.0
176
     1
 40
1.0
176
     1
  0
VISUALSTYLE
  5
2B
102
{ACAD_REACTORS
330
2A
102
}
330
2A
100
AcDbVisualStyle
  2
Flat
 70
     0
177
     3
291
     1
 70
    58
 90
        2
176
     1
 90
        1
176
     1
 90
        1
176
     1
 90
        2
176
     1
 40
0.6
176
     1
 40
30.0
176
     1
 62
     7
420
 16777215
176
     1
 90
        0
176
     1
 90
        0
176
     1
 62
     7
176
     1
 62
   257
176
     1
 90
        1
176
     1
 90
        1
176
     1
 40
1.0
176
     1
 90
        8
176
     1
 62
     7
176
     1
 40
1.0
176
     1
 90
        1
176
     1
 90
        6
176
     1
 90
        2
176
     1
 62
     7
176
     1
 90
        5
176
     1
 90
        0
176
     1
 90
        0
176
     1
290
     0
176
     1
 90
       13
176
     1
 40
0.0
176
     1
 90
        0
176
     1
290
     0
176
     1
290
     1
176
     1
290
     1
176
     1
290
     0
176
     1
290
     0
176
     1
290
     0
176
     1
290
     0
176
     1
290
     0
176
     1
290
     0
176
     1
 90
       50
176
     1
 40
0.0
176
     1
 40
1.0
176
     1
 90
        0
176
     1
 62
    18
420
        0
176
     1
 90
       50
176
     1
 90
        3
176
     1
 62
     5
420
      255
176
     1
290
     0
176
     1
 90
       50
176
     1
 90
       50
176
     1
 90
       50
176
     1
290
     0
176
     1
 90
       50
176
     1
 62
   256
176
     0
 40
1.0
176
     0
 90
        2
176
     1
  1
strokes_ogs.tif
176
     1
290
     0
176
     1
 40
1.0
176
     1
 40
1.0
176
     1
  0
VISUALSTYLE
  5
2C
102
{ACAD_REACTORS
330
2A
102
}
330
2A
100
AcDbVisualStyle
  2
FlatWithEdges
 70
     1
177
     3
291
     1
 70
    58
 90
        2
176
     1
 90
        1
176
     1
 90
        1
176
     1
 90
        2
176
     1
 40
0.6
176
     1
 40
30.0
176
     1
 62
     7
420
 16777215
176
     1
 90
        1
176
     1
 90
        0
176
     1
 62
     7
176
     1
 62
   257
176
     1
 90
        1
176
     1
 90
        1
176
     1
 40
1.0
176
     1
 90
        0
176
     1
 62
   257
176
     1
 40
1.0
176
     1
 90
        1
176
     1
 90
        6
176
     1
 90
        2
176
     1
 62
     7
176
     1
 90
        5
176
     1
 90
        0
176
     1
 90
        0
176
     1
290
     0
176
     1
 90
       13
176
     1
 40
0.0
176
     1
 90
        0
176
     1
290
     0
176
     1
290
     1
176
     1
290
     1
176
     1
290
     0
176
     1
290
     0
176
     1
290
     0
176
     1
290
     0
176
     1
290
     0
176
     1
290
     0
176
     1
 90
       50
176
     1
 40
0.0
176
     1
 40
1.0
176
     1
 90
        0
176
     1
 62
    18
420
        0
176
     1
 90
       50
176
     1
 90
        3
176
     1
 62
     5
420
      255
176
     1
290
     0
176
     1
 90
       50
176
     1
 90
       50
176
     1
 90
       50
176
     1
290
     0
176
     1
 90
       50
176
     1
 62
   256
176
     0
 40
1.0
176
     0
 90
        2
176
     1
  1
strokes_ogs.tif
176
     1
290
     0
176
     1
 40
1.0
176
     1
 40
1.0
176
     1
  0
VISUALSTYLE
  5
2D
102
{ACAD_REACTORS
330
2A
102
}
330
2A
100
AcDbVisualStyle
  2
Gouraud
 70
     2
177
     3
291
     1
 70
    58
 90
        2
176
     1
 90
        2
176
     1
 90
        1
176
     1
 90
        2
176
     1
 40
0.6
176
     1
 40
30.0
176
     1
 62
     7
420
 16777215
176
     1
 90
        0
176
     1
 90
        0
176
     1
 62
     7
176
     1
 62
   257
176
     1
 90
        1
176
     1
 90
        1
176
     1
 40
1.0
176
     1
 90
        0
176
     1
 62
     7
176
     1
 40
1.0
176
     1
 90
        1
176
     1
 90
        6
176
     1
 90
        2
176
     1
 62
     7
176
     1
 90
        5
176
     1
 90
        0
176
     1
 90
        0
176
     1
290
     0
176
     1
 90
       13
176
     1
 40
0.0
176
     1
 90
        0
176
     1
290
     0
176
     1
290
     1
176
     1
290
     1
176
     1
290
     0
176
     1
290
     0
176
     1
290
     0
176
     1
290
     0
176
     1
290
     0
176
     1
290
     0
176
     1
 90
       50
176
     1
 40
0.0
176
     1
 40
1.0
176
     1
 90
        0
176
     1
 62
    18
420
        0
176
     1
 90
       50
176
     1
 90
        3
176
     1
 62
     5
420
      255
176
     1
290
     0
176
     1
 90
       50
176
     1
 90
       50
176
     1
 90
       50
176
     1
290
     0
176
     1
 90
       50
176
     1
 62
   256
176
     0
 40
1.0
176
     0
 90
        2
176
     1
  1
strokes_ogs.tif
176
     1
290
     0
176
     1
 40
1.0
176
     1
 40
1.0
176
     1
  0
VISUALSTYLE
  5
2E
102
{ACAD_REACTORS
330
2A
102
}
330
2A
100
AcDbVisualStyle
  2
GouraudWithEdges
 70
     3
177
     3
291
     1
 70
    58
 90
        2
176
     1
 90
        2
176
     1
 90
        1
176
     1
 90
        2
176
     1
 40
0.6
176
     1
 40
30.0
176
     1
 62
     7
420
 16777215
176
     1
 90
        1
176
     1
 90
        0
176
     1
 62
     7
176
     1
 62
   257
176
     1
 90
        1
176
     1
 90
        1
176
     1
 40
1.0
176
     1
 90
        0
176
     1
 62
   257
176
     1
 40
1.0
176
     1
 90
        1
176
     1
 90
        6
176
     1
 90
        2
176
     1
 62
     7
176
     1
 90
        5
176
     1
 90
        0
176
     1
 90
        0
176
     1
290
     0
176
     1
 90
       13
176
     1
 40
0.0
176
     1
 90
        0
176
     1
290
     0
176
     1
290
     1
176
     1
290
     1
176
     1
290
     0
176
     1
290
     0
176
     1
290
     0
176
     1
290
     0
176
     1
290
     0
176
     1
290
     0
176
     1
 90
       50
176
     1
 40
0.0
176
     1
 40
1.0
176
     1
 90
        0
176
     1
 62
    18
420
        0
176
     1
 90
       50
176
     1
 90
        3
176
     1
 62
     5
420
      255
176
     1
290
     0
176
     1
 90
       50
176
     1
 90
       50
176
     1
 90
       50
176
     1
290
     0
176
     1
 90
       50
176
     1
 62
   256
176
     0
 40
1.0
176
     0
 90
        2
176
     1
  1
strokes_ogs.tif
176
     1
290
     0
176
     1
 40
1.0
176
     1
 40
1.0
176
     1
  0
VISUALSTYLE
  5
31
102
{ACAD_REACTORS
330
2A
102
}
330
2A
100
AcDbVisualStyle
  2
Hidden
 70
     6
177
     3
291
     0
 70
    58
 90
        1
176
     1
 90
        2
176
     1
 90
        2
176
     1
 90
        0
176
     1
 40
0.6
176
     1
 40
30.0
176
     1
 62
     7
420
 16777215
176
     1
 90
        2
176
     1
 90
        2
176
     1
 62
     7
176
     1
 62
   257
176
     1
 90
        2
176
     1
 90
        1
176
     1
 40
40.0
176
     1
 90
        0
176
     1
 62
   257
176
     1
 40
1.0
176
     1
 90
        1
176
     1
 90
        6
176
     1
 90
        2
176
     1
 62
     7
176
     1
 90
        3
176
     1
 90
        0
176
     1
 90
        0
176
     1
290
     0
176
     1
 90
        1
176
     1
 40
0.0
176
     1
 90
        0
176
     1
290
     0
176
     1
290
     1
176
     1
290
     1
176
     1
290
     0
176
     1
290
     0
176
     1
290
     0
176
     1
290
     0
176
     1
290
     0
176
     1
290
     0
176
     1
 90
       50
176
     1
 40
0.0
176
     1
 40
1.0
176
     1
 90
        0
176
     1
 62
    18
420
        0
176
     1
 90
       50
176
     1
 90
        3
176
     1
 62
     5
420
      255
176
     1
290
     0
176
     1
 90
       50
176
     1
 90
       50
176
     1
 90
       50
176
     1
290
     0
176
     1
 90
       50
176
     1
 62
   256
176
     0
 40
1.0
176
     0
 90
        2
176
     1
  1
strokes_ogs.tif
176
     1
290
     0
176
     1
 40
1.0
176
     1
 40
1.0
176
     1
  0
VISUALSTYLE
  5
3B
102
{ACAD_REACTORS
330
2A
102
}
330
2A
100
AcDbVisualStyle
  2
JitterOff
 70
    20
177
     3
291
     1
 70
    58
 90
        2
176
     0
 90
        2
176
     0
 90
        0
176
     0
 90
        0
176
     0
 40
0.6
176
     0
 40
30.0
176
     0
 62
     7
420
 16777215
176
     0
 90
        1
176
     0
 90
        4
176
     0
 62
     7
176
     0
 62
   257
176
     0
 90
        1
176
     0
 90
        1
176
     0
 40
1.0
176
     0
 90
       10
176
     2
 62
     7
176
     0
 40
1.0
176
     0
 90
        1
176
     0
 90
        6
176
     0
 90
        2
176
     0
 62
     7
176
     0
 90
        5
176
     0
 90
        0
176
     0
 90
        0
176
     0
290
     0
176
     0
 90
        1
176
     0
 40
0.0
176
     0
 90
        0
176
     0
290
     0
176
     0
290
     1
176
     0
290
     1
176
     0
290
     0
176
     0
290
     0
176
     0
290
     0
176
     0
290
     0
176
     0
290
     0
176
     0
290
     0
176
     0
 90
       50
176
     0
 40
0.0
176
     0
 40
1.0
176
     0
 90
        0
176
     0
 62
    18
420
        0
176
     0
 90
       50
176
     0
 90
        3
176
     0
 62
     5
420
      255
176
     0
290
     0
176
     0
 90
       50
176
     0
 90
       50
176
     0
 90
       50
176
     0
290
     0
176
     0
 90
       50
176
     0
 62
   256
176
     0
 40
1.0
176
     0
 90
        2
176
     0
  1
strokes_ogs.tif
176
     0
290
     0
176
     0
 40
1.0
176
     0
 40
1.0
176
     0
  0
VISUALSTYLE
  5
38
102
{ACAD_REACTORS
330
2A
102
}
330
2A
100
AcDbVisualStyle
  2
Linepattern
 70
    14
177
     3
291
     1
 70
    58
 90
        2
176
     1
 90
        2
176
     1
 90
        0
176
     1
 90
        0
176
     1
 40
0.6
176
     1
 40
30.0
176
     1
 62
     7
420
 16777215
176
     1
 90
        1
176
     1
 90
        4
176
     1
 62
     7
176
     1
 62
   257
176
     1
 90
        7
176
     1
 90
        7
176
     1
 40
1.0
176
     1
 90
        8
176
     1
 62
     7
176
     1
 40
1.0
176
     1
 90
        1
176
     1
 90
        6
176
     1
 90
        2
176
     1
 62
     7
176
     1
 90
        5
176
     1
 90
        0
176
     1
 90
        0
176
     1
290
     0
176
     1
 90
        1
176
     1
 40
0.0
176
     1
 90
        0
176
     1
290
     0
176
     1
290
     1
176
     1
290
     1
176
     1
290
     0
176
     1
290
     0
176
     1
290
     0
176
     1
290
     0
176
     1
290
     0
176
     1
290
     0
176
     1
 90
       50
176
     1
 40
0.0
176
     1
 40
1.0
176
     1
 90
        0
176
     1
 62
    18
420
        0
176
     1
 90
       50
176
     1
 90
        3
176
     1
 62
     5
420
      255
176
     1
290
     0
176
     1
 90
       50
176
     1
 90
       50
176
     1
 90
       50
176
     1
290
     0
176
     1
 90
       50
176
     1
 62
   256
176
     0
 40
1.0
176
     0
 90
        2
176
     1
  1
strokes_ogs.tif
176
     1
290
     0
176
     1
 40
1.0
176
     1
 40
1.0
176
     1
  0
VISUALSTYLE
  5
3C
102
{ACAD_REACTORS
330
2A
102
}
330
2A
100
AcDbVisualStyle
  2
OverhangOff
 70
    21
177
     3
291
     1
 70
    58
 90
        2
176
     0
 90
        2
176
     0
 90
        0
176
     0
 90
        0
176
     0
 40
0.6
176
     0
 40
30.0
176
     0
 62
     7
420
 16777215
176
     0
 90
        1
176
     0
 90
        4
176
     0
 62
     7
176
     0
 62
   257
176
     0
 90
        1
176
     0
 90
        1
176
     0
 40
1.0
176
     0
 90
        9
176
     2
 62
     7
176
     0
 40
1.0
176
     0
 90
        1
176
     0
 90
        6
176
     0
 90
        2
176
     0
 62
     7
176
     0
 90
        5
176
     0
 90
        0
176
     0
 90
        0
176
     0
290
     0
176
     0
 90
        1
176
     0
 40
0.0
176
     0
 90
        0
176
     0
290
     0
176
     0
290
     1
176
     0
290
     1
176
     0
290
     0
176
     0
290
     0
176
     0
290
     0
176
     0
290
     0
176
     0
290
     0
176
     0
290
     0
176
     0
 90
       50
176
     0
 40
0.0
176
     0
 40
1.0
176
     0
 90
        0
176
     0
 62
    18
420
        0
176
     0
 90
       50
176
     0
 90
        3
176
     0
 62
     5
420
      255
176
     0
290
     0
176
     0
 90
       50
176
     0
 90
       50
176
     0
 90
       50
176
     0
290
     0
176
     0
 90
       50
176
     0
 62
   256
176
     0
 40
1.0
176
     0
 90
        2
176
     0
  1
strokes_ogs.tif
176
     0
290
     0
176
     0
 40
1.0
176
     0
 40
1.0
176
     0
  0
VISUALSTYLE
  5
33
102
{ACAD_REACTORS
330
2A
102
}
330
2A
100
AcDbVisualStyle
  2
Realistic
 70
     8
177
     3
291
     0
 70
    58
 90
        2
176
     1
 90
        3
176
     1
 90
        0
176
     1
 90
        2
176
     1
 40
0.6
176
     1
 40
30.0
176
     1
 62
     7
420
 16777215
176
     1
 90
        0
176
     1
 90
        0
176
     1
 62
     7
176
     1
 62
   257
176
     1
 90
        1
176
     1
 90
        1
176
     1
 40
1.0
176
     1
 90
        8
176
     1
 62
   257
176
     1
 40
1.0
176
     1
 90
        1
176
     1
 90
        6
176
     1
 90
        2
176
     1
 62
     7
176
     1
 90
        3
176
     1
 90
        0
176
     1
 90
        0
176
     1
290
     0
176
     1
 90
       13
176
     1
 40
0.0
176
     1
 90
        0
176
     1
290
     0
176
     1
290
     1
176
     1
290
     1
176
     1
290
     0
176
     1
290
     0
176
     1
290
     0
176
     1
290
     0
176
     1
290
     0
176
     1
290
     0
176
     1
 90
       50
176
     1
 40
0.0
176
     1
 40
1.0
176
     1
 90
        0
176
     1
 62
    18
420
        0
176
     1
 90
       50
176
     1
 90
        3
176
     1
 62
     5
420
      255
176
     1
290
     0
176
     1
 90
       50
176
     1
 90
       50
176
     1
 90
       50
176
     1
290
     0
176
     1
 90
       50
176
     1
 62
   256
176
     0
 40
1.0
176
     0
 90
        2
176
     1
  1
strokes_ogs.tif
176
     1
290
     0
176
     1
 40
1.0
176
     1
 40
1.0
176
     1
  0
VISUALSTYLE
  5
42
102
{ACAD_REACTORS
330
2A
102
}
330
2A
100
AcDbVisualStyle
  2
Shaded
 70
    27
177
     3
291
     0
 70
    58
 90
        2
176
     1
 90
        2
176
     1
 90
        1
176
     1
 90
        2
176
     1
 40
0.6
176
     1
 40
30.0
176
     1
 62
     7
420
 16777215
176
     1
 90
        0
176
     1
 90
        4
176
     1
 62
     7
176
     1
 62
   257
176
     1
 90
        1
176
     1
 90
        1
176
     1
 40
1.0
176
     1
 90
        8
176
     1
 62
   257
176
     1
 40
1.0
176
     1
 90
        1
176
     1
 90
        6
176
     1
 90
        2
176
     1
 62
     8
420
  7895160
176
     1
 90
        3
176
     1
 90
        0
176
     1
 90
        0
176
     1
290
     0
176
     1
 90
        5
176
     1
 40
0.0
176
     1
 90
        0
176
     1
290
     0
176
     1
290
     1
176
     1
290
     1
176
     1
290
     0
176
     1
290
     0
176
     1
290
     0
176
     1
290
     0
176
     1
290
     0
176
     1
290
     0
176
     1
 90
       50
176
     1
 40
0.0
176
     1
 40
1.0
176
     1
 90
        0
176
     1
 62
    18
420
        0
176
     1
 90
       50
176
     1
 90
        3
176
     1
 62
     5
420
      255
176
     1
290
     0
176
     1
 90
       50
176
     1
 90
       50
176
     1
 90
       50
176
     1
290
     0
176
     1
 90
       50
176
     1
 62
   256
176
     0
 40
1.0
176
     0
 90
        2
176
     1
  1
strokes_ogs.tif
176
     1
290
     0
176
     1
 40
1.0
176
     1
 40
1.0
176
     1
  0
VISUALSTYLE
  5
41
102
{ACAD_REACTORS
330
2A
102
}
330
2A
100
AcDbVisualStyle
  2
Shaded with edges
 70
    26
177
     3
291
     0
 70
    58
 90
        2
176
     1
 90
        2
176
     1
 90
        1
176
     1
 90
        2
176
     1
 40
0.6
176
     1
 40
30.0
176
     1
 62
     7
420
 16777215
176
     1
 90
        1
176
     1
 90
       10
176
     1
 62
     7
176
     1
 62
   257
176
     1
 90
        2
176
     1
 90
        1
176
     1
 40
1.0
176
     1
 90
        8
176
     1
 62
   257
176
     1
 40
1.0
176
     1
 90
        1
176
     1
 90
        6
176
     1
 90
        2
176
     1
 62
     7
176
     1
 90
        3
176
     1
 90
        0
176
     1
 90
        0
176
     1
290
     0
176
     1
 90
        5
176
     1
 40
0.0
176
     1
 90
        0
176
     1
290
     0
176
     1
290
     1
176
     1
290
     1
176
     1
290
     0
176
     1
290
     0
176
     1
290
     0
176
     1
290
     0
176
     1
290
     0
176
     1
290
     0
176
     1
 90
       50
176
     1
 40
0.0
176
     1
 40
1.0
176
     1
 90
        0
176
     1
 62
    18
420
        0
176
     1
 90
       50
176
     1
 90
        3
176
     1
 62
     5
420
      255
176
     1
290
     0
176
     1
 90
       50
176
     1
 90
       50
176
     1
 90
       50
176
     1
290
     0
176
     1
 90
       50
176
     1
 62
   256
176
     0
 40
1.0
176
     0
 90
        2
176
     1
  1
strokes_ogs.tif
176
     1
290
     0
176
     1
 40
1.0
176
     1
 40
1.0
176
     1
  0
VISUALSTYLE
  5
3E
102
{ACAD_REACTORS
330
2A
102
}
330
2A
100
AcDbVisualStyle
  2
Shades of Gray
 70
    23
177
     3
291
     0
 70
    58
 90
        2
176
     1
 90
        2
176
     1
 90
        3
176
     1
 90
        0
176
     1
 40
0.6
176
     1
 40
30.0
176
     1
 62
     7
420
 16777215
176
     1
 90
        2
176
     1
 90
        2
176
     1
 62
     7
176
     1
 62
     7
176
     1
 90
        1
176
     1
 90
        1
176
     1
 40
40.0
176
     1
 90
        8
176
     1
 62
     7
176
     1
 40
1.0
176
     1
 90
        1
176
     1
 90
        6
176
     1
 90
        2
176
     1
 62
     7
176
     1
 90
        3
176
     1
 90
        0
176
     1
 90
        0
176
     1
290
     0
176
     1
 90
        1
176
     1
 40
0.0
176
     1
 90
        0
176
     1
290
     0
176
     1
290
     1
176
     1
290
     1
176
     1
290
     0
176
     1
290
     0
176
     1
290
     0
176
     1
290
     0
176
     1
290
     0
176
     1
290
     0
176
     1
 90
       50
176
     1
 40
0.0
176
     1
 40
1.0
176
     1
 90
        0
176
     1
 62
    18
420
        0
176
     1
 90
       50
176
     1
 90
        3
176
     1
 62
     5
420
      255
176
     1
290
     0
176
     1
 90
       50
176
     1
 90
       50
176
     1
 90
       50
176
     1
290
     0
176
     1
 90
       50
176
     1
 62
   256
176
     0
 40
1.0
176
     0
 90
        2
176
     1
  1
strokes_ogs.tif
176
     1
290
     0
176
     1
 40
1.0
176
     1
 40
1.0
176
     1
  0
VISUALSTYLE
  5
3F
102
{ACAD_REACTORS
330
2A
102
}
330
2A
100
AcDbVisualStyle
  2
Sketchy
 70
    24
177
     3
291
     0
 70
    58
 90
        1
176
     1
 90
        2
176
     1
 90
        2
176
     1
 90
        0
176
     1
 40
0.6
176
     1
 40
30.0
176
     1
 62
     7
420
 16777215
176
     1
 90
        2
176
     1
 90
        2
176
     1
 62
     7
176
     1
 62
     7
176
     1
 90
        1
176
     1
 90
        1
176
     1
 40
40.0
176
     1
 90
       11
176
     1
 62
     7
176
     1
 40
1.0
176
     1
 90
        1
176
     1
 90
        6
176
     1
 90
        2
176
     1
 62
     7
176
     1
 90
        6
176
     1
 90
        0
176
     1
 90
        0
176
     1
290
     0
176
     1
 90
        1
176
     1
 40
0.0
176
     1
 90
        0
176
     1
290
     0
176
     1
290
     1
176
     1
290
     1
176
     1
290
     0
176
     1
290
     0
176
     1
290
     0
176
     1
290
     0
176
     1
290
     0
176
     1
290
     0
176
     1
 90
       50
176
     1
 40
0.0
176
     1
 40
1.0
176
     1
 90
        0
176
     1
 62
    18
420
        0
176
     1
 90
       50
176
     1
 90
        3
176
     1
 62
     5
420
      255
176
     1
290
     0
176
     1
 90
       50
176
     1
 90
       50
176
     1
 90
       50
176
     1
290
     0
176
     1
 90
       50
176
     1
 62
   256
176
     0
 40
1.0
176
     0
 90
        2
176
     1
  1
strokes_ogs.tif
176
     1
290
     0
176
     1
 40
1.0
176
     1
 40
1.0
176
     1
  0
VISUALSTYLE
  5
37
102
{ACAD_REACTORS
330
2A
102
}
330
2A
100
AcDbVisualStyle
  2
Thicken
 70
    13
177
     3
291
     1
 70
    58
 90
        2
176
     1
 90
        2
176
     1
 90
        0
176
     1
 90
        0
176
     1
 40
0.6
176
     1
 40
30.0
176
     1
 62
     7
420
 16777215
176
     1
 90
        1
176
     1
 90
        4
176
     1
 62
     7
176
     1
 62
   257
176
     1
 90
        1
176
     1
 90
        1
176
     1
 40
1.0
176
     1
 90
       12
176
     1
 62
     7
176
     1
 40
1.0
176
     1
 90
        1
176
     1
 90
        6
176
     1
 90
        2
176
     1
 62
     7
176
     1
 90
        5
176
     1
 90
        0
176
     1
 90
        0
176
     1
290
     0
176
     1
 90
        1
176
     1
 40
0.0
176
     1
 90
        0
176
     1
290
     0
176
     1
290
     1
176
     1
290
     1
176
     1
290
     0
176
     1
290
     0
176
     1
290
     0
176
     1
290
     0
176
     1
290
     0
176
     1
290
     0
176
     1
 90
       50
176
     1
 40
0.0
176
     1
 40
1.0
176
     1
 90
        0
176
     1
 62
    18
420
        0
176
     1
 90
       50
176
     1
 90
        3
176
     1
 62
     5
420
      255
176
     1
290
     0
176
     1
 90
       50
176
     1
 90
       50
176
     1
 90
       50
176
     1
290
     0
176
     1
 90
       50
176
     1
 62
   256
176
     0
 40
1.0
176
     0
 90
        2
176
     1
  1
strokes_ogs.tif
176
     1
290
     0
176
     1
 40
1.0
176
     1
 40
1.0
176
     1
  0
VISUALSTYLE
  5
30
102
{ACAD_REACTORS
330
2A
102
}
330
2A
100
AcDbVisualStyle
  2
Wireframe
 70
     5
177
     3
291
     0
 70
    58
 90
        0
176
     1
 90
        2
176
     1
 90
        0
176
     1
 90
        0
176
     1
 40
0.6
176
     1
 40
30.0
176
     1
 62
     7
420
 16777215
176
     1
 90
        1
176
     1
 90
        4
176
     1
 62
     7
176
     1
 62
   257
176
     1
 90
        1
176
     1
 90
        1
176
     1
 40
1.0
176
     1
 90
        0
176
     1
 62
   257
176
     1
 40
1.0
176
     1
 90
        1
176
     1
 90
        6
176
     1
 90
        2
176
     1
 62
     7
176
     1
 90
        3
176
     1
 90
        0
176
     1
 90
        0
176
     1
290
     0
176
     1
 90
        1
176
     1
 40
0.0
176
     1
 90
        0
176
     1
290
     0
176
     1
290
     1
176
     1
290
     1
176
     1
290
     0
176
     1
290
     0
176
     1
290
     0
176
     1
290
     0
176
     1
290
     0
176
     1
290
     0
176
     1
 90
       50
176
     1
 40
0.0
176
     1
 40
1.0
176
     1
 90
        0
176
     1
 62
    18
420
        0
176
     1
 90
       50
176
     1
 90
        3
176
     1
 62
     5
420
      255
176
     1
290
     0
176
     1
 90
       50
176
     1
 90
       50
176
     1
 90
       50
176
     1
290
     0
176
     1
 90
       50
176
     1
 62
   256
176
     0
 40
1.0
176
     0
 90
        2
176
     1
  1
strokes_ogs.tif
176
     1
290
     0
176
     1
 40
1.0
176
     1
 40
1.0
176
     1
  0
VISUALSTYLE
  5
40
102
{ACAD_REACTORS
330
2A
102
}
330
2A
100
AcDbVisualStyle
  2
X-Ray
 70
    25
177
     3
291
     0
 70
    58
 90
        2
176
     1
 90
        2
176
     1
 90
        1
176
     1
 90
        1
176
     1
 40
0.5
176
     1
 40
30.0
176
     1
 62
     7
420
 16777215
176
     1
 90
        1
176
     1
 90
        0
176
     1
 62
     7
176
     1
 62
   257
176
     1
 90
        1
176
     1
 90
        1
176
     1
 40
1.0
176
     1
 90
        8
176
     1
 62
     7
176
     1
 40
1.0
176
     1
 90
        1
176
     1
 90
        6
176
     1
 90
        2
176
     1
 62
     7
176
     1
 90
        3
176
     1
 90
        0
176
     1
 90
        0
176
     1
290
     0
176
     1
 90
       13
176
     1
 40
0.0
176
     1
 90
        0
176
     1
290
     0
176
     1
290
     1
176
     1
290
     1
176
     1
290
     0
176
     1
290
     0
176
     1
290
     0
176
     1
290
     0
176
     1
290
     0
176
     1
290
     0
176
     1
 90
       50
176
     1
 40
0.0
176
     1
 40
1.0
176
     1
 90
        0
176
     1
 62
    18
420
        0
176
     1
 90
       50
176
     1
 90
        3
176
     1
 62
     5
420
      255
176
     1
290
     0
176
     1
 90
       50
176
     1
 90
       50
176
     1
 90
       50
176
     1
290
     0
176
     1
 90
       50
176
     1
 62
   256
176
     0
 40
1.0
176
     0
 90
        2
176
     1
  1
strokes_ogs.tif
176
     1
290
     0
176
     1
 40
1.0
176
     1
 40
1.0
176
     1
  0
DICTIONARYVAR
  5
18C
102
{ACAD_REACTORS
330
18B
102
}
330
18B
100
DictionaryVariables
280
     0
  1
1:1
  0
DICTIONARYVAR
  5
194
102
{ACAD_REACTORS
330
18B
102
}
330
18B
100
DictionaryVariables
280
     0
  1
3.500000
  0
DICTIONARYVAR
  5
195
102
{ACAD_REACTORS
330
18B
102
}
330
18B
100
DictionaryVariables
280
     0
  1
acadiso.lin
  0
DICTIONARYVAR
  5
191
102
{ACAD_REACTORS
330
18B
102
}
330
18B
100
DictionaryVariables
280
     0
  1
Standard
  0
DICTIONARYVAR
  5
190
102
{ACAD_REACTORS
330
18B
102
}
330
18B
100
DictionaryVariables
280
     0
  1
Standard
  0
DICTIONARY
  5
18D
330
5A
100
AcDbDictionary
280
     1
281
     1
  3
ACAD_ROUNDTRIP_2008_TABLESTYLE_CELLSTYLEMAP
360
18E
  0
CELLSTYLEMAP
  5
18E
102
{ACAD_REACTORS
330
18D
102
}
330
18D
100
AcDbCellStyleMap
 90
        3
300
CELLSTYLE
  1
TABLEFORMAT_BEGIN
 90
        5
170
     1
 91
        0
 92
    32768
 62
   257
 93
        1
300
CONTENTFORMAT
  1
CONTENTFORMAT_BEGIN
 90
        0
 91
        0
 92
        4
 93
        0
300

 40
0.0
140
1.0
 94
        5
 62
     0
340
11
144
6.0
309
CONTENTFORMAT_END
171
     1
301
MARGIN
  1
CELLMARGIN_BEGIN
 40
1.5
 40
1.5
 40
1.5
 40
1.5
 40
1.5
 40
1.5
309
CELLMARGIN_END
 94
        6
 95
        1
302
GRIDFORMAT
  1
GRIDFORMAT_BEGIN
 90
        0
 91
        1
 62
     0
 92
       -2
340
14
 93
        0
 40
0.045
309
GRIDFORMAT_END
 95
        2
302
GRIDFORMAT
  1
GRIDFORMAT_BEGIN
 90
        0
 91
        1
 62
     0
 92
       -2
340
14
 93
        0
 40
0.045
309
GRIDFORMAT_END
 95
        4
302
GRIDFORMAT
  1
GRIDFORMAT_BEGIN
 90
        0
 91
        1
 62
     0
 92
       -2
340
14
 93
        0
 40
0.045
309
GRIDFORMAT_END
 95
        8
302
GRIDFORMAT
  1
GRIDFORMAT_BEGIN
 90
        0
 91
        1
 62
     0
 92
       -2
340
14
 93
        0
 40
0.045
309
GRIDFORMAT_END
 95
       16
302
GRIDFORMAT
  1
GRIDFORMAT_BEGIN
 90
        0
 91
        1
 62
     0
 92
       -2
340
14
 93
        0
 40
0.045
309
GRIDFORMAT_END
 95
       32
302
GRIDFORMAT
  1
GRIDFORMAT_BEGIN
 90
        0
 91
        1
 62
     0
 92
       -2
340
14
 93
        0
 40
0.045
309
GRIDFORMAT_END
309
TABLEFORMAT_END
  1
CELLSTYLE_BEGIN
 90
        1
 91
        1
300
_TITLE
309
CELLSTYLE_END
300
CELLSTYLE
  1
TABLEFORMAT_BEGIN
 90
        5
170
     1
 91
        0
 92
        0
 62
   257
 93
        1
300
CONTENTFORMAT
  1
CONTENTFORMAT_BEGIN
 90
        0
 91
        0
 92
        4
 93
        0
300

 40
0.0
140
1.0
 94
        5
 62
     0
340
11
144
4.5
309
CONTENTFORMAT_END
171
     1
301
MARGIN
  1
CELLMARGIN_BEGIN
 40
1.5
 40
1.5
 40
1.5
 40
1.5
 40
1.5
 40
1.5
309
CELLMARGIN_END
 94
        6
 95
        1
302
GRIDFORMAT
  1
GRIDFORMAT_BEGIN
 90
        0
 91
        1
 62
     0
 92
       -2
340
14
 93
        0
 40
0.045
309
GRIDFORMAT_END
 95
        2
302
GRIDFORMAT
  1
GRIDFORMAT_BEGIN
 90
        0
 91
        1
 62
     0
 92
       -2
340
14
 93
        0
 40
0.045
309
GRIDFORMAT_END
 95
        4
302
GRIDFORMAT
  1
GRIDFORMAT_BEGIN
 90
        0
 91
        1
 62
     0
 92
       -2
340
14
 93
        0
 40
0.045
309
GRIDFORMAT_END
 95
        8
302
GRIDFORMAT
  1
GRIDFORMAT_BEGIN
 90
        0
 91
        1
 62
     0
 92
       -2
340
14
 93
        0
 40
0.045
309
GRIDFORMAT_END
 95
       16
302
GRIDFORMAT
  1
GRIDFORMAT_BEGIN
 90
        0
 91
        1
 62
     0
 92
       -2
340
14
 93
        0
 40
0.045
309
GRIDFORMAT_END
 95
       32
302
GRIDFORMAT
  1
GRIDFORMAT_BEGIN
 90
        0
 91
        1
 62
     0
 92
       -2
340
14
 93
        0
 40
0.045
309
GRIDFORMAT_END
309
TABLEFORMAT_END
  1
CELLSTYLE_BEGIN
 90
        2
 91
        1
300
_HEADER
309
CELLSTYLE_END
300
CELLSTYLE
  1
TABLEFORMAT_BEGIN
 90
        5
170
     1
 91
        0
 92
        0
 62
   257
 93
        1
300
CONTENTFORMAT
  1
CONTENTFORMAT_BEGIN
 90
        0
 91
        0
 92
        4
 93
        0
300

 40
0.0
140
1.0
 94
        2
 62
     0
340
11
144
4.5
309
CONTENTFORMAT_END
171
     1
301
MARGIN
  1
CELLMARGIN_BEGIN
 40
1.5
 40
1.5
 40
1.5
 40
1.5
 40
1.5
 40
1.5
309
CELLMARGIN_END
 94
        6
 95
        1
302
GRIDFORMAT
  1
GRIDFORMAT_BEGIN
 90
        0
 91
        1
 62
     0
 92
       -2
340
14
 93
        0
 40
0.045
309
GRIDFORMAT_END
 95
        2
302
GRIDFORMAT
  1
GRIDFORMAT_BEGIN
 90
        0
 91
        1
 62
     0
 92
       -2
340
14
 93
        0
 40
0.045
309
GRIDFORMAT_END
 95
        4
302
GRIDFORMAT
  1
GRIDFORMAT_BEGIN
 90
        0
 91
        1
 62
     0
 92
       -2
340
14
 93
        0
 40
0.045
309
GRIDFORMAT_END
 95
        8
302
GRIDFORMAT
  1
GRIDFORMAT_BEGIN
 90
        0
 91
        1
 62
     0
 92
       -2
340
14
 93
        0
 40
0.045
309
GRIDFORMAT_END
 95
       16
302
GRIDFORMAT
  1
GRIDFORMAT_BEGIN
 90
        0
 91
        1
 62
     0
 92
       -2
340
14
 93
        0
 40
0.045
309
GRIDFORMAT_END
 95
       32
302
GRIDFORMAT
  1
GRIDFORMAT_BEGIN
 90
        0
 91
        1
 62
     0
 92
       -2
340
14
 93
        0
 40
0.045
309
GRIDFORMAT_END
309
TABLEFORMAT_END
  1
CELLSTYLE_BEGIN
 90
        3
 91
        2
300
_DATA
309
CELLSTYLE_END
  0
ENDSEC
  0
EOF
