  0
SECTION
  2
HEADER
  9
$ACADVER
  1
AC1027
  9
$ACADMAINTVER
 70
   105
  9
$DWGCODEPAGE
  3
ANSI_1252
  9
$COMMENTS
  1
File was created by Cadenas
  9
$LASTSAVEDBY
  1
psAdmin
  9
$CUSTOMPROPERTYTAG
  1
NB
  9
$CUSTOMPROPERTY
  1
31442
  9
$CUSTOMPROPERTYTAG
  1
NN
  9
$CUSTOMPROPERTY
  1
E33, gauge screw
  9
$CUSTOMPROPERTYTAG
  1
NT
  9
$CUSTOMPROPERTY
  1

  9
$CUSTOMPROPERTYTAG
  1
NBSYN
  9
$CUSTOMPROPERTY
  1
$ARTNR.
  9
$CUSTOMPROPERTYTAG
  1
LINA
  9
$CUSTOMPROPERTY
  1
31442000
  9
$CUSTOMPROPERTYTAG
  1
CATALOG
  9
$CUSTOMPROPERTY
  1
Wöhner
  9
$CUSTOMPROPERTYTAG
  1
ARTNR
  9
$CUSTOMPROPERTY
  1
31442
  9
$CUSTOMPROPERTYTAG
  1
BUSB
  9
$CUSTOMPROPERTY
  1
12, 15, 20, 25, 30 x 5, 10 and section busbars
  9
$CUSTOMPROPERTYTAG
  1
POF
  9
$CUSTOMPROPERTY
  1
CUSTO®60Classic
  9
$CUSTOMPROPERTYTAG
  1
QNT
  9
$CUSTOMPROPERTY
  1
10
  9
$CUSTOMPROPERTYTAG
  1
W
  9
$CUSTOMPROPERTY
  1
57
  9
$CUSTOMPROPERTYTAG
  1
H
  9
$CUSTOMPROPERTY
  1
200
  9
$CUSTOMPROPERTYTAG
  1
D
  9
$CUSTOMPROPERTY
  1
43
  9
$CUSTOMPROPERTYTAG
  1
LINK
  9
$CUSTOMPROPERTY
  1
Product link
  9
$CUSTOMPROPERTYTAG
  1
COMPANY
  9
$CUSTOMPROPERTY
  1
woehner
  9
$REQUIREDVERSIONS
160
                 0
  9
$INSBASE
 10
0.0
 20
0.0
 30
0.0
  9
$EXTMIN
 10
0.0
 20
-126.6840337117513
 30
0.0
  9
$EXTMAX
 10
84.5
 20
77.64930000000001
 30
0.0
  9
$LIMMIN
 10
0.0
 20
0.0
  9
$LIMMAX
 10
420.0
 20
297.0
  9
$ORTHOMODE
 70
     0
  9
$REGENMODE
 70
     1
  9
$FILLMODE
 70
     1
  9
$QTEXTMODE
 70
     0
  9
$MIRRTEXT
 70
     1
  9
$LTSCALE
 40
1.0
  9
$ATTMODE
 70
     1
  9
$TEXTSIZE
 40
2.5
  9
$TRACEWID
 40
1.0
  9
$TEXTSTYLE
  7
Standard
  9
$CLAYER
  8
0
  9
$CELTYPE
  6
ByLayer
  9
$CECOLOR
 62
   256
  9
$CELTSCALE
 40
1.0
  9
$DISPSILH
 70
     0
  9
$DIMSCALE
 40
1.0
  9
$DIMASZ
 40
2.5
  9
$DIMEXO
 40
0.625
  9
$DIMDLI
 40
3.75
  9
$DIMRND
 40
0.0
  9
$DIMDLE
 40
0.0
  9
$DIMEXE
 40
1.25
  9
$DIMTP
 40
0.0
  9
$DIMTM
 40
0.0
  9
$DIMTXT
 40
2.5
  9
$DIMCEN
 40
2.5
  9
$DIMTSZ
 40
0.0
  9
$DIMTOL
 70
     0
  9
$DIMLIM
 70
     0
  9
$DIMTIH
 70
     0
  9
$DIMTOH
 70
     0
  9
$DIMSE1
 70
     0
  9
$DIMSE2
 70
     0
  9
$DIMTAD
 70
     1
  9
$DIMZIN
 70
     8
  9
$DIMBLK
  1

  9
$DIMASO
 70
     1
  9
$DIMSHO
 70
     1
  9
$DIMPOST
  1

  9
$DIMAPOST
  1

  9
$DIMALT
 70
     0
  9
$DIMALTD
 70
     3
  9
$DIMALTF
 40
0.03937007874016
  9
$DIMLFAC
 40
1.0
  9
$DIMTOFL
 70
     1
  9
$DIMTVP
 40
0.0
  9
$DIMTIX
 70
     0
  9
$DIMSOXD
 70
     0
  9
$DIMSAH
 70
     0
  9
$DIMBLK1
  1

  9
$DIMBLK2
  1

  9
$DIMSTYLE
  2
ISO-25
  9
$DIMCLRD
 70
     0
  9
$DIMCLRE
 70
     0
  9
$DIMCLRT
 70
     0
  9
$DIMTFAC
 40
1.0
  9
$DIMGAP
 40
0.625
  9
$DIMJUST
 70
     0
  9
$DIMSD1
 70
     0
  9
$DIMSD2
 70
     0
  9
$DIMTOLJ
 70
     0
  9
$DIMTZIN
 70
     8
  9
$DIMALTZ
 70
     0
  9
$DIMALTTZ
 70
     0
  9
$DIMUPT
 70
     0
  9
$DIMDEC
 70
     2
  9
$DIMTDEC
 70
     2
  9
$DIMALTU
 70
     2
  9
$DIMALTTD
 70
     3
  9
$DIMTXSTY
  7
Standard
  9
$DIMAUNIT
 70
     0
  9
$DIMADEC
 70
     0
  9
$DIMALTRND
 40
0.0
  9
$DIMAZIN
 70
     0
  9
$DIMDSEP
 70
    44
  9
$DIMATFIT
 70
     3
  9
$DIMFRAC
 70
     0
  9
$DIMLDRBLK
  1

  9
$DIMLUNIT
 70
     2
  9
$DIMLWD
 70
    -2
  9
$DIMLWE
 70
    -2
  9
$DIMTMOVE
 70
     0
  9
$DIMFXL
 40
1.0
  9
$DIMFXLON
 70
     0
  9
$DIMJOGANG
 40
0.7853981633974483
  9
$DIMTFILL
 70
     0
  9
$DIMTFILLCLR
 70
     0
  9
$DIMARCSYM
 70
     0
  9
$DIMLTYPE
  6

  9
$DIMLTEX1
  6

  9
$DIMLTEX2
  6

  9
$DIMTXTDIRECTION
 70
     0
  9
$LUNITS
 70
     2
  9
$LUPREC
 70
     4
  9
$SKETCHINC
 40
1.0
  9
$FILLETRAD
 40
0.0
  9
$AUNITS
 70
     0
  9
$AUPREC
 70
     0
  9
$MENU
  1
.
  9
$ELEVATION
 40
0.0
  9
$PELEVATION
 40
0.0
  9
$THICKNESS
 40
0.0
  9
$LIMCHECK
 70
     0
  9
$CHAMFERA
 40
0.0
  9
$CHAMFERB
 40
0.0
  9
$CHAMFERC
 40
0.0
  9
$CHAMFERD
 40
0.0
  9
$SKPOLY
 70
     0
  9
$TDCREATE
 40
2460341.622898496
  9
$TDUCREATE
 40
2460341.581231829
  9
$TDUPDATE
 40
2460341.622898855
  9
$TDUUPDATE
 40
2460341.581232188
  9
$TDINDWG
 40
0.0000000116
  9
$TDUSRTIMER
 40
0.0000000116
  9
$USRTIMER
 70
     1
  9
$ANGBASE
 50
0.0
  9
$ANGDIR
 70
     0
  9
$PDMODE
 70
     0
  9
$PDSIZE
 40
0.0
  9
$PLINEWID
 40
0.0
  9
$SPLFRAME
 70
     0
  9
$SPLINETYPE
 70
     6
  9
$SPLINESEGS
 70
     8
  9
$HANDSEED
  5
288
  9
$SURFTAB1
 70
     6
  9
$SURFTAB2
 70
     6
  9
$SURFTYPE
 70
     6
  9
$SURFU
 70
     6
  9
$SURFV
 70
     6
  9
$UCSBASE
  2

  9
$UCSNAME
  2

  9
$UCSORG
 10
0.0
 20
0.0
 30
0.0
  9
$UCSXDIR
 10
1.0
 20
0.0
 30
0.0
  9
$UCSYDIR
 10
0.0
 20
1.0
 30
0.0
  9
$UCSORTHOREF
  2

  9
$UCSORTHOVIEW
 70
     0
  9
$UCSORGTOP
 10
0.0
 20
0.0
 30
0.0
  9
$UCSORGBOTTOM
 10
0.0
 20
0.0
 30
0.0
  9
$UCSORGLEFT
 10
0.0
 20
0.0
 30
0.0
  9
$UCSORGRIGHT
 10
0.0
 20
0.0
 30
0.0
  9
$UCSORGFRONT
 10
0.0
 20
0.0
 30
0.0
  9
$UCSORGBACK
 10
0.0
 20
0.0
 30
0.0
  9
$PUCSBASE
  2

  9
$PUCSNAME
  2

  9
$PUCSORG
 10
0.0
 20
0.0
 30
0.0
  9
$PUCSXDIR
 10
1.0
 20
0.0
 30
0.0
  9
$PUCSYDIR
 10
0.0
 20
1.0
 30
0.0
  9
$PUCSORTHOREF
  2

  9
$PUCSORTHOVIEW
 70
     0
  9
$PUCSORGTOP
 10
0.0
 20
0.0
 30
0.0
  9
$PUCSORGBOTTOM
 10
0.0
 20
0.0
 30
0.0
  9
$PUCSORGLEFT
 10
0.0
 20
0.0
 30
0.0
  9
$PUCSORGRIGHT
 10
0.0
 20
0.0
 30
0.0
  9
$PUCSORGFRONT
 10
0.0
 20
0.0
 30
0.0
  9
$PUCSORGBACK
 10
0.0
 20
0.0
 30
0.0
  9
$USERI1
 70
     0
  9
$USERI2
 70
     0
  9
$USERI3
 70
     0
  9
$USERI4
 70
     0
  9
$USERI5
 70
     0
  9
$USERR1
 40
0.0
  9
$USERR2
 40
0.0
  9
$USERR3
 40
0.0
  9
$USERR4
 40
0.0
  9
$USERR5
 40
0.0
  9
$WORLDVIEW
 70
     1
  9
$SHADEDGE
 70
     3
  9
$SHADEDIF
 70
    70
  9
$TILEMODE
 70
     1
  9
$MAXACTVP
 70
    64
  9
$PINSBASE
 10
0.0
 20
0.0
 30
0.0
  9
$PLIMCHECK
 70
     0
  9
$PEXTMIN
 10
1.000000000000000E+20
 20
1.000000000000000E+20
 30
1.000000000000000E+20
  9
$PEXTMAX
 10
-1.000000000000000E+20
 20
-1.000000000000000E+20
 30
-1.000000000000000E+20
  9
$PLIMMIN
 10
0.0
 20
0.0
  9
$PLIMMAX
 10
420.0
 20
297.0
  9
$UNITMODE
 70
     0
  9
$VISRETAIN
 70
     1
  9
$PLINEGEN
 70
     0
  9
$PSLTSCALE
 70
     1
  9
$TREEDEPTH
 70
  3020
  9
$CMLSTYLE
  2
Standard
  9
$CMLJUST
 70
     0
  9
$CMLSCALE
 40
20.0
  9
$PROXYGRAPHICS
 70
     1
  9
$MEASUREMENT
 70
     1
  9
$CELWEIGHT
370
    -1
  9
$ENDCAPS
280
     0
  9
$JOINSTYLE
280
     0
  9
$LWDISPLAY
290
     0
  9
$INSUNITS
 70
     4
  9
$HYPERLINKBASE
  1

  9
$STYLESHEET
  1

  9
$XEDIT
290
     1
  9
$CEPSNTYPE
380
     0
  9
$PSTYLEMODE
290
     1
  9
$FINGERPRINTGUID
  2
{c40048d9-6fb2-4250-84fd-88ae01293023}
  9
$VERSIONGUID
  2
{FAEB1C32-E019-11D5-929B-00C0DF256EC4}
  9
$EXTNAMES
290
     1
  9
$PSVPSCALE
 40
0.0
  9
$OLESTARTUP
290
     0
  9
$SORTENTS
280
   127
  9
$INDEXCTL
280
     0
  9
$HIDETEXT
280
     1
  9
$XCLIPFRAME
280
     2
  9
$HALOGAP
280
     0
  9
$OBSCOLOR
 70
   257
  9
$OBSLTYPE
280
     0
  9
$INTERSECTIONDISPLAY
280
     0
  9
$INTERSECTIONCOLOR
 70
   257
  9
$DIMASSOC
280
     2
  9
$PROJECTNAME
  1

  9
$CAMERADISPLAY
290
     0
  9
$LENSLENGTH
 40
50.0
  9
$CAMERAHEIGHT
 40
0.0
  9
$STEPSPERSEC
 40
2.0
  9
$STEPSIZE
 40
6.0
  9
$3DDWFPREC
 40
2.0
  9
$PSOLWIDTH
 40
5.0
  9
$PSOLHEIGHT
 40
80.0
  9
$LOFTANG1
 40
1.570796326794897
  9
$LOFTANG2
 40
1.570796326794897
  9
$LOFTMAG1
 40
0.0
  9
$LOFTMAG2
 40
0.0
  9
$LOFTPARAM
 70
     7
  9
$LOFTNORMALS
280
     1
  9
$LATITUDE
 40
37.795
  9
$LONGITUDE
 40
-122.394
  9
$NORTHDIRECTION
 40
0.0
  9
$TIMEZONE
 70
 -8000
  9
$LIGHTGLYPHDISPLAY
280
     1
  9
$TILEMODELIGHTSYNCH
280
     1
  9
$CMATERIAL
347
44
  9
$SOLIDHIST
280
     0
  9
$SHOWHIST
280
     1
  9
$DWFFRAME
280
     2
  9
$DGNFRAME
280
     2
  9
$REALWORLDSCALE
290
     1
  9
$INTERFERECOLOR
 62
   256
  9
$CSHADOW
280
     0
  9
$SHADOWPLANELOCATION
 40
0.0
  0
ENDSEC
  0
SECTION
  2
CLASSES
  0
CLASS
  1
ACDBDICTIONARYWDFLT
  2
AcDbDictionaryWithDefault
  3
ObjectDBX Classes
 90
        0
 91
        3
280
     0
281
     0
  0
CLASS
  1
VISUALSTYLE
  2
AcDbVisualStyle
  3
ObjectDBX Classes
 90
     4095
 91
        3
280
     0
281
     0
  0
CLASS
  1
MATERIAL
  2
AcDbMaterial
  3
ObjectDBX Classes
 90
     1153
 91
        3
280
     0
281
     0
  0
CLASS
  1
SCALE
  2
AcDbScale
  3
ObjectDBX Classes
 90
     1153
 91
        3
280
     0
281
     0
  0
CLASS
  1
TABLESTYLE
  2
AcDbTableStyle
  3
ObjectDBX Classes
 90
     4095
 91
        3
280
     0
281
     0
  0
CLASS
  1
MLEADERSTYLE
  2
AcDbMLeaderStyle
  3
ACDB_MLEADERSTYLE_CLASS
 90
     4095
 91
        3
280
     0
281
     0
  0
CLASS
  1
SUN
  2
AcDbSun
  3
SCENEOE
 90
     1153
 91
        3
280
     0
281
     0
  0
CLASS
  1
DICTIONARYVAR
  2
AcDbDictionaryVar
  3
ObjectDBX Classes
 90
        0
 91
        3
280
     0
281
     0
  0
CLASS
  1
CELLSTYLEMAP
  2
AcDbCellStyleMap
  3
ObjectDBX Classes
 90
     1152
 91
        3
280
     0
281
     0
  0
ENDSEC
  0
SECTION
  2
TABLES
  0
TABLE
  2
VPORT
  5
8
330
0
100
AcDbSymbolTable
 70
     1
  0
VPORT
  5
29
330
8
100
AcDbSymbolTableRecord
100
AcDbViewportTableRecord
  2
*Active
 70
     0
 10
0.0
 20
0.0
 11
1.0
 21
1.0
 12
42.25
 22
-24.51736685587565
 13
0.0
 23
0.0
 14
10.0
 24
10.0
 15
10.0
 25
10.0
 16
0.0
 26
0.0
 36
1.0
 17
0.0
 27
0.0
 37
0.0
 40
208.4200003859864
 41
0.4135399666077114
 42
50.0
 43
0.0
 44
0.0
 50
0.0
 51
0.0
 71
     0
 72
   100
 73
     1
 74
     3
 75
     0
 76
     0
 77
     0
 78
     0
281
     0
 65
     1
110
0.0
120
0.0
130
0.0
111
1.0
121
0.0
131
0.0
112
0.0
122
1.0
132
0.0
 79
     0
146
0.0
348
2F
 60
     3
 61
     5
292
     1
282
     1
141
0.0
142
0.0
 63
   250
361
5D
  0
ENDTAB
  0
TABLE
  2
LTYPE
  5
5
330
0
100
AcDbSymbolTable
 70
     3
  0
LTYPE
  5
14
330
5
100
AcDbSymbolTableRecord
100
AcDbLinetypeTableRecord
  2
ByBlock
 70
     0
  3

 72
    65
 73
     0
 40
0.0
  0
LTYPE
  5
15
330
5
100
AcDbSymbolTableRecord
100
AcDbLinetypeTableRecord
  2
ByLayer
 70
     0
  3

 72
    65
 73
     0
 40
0.0
  0
LTYPE
  5
16
330
5
100
AcDbSymbolTableRecord
100
AcDbLinetypeTableRecord
  2
Continuous
 70
     0
  3
Solid line
 72
    65
 73
     0
 40
0.0
  0
LTYPE
  5
84
330
5
100
AcDbSymbolTableRecord
100
AcDbLinetypeTableRecord
  2
Center
 70
     0
  3

 72
    65
 73
     4
 40
1.5
 49
0.45
 74
     0
 49
-0.5
 74
     0
 49
0.05
 74
     0
 49
-0.5
 74
     0
  0
LTYPE
  5
C7
330
5
100
AcDbSymbolTableRecord
100
AcDbLinetypeTableRecord
  2
Dashed
 70
     0
  3

 72
    65
 73
     2
 40
2.0
 49
1.0
 74
     0
 49
-1.0
 74
     0
  0
ENDTAB
  0
TABLE
  2
LAYER
  5
2
330
0
100
AcDbSymbolTable
 70
     9
  0
LAYER
  5
10
330
2
100
AcDbSymbolTableRecord
100
AcDbLayerTableRecord
  2
0
 70
     0
 62
     7
  6
Continuous
370
    -3
390
F
347
46
348
0
  0
LAYER
  5
5E
330
2
100
AcDbSymbolTableRecord
100
AcDbLayerTableRecord
  2
attrib
 70
     0
 62
    -2
  6
Continuous
370
    35
390
F
347
46
348
0
  0
LAYER
  5
85
330
2
100
AcDbSymbolTableRecord
100
AcDbLayerTableRecord
  2
center
 70
     0
 62
    -7
  6
Center
370
    25
390
F
347
46
348
0
  0
LAYER
  5
88
330
2
100
AcDbSymbolTableRecord
100
AcDbLayerTableRecord
  2
bold
 70
     0
 62
     7
  6
Continuous
370
    50
390
F
347
46
348
0
  0
LAYER
  5
C8
330
2
100
AcDbSymbolTableRecord
100
AcDbLayerTableRecord
  2
hidden
 70
     0
 62
    -6
  6
Dashed
370
    25
390
F
347
46
348
0
  0
LAYER
  5
D4
330
2
100
AcDbSymbolTableRecord
100
AcDbLayerTableRecord
  2
light
 70
     0
 62
    -3
  6
Continuous
370
    25
390
F
347
46
348
0
  0
LAYER
  5
23F
330
2
100
AcDbSymbolTableRecord
100
AcDbLayerTableRecord
  2
dimension
 70
     0
 62
    -5
  6
Continuous
370
    25
390
F
347
46
348
0
  0
LAYER
  5
241
330
2
100
AcDbSymbolTableRecord
100
AcDbLayerTableRecord
  2
Defpoints
 70
     0
 62
     7
  6
Continuous
290
     0
370
    -3
390
F
347
46
348
0
  0
LAYER
  5
25C
330
2
100
AcDbSymbolTableRecord
100
AcDbLayerTableRecord
  2
connection
 70
     0
 62
    -7
  6
Continuous
370
    50
390
F
347
46
348
0
  0
ENDTAB
  0
TABLE
  2
STYLE
  5
3
330
0
100
AcDbSymbolTable
 70
     1
  0
STYLE
  5
11
330
3
100
AcDbSymbolTableRecord
100
AcDbTextStyleTableRecord
  2
Standard
 70
     0
 40
0.0
 41
1.0
 50
0.0
 71
     0
 42
2.5
  3
txt
  4

  0
ENDTAB
  0
TABLE
  2
VIEW
  5
6
330
0
100
AcDbSymbolTable
 70
     0
  0
ENDTAB
  0
TABLE
  2
UCS
  5
7
330
0
100
AcDbSymbolTable
 70
     0
  0
ENDTAB
  0
TABLE
  2
APPID
  5
9
330
0
100
AcDbSymbolTable
 70
     1
  0
APPID
  5
12
330
9
100
AcDbSymbolTableRecord
100
AcDbRegAppTableRecord
  2
ACAD
 70
     0
  0
ENDTAB
  0
TABLE
  2
DIMSTYLE
  5
A
330
0
100
AcDbSymbolTable
 70
     1
100
AcDbDimStyleTable
  0
DIMSTYLE
105
27
102
{ACAD_REACTORS
330
240
330
24E
102
}
330
A
100
AcDbSymbolTableRecord
100
AcDbDimStyleTableRecord
  2
ISO-25
 70
     0
 41
2.5
 42
0.625
 43
3.75
 44
1.25
 73
     0
 74
     0
 77
     1
 78
     8
140
2.5
141
2.5
143
0.03937007874016
147
0.625
171
     3
172
     1
178
     0
271
     2
272
     2
274
     3
278
    44
283
     0
284
     8
340
11
  0
ENDTAB
  0
TABLE
  2
BLOCK_RECORD
  5
1
330
0
100
AcDbSymbolTable
 70
    13
  0
BLOCK_RECORD
  5
1F
330
1
100
AcDbSymbolTableRecord
100
AcDbBlockTableRecord
  2
*Model_Space
340
22
 70
     0
280
     1
281
     0
  0
BLOCK_RECORD
  5
1B
330
1
100
AcDbSymbolTableRecord
100
AcDbBlockTableRecord
  2
*Paper_Space
340
1E
 70
     0
280
     1
281
     0
  0
BLOCK_RECORD
  5
23
330
1
100
AcDbSymbolTableRecord
100
AcDbBlockTableRecord
  2
*Paper_Space0
340
26
 70
     0
280
     1
281
     0
  0
BLOCK_RECORD
  5
73
330
1
100
AcDbSymbolTableRecord
100
AcDbBlockTableRecord
  2
1_75076000_1_0_in_31442_0
340
0
102
{BLKREFS
331
74
102
}
 70
     0
280
     1
281
     0
  0
BLOCK_RECORD
  5
8C
330
1
100
AcDbSymbolTableRecord
100
AcDbBlockTableRecord
  2
2_75076000_2_0_in_31442_0
340
0
102
{BLKREFS
331
8D
102
}
 70
     0
280
     1
281
     0
  0
BLOCK_RECORD
  5
A2
330
1
100
AcDbSymbolTableRecord
100
AcDbBlockTableRecord
  2
3_75076000_3_0_in_31442_0
340
0
102
{BLKREFS
331
A3
102
}
 70
     0
280
     1
281
     0
  0
BLOCK_RECORD
  5
B8
330
1
100
AcDbSymbolTableRecord
100
AcDbBlockTableRecord
  2
4_30414000_1_0_in_31442_0
340
0
102
{BLKREFS
331
B9
102
}
 70
     0
280
     1
281
     0
  0
BLOCK_RECORD
  5
EA
330
1
100
AcDbSymbolTableRecord
100
AcDbBlockTableRecord
  2
5_30414000_2_0_in_31442_0
340
0
102
{BLKREFS
331
EB
102
}
 70
     0
280
     1
281
     0
  0
BLOCK_RECORD
  5
119
330
1
100
AcDbSymbolTableRecord
100
AcDbBlockTableRecord
  2
6_30414000_3_0_in_31442_0
340
0
102
{BLKREFS
331
11A
102
}
 70
     0
280
     1
281
     0
  0
BLOCK_RECORD
  5
148
330
1
100
AcDbSymbolTableRecord
100
AcDbBlockTableRecord
  2
7_71437000_1_0_in_31442_0
340
0
102
{BLKREFS
331
149
102
}
 70
     0
280
     1
281
     0
  0
BLOCK_RECORD
  5
163
330
1
100
AcDbSymbolTableRecord
100
AcDbBlockTableRecord
  2
8_71437000_2_0_in_31442_0
340
0
102
{BLKREFS
331
164
102
}
 70
     0
280
     1
281
     0
  0
BLOCK_RECORD
  5
17E
330
1
100
AcDbSymbolTableRecord
100
AcDbBlockTableRecord
  2
9_71437000_3_0_in_31442_0
340
0
102
{BLKREFS
331
17F
102
}
 70
     0
280
     1
281
     0
  0
BLOCK_RECORD
  5
199
330
1
100
AcDbSymbolTableRecord
100
AcDbBlockTableRecord
  2
10_78547000_0_in_31442_0
340
0
102
{BLKREFS
331
19A
102
}
 70
     0
280
     1
281
     0
  0
BLOCK_RECORD
  5
242
330
1
100
AcDbSymbolTableRecord
100
AcDbBlockTableRecord
  2
*D11
340
0
 70
     0
280
     1
281
     0
  0
BLOCK_RECORD
  5
24F
330
1
100
AcDbSymbolTableRecord
100
AcDbBlockTableRecord
  2
*D12
340
0
 70
     0
280
     1
281
     0
  0
ENDTAB
  0
ENDSEC
  0
SECTION
  2
BLOCKS
  0
BLOCK
  5
20
330
1F
100
AcDbEntity
  8
0
100
AcDbBlockBegin
  2
*Model_Space
 70
     2
 10
0.0
 20
0.0
 30
0.0
  3
*Model_Space
  1

  0
ENDBLK
  5
21
330
1F
100
AcDbEntity
  8
0
100
AcDbBlockEnd
  0
BLOCK
  5
1C
330
1B
100
AcDbEntity
 67
     1
  8
0
100
AcDbBlockBegin
  2
*Paper_Space
 70
     0
 10
0.0
 20
0.0
 30
0.0
  3
*Paper_Space
  1

  0
ENDBLK
  5
1D
330
1B
100
AcDbEntity
 67
     1
  8
0
100
AcDbBlockEnd
  0
BLOCK
  5
24
330
23
100
AcDbEntity
  8
0
100
AcDbBlockBegin
  2
*Paper_Space0
 70
     0
 10
0.0
 20
0.0
 30
0.0
  3
*Paper_Space0
  1

  0
ENDBLK
  5
25
330
23
100
AcDbEntity
  8
0
100
AcDbBlockEnd
  0
BLOCK
  5
75
330
73
100
AcDbEntity
  8
0
100
AcDbBlockBegin
  2
1_75076000_1_0_in_31442_0
 70
     2
 10
0.0
 20
0.0
 30
0.0
  3
1_75076000_1_0_in_31442_0
  1

  0
ATTDEF
  5
77
330
73
100
AcDbEntity
  8
attrib
100
AcDbText
 10
54.5
 20
-44.9862
 30
0.0
 40
0.5
  1
75076000
100
AcDbAttributeDefinition
  3

  2
NB
 70
     8
280
     0
  0
ATTDEF
  5
78
330
73
100
AcDbEntity
  8
attrib
100
AcDbText
 10
54.5
 20
-45.4862
 30
0.0
 40
0.5
  1
CUSTO60 Part
100
AcDbAttributeDefinition
  3

  2
NN
 70
     8
280
     0
  0
ATTDEF
  5
79
330
73
100
AcDbEntity
  8
attrib
100
AcDbText
 10
54.5
 20
-45.9862
 30
0.0
 40
0.5
  1

100
AcDbAttributeDefinition
  3

  2
NT
 70
     8
280
     0
  0
ATTDEF
  5
7A
330
73
100
AcDbEntity
  8
attrib
100
AcDbText
 10
54.5
 20
-46.4862
 30
0.0
 40
0.5
  1
$ARTNR.
100
AcDbAttributeDefinition
  3

  2
NBSYN
 70
     8
280
     0
  0
ATTDEF
  5
7B
330
73
100
AcDbEntity
  8
attrib
100
AcDbText
 10
54.5
 20
-46.9862
 30
0.0
 40
0.5
  1
75076000
100
AcDbAttributeDefinition
  3

  2
LINA
 70
     8
280
     0
  0
ATTDEF
  5
7C
330
73
100
AcDbEntity
  8
attrib
100
AcDbText
 10
54.5
 20
-47.4862
 30
0.0
 40
0.5
  1
Wöhner
100
AcDbAttributeDefinition
  3

  2
CATALOG
 70
     8
280
     0
  0
ATTDEF
  5
7D
330
73
100
AcDbEntity
  8
attrib
100
AcDbText
 10
54.5
 20
-47.9862
 30
0.0
 40
0.5
  1
75076000
100
AcDbAttributeDefinition
  3

  2
ARTNR
 70
     8
280
     0
  0
ATTDEF
  5
7E
330
73
100
AcDbEntity
  8
attrib
100
AcDbText
 10
54.5
 20
-48.4862
 30
0.0
 40
0.5
  1
CUSTO®60Classic
100
AcDbAttributeDefinition
  3

  2
POF
 70
     8
280
     0
  0
ATTDEF
  5
7F
330
73
100
AcDbEntity
  8
attrib
100
AcDbText
 10
54.5
 20
-48.9862
 30
0.0
 40
0.5
  1
E 33 / 3P
100
AcDbAttributeDefinition
  3

  2
TYPE
 70
     8
280
     0
  0
ATTDEF
  5
80
330
73
100
AcDbEntity
  8
attrib
100
AcDbText
 10
54.5
 20
-49.4862
 30
0.0
 40
0.5
  1
2
100
AcDbAttributeDefinition
  3

  2
VER
 70
     8
280
     0
  0
ATTDEF
  5
81
330
73
100
AcDbEntity
  8
attrib
100
AcDbText
 10
54.5
 20
-49.9862
 30
0.0
 40
0.5
  1
woehner
100
AcDbAttributeDefinition
  3

  2
COMPANY
 70
     8
280
     0
  0
ATTDEF
  5
82
330
73
100
AcDbEntity
  8
attrib
100
AcDbText
 10
54.5
 20
-50.4862
 30
0.0
 40
0.5
  1
{$CADENAS_DATA/23d-libs/woehner/sys_60classic/d_fuse_bases/parts/d_fuse_base_custo_part3.prj},163 {VTYP=3D},{NB=75076000},{LINA=75076000},{NN=CUSTO60 Part},{DATE=26.01.2024 06:39:58},{GEOMDATE=06.12.2022 14:24:00},{VERSION=},{LINEID=870},{WBVAR=},{WBNUMER
100
AcDbAttributeDefinition
  3

  2
PSOL_0
 70
     9
280
     0
  0
ATTDEF
  5
83
330
73
100
AcDbEntity
  8
attrib
100
AcDbText
 10
54.5
 20
-50.9862
 30
0.0
 40
0.5
  1
IC=}  {NB=75076000},{LINA=75076000},{KT=DUMMY},{ARTNR=75076000},{POF=CUSTO®60Classic},{TYPE=E 33 / 3P},{VER=2}
100
AcDbAttributeDefinition
  3

  2
PSOL_1
 70
     9
280
     0
  0
LINE
  5
86
330
73
100
AcDbEntity
  8
center
100
AcDbLine
 10
7.5
 20
-65.9862
 30
0.0
 11
49.5
 21
-65.9862
 31
0.0
  0
LINE
  5
87
330
73
100
AcDbEntity
  8
center
100
AcDbLine
 10
28.5
 20
-86.9862
 30
0.0
 11
28.5
 21
-44.9862
 31
0.0
  0
CIRCLE
  5
89
330
73
100
AcDbEntity
  8
bold
100
AcDbCircle
 10
28.5
 20
-65.9862
 30
0.0
 40
20.0
  0
CIRCLE
  5
8A
330
73
100
AcDbEntity
  8
bold
100
AcDbCircle
 10
28.5
 20
-65.9862
 30
0.0
 40
16.0
  0
CIRCLE
  5
8B
330
73
100
AcDbEntity
  8
bold
100
AcDbCircle
 10
28.5
 20
-65.9862
 30
0.0
 40
17.0
  0
ENDBLK
  5
76
330
73
100
AcDbEntity
  8
0
100
AcDbBlockEnd
  0
BLOCK
  5
8E
330
8C
100
AcDbEntity
  8
0
100
AcDbBlockBegin
  2
2_75076000_2_0_in_31442_0
 70
     2
 10
0.0
 20
0.0
 30
0.0
  3
2_75076000_2_0_in_31442_0
  1

  0
ATTDEF
  5
90
330
8C
100
AcDbEntity
  8
attrib
100
AcDbText
 10
54.5
 20
15.0138
 30
0.0
 40
0.5
  1
75076000
100
AcDbAttributeDefinition
  3

  2
NB
 70
     8
280
     0
  0
ATTDEF
  5
91
330
8C
100
AcDbEntity
  8
attrib
100
AcDbText
 10
54.5
 20
14.5138
 30
0.0
 40
0.5
  1
CUSTO60 Part
100
AcDbAttributeDefinition
  3

  2
NN
 70
     8
280
     0
  0
ATTDEF
  5
92
330
8C
100
AcDbEntity
  8
attrib
100
AcDbText
 10
54.5
 20
14.0138
 30
0.0
 40
0.5
  1

100
AcDbAttributeDefinition
  3

  2
NT
 70
     8
280
     0
  0
ATTDEF
  5
93
330
8C
100
AcDbEntity
  8
attrib
100
AcDbText
 10
54.5
 20
13.5138
 30
0.0
 40
0.5
  1
$ARTNR.
100
AcDbAttributeDefinition
  3

  2
NBSYN
 70
     8
280
     0
  0
ATTDEF
  5
94
330
8C
100
AcDbEntity
  8
attrib
100
AcDbText
 10
54.5
 20
13.0138
 30
0.0
 40
0.5
  1
75076000
100
AcDbAttributeDefinition
  3

  2
LINA
 70
     8
280
     0
  0
ATTDEF
  5
95
330
8C
100
AcDbEntity
  8
attrib
100
AcDbText
 10
54.5
 20
12.5138
 30
0.0
 40
0.5
  1
Wöhner
100
AcDbAttributeDefinition
  3

  2
CATALOG
 70
     8
280
     0
  0
ATTDEF
  5
96
330
8C
100
AcDbEntity
  8
attrib
100
AcDbText
 10
54.5
 20
12.0138
 30
0.0
 40
0.5
  1
75076000
100
AcDbAttributeDefinition
  3

  2
ARTNR
 70
     8
280
     0
  0
ATTDEF
  5
97
330
8C
100
AcDbEntity
  8
attrib
100
AcDbText
 10
54.5
 20
11.5138
 30
0.0
 40
0.5
  1
CUSTO®60Classic
100
AcDbAttributeDefinition
  3

  2
POF
 70
     8
280
     0
  0
ATTDEF
  5
98
330
8C
100
AcDbEntity
  8
attrib
100
AcDbText
 10
54.5
 20
11.0138
 30
0.0
 40
0.5
  1
E 33 / 3P
100
AcDbAttributeDefinition
  3

  2
TYPE
 70
     8
280
     0
  0
ATTDEF
  5
99
330
8C
100
AcDbEntity
  8
attrib
100
AcDbText
 10
54.5
 20
10.5138
 30
0.0
 40
0.5
  1
2
100
AcDbAttributeDefinition
  3

  2
VER
 70
     8
280
     0
  0
ATTDEF
  5
9A
330
8C
100
AcDbEntity
  8
attrib
100
AcDbText
 10
54.5
 20
10.0138
 30
0.0
 40
0.5
  1
woehner
100
AcDbAttributeDefinition
  3

  2
COMPANY
 70
     8
280
     0
  0
ATTDEF
  5
9B
330
8C
100
AcDbEntity
  8
attrib
100
AcDbText
 10
54.5
 20
9.513800000000003
 30
0.0
 40
0.5
  1
{$CADENAS_DATA/23d-libs/woehner/sys_60classic/d_fuse_bases/parts/d_fuse_base_custo_part3.prj},163 {VTYP=3D},{NB=75076000},{LINA=75076000},{NN=CUSTO60 Part},{DATE=26.01.2024 06:39:58},{GEOMDATE=06.12.2022 14:24:00},{VERSION=},{LINEID=870},{WBVAR=},{WBNUMER
100
AcDbAttributeDefinition
  3

  2
PSOL_0
 70
     9
280
     0
  0
ATTDEF
  5
9C
330
8C
100
AcDbEntity
  8
attrib
100
AcDbText
 10
54.5
 20
9.013800000000003
 30
0.0
 40
0.5
  1
IC=}  {NB=75076000},{LINA=75076000},{KT=DUMMY},{ARTNR=75076000},{POF=CUSTO®60Classic},{TYPE=E 33 / 3P},{VER=2}
100
AcDbAttributeDefinition
  3

  2
PSOL_1
 70
     9
280
     0
  0
LINE
  5
9D
330
8C
100
AcDbEntity
  8
center
100
AcDbLine
 10
7.5
 20
-5.986199999999997
 30
0.0
 11
49.5
 21
-5.986199999999997
 31
0.0
  0
LINE
  5
9E
330
8C
100
AcDbEntity
  8
center
100
AcDbLine
 10
28.5
 20
-26.9862
 30
0.0
 11
28.5
 21
15.0138
 31
0.0
  0
CIRCLE
  5
9F
330
8C
100
AcDbEntity
  8
bold
100
AcDbCircle
 10
28.5
 20
-5.986199999999997
 30
0.0
 40
20.0
  0
CIRCLE
  5
A0
330
8C
100
AcDbEntity
  8
bold
100
AcDbCircle
 10
28.5
 20
-5.986199999999997
 30
0.0
 40
16.0
  0
CIRCLE
  5
A1
330
8C
100
AcDbEntity
  8
bold
100
AcDbCircle
 10
28.5
 20
-5.986199999999997
 30
0.0
 40
17.0
  0
ENDBLK
  5
8F
330
8C
100
AcDbEntity
  8
0
100
AcDbBlockEnd
  0
BLOCK
  5
A4
330
A2
100
AcDbEntity
  8
0
100
AcDbBlockBegin
  2
3_75076000_3_0_in_31442_0
 70
     2
 10
0.0
 20
0.0
 30
0.0
  3
3_75076000_3_0_in_31442_0
  1

  0
ATTDEF
  5
A6
330
A2
100
AcDbEntity
  8
attrib
100
AcDbText
 10
54.5
 20
75.0138
 30
0.0
 40
0.5
  1
75076000
100
AcDbAttributeDefinition
  3

  2
NB
 70
     8
280
     0
  0
ATTDEF
  5
A7
330
A2
100
AcDbEntity
  8
attrib
100
AcDbText
 10
54.5
 20
74.5138
 30
0.0
 40
0.5
  1
CUSTO60 Part
100
AcDbAttributeDefinition
  3

  2
NN
 70
     8
280
     0
  0
ATTDEF
  5
A8
330
A2
100
AcDbEntity
  8
attrib
100
AcDbText
 10
54.5
 20
74.0138
 30
0.0
 40
0.5
  1

100
AcDbAttributeDefinition
  3

  2
NT
 70
     8
280
     0
  0
ATTDEF
  5
A9
330
A2
100
AcDbEntity
  8
attrib
100
AcDbText
 10
54.5
 20
73.5138
 30
0.0
 40
0.5
  1
$ARTNR.
100
AcDbAttributeDefinition
  3

  2
NBSYN
 70
     8
280
     0
  0
ATTDEF
  5
AA
330
A2
100
AcDbEntity
  8
attrib
100
AcDbText
 10
54.5
 20
73.0138
 30
0.0
 40
0.5
  1
75076000
100
AcDbAttributeDefinition
  3

  2
LINA
 70
     8
280
     0
  0
ATTDEF
  5
AB
330
A2
100
AcDbEntity
  8
attrib
100
AcDbText
 10
54.5
 20
72.5138
 30
0.0
 40
0.5
  1
Wöhner
100
AcDbAttributeDefinition
  3

  2
CATALOG
 70
     8
280
     0
  0
ATTDEF
  5
AC
330
A2
100
AcDbEntity
  8
attrib
100
AcDbText
 10
54.5
 20
72.0138
 30
0.0
 40
0.5
  1
75076000
100
AcDbAttributeDefinition
  3

  2
ARTNR
 70
     8
280
     0
  0
ATTDEF
  5
AD
330
A2
100
AcDbEntity
  8
attrib
100
AcDbText
 10
54.5
 20
71.5138
 30
0.0
 40
0.5
  1
CUSTO®60Classic
100
AcDbAttributeDefinition
  3

  2
POF
 70
     8
280
     0
  0
ATTDEF
  5
AE
330
A2
100
AcDbEntity
  8
attrib
100
AcDbText
 10
54.5
 20
71.0138
 30
0.0
 40
0.5
  1
E 33 / 3P
100
AcDbAttributeDefinition
  3

  2
TYPE
 70
     8
280
     0
  0
ATTDEF
  5
AF
330
A2
100
AcDbEntity
  8
attrib
100
AcDbText
 10
54.5
 20
70.5138
 30
0.0
 40
0.5
  1
2
100
AcDbAttributeDefinition
  3

  2
VER
 70
     8
280
     0
  0
ATTDEF
  5
B0
330
A2
100
AcDbEntity
  8
attrib
100
AcDbText
 10
54.5
 20
70.0138
 30
0.0
 40
0.5
  1
woehner
100
AcDbAttributeDefinition
  3

  2
COMPANY
 70
     8
280
     0
  0
ATTDEF
  5
B1
330
A2
100
AcDbEntity
  8
attrib
100
AcDbText
 10
54.5
 20
69.5138
 30
0.0
 40
0.5
  1
{$CADENAS_DATA/23d-libs/woehner/sys_60classic/d_fuse_bases/parts/d_fuse_base_custo_part3.prj},163 {VTYP=3D},{NB=75076000},{LINA=75076000},{NN=CUSTO60 Part},{DATE=26.01.2024 06:39:58},{GEOMDATE=06.12.2022 14:24:00},{VERSION=},{LINEID=870},{WBVAR=},{WBNUMER
100
AcDbAttributeDefinition
  3

  2
PSOL_0
 70
     9
280
     0
  0
ATTDEF
  5
B2
330
A2
100
AcDbEntity
  8
attrib
100
AcDbText
 10
54.5
 20
69.0138
 30
0.0
 40
0.5
  1
IC=}  {NB=75076000},{LINA=75076000},{KT=DUMMY},{ARTNR=75076000},{POF=CUSTO®60Classic},{TYPE=E 33 / 3P},{VER=2}
100
AcDbAttributeDefinition
  3

  2
PSOL_1
 70
     9
280
     0
  0
LINE
  5
B3
330
A2
100
AcDbEntity
  8
center
100
AcDbLine
 10
7.5
 20
54.01380000000001
 30
0.0
 11
49.5
 21
54.01380000000001
 31
0.0
  0
LINE
  5
B4
330
A2
100
AcDbEntity
  8
center
100
AcDbLine
 10
28.5
 20
33.01380000000001
 30
0.0
 11
28.5
 21
75.0138
 31
0.0
  0
CIRCLE
  5
B5
330
A2
100
AcDbEntity
  8
bold
100
AcDbCircle
 10
28.5
 20
54.01380000000001
 30
0.0
 40
20.0
  0
CIRCLE
  5
B6
330
A2
100
AcDbEntity
  8
bold
100
AcDbCircle
 10
28.5
 20
54.01380000000001
 30
0.0
 40
16.0
  0
CIRCLE
  5
B7
330
A2
100
AcDbEntity
  8
bold
100
AcDbCircle
 10
28.5
 20
54.01380000000001
 30
0.0
 40
17.0
  0
ENDBLK
  5
A5
330
A2
100
AcDbEntity
  8
0
100
AcDbBlockEnd
  0
BLOCK
  5
BA
330
B8
100
AcDbEntity
  8
0
100
AcDbBlockBegin
  2
4_30414000_1_0_in_31442_0
 70
     2
 10
0.0
 20
0.0
 30
0.0
  3
4_30414000_1_0_in_31442_0
  1

  0
ATTDEF
  5
BC
330
B8
100
AcDbEntity
  8
attrib
100
AcDbText
 10
23.14081494493897
 20
-81.48803125327454
 30
0.0
 40
0.5
  1
30414000
100
AcDbAttributeDefinition
  3

  2
NB
 70
     8
280
     0
  0
ATTDEF
  5
BD
330
B8
100
AcDbEntity
  8
attrib
100
AcDbText
 10
23.14081494493897
 20
-81.98803125327454
 30
0.0
 40
0.5
  1
CUSTO60 Part
100
AcDbAttributeDefinition
  3

  2
NN
 70
     8
280
     0
  0
ATTDEF
  5
BE
330
B8
100
AcDbEntity
  8
attrib
100
AcDbText
 10
23.14081494493897
 20
-82.48803125327454
 30
0.0
 40
0.5
  1

100
AcDbAttributeDefinition
  3

  2
NT
 70
     8
280
     0
  0
ATTDEF
  5
BF
330
B8
100
AcDbEntity
  8
attrib
100
AcDbText
 10
23.14081494493897
 20
-82.98803125327454
 30
0.0
 40
0.5
  1
$ARTNR.
100
AcDbAttributeDefinition
  3

  2
NBSYN
 70
     8
280
     0
  0
ATTDEF
  5
C0
330
B8
100
AcDbEntity
  8
attrib
100
AcDbText
 10
23.14081494493897
 20
-83.48803125327454
 30
0.0
 40
0.5
  1
30414000
100
AcDbAttributeDefinition
  3

  2
LINA
 70
     8
280
     0
  0
ATTDEF
  5
C1
330
B8
100
AcDbEntity
  8
attrib
100
AcDbText
 10
23.14081494493897
 20
-83.98803125327454
 30
0.0
 40
0.5
  1
Wöhner
100
AcDbAttributeDefinition
  3

  2
CATALOG
 70
     8
280
     0
  0
ATTDEF
  5
C2
330
B8
100
AcDbEntity
  8
attrib
100
AcDbText
 10
23.14081494493897
 20
-84.48803125327454
 30
0.0
 40
0.5
  1
30414000
100
AcDbAttributeDefinition
  3

  2
ARTNR
 70
     8
280
     0
  0
ATTDEF
  5
C3
330
B8
100
AcDbEntity
  8
attrib
100
AcDbText
 10
23.14081494493897
 20
-84.98803125327454
 30
0.0
 40
0.5
  1
CUSTO®60Classic
100
AcDbAttributeDefinition
  3

  2
POF
 70
     8
280
     0
  0
ATTDEF
  5
C4
330
B8
100
AcDbEntity
  8
attrib
100
AcDbText
 10
23.14081494493897
 20
-85.48803125327454
 30
0.0
 40
0.5
  1
woehner
100
AcDbAttributeDefinition
  3

  2
COMPANY
 70
     8
280
     0
  0
ATTDEF
  5
C5
330
B8
100
AcDbEntity
  8
attrib
100
AcDbText
 10
23.14081494493897
 20
-85.98803125327454
 30
0.0
 40
0.5
  1
{$CADENAS_DATA/23d-libs/woehner/sys_60classic/d_fuse_bases/parts/d_fuse_base_custo_part2.prj},163 {VTYP=3D},{NB=30414000},{LINA=30414000},{NN=CUSTO60 Part},{DATE=26.01.2024 06:39:58},{GEOMDATE=08.12.2022 06:03:00},{VERSION=},{LINEID=380},{WBVAR=},{WBNUMER
100
AcDbAttributeDefinition
  3

  2
PSOL_0
 70
     9
280
     0
  0
ATTDEF
  5
C6
330
B8
100
AcDbEntity
  8
attrib
100
AcDbText
 10
23.14081494493897
 20
-86.48803125327454
 30
0.0
 40
0.5
  1
IC=}  {NB=30414000},{LINA=30414000},{KT=DUMMY},{ARTNR=30414000},{POF=CUSTO®60Classic}
100
AcDbAttributeDefinition
  3

  2
PSOL_1
 70
     9
280
     0
  0
LINE
  5
C9
330
B8
100
AcDbEntity
  8
hidden
100
AcDbLine
 10
9.133257425391344
 20
-86.25294808570288
 30
0.0
 11
6.119999664767656
 21
-89.26620584632657
 31
0.0
  0
LINE
  5
CA
330
B8
100
AcDbEntity
  8
hidden
100
AcDbLine
 10
13.19106747663313
 20
-82.1951380344611
 30
0.0
 11
10.14917189137139
 21
-85.23703361972285
 31
0.0
  0
LINE
  5
CB
330
B8
100
AcDbEntity
  8
hidden
100
AcDbLine
 10
13.37589811251063
 20
-90.49558877282217
 30
0.0
 11
10.36264035188694
 21
-93.50884653344586
 31
0.0
  0
LINE
  5
CC
330
B8
100
AcDbEntity
  8
hidden
100
AcDbLine
 10
17.43370816375242
 20
-86.43777872158039
 30
0.0
 11
14.39181257849068
 21
-89.47967430684213
 31
0.0
  0
LINE
  5
CD
330
B8
100
AcDbEntity
  8
hidden
100
AcDbLine
 10
15.64055721941631
 20
-86.81671610354338
 30
0.0
 11
10.74157773384995
 21
-91.71569558910974
 31
0.0
  0
LINE
  5
CE
330
B8
100
AcDbEntity
  8
hidden
100
AcDbLine
 10
12.81213009467012
 20
-83.9882889787972
 30
0.0
 11
7.913150609103761
 21
-88.88726846436357
 31
0.0
  0
CIRCLE
  5
CF
330
B8
100
AcDbEntity
  8
hidden
100
AcDbCircle
 10
11.77685391426004
 20
-87.85199228395348
 30
0.0
 40
2.0
  0
LINE
  5
D0
330
B8
100
AcDbEntity
  8
center
100
AcDbLine
 10
9.676853914260036
 20
-87.85199228395348
 30
0.0
 11
13.87685391426004
 21
-87.85199228395348
 31
0.0
  0
LINE
  5
D1
330
B8
100
AcDbEntity
  8
center
100
AcDbLine
 10
11.77685391426004
 20
-89.95199228395347
 30
0.0
 11
11.77685391426004
 21
-85.75199228395348
 31
0.0
  0
LINE
  5
D2
330
B8
100
AcDbEntity
  8
bold
100
AcDbLine
 10
18.14081494493897
 20
-87.14488550276693
 30
0.0
 11
11.06974713307349
 21
-94.21595331463242
 31
0.0
  0
LINE
  5
D3
330
B8
100
AcDbEntity
  8
bold
100
AcDbLine
 10
12.48396069544659
 20
-81.48803125327454
 30
0.0
 11
18.14081494493897
 21
-87.14488550276693
 31
0.0
  0
LINE
  5
D5
330
B8
100
AcDbEntity
  8
light
100
AcDbLine
 10
16.72660138256587
 20
-85.73067194039383
 30
0.0
 11
15.64055721941631
 21
-86.81671610354338
 31
0.0
  0
LINE
  5
D6
330
B8
100
AcDbEntity
  8
light
100
AcDbLine
 10
10.74157773384995
 20
-91.71569558910974
 30
0.0
 11
9.655533570700394
 21
-92.80173975225931
 31
0.0
  0
LINE
  5
D7
330
B8
100
AcDbEntity
  8
bold
100
AcDbLine
 10
5.412892883581108
 20
-88.55909906514002
 30
0.0
 11
11.06974713307349
 21
-94.21595331463242
 31
0.0
  0
LINE
  5
D8
330
B8
100
AcDbEntity
  8
light
100
AcDbLine
 10
7.913150609103761
 20
-88.88726846436357
 30
0.0
 11
6.827106445954206
 21
-89.97331262751312
 31
0.0
  0
LINE
  5
D9
330
B8
100
AcDbEntity
  8
light
100
AcDbLine
 10
13.89817425781968
 20
-82.90224481564765
 30
0.0
 11
12.81213009467012
 21
-83.9882889787972
 31
0.0
  0
LINE
  5
DA
330
B8
100
AcDbEntity
  8
bold
100
AcDbLine
 10
12.48396069544659
 20
-81.48803125327454
 30
0.0
 11
5.412892883581108
 21
-88.55909906514002
 31
0.0
  0
LINE
  5
DB
330
B8
100
AcDbEntity
  8
bold
100
AcDbLine
 10
11.79350627895698
 20
-88.88093871659709
 30
0.0
 11
13.39202722384635
 21
-90.47945966148644
 31
0.0
  0
LINE
  5
DC
330
B8
100
AcDbEntity
  8
bold
100
AcDbLine
 10
9.519962540784961
 20
-91.1544824547691
 30
0.0
 11
11.79350627895698
 21
-88.88093871659709
 31
0.0
  0
LINE
  5
DD
330
B8
100
AcDbEntity
  8
bold
100
AcDbLine
 10
13.39202722384635
 20
-90.47945966148644
 30
0.0
 11
14.37568346715496
 21
-89.49580341817784
 31
0.0
  0
LINE
  5
DE
330
B8
100
AcDbEntity
  8
bold
100
AcDbLine
 10
12.77716252226559
 20
-87.89728247328847
 30
0.0
 11
15.07934408507566
 21
-85.59510091047841
 31
0.0
  0
LINE
  5
DF
330
B8
100
AcDbEntity
  8
bold
100
AcDbLine
 10
14.37568346715496
 20
-89.49580341817784
 30
0.0
 11
12.77716252226559
 21
-87.89728247328847
 31
0.0
  0
ARC
  5
E0
330
B8
100
AcDbEntity
  8
light
100
AcDbCircle
 10
11.77685391426004
 20
-87.85199228395341
 30
0.0
 40
3.000000000000063
100
AcDbArc
 50
239.2675404211551
 51
301.1960740424137
  0
LINE
  5
E1
330
B8
100
AcDbEntity
  8
bold
100
AcDbLine
 10
10.74790748161643
 20
-87.83533991925653
 30
0.0
 11
8.474363743444414
 21
-90.10888365742856
 31
0.0
  0
LINE
  5
E2
330
B8
100
AcDbEntity
  8
bold
100
AcDbLine
 10
9.149386536727063
 20
-86.23681897436717
 30
0.0
 11
10.74790748161643
 21
-87.83533991925653
 31
0.0
  0
LINE
  5
E3
330
B8
100
AcDbEntity
  8
bold
100
AcDbLine
 10
11.73156372492504
 20
-86.85168367594792
 30
0.0
 11
10.13304278003567
 21
-85.25316273105855
 31
0.0
  0
LINE
  5
E4
330
B8
100
AcDbEntity
  8
bold
100
AcDbLine
 10
14.03374528773511
 20
-84.54950211313786
 30
0.0
 11
11.73156372492504
 21
-86.85168367594792
 31
0.0
  0
ARC
  5
E5
330
B8
100
AcDbEntity
  8
light
100
AcDbCircle
 10
11.77685391425998
 20
-87.85199228395349
 30
0.0
 40
3.000000000000042
100
AcDbArc
 50
328.0087585901994
 51
30.73245957884516
  0
ARC
  5
E6
330
B8
100
AcDbEntity
  8
light
100
AcDbCircle
 10
11.77685391426004
 20
-87.85199228395348
 30
0.0
 40
3.000000000000006
100
AcDbArc
 50
148.8039259575854
 51
210.7324595788455
  0
LINE
  5
E7
330
B8
100
AcDbEntity
  8
bold
100
AcDbLine
 10
10.13304278003567
 20
-85.25316273105855
 30
0.0
 11
9.149386536727063
 21
-86.23681897436717
 31
0.0
  0
ARC
  5
E8
330
B8
100
AcDbEntity
  8
light
100
AcDbCircle
 10
11.77685391426004
 20
-87.85199228395346
 30
0.0
 40
2.999999999999988
100
AcDbArc
 50
59.26754042115439
 51
121.9912414098016
  0
CIRCLE
  5
E9
330
B8
100
AcDbEntity
  8
bold
100
AcDbCircle
 10
11.77685391426064
 20
-87.85199228395288
 30
0.0
 40
3.999999999999163
  0
ENDBLK
  5
BB
330
B8
100
AcDbEntity
  8
0
100
AcDbBlockEnd
  0
BLOCK
  5
EC
330
EA
100
AcDbEntity
  8
0
100
AcDbBlockBegin
  2
5_30414000_2_0_in_31442_0
 70
     2
 10
0.0
 20
0.0
 30
0.0
  3
5_30414000_2_0_in_31442_0
  1

  0
ATTDEF
  5
EE
330
EA
100
AcDbEntity
  8
attrib
100
AcDbText
 10
23.14081494493897
 20
-21.48803125327456
 30
0.0
 40
0.5
  1
30414000
100
AcDbAttributeDefinition
  3

  2
NB
 70
     8
280
     0
  0
ATTDEF
  5
EF
330
EA
100
AcDbEntity
  8
attrib
100
AcDbText
 10
23.14081494493897
 20
-21.98803125327456
 30
0.0
 40
0.5
  1
CUSTO60 Part
100
AcDbAttributeDefinition
  3

  2
NN
 70
     8
280
     0
  0
ATTDEF
  5
F0
330
EA
100
AcDbEntity
  8
attrib
100
AcDbText
 10
23.14081494493897
 20
-22.48803125327456
 30
0.0
 40
0.5
  1

100
AcDbAttributeDefinition
  3

  2
NT
 70
     8
280
     0
  0
ATTDEF
  5
F1
330
EA
100
AcDbEntity
  8
attrib
100
AcDbText
 10
23.14081494493897
 20
-22.98803125327456
 30
0.0
 40
0.5
  1
$ARTNR.
100
AcDbAttributeDefinition
  3

  2
NBSYN
 70
     8
280
     0
  0
ATTDEF
  5
F2
330
EA
100
AcDbEntity
  8
attrib
100
AcDbText
 10
23.14081494493897
 20
-23.48803125327456
 30
0.0
 40
0.5
  1
30414000
100
AcDbAttributeDefinition
  3

  2
LINA
 70
     8
280
     0
  0
ATTDEF
  5
F3
330
EA
100
AcDbEntity
  8
attrib
100
AcDbText
 10
23.14081494493897
 20
-23.98803125327456
 30
0.0
 40
0.5
  1
Wöhner
100
AcDbAttributeDefinition
  3

  2
CATALOG
 70
     8
280
     0
  0
ATTDEF
  5
F4
330
EA
100
AcDbEntity
  8
attrib
100
AcDbText
 10
23.14081494493897
 20
-24.48803125327456
 30
0.0
 40
0.5
  1
30414000
100
AcDbAttributeDefinition
  3

  2
ARTNR
 70
     8
280
     0
  0
ATTDEF
  5
F5
330
EA
100
AcDbEntity
  8
attrib
100
AcDbText
 10
23.14081494493897
 20
-24.98803125327456
 30
0.0
 40
0.5
  1
CUSTO®60Classic
100
AcDbAttributeDefinition
  3

  2
POF
 70
     8
280
     0
  0
ATTDEF
  5
F6
330
EA
100
AcDbEntity
  8
attrib
100
AcDbText
 10
23.14081494493897
 20
-25.48803125327456
 30
0.0
 40
0.5
  1
woehner
100
AcDbAttributeDefinition
  3

  2
COMPANY
 70
     8
280
     0
  0
ATTDEF
  5
F7
330
EA
100
AcDbEntity
  8
attrib
100
AcDbText
 10
23.14081494493897
 20
-25.98803125327456
 30
0.0
 40
0.5
  1
{$CADENAS_DATA/23d-libs/woehner/sys_60classic/d_fuse_bases/parts/d_fuse_base_custo_part2.prj},163 {VTYP=3D},{NB=30414000},{LINA=30414000},{NN=CUSTO60 Part},{DATE=26.01.2024 06:39:58},{GEOMDATE=08.12.2022 06:03:00},{VERSION=},{LINEID=380},{WBVAR=},{WBNUMER
100
AcDbAttributeDefinition
  3

  2
PSOL_0
 70
     9
280
     0
  0
ATTDEF
  5
F8
330
EA
100
AcDbEntity
  8
attrib
100
AcDbText
 10
23.14081494493897
 20
-26.48803125327456
 30
0.0
 40
0.5
  1
IC=}  {NB=30414000},{LINA=30414000},{KT=DUMMY},{ARTNR=30414000},{POF=CUSTO®60Classic}
100
AcDbAttributeDefinition
  3

  2
PSOL_1
 70
     9
280
     0
  0
LINE
  5
F9
330
EA
100
AcDbEntity
  8
hidden
100
AcDbLine
 10
9.133257425391346
 20
-26.25294808570289
 30
0.0
 11
6.119999664767656
 21
-29.26620584632658
 31
0.0
  0
LINE
  5
FA
330
EA
100
AcDbEntity
  8
hidden
100
AcDbLine
 10
13.19106747663313
 20
-22.1951380344611
 30
0.0
 11
10.14917189137139
 21
-25.23703361972285
 31
0.0
  0
LINE
  5
FB
330
EA
100
AcDbEntity
  8
hidden
100
AcDbLine
 10
13.37589811251063
 20
-30.49558877282218
 30
0.0
 11
10.36264035188694
 21
-33.50884653344587
 31
0.0
  0
LINE
  5
FC
330
EA
100
AcDbEntity
  8
hidden
100
AcDbLine
 10
17.43370816375242
 20
-26.43777872158039
 30
0.0
 11
14.39181257849067
 21
-29.47967430684213
 31
0.0
  0
LINE
  5
FD
330
EA
100
AcDbEntity
  8
hidden
100
AcDbLine
 10
15.64055721941631
 20
-26.8167161035434
 30
0.0
 11
10.74157773384995
 21
-31.71569558910976
 31
0.0
  0
LINE
  5
FE
330
EA
100
AcDbEntity
  8
hidden
100
AcDbLine
 10
12.81213009467012
 20
-23.98828897879721
 30
0.0
 11
7.913150609103761
 21
-28.88726846436358
 31
0.0
  0
CIRCLE
  5
FF
330
EA
100
AcDbEntity
  8
hidden
100
AcDbCircle
 10
11.77685391426004
 20
-27.85199228395349
 30
0.0
 40
2.0
  0
LINE
  5
100
330
EA
100
AcDbEntity
  8
center
100
AcDbLine
 10
9.676853914260036
 20
-27.85199228395349
 30
0.0
 11
13.87685391426004
 21
-27.85199228395349
 31
0.0
  0
LINE
  5
101
330
EA
100
AcDbEntity
  8
center
100
AcDbLine
 10
11.77685391426004
 20
-29.95199228395349
 30
0.0
 11
11.77685391426004
 21
-25.75199228395348
 31
0.0
  0
LINE
  5
102
330
EA
100
AcDbEntity
  8
bold
100
AcDbLine
 10
18.14081494493897
 20
-27.14488550276694
 30
0.0
 11
11.06974713307349
 21
-34.21595331463241
 31
0.0
  0
LINE
  5
103
330
EA
100
AcDbEntity
  8
light
100
AcDbLine
 10
10.74157773384995
 20
-31.71569558910976
 30
0.0
 11
9.655533570700394
 21
-32.80173975225932
 31
0.0
  0
LINE
  5
104
330
EA
100
AcDbEntity
  8
bold
100
AcDbLine
 10
5.412892883581108
 20
-28.55909906514003
 30
0.0
 11
11.06974713307349
 21
-34.21595331463241
 31
0.0
  0
LINE
  5
105
330
EA
100
AcDbEntity
  8
light
100
AcDbLine
 10
7.913150609103761
 20
-28.88726846436358
 30
0.0
 11
6.827106445954206
 21
-29.97331262751313
 31
0.0
  0
LINE
  5
106
330
EA
100
AcDbEntity
  8
bold
100
AcDbLine
 10
12.48396069544659
 20
-21.48803125327456
 30
0.0
 11
18.14081494493897
 21
-27.14488550276694
 31
0.0
  0
LINE
  5
107
330
EA
100
AcDbEntity
  8
bold
100
AcDbLine
 10
12.48396069544659
 20
-21.48803125327456
 30
0.0
 11
5.412892883581108
 21
-28.55909906514003
 31
0.0
  0
LINE
  5
108
330
EA
100
AcDbEntity
  8
light
100
AcDbLine
 10
16.72660138256587
 20
-25.73067194039384
 30
0.0
 11
15.64055721941631
 21
-26.8167161035434
 31
0.0
  0
LINE
  5
109
330
EA
100
AcDbEntity
  8
light
100
AcDbLine
 10
13.89817425781968
 20
-22.90224481564766
 30
0.0
 11
12.81213009467012
 21
-23.98828897879721
 31
0.0
  0
LINE
  5
10A
330
EA
100
AcDbEntity
  8
bold
100
AcDbLine
 10
11.73156372492504
 20
-26.85168367594794
 30
0.0
 11
10.13304278003567
 21
-25.25316273105857
 31
0.0
  0
LINE
  5
10B
330
EA
100
AcDbEntity
  8
bold
100
AcDbLine
 10
14.03374528773511
 20
-24.54950211313787
 30
0.0
 11
11.73156372492504
 21
-26.85168367594794
 31
0.0
  0
LINE
  5
10C
330
EA
100
AcDbEntity
  8
bold
100
AcDbLine
 10
12.77716252226559
 20
-27.89728247328848
 30
0.0
 11
15.07934408507566
 21
-25.59510091047841
 31
0.0
  0
LINE
  5
10D
330
EA
100
AcDbEntity
  8
bold
100
AcDbLine
 10
14.37568346715496
 20
-29.49580341817785
 30
0.0
 11
12.77716252226559
 21
-27.89728247328848
 31
0.0
  0
LINE
  5
10E
330
EA
100
AcDbEntity
  8
bold
100
AcDbLine
 10
11.79350627895698
 20
-28.88093871659709
 30
0.0
 11
13.39202722384635
 21
-30.47945966148646
 31
0.0
  0
LINE
  5
10F
330
EA
100
AcDbEntity
  8
bold
100
AcDbLine
 10
9.519962540784961
 20
-31.15448245476911
 30
0.0
 11
11.79350627895698
 21
-28.88093871659709
 31
0.0
  0
ARC
  5
110
330
EA
100
AcDbEntity
  8
light
100
AcDbCircle
 10
11.77685391426001
 20
-27.85199228395348
 30
0.0
 40
3.000000000000032
100
AcDbArc
 50
328.0087585901988
 51
30.73245957884506
  0
LINE
  5
111
330
EA
100
AcDbEntity
  8
bold
100
AcDbLine
 10
13.39202722384635
 20
-30.47945966148646
 30
0.0
 11
14.37568346715496
 21
-29.49580341817785
 31
0.0
  0
ARC
  5
112
330
EA
100
AcDbEntity
  8
light
100
AcDbCircle
 10
11.77685391426004
 20
-27.85199228395348
 30
0.0
 40
3.000000000000008
100
AcDbArc
 50
239.2675404211545
 51
301.1960740424143
  0
LINE
  5
113
330
EA
100
AcDbEntity
  8
bold
100
AcDbLine
 10
10.74790748161643
 20
-27.83533991925654
 30
0.0
 11
8.474363743444414
 21
-30.10888365742856
 31
0.0
  0
LINE
  5
114
330
EA
100
AcDbEntity
  8
bold
100
AcDbLine
 10
9.149386536727063
 20
-26.23681897436717
 30
0.0
 11
10.74790748161643
 21
-27.83533991925654
 31
0.0
  0
ARC
  5
115
330
EA
100
AcDbEntity
  8
light
100
AcDbCircle
 10
11.77685391426004
 20
-27.85199228395349
 30
0.0
 40
3.0
100
AcDbArc
 50
148.8039259575855
 51
210.7324595788455
  0
LINE
  5
116
330
EA
100
AcDbEntity
  8
bold
100
AcDbLine
 10
10.13304278003567
 20
-25.25316273105857
 30
0.0
 11
9.149386536727063
 21
-26.23681897436717
 31
0.0
  0
ARC
  5
117
330
EA
100
AcDbEntity
  8
light
100
AcDbCircle
 10
11.77685391426004
 20
-27.85199228395348
 30
0.0
 40
2.999999999999995
100
AcDbArc
 50
59.26754042115443
 51
121.9912414098014
  0
CIRCLE
  5
118
330
EA
100
AcDbEntity
  8
bold
100
AcDbCircle
 10
11.77685391426012
 20
-27.85199228395341
 30
0.0
 40
3.999999999999887
  0
ENDBLK
  5
ED
330
EA
100
AcDbEntity
  8
0
100
AcDbBlockEnd
  0
BLOCK
  5
11B
330
119
100
AcDbEntity
  8
0
100
AcDbBlockBegin
  2
6_30414000_3_0_in_31442_0
 70
     2
 10
0.0
 20
0.0
 30
0.0
  3
6_30414000_3_0_in_31442_0
  1

  0
ATTDEF
  5
11D
330
119
100
AcDbEntity
  8
attrib
100
AcDbText
 10
23.14081494493897
 20
38.51196874672544
 30
0.0
 40
0.5
  1
30414000
100
AcDbAttributeDefinition
  3

  2
NB
 70
     8
280
     0
  0
ATTDEF
  5
11E
330
119
100
AcDbEntity
  8
attrib
100
AcDbText
 10
23.14081494493897
 20
38.01196874672544
 30
0.0
 40
0.5
  1
CUSTO60 Part
100
AcDbAttributeDefinition
  3

  2
NN
 70
     8
280
     0
  0
ATTDEF
  5
11F
330
119
100
AcDbEntity
  8
attrib
100
AcDbText
 10
23.14081494493897
 20
37.51196874672544
 30
0.0
 40
0.5
  1

100
AcDbAttributeDefinition
  3

  2
NT
 70
     8
280
     0
  0
ATTDEF
  5
120
330
119
100
AcDbEntity
  8
attrib
100
AcDbText
 10
23.14081494493897
 20
37.01196874672544
 30
0.0
 40
0.5
  1
$ARTNR.
100
AcDbAttributeDefinition
  3

  2
NBSYN
 70
     8
280
     0
  0
ATTDEF
  5
121
330
119
100
AcDbEntity
  8
attrib
100
AcDbText
 10
23.14081494493897
 20
36.51196874672544
 30
0.0
 40
0.5
  1
30414000
100
AcDbAttributeDefinition
  3

  2
LINA
 70
     8
280
     0
  0
ATTDEF
  5
122
330
119
100
AcDbEntity
  8
attrib
100
AcDbText
 10
23.14081494493897
 20
36.01196874672544
 30
0.0
 40
0.5
  1
Wöhner
100
AcDbAttributeDefinition
  3

  2
CATALOG
 70
     8
280
     0
  0
ATTDEF
  5
123
330
119
100
AcDbEntity
  8
attrib
100
AcDbText
 10
23.14081494493897
 20
35.51196874672544
 30
0.0
 40
0.5
  1
30414000
100
AcDbAttributeDefinition
  3

  2
ARTNR
 70
     8
280
     0
  0
ATTDEF
  5
124
330
119
100
AcDbEntity
  8
attrib
100
AcDbText
 10
23.14081494493897
 20
35.01196874672544
 30
0.0
 40
0.5
  1
CUSTO®60Classic
100
AcDbAttributeDefinition
  3

  2
POF
 70
     8
280
     0
  0
ATTDEF
  5
125
330
119
100
AcDbEntity
  8
attrib
100
AcDbText
 10
23.14081494493897
 20
34.51196874672544
 30
0.0
 40
0.5
  1
woehner
100
AcDbAttributeDefinition
  3

  2
COMPANY
 70
     8
280
     0
  0
ATTDEF
  5
126
330
119
100
AcDbEntity
  8
attrib
100
AcDbText
 10
23.14081494493897
 20
34.01196874672544
 30
0.0
 40
0.5
  1
{$CADENAS_DATA/23d-libs/woehner/sys_60classic/d_fuse_bases/parts/d_fuse_base_custo_part2.prj},163 {VTYP=3D},{NB=30414000},{LINA=30414000},{NN=CUSTO60 Part},{DATE=26.01.2024 06:39:58},{GEOMDATE=08.12.2022 06:03:00},{VERSION=},{LINEID=380},{WBVAR=},{WBNUMER
100
AcDbAttributeDefinition
  3

  2
PSOL_0
 70
     9
280
     0
  0
ATTDEF
  5
127
330
119
100
AcDbEntity
  8
attrib
100
AcDbText
 10
23.14081494493897
 20
33.51196874672544
 30
0.0
 40
0.5
  1
IC=}  {NB=30414000},{LINA=30414000},{KT=DUMMY},{ARTNR=30414000},{POF=CUSTO®60Classic}
100
AcDbAttributeDefinition
  3

  2
PSOL_1
 70
     9
280
     0
  0
LINE
  5
128
330
119
100
AcDbEntity
  8
hidden
100
AcDbLine
 10
13.37589811251063
 20
29.50441122717782
 30
0.0
 11
10.36264035188694
 21
26.49115346655413
 31
0.0
  0
LINE
  5
129
330
119
100
AcDbEntity
  8
hidden
100
AcDbLine
 10
17.43370816375242
 20
33.56222127841961
 30
0.0
 11
14.39181257849068
 21
30.52032569315787
 31
0.0
  0
LINE
  5
12A
330
119
100
AcDbEntity
  8
hidden
100
AcDbLine
 10
9.133257425391344
 20
33.7470519142971
 30
0.0
 11
6.119999664767656
 21
30.73379415367342
 31
0.0
  0
LINE
  5
12B
330
119
100
AcDbEntity
  8
hidden
100
AcDbLine
 10
13.19106747663313
 20
37.80486196553889
 30
0.0
 11
10.14917189137139
 21
34.76296638027715
 31
0.0
  0
LINE
  5
12C
330
119
100
AcDbEntity
  8
hidden
100
AcDbLine
 10
15.64055721941631
 20
33.1832838964566
 30
0.0
 11
10.74157773384995
 21
28.28430441089024
 31
0.0
  0
LINE
  5
12D
330
119
100
AcDbEntity
  8
hidden
100
AcDbLine
 10
12.81213009467012
 20
36.01171102120279
 30
0.0
 11
7.913150609103761
 21
31.11273153563643
 31
0.0
  0
CIRCLE
  5
12E
330
119
100
AcDbEntity
  8
hidden
100
AcDbCircle
 10
11.77685391426004
 20
32.14800771604651
 30
0.0
 40
2.0
  0
LINE
  5
12F
330
119
100
AcDbEntity
  8
center
100
AcDbLine
 10
9.676853914260036
 20
32.14800771604651
 30
0.0
 11
13.87685391426004
 21
32.14800771604651
 31
0.0
  0
LINE
  5
130
330
119
100
AcDbEntity
  8
center
100
AcDbLine
 10
11.77685391426004
 20
30.04800771604651
 30
0.0
 11
11.77685391426004
 21
34.24800771604652
 31
0.0
  0
LINE
  5
131
330
119
100
AcDbEntity
  8
bold
100
AcDbLine
 10
18.14081494493897
 20
32.85511449723307
 30
0.0
 11
11.06974713307349
 21
25.78404668536759
 31
0.0
  0
LINE
  5
132
330
119
100
AcDbEntity
  8
light
100
AcDbLine
 10
10.74157773384995
 20
28.28430441089024
 30
0.0
 11
9.655533570700394
 21
27.19826024774068
 31
0.0
  0
LINE
  5
133
330
119
100
AcDbEntity
  8
bold
100
AcDbLine
 10
12.48396069544659
 20
38.51196874672544
 30
0.0
 11
18.14081494493897
 21
32.85511449723307
 31
0.0
  0
LINE
  5
134
330
119
100
AcDbEntity
  8
bold
100
AcDbLine
 10
5.412892883581108
 20
31.44090093485997
 30
0.0
 11
11.06974713307349
 21
25.78404668536759
 31
0.0
  0
LINE
  5
135
330
119
100
AcDbEntity
  8
light
100
AcDbLine
 10
7.913150609103761
 20
31.11273153563643
 30
0.0
 11
6.827106445954206
 21
30.02668737248687
 31
0.0
  0
LINE
  5
136
330
119
100
AcDbEntity
  8
bold
100
AcDbLine
 10
12.48396069544659
 20
38.51196874672544
 30
0.0
 11
5.412892883581108
 21
31.44090093485997
 31
0.0
  0
LINE
  5
137
330
119
100
AcDbEntity
  8
light
100
AcDbLine
 10
16.72660138256587
 20
34.26932805960615
 30
0.0
 11
15.64055721941631
 21
33.1832838964566
 31
0.0
  0
LINE
  5
138
330
119
100
AcDbEntity
  8
light
100
AcDbLine
 10
13.89817425781968
 20
37.09775518435235
 30
0.0
 11
12.81213009467012
 21
36.01171102120279
 31
0.0
  0
LINE
  5
139
330
119
100
AcDbEntity
  8
bold
100
AcDbLine
 10
12.77716252226559
 20
32.10271752671152
 30
0.0
 11
15.07934408507566
 21
34.40489908952159
 31
0.0
  0
LINE
  5
13A
330
119
100
AcDbEntity
  8
bold
100
AcDbLine
 10
14.37568346715496
 20
30.50419658182215
 30
0.0
 11
12.77716252226559
 21
32.10271752671152
 31
0.0
  0
LINE
  5
13B
330
119
100
AcDbEntity
  8
bold
100
AcDbLine
 10
11.79350627895698
 20
31.11906128340291
 30
0.0
 11
13.39202722384635
 21
29.52054033851354
 31
0.0
  0
LINE
  5
13C
330
119
100
AcDbEntity
  8
bold
100
AcDbLine
 10
9.519962540784961
 20
28.84551754523089
 30
0.0
 11
11.79350627895698
 21
31.11906128340291
 31
0.0
  0
LINE
  5
13D
330
119
100
AcDbEntity
  8
bold
100
AcDbLine
 10
11.73156372492504
 20
33.14831632405207
 30
0.0
 11
10.13304278003567
 21
34.74683726894143
 31
0.0
  0
LINE
  5
13E
330
119
100
AcDbEntity
  8
bold
100
AcDbLine
 10
14.03374528773511
 20
35.45049788686214
 30
0.0
 11
11.73156372492504
 21
33.14831632405207
 31
0.0
  0
LINE
  5
13F
330
119
100
AcDbEntity
  8
bold
100
AcDbLine
 10
10.74790748161643
 20
32.16466008074346
 30
0.0
 11
8.474363743444414
 21
29.89111634257144
 31
0.0
  0
LINE
  5
140
330
119
100
AcDbEntity
  8
bold
100
AcDbLine
 10
9.149386536727063
 20
33.76318102563283
 30
0.0
 11
10.74790748161643
 21
32.16466008074346
 31
0.0
  0
ARC
  5
141
330
119
100
AcDbEntity
  8
light
100
AcDbCircle
 10
11.77685391426
 20
32.14800771604652
 30
0.0
 40
3.000000000000037
100
AcDbArc
 50
328.0087585901989
 51
30.732459578845
  0
LINE
  5
142
330
119
100
AcDbEntity
  8
bold
100
AcDbLine
 10
13.39202722384635
 20
29.52054033851354
 30
0.0
 11
14.37568346715496
 21
30.50419658182215
 31
0.0
  0
ARC
  5
143
330
119
100
AcDbEntity
  8
light
100
AcDbCircle
 10
11.77685391426004
 20
32.14800771604651
 30
0.0
 40
2.999999999999994
100
AcDbArc
 50
239.2675404211545
 51
301.1960740424145
  0
ARC
  5
144
330
119
100
AcDbEntity
  8
light
100
AcDbCircle
 10
11.77685391426004
 20
32.14800771604651
 30
0.0
 40
3.000000000000002
100
AcDbArc
 50
148.8039259575856
 51
210.7324595788454
  0
LINE
  5
145
330
119
100
AcDbEntity
  8
bold
100
AcDbLine
 10
10.13304278003567
 20
34.74683726894143
 30
0.0
 11
9.149386536727063
 21
33.76318102563283
 31
0.0
  0
ARC
  5
146
330
119
100
AcDbEntity
  8
light
100
AcDbCircle
 10
11.77685391426004
 20
32.14800771604653
 30
0.0
 40
2.999999999999986
100
AcDbArc
 50
59.26754042115446
 51
121.9912414098016
  0
CIRCLE
  5
147
330
119
100
AcDbEntity
  8
bold
100
AcDbCircle
 10
11.77685391425986
 20
32.14800771604634
 30
0.0
 40
4.000000000000249
  0
ENDBLK
  5
11C
330
119
100
AcDbEntity
  8
0
100
AcDbBlockEnd
  0
BLOCK
  5
14A
330
148
100
AcDbEntity
  8
0
100
AcDbBlockBegin
  2
7_71437000_1_0_in_31442_0
 70
     2
 10
0.0
 20
0.0
 30
0.0
  3
7_71437000_1_0_in_31442_0
  1

  0
ATTDEF
  5
14C
330
148
100
AcDbEntity
  8
attrib
100
AcDbText
 10
43.586
 20
-61.25700000000001
 30
0.0
 40
0.5
  1
71437000
100
AcDbAttributeDefinition
  3

  2
NB
 70
     8
280
     0
  0
ATTDEF
  5
14D
330
148
100
AcDbEntity
  8
attrib
100
AcDbText
 10
43.586
 20
-61.75700000000001
 30
0.0
 40
0.5
  1
CUSTO60 Part
100
AcDbAttributeDefinition
  3

  2
NN
 70
     8
280
     0
  0
ATTDEF
  5
14E
330
148
100
AcDbEntity
  8
attrib
100
AcDbText
 10
43.586
 20
-62.25700000000001
 30
0.0
 40
0.5
  1

100
AcDbAttributeDefinition
  3

  2
NT
 70
     8
280
     0
  0
ATTDEF
  5
14F
330
148
100
AcDbEntity
  8
attrib
100
AcDbText
 10
43.586
 20
-62.75700000000001
 30
0.0
 40
0.5
  1
$ARTNR.
100
AcDbAttributeDefinition
  3

  2
NBSYN
 70
     8
280
     0
  0
ATTDEF
  5
150
330
148
100
AcDbEntity
  8
attrib
100
AcDbText
 10
43.586
 20
-63.25700000000001
 30
0.0
 40
0.5
  1
71437000
100
AcDbAttributeDefinition
  3

  2
LINA
 70
     8
280
     0
  0
ATTDEF
  5
151
330
148
100
AcDbEntity
  8
attrib
100
AcDbText
 10
43.586
 20
-63.75700000000001
 30
0.0
 40
0.5
  1
Wöhner
100
AcDbAttributeDefinition
  3

  2
CATALOG
 70
     8
280
     0
  0
ATTDEF
  5
152
330
148
100
AcDbEntity
  8
attrib
100
AcDbText
 10
43.586
 20
-64.257
 30
0.0
 40
0.5
  1
71437000
100
AcDbAttributeDefinition
  3

  2
ARTNR
 70
     8
280
     0
  0
ATTDEF
  5
153
330
148
100
AcDbEntity
  8
attrib
100
AcDbText
 10
43.586
 20
-64.757
 30
0.0
 40
0.5
  1
CUSTO®60Classic
100
AcDbAttributeDefinition
  3

  2
POF
 70
     8
280
     0
  0
ATTDEF
  5
154
330
148
100
AcDbEntity
  8
attrib
100
AcDbText
 10
43.586
 20
-65.257
 30
0.0
 40
0.5
  1
2
100
AcDbAttributeDefinition
  3

  2
VER
 70
     8
280
     0
  0
ATTDEF
  5
155
330
148
100
AcDbEntity
  8
attrib
100
AcDbText
 10
43.586
 20
-65.757
 30
0.0
 40
0.5
  1
woehner
100
AcDbAttributeDefinition
  3

  2
COMPANY
 70
     8
280
     0
  0
ATTDEF
  5
156
330
148
100
AcDbEntity
  8
attrib
100
AcDbText
 10
43.586
 20
-66.257
 30
0.0
 40
0.5
  1
{$CADENAS_DATA/23d-libs/woehner/sys_60classic/d_fuse_bases/parts/d_fuse_base_custo_part1.prj},163 {VTYP=3D},{NB=71437000},{LINA=71437000},{NN=CUSTO60 Part},{DATE=26.01.2024 06:39:58},{GEOMDATE=06.12.2022 12:54:25},{VERSION=},{LINEID=870},{WBVAR=},{WBNUMER
100
AcDbAttributeDefinition
  3

  2
PSOL_0
 70
     9
280
     0
  0
ATTDEF
  5
157
330
148
100
AcDbEntity
  8
attrib
100
AcDbText
 10
43.586
 20
-66.757
 30
0.0
 40
0.5
  1
IC=}  {NB=71437000},{LINA=71437000},{KT=DUMMY},{ARTNR=71437000},{POF=CUSTO®60Classic},{VER=2}
100
AcDbAttributeDefinition
  3

  2
PSOL_1
 70
     9
280
     0
  0
LINE
  5
158
330
148
100
AcDbEntity
  8
hidden
100
AcDbLine
 10
34.586
 20
-71.257
 30
0.0
 11
34.586
 21
-61.25700000000001
 31
0.0
  0
LINE
  5
159
330
148
100
AcDbEntity
  8
hidden
100
AcDbLine
 10
22.586
 20
-71.257
 30
0.0
 11
22.586
 21
-61.25700000000001
 31
0.0
  0
LINE
  5
15A
330
148
100
AcDbEntity
  8
center
100
AcDbLine
 10
27.08975
 20
-66.257
 30
0.0
 11
30.08225
 21
-66.257
 31
0.0
  0
LINE
  5
15B
330
148
100
AcDbEntity
  8
center
100
AcDbLine
 10
28.586
 20
-67.75325000000001
 30
0.0
 11
28.586
 21
-64.76075
 31
0.0
  0
LINE
  5
15C
330
148
100
AcDbEntity
  8
bold
100
AcDbLine
 10
18.586
 20
-71.257
 30
0.0
 11
18.586
 21
-61.25700000000001
 31
0.0
  0
LINE
  5
15D
330
148
100
AcDbEntity
  8
bold
100
AcDbLine
 10
38.586
 20
-71.257
 30
0.0
 11
18.586
 21
-71.257
 31
0.0
  0
LINE
  5
15E
330
148
100
AcDbEntity
  8
bold
100
AcDbLine
 10
38.586
 20
-61.25700000000001
 30
0.0
 11
18.586
 21
-61.25700000000001
 31
0.0
  0
LINE
  5
15F
330
148
100
AcDbEntity
  8
bold
100
AcDbLine
 10
38.586
 20
-71.257
 30
0.0
 11
38.586
 21
-61.25700000000001
 31
0.0
  0
CIRCLE
  5
160
330
148
100
AcDbEntity
  8
bold
100
AcDbCircle
 10
28.586
 20
-66.257
 30
0.0
 40
1.425
  0
LINE
  5
161
330
148
100
AcDbEntity
  8
light
100
AcDbLine
 10
20.586
 20
-71.257
 30
0.0
 11
20.586
 21
-61.25700000000001
 31
0.0
  0
LINE
  5
162
330
148
100
AcDbEntity
  8
light
100
AcDbLine
 10
36.586
 20
-71.257
 30
0.0
 11
36.586
 21
-61.25700000000001
 31
0.0
  0
ENDBLK
  5
14B
330
148
100
AcDbEntity
  8
0
100
AcDbBlockEnd
  0
BLOCK
  5
165
330
163
100
AcDbEntity
  8
0
100
AcDbBlockBegin
  2
8_71437000_2_0_in_31442_0
 70
     2
 10
0.0
 20
0.0
 30
0.0
  3
8_71437000_2_0_in_31442_0
  1

  0
ATTDEF
  5
167
330
163
100
AcDbEntity
  8
attrib
100
AcDbText
 10
43.586
 20
-1.256999999999998
 30
0.0
 40
0.5
  1
71437000
100
AcDbAttributeDefinition
  3

  2
NB
 70
     8
280
     0
  0
ATTDEF
  5
168
330
163
100
AcDbEntity
  8
attrib
100
AcDbText
 10
43.586
 20
-1.756999999999998
 30
0.0
 40
0.5
  1
CUSTO60 Part
100
AcDbAttributeDefinition
  3

  2
NN
 70
     8
280
     0
  0
ATTDEF
  5
169
330
163
100
AcDbEntity
  8
attrib
100
AcDbText
 10
43.586
 20
-2.256999999999998
 30
0.0
 40
0.5
  1

100
AcDbAttributeDefinition
  3

  2
NT
 70
     8
280
     0
  0
ATTDEF
  5
16A
330
163
100
AcDbEntity
  8
attrib
100
AcDbText
 10
43.586
 20
-2.756999999999998
 30
0.0
 40
0.5
  1
$ARTNR.
100
AcDbAttributeDefinition
  3

  2
NBSYN
 70
     8
280
     0
  0
ATTDEF
  5
16B
330
163
100
AcDbEntity
  8
attrib
100
AcDbText
 10
43.586
 20
-3.256999999999998
 30
0.0
 40
0.5
  1
71437000
100
AcDbAttributeDefinition
  3

  2
LINA
 70
     8
280
     0
  0
ATTDEF
  5
16C
330
163
100
AcDbEntity
  8
attrib
100
AcDbText
 10
43.586
 20
-3.756999999999998
 30
0.0
 40
0.5
  1
Wöhner
100
AcDbAttributeDefinition
  3

  2
CATALOG
 70
     8
280
     0
  0
ATTDEF
  5
16D
330
163
100
AcDbEntity
  8
attrib
100
AcDbText
 10
43.586
 20
-4.256999999999998
 30
0.0
 40
0.5
  1
71437000
100
AcDbAttributeDefinition
  3

  2
ARTNR
 70
     8
280
     0
  0
ATTDEF
  5
16E
330
163
100
AcDbEntity
  8
attrib
100
AcDbText
 10
43.586
 20
-4.756999999999998
 30
0.0
 40
0.5
  1
CUSTO®60Classic
100
AcDbAttributeDefinition
  3

  2
POF
 70
     8
280
     0
  0
ATTDEF
  5
16F
330
163
100
AcDbEntity
  8
attrib
100
AcDbText
 10
43.586
 20
-5.256999999999998
 30
0.0
 40
0.5
  1
2
100
AcDbAttributeDefinition
  3

  2
VER
 70
     8
280
     0
  0
ATTDEF
  5
170
330
163
100
AcDbEntity
  8
attrib
100
AcDbText
 10
43.586
 20
-5.756999999999998
 30
0.0
 40
0.5
  1
woehner
100
AcDbAttributeDefinition
  3

  2
COMPANY
 70
     8
280
     0
  0
ATTDEF
  5
171
330
163
100
AcDbEntity
  8
attrib
100
AcDbText
 10
43.586
 20
-6.256999999999998
 30
0.0
 40
0.5
  1
{$CADENAS_DATA/23d-libs/woehner/sys_60classic/d_fuse_bases/parts/d_fuse_base_custo_part1.prj},163 {VTYP=3D},{NB=71437000},{LINA=71437000},{NN=CUSTO60 Part},{DATE=26.01.2024 06:39:58},{GEOMDATE=06.12.2022 12:54:25},{VERSION=},{LINEID=870},{WBVAR=},{WBNUMER
100
AcDbAttributeDefinition
  3

  2
PSOL_0
 70
     9
280
     0
  0
ATTDEF
  5
172
330
163
100
AcDbEntity
  8
attrib
100
AcDbText
 10
43.586
 20
-6.756999999999998
 30
0.0
 40
0.5
  1
IC=}  {NB=71437000},{LINA=71437000},{KT=DUMMY},{ARTNR=71437000},{POF=CUSTO®60Classic},{VER=2}
100
AcDbAttributeDefinition
  3

  2
PSOL_1
 70
     9
280
     0
  0
LINE
  5
173
330
163
100
AcDbEntity
  8
hidden
100
AcDbLine
 10
22.586
 20
-11.257
 30
0.0
 11
22.586
 21
-1.256999999999998
 31
0.0
  0
LINE
  5
174
330
163
100
AcDbEntity
  8
hidden
100
AcDbLine
 10
34.586
 20
-11.257
 30
0.0
 11
34.586
 21
-1.256999999999998
 31
0.0
  0
LINE
  5
175
330
163
100
AcDbEntity
  8
center
100
AcDbLine
 10
27.08975
 20
-6.256999999999998
 30
0.0
 11
30.08225
 21
-6.256999999999998
 31
0.0
  0
LINE
  5
176
330
163
100
AcDbEntity
  8
center
100
AcDbLine
 10
28.586
 20
-7.753249999999998
 30
0.0
 11
28.586
 21
-4.760749999999998
 31
0.0
  0
LINE
  5
177
330
163
100
AcDbEntity
  8
bold
100
AcDbLine
 10
18.586
 20
-11.257
 30
0.0
 11
18.586
 21
-1.256999999999998
 31
0.0
  0
LINE
  5
178
330
163
100
AcDbEntity
  8
bold
100
AcDbLine
 10
38.586
 20
-1.256999999999998
 30
0.0
 11
18.586
 21
-1.256999999999998
 31
0.0
  0
LINE
  5
179
330
163
100
AcDbEntity
  8
bold
100
AcDbLine
 10
38.586
 20
-11.257
 30
0.0
 11
18.586
 21
-11.257
 31
0.0
  0
LINE
  5
17A
330
163
100
AcDbEntity
  8
bold
100
AcDbLine
 10
38.586
 20
-11.257
 30
0.0
 11
38.586
 21
-1.256999999999998
 31
0.0
  0
CIRCLE
  5
17B
330
163
100
AcDbEntity
  8
bold
100
AcDbCircle
 10
28.586
 20
-6.256999999999998
 30
0.0
 40
1.425
  0
LINE
  5
17C
330
163
100
AcDbEntity
  8
light
100
AcDbLine
 10
20.586
 20
-11.257
 30
0.0
 11
20.586
 21
-1.256999999999998
 31
0.0
  0
LINE
  5
17D
330
163
100
AcDbEntity
  8
light
100
AcDbLine
 10
36.586
 20
-11.257
 30
0.0
 11
36.586
 21
-1.256999999999998
 31
0.0
  0
ENDBLK
  5
166
330
163
100
AcDbEntity
  8
0
100
AcDbBlockEnd
  0
BLOCK
  5
180
330
17E
100
AcDbEntity
  8
0
100
AcDbBlockBegin
  2
9_71437000_3_0_in_31442_0
 70
     2
 10
0.0
 20
0.0
 30
0.0
  3
9_71437000_3_0_in_31442_0
  1

  0
ATTDEF
  5
182
330
17E
100
AcDbEntity
  8
attrib
100
AcDbText
 10
43.586
 20
58.743
 30
0.0
 40
0.5
  1
71437000
100
AcDbAttributeDefinition
  3

  2
NB
 70
     8
280
     0
  0
ATTDEF
  5
183
330
17E
100
AcDbEntity
  8
attrib
100
AcDbText
 10
43.586
 20
58.243
 30
0.0
 40
0.5
  1
CUSTO60 Part
100
AcDbAttributeDefinition
  3

  2
NN
 70
     8
280
     0
  0
ATTDEF
  5
184
330
17E
100
AcDbEntity
  8
attrib
100
AcDbText
 10
43.586
 20
57.743
 30
0.0
 40
0.5
  1

100
AcDbAttributeDefinition
  3

  2
NT
 70
     8
280
     0
  0
ATTDEF
  5
185
330
17E
100
AcDbEntity
  8
attrib
100
AcDbText
 10
43.586
 20
57.243
 30
0.0
 40
0.5
  1
$ARTNR.
100
AcDbAttributeDefinition
  3

  2
NBSYN
 70
     8
280
     0
  0
ATTDEF
  5
186
330
17E
100
AcDbEntity
  8
attrib
100
AcDbText
 10
43.586
 20
56.743
 30
0.0
 40
0.5
  1
71437000
100
AcDbAttributeDefinition
  3

  2
LINA
 70
     8
280
     0
  0
ATTDEF
  5
187
330
17E
100
AcDbEntity
  8
attrib
100
AcDbText
 10
43.586
 20
56.243
 30
0.0
 40
0.5
  1
Wöhner
100
AcDbAttributeDefinition
  3

  2
CATALOG
 70
     8
280
     0
  0
ATTDEF
  5
188
330
17E
100
AcDbEntity
  8
attrib
100
AcDbText
 10
43.586
 20
55.743
 30
0.0
 40
0.5
  1
71437000
100
AcDbAttributeDefinition
  3

  2
ARTNR
 70
     8
280
     0
  0
ATTDEF
  5
189
330
17E
100
AcDbEntity
  8
attrib
100
AcDbText
 10
43.586
 20
55.243
 30
0.0
 40
0.5
  1
CUSTO®60Classic
100
AcDbAttributeDefinition
  3

  2
POF
 70
     8
280
     0
  0
ATTDEF
  5
18A
330
17E
100
AcDbEntity
  8
attrib
100
AcDbText
 10
43.586
 20
54.743
 30
0.0
 40
0.5
  1
2
100
AcDbAttributeDefinition
  3

  2
VER
 70
     8
280
     0
  0
ATTDEF
  5
18B
330
17E
100
AcDbEntity
  8
attrib
100
AcDbText
 10
43.586
 20
54.243
 30
0.0
 40
0.5
  1
woehner
100
AcDbAttributeDefinition
  3

  2
COMPANY
 70
     8
280
     0
  0
ATTDEF
  5
18C
330
17E
100
AcDbEntity
  8
attrib
100
AcDbText
 10
43.586
 20
53.743
 30
0.0
 40
0.5
  1
{$CADENAS_DATA/23d-libs/woehner/sys_60classic/d_fuse_bases/parts/d_fuse_base_custo_part1.prj},163 {VTYP=3D},{NB=71437000},{LINA=71437000},{NN=CUSTO60 Part},{DATE=26.01.2024 06:39:58},{GEOMDATE=06.12.2022 12:54:25},{VERSION=},{LINEID=870},{WBVAR=},{WBNUMER
100
AcDbAttributeDefinition
  3

  2
PSOL_0
 70
     9
280
     0
  0
ATTDEF
  5
18D
330
17E
100
AcDbEntity
  8
attrib
100
AcDbText
 10
43.586
 20
53.243
 30
0.0
 40
0.5
  1
IC=}  {NB=71437000},{LINA=71437000},{KT=DUMMY},{ARTNR=71437000},{POF=CUSTO®60Classic},{VER=2}
100
AcDbAttributeDefinition
  3

  2
PSOL_1
 70
     9
280
     0
  0
LINE
  5
18E
330
17E
100
AcDbEntity
  8
hidden
100
AcDbLine
 10
34.586
 20
48.743
 30
0.0
 11
34.586
 21
58.743
 31
0.0
  0
LINE
  5
18F
330
17E
100
AcDbEntity
  8
hidden
100
AcDbLine
 10
22.586
 20
48.743
 30
0.0
 11
22.586
 21
58.743
 31
0.0
  0
LINE
  5
190
330
17E
100
AcDbEntity
  8
center
100
AcDbLine
 10
27.08975
 20
53.74300000000001
 30
0.0
 11
30.08225
 21
53.74300000000001
 31
0.0
  0
LINE
  5
191
330
17E
100
AcDbEntity
  8
center
100
AcDbLine
 10
28.586
 20
52.24675000000001
 30
0.0
 11
28.586
 21
55.23925000000001
 31
0.0
  0
LINE
  5
192
330
17E
100
AcDbEntity
  8
bold
100
AcDbLine
 10
18.586
 20
48.743
 30
0.0
 11
18.586
 21
58.743
 31
0.0
  0
LINE
  5
193
330
17E
100
AcDbEntity
  8
bold
100
AcDbLine
 10
38.586
 20
48.743
 30
0.0
 11
18.586
 21
48.743
 31
0.0
  0
LINE
  5
194
330
17E
100
AcDbEntity
  8
bold
100
AcDbLine
 10
38.586
 20
58.743
 30
0.0
 11
18.586
 21
58.743
 31
0.0
  0
LINE
  5
195
330
17E
100
AcDbEntity
  8
bold
100
AcDbLine
 10
38.586
 20
48.743
 30
0.0
 11
38.586
 21
58.743
 31
0.0
  0
CIRCLE
  5
196
330
17E
100
AcDbEntity
  8
bold
100
AcDbCircle
 10
28.586
 20
53.74300000000001
 30
0.0
 40
1.425
  0
LINE
  5
197
330
17E
100
AcDbEntity
  8
light
100
AcDbLine
 10
20.586
 20
48.743
 30
0.0
 11
20.586
 21
58.743
 31
0.0
  0
LINE
  5
198
330
17E
100
AcDbEntity
  8
light
100
AcDbLine
 10
36.586
 20
48.743
 30
0.0
 11
36.586
 21
58.743
 31
0.0
  0
ENDBLK
  5
181
330
17E
100
AcDbEntity
  8
0
100
AcDbBlockEnd
  0
BLOCK
  5
19B
330
199
100
AcDbEntity
  8
0
100
AcDbBlockBegin
  2
10_78547000_0_in_31442_0
 70
     2
 10
0.0
 20
0.0
 30
0.0
  3
10_78547000_0_in_31442_0
  1

  0
ATTDEF
  5
19D
330
199
100
AcDbEntity
  8
attrib
100
AcDbText
 10
62.0
 20
77.14930000000001
 30
0.0
 40
0.5
  1
78547000
100
AcDbAttributeDefinition
  3

  2
NB
 70
     8
280
     0
  0
ATTDEF
  5
19E
330
199
100
AcDbEntity
  8
attrib
100
AcDbText
 10
62.0
 20
76.64930000000001
 30
0.0
 40
0.5
  1
CUSTO60 Base
100
AcDbAttributeDefinition
  3

  2
NN
 70
     8
280
     0
  0
ATTDEF
  5
19F
330
199
100
AcDbEntity
  8
attrib
100
AcDbText
 10
62.0
 20
76.14930000000001
 30
0.0
 40
0.5
  1

100
AcDbAttributeDefinition
  3

  2
NT
 70
     8
280
     0
  0
ATTDEF
  5
1A0
330
199
100
AcDbEntity
  8
attrib
100
AcDbText
 10
62.0
 20
75.64930000000001
 30
0.0
 40
0.5
  1
$ARTNR.
100
AcDbAttributeDefinition
  3

  2
NBSYN
 70
     8
280
     0
  0
ATTDEF
  5
1A1
330
199
100
AcDbEntity
  8
attrib
100
AcDbText
 10
62.0
 20
75.14930000000001
 30
0.0
 40
0.5
  1
78547000
100
AcDbAttributeDefinition
  3

  2
LINA
 70
     8
280
     0
  0
ATTDEF
  5
1A2
330
199
100
AcDbEntity
  8
attrib
100
AcDbText
 10
62.0
 20
74.64930000000001
 30
0.0
 40
0.5
  1
Wöhner
100
AcDbAttributeDefinition
  3

  2
CATALOG
 70
     8
280
     0
  0
ATTDEF
  5
1A3
330
199
100
AcDbEntity
  8
attrib
100
AcDbText
 10
62.0
 20
74.14930000000001
 30
0.0
 40
0.5
  1
78547000
100
AcDbAttributeDefinition
  3

  2
ARTNR
 70
     8
280
     0
  0
ATTDEF
  5
1A4
330
199
100
AcDbEntity
  8
attrib
100
AcDbText
 10
62.0
 20
73.64930000000001
 30
0.0
 40
0.5
  1
CUSTO®60Classic
100
AcDbAttributeDefinition
  3

  2
POF
 70
     8
280
     0
  0
ATTDEF
  5
1A5
330
199
100
AcDbEntity
  8
attrib
100
AcDbText
 10
62.0
 20
73.14930000000001
 30
0.0
 40
0.5
  1
E 33 / 3P
100
AcDbAttributeDefinition
  3

  2
TYPE
 70
     8
280
     0
  0
ATTDEF
  5
1A6
330
199
100
AcDbEntity
  8
attrib
100
AcDbText
 10
62.0
 20
72.64930000000001
 30
0.0
 40
0.5
  1
2
100
AcDbAttributeDefinition
  3

  2
VER
 70
     8
280
     0
  0
ATTDEF
  5
1A7
330
199
100
AcDbEntity
  8
attrib
100
AcDbText
 10
62.0
 20
72.14930000000001
 30
0.0
 40
0.5
  1
woehner
100
AcDbAttributeDefinition
  3

  2
COMPANY
 70
     8
280
     0
  0
ATTDEF
  5
1A8
330
199
100
AcDbEntity
  8
attrib
100
AcDbText
 10
62.0
 20
71.64930000000001
 30
0.0
 40
0.5
  1
{$CADENAS_DATA/23d-libs/woehner/sys_60classic/d_fuse_bases/parts/d_fuse_base_custo_base.prj},176 {VTYP=3D},{NB=78547000},{LINA=78547000},{NN=CUSTO60 Base},{DATE=26.01.2024 07:04:31},{GEOMDATE=02.10.2023 07:48:00},{VERSION=v231002115156},{LINEID=870},{WBVA
100
AcDbAttributeDefinition
  3

  2
PSOL_0
 70
     9
280
     0
  0
ATTDEF
  5
1A9
330
199
100
AcDbEntity
  8
attrib
100
AcDbText
 10
62.0
 20
71.14930000000001
 30
0.0
 40
0.5
  1
R=},{WBNUMERIC=}  {NB=78547000},{LINA=78547000},{KT=DUMMY},{ARTNR=78547000},{POF=CUSTO®60Classic},{TYPE=E 33 / 3P},{VER=2}
100
AcDbAttributeDefinition
  3

  2
PSOL_1
 70
     9
280
     0
  0
LINE
  5
1AA
330
199
100
AcDbEntity
  8
hidden
100
AcDbLine
 10
16.0
 20
-60.0
 30
0.0
 11
16.00000000000001
 21
-42.8507
 31
0.0
  0
LINE
  5
1AB
330
199
100
AcDbEntity
  8
hidden
100
AcDbLine
 10
16.0
 20
0.0
 30
0.0
 11
16.00000000000001
 21
17.1493
 31
0.0
  0
LINE
  5
1AC
330
199
100
AcDbEntity
  8
hidden
100
AcDbLine
 10
16.0
 20
60.0
 30
0.0
 11
16.00000000000001
 21
77.14930000000001
 31
0.0
  0
LINE
  5
1AD
330
199
100
AcDbEntity
  8
hidden
100
AcDbLine
 10
41.0
 20
-60.0
 30
0.0
 11
41.0
 21
-42.8507
 31
0.0
  0
LINE
  5
1AE
330
199
100
AcDbEntity
  8
hidden
100
AcDbLine
 10
41.0
 20
0.0
 30
0.0
 11
41.0
 21
17.1493
 31
0.0
  0
LINE
  5
1AF
330
199
100
AcDbEntity
  8
hidden
100
AcDbLine
 10
18.586
 20
-68.2836
 30
0.0
 11
38.586
 21
-68.2836
 31
0.0
  0
LINE
  5
1B0
330
199
100
AcDbEntity
  8
hidden
100
AcDbLine
 10
38.0
 20
-68.2836
 30
0.0
 11
38.0
 21
-61.25700000000001
 31
0.0
  0
LINE
  5
1B1
330
199
100
AcDbEntity
  8
hidden
100
AcDbLine
 10
38.0
 20
-8.283600000000005
 30
0.0
 11
38.0
 21
-1.256999999999998
 31
0.0
  0
LINE
  5
1B2
330
199
100
AcDbEntity
  8
hidden
100
AcDbLine
 10
18.586
 20
-8.283600000000005
 30
0.0
 11
38.586
 21
-8.283600000000005
 31
0.0
  0
LINE
  5
1B3
330
199
100
AcDbEntity
  8
hidden
100
AcDbLine
 10
19.0
 20
-68.2836
 30
0.0
 11
19.0
 21
-61.25700000000001
 31
0.0
  0
LINE
  5
1B4
330
199
100
AcDbEntity
  8
hidden
100
AcDbLine
 10
41.0
 20
60.0
 30
0.0
 11
41.0
 21
77.14930000000001
 31
0.0
  0
LINE
  5
1B5
330
199
100
AcDbEntity
  8
hidden
100
AcDbLine
 10
19.0
 20
51.7164
 30
0.0
 11
19.0
 21
58.743
 31
0.0
  0
LINE
  5
1B6
330
199
100
AcDbEntity
  8
hidden
100
AcDbLine
 10
38.0
 20
51.7164
 30
0.0
 11
38.0
 21
58.743
 31
0.0
  0
LINE
  5
1B7
330
199
100
AcDbEntity
  8
hidden
100
AcDbLine
 10
18.586
 20
51.7164
 30
0.0
 11
38.586
 21
51.7164
 31
0.0
  0
LINE
  5
1B8
330
199
100
AcDbEntity
  8
hidden
100
AcDbLine
 10
19.0
 20
-8.283600000000005
 30
0.0
 11
19.0
 21
-1.256999999999998
 31
0.0
  0
LINE
  5
1B9
330
199
100
AcDbEntity
  8
hidden
100
AcDbLine
 10
49.0
 20
-29.4507
 30
0.0
 11
52.00000000000001
 21
-29.4507
 31
0.0
  0
LINE
  5
1BA
330
199
100
AcDbEntity
  8
hidden
100
AcDbLine
 10
49.0
 20
-28.8507
 30
0.0
 11
52.00000000000001
 21
-28.8507
 31
0.0
  0
LINE
  5
1BB
330
199
100
AcDbEntity
  8
hidden
100
AcDbLine
 10
49.0
 20
-24.26357413744739
 30
0.0
 11
52.00000000000001
 21
-24.26357413744739
 31
0.0
  0
LINE
  5
1BC
330
199
100
AcDbEntity
  8
hidden
100
AcDbLine
 10
49.0
 20
-18.09315614280432
 30
0.0
 11
52.00000000000001
 21
-18.09315614280432
 31
0.0
  0
LINE
  5
1BD
330
199
100
AcDbEntity
  8
hidden
100
AcDbLine
 10
49.0
 20
-23.8507
 30
0.0
 11
52.00000000000001
 21
-23.8507
 31
0.0
  0
LINE
  5
1BE
330
199
100
AcDbEntity
  8
hidden
100
AcDbLine
 10
49.0
 20
-12.8507
 30
0.0
 11
52.00000000000001
 21
-12.8507
 31
0.0
  0
LINE
  5
1BF
330
199
100
AcDbEntity
  8
hidden
100
AcDbLine
 10
49.0
 20
-13.12483787209961
 30
0.0
 11
52.00000000000001
 21
-13.12483787209961
 31
0.0
  0
LINE
  5
1C0
330
199
100
AcDbEntity
  8
hidden
100
AcDbLine
 10
49.0
 20
-17.47240000000001
 30
0.0
 11
52.00000000000001
 21
-17.47240000000001
 31
0.0
  0
LINE
  5
1C1
330
199
100
AcDbEntity
  8
hidden
100
AcDbLine
 10
49.0
 20
-9.850700000000003
 30
0.0
 11
49.0
 21
-39.8507
 31
0.0
  0
LINE
  5
1C2
330
199
100
AcDbEntity
  8
hidden
100
AcDbLine
 10
57.0
 20
17.1493
 30
0.0
 11
0.0
 21
17.1493
 31
0.0
  0
LINE
  5
1C3
330
199
100
AcDbEntity
  8
hidden
100
AcDbLine
 10
49.0
 20
-9.850700000000003
 30
0.0
 11
52.00000000000001
 21
-9.850700000000003
 31
0.0
  0
LINE
  5
1C4
330
199
100
AcDbEntity
  8
hidden
100
AcDbLine
 10
52.00000000000001
 20
-9.850700000000003
 30
0.0
 11
52.00000000000001
 21
-39.8507
 31
0.0
  0
LINE
  5
1C5
330
199
100
AcDbEntity
  8
hidden
100
AcDbLine
 10
57.0
 20
-42.8507
 30
0.0
 11
0.0
 21
-42.8507
 31
0.0
  0
LINE
  5
1C6
330
199
100
AcDbEntity
  8
hidden
100
AcDbLine
 10
13.66202811837143
 20
0.0
 30
0.0
 11
0.0
 21
0.0
 31
0.0
  0
LINE
  5
1C7
330
199
100
AcDbEntity
  8
hidden
100
AcDbLine
 10
57.0
 20
0.0
 30
0.0
 11
43.33797188162857
 21
0.0
 31
0.0
  0
LINE
  5
1C8
330
199
100
AcDbEntity
  8
hidden
100
AcDbLine
 10
49.0
 20
-39.8507
 30
0.0
 11
52.00000000000001
 21
-39.8507
 31
0.0
  0
LINE
  5
1C9
330
199
100
AcDbEntity
  8
hidden
100
AcDbLine
 10
13.66202811837143
 20
-60.0
 30
0.0
 11
0.0
 21
-60.00000000000001
 31
0.0
  0
LINE
  5
1CA
330
199
100
AcDbEntity
  8
hidden
100
AcDbLine
 10
57.0
 20
-60.00000000000001
 30
0.0
 11
43.33797188162857
 21
-60.0
 31
0.0
  0
LINE
  5
1CB
330
199
100
AcDbEntity
  8
hidden
100
AcDbLine
 10
13.66202811837143
 20
60.0
 30
0.0
 11
0.0
 21
60.0
 31
0.0
  0
LINE
  5
1CC
330
199
100
AcDbEntity
  8
hidden
100
AcDbLine
 10
57.0
 20
60.0
 30
0.0
 11
43.33797188162857
 21
60.0
 31
0.0
  0
LINE
  5
1CD
330
199
100
AcDbEntity
  8
hidden
100
AcDbLine
 10
40.91691554453038
 20
-55.8956
 30
0.0
 11
42.79789465760607
 21
-55.8956
 31
0.0
  0
LINE
  5
1CE
330
199
100
AcDbEntity
  8
hidden
100
AcDbLine
 10
14.20210534239393
 20
-55.8956
 30
0.0
 11
16.08308445546962
 21
-55.8956
 31
0.0
  0
LINE
  5
1CF
330
199
100
AcDbEntity
  8
hidden
100
AcDbLine
 10
40.37362433463345
 20
-76.7108
 30
0.0
 11
42.32870040314707
 21
-76.7108
 31
0.0
  0
LINE
  5
1D0
330
199
100
AcDbEntity
  8
hidden
100
AcDbLine
 10
14.67129959685294
 20
-76.7108
 30
0.0
 11
16.62637566536655
 21
-76.7108
 31
0.0
  0
LINE
  5
1D1
330
199
100
AcDbEntity
  8
hidden
100
AcDbLine
 10
40.91691554453038
 20
4.104399999999998
 30
0.0
 11
42.79789465760607
 21
4.104399999999997
 31
0.0
  0
LINE
  5
1D2
330
199
100
AcDbEntity
  8
hidden
100
AcDbLine
 10
14.20210534239393
 20
4.104399999999998
 30
0.0
 11
16.08308445546962
 21
4.104399999999998
 31
0.0
  0
LINE
  5
1D3
330
199
100
AcDbEntity
  8
hidden
100
AcDbLine
 10
40.37362433463345
 20
43.2892
 30
0.0
 11
42.32870040314707
 21
43.2892
 31
0.0
  0
LINE
  5
1D4
330
199
100
AcDbEntity
  8
hidden
100
AcDbLine
 10
14.67129959685293
 20
43.2892
 30
0.0
 11
16.62637566536654
 21
43.2892
 31
0.0
  0
LINE
  5
1D5
330
199
100
AcDbEntity
  8
hidden
100
AcDbLine
 10
40.37362433463347
 20
-16.7108
 30
0.0
 11
42.32870040314707
 21
-16.7108
 31
0.0
  0
LINE
  5
1D6
330
199
100
AcDbEntity
  8
hidden
100
AcDbLine
 10
14.67129959685293
 20
-16.7108
 30
0.0
 11
16.62637566536653
 21
-16.7108
 31
0.0
  0
LINE
  5
1D7
330
199
100
AcDbEntity
  8
hidden
100
AcDbLine
 10
40.91691554453038
 20
64.10440000000001
 30
0.0
 11
42.79789465760606
 21
64.10440000000001
 31
0.0
  0
LINE
  5
1D8
330
199
100
AcDbEntity
  8
hidden
100
AcDbLine
 10
14.20210534239393
 20
64.10440000000001
 30
0.0
 11
16.08308445546962
 21
64.10440000000001
 31
0.0
  0
LINE
  5
1D9
330
199
100
AcDbEntity
  8
hidden
100
AcDbLine
 10
12.45674222297935
 20
-17.39394856227408
 30
0.0
 11
12.23133095736479
 21
-17.61935982788867
 31
0.0
  0
CIRCLE
  5
1DA
330
199
100
AcDbEntity
  8
hidden
100
AcDbCircle
 10
28.5
 20
-5.986199999999997
 30
0.0
 40
17.5
  0
LINE
  5
1DB
330
199
100
AcDbEntity
  8
hidden
100
AcDbLine
 10
28.86777418769131
 20
-25.98281826776887
 30
0.0
 11
29.19092109421936
 21
-25.65967136124082
 31
0.0
  0
ARC
  5
1DC
330
199
100
AcDbEntity
  8
hidden
100
AcDbCircle
 10
28.5
 20
-5.986199999999995
 30
0.0
 40
19.6856
100
AcDbArc
 50
272.0113684485018
 51
215.4151807113947
  0
LINE
  5
1DD
330
199
100
AcDbEntity
  8
hidden
100
AcDbLine
 10
13.10162865942105
 20
-18.74904294574045
 30
0.0
 11
13.32493010486303
 21
-18.52574150029847
 31
0.0
  0
ARC
  5
1DE
330
199
100
AcDbEntity
  8
hidden
100
AcDbCircle
 10
28.49999999999998
 20
-5.986200000000023
 30
0.0
 40
19.68559999999997
100
AcDbArc
 50
219.5677779243892
 51
263.5890360730537
  0
LINE
  5
1DF
330
199
100
AcDbEntity
  8
hidden
100
AcDbLine
 10
26.30192373445808
 20
-25.54869749114006
 30
0.0
 11
26.01891276337306
 21
-25.83170846222507
 31
0.0
  0
LINE
  5
1E0
330
199
100
AcDbEntity
  8
hidden
100
AcDbLine
 10
26.30192373445819
 20
-85.54869749114008
 30
0.0
 11
26.01891276337319
 21
-85.83170846222508
 31
0.0
  0
CIRCLE
  5
1E1
330
199
100
AcDbEntity
  8
hidden
100
AcDbCircle
 10
28.5
 20
-65.9862
 30
0.0
 40
17.5
  0
LINE
  5
1E2
330
199
100
AcDbEntity
  8
hidden
100
AcDbLine
 10
28.86777418769146
 20
-85.98281826776888
 30
0.0
 11
29.19092109421953
 21
-85.65967136124081
 31
0.0
  0
ARC
  5
1E3
330
199
100
AcDbEntity
  8
hidden
100
AcDbCircle
 10
28.5
 20
-65.9862
 30
0.0
 40
19.6856
100
AcDbArc
 50
272.0113684485023
 51
215.4151807113948
  0
LINE
  5
1E4
330
199
100
AcDbEntity
  8
hidden
100
AcDbLine
 10
12.45674222297937
 20
-77.3939485622741
 30
0.0
 11
12.2313309573648
 21
-77.61935982788867
 31
0.0
  0
LINE
  5
1E5
330
199
100
AcDbEntity
  8
hidden
100
AcDbLine
 10
13.10162865942105
 20
-78.74904294574046
 30
0.0
 11
13.32493010486303
 21
-78.52574150029847
 31
0.0
  0
ARC
  5
1E6
330
199
100
AcDbEntity
  8
hidden
100
AcDbCircle
 10
28.50000000000003
 20
-65.98619999999995
 30
0.0
 40
19.68560000000005
100
AcDbArc
 50
219.5677779243892
 51
263.589036073054
  0
LINE
  5
1E7
330
199
100
AcDbEntity
  8
hidden
100
AcDbLine
 10
26.301923734458
 20
34.45130250885996
 30
0.0
 11
26.01891276337299
 21
34.16829153777495
 31
0.0
  0
CIRCLE
  5
1E8
330
199
100
AcDbEntity
  8
hidden
100
AcDbCircle
 10
28.5
 20
54.01380000000001
 30
0.0
 40
17.5
  0
LINE
  5
1E9
330
199
100
AcDbEntity
  8
hidden
100
AcDbLine
 10
28.86777418769123
 20
34.01718173223113
 30
0.0
 11
29.19092109421927
 21
34.34032863875917
 31
0.0
  0
ARC
  5
1EA
330
199
100
AcDbEntity
  8
hidden
100
AcDbCircle
 10
28.5
 20
54.0138
 30
0.0
 40
19.6856
100
AcDbArc
 50
272.0113684485015
 51
215.4151807113947
  0
LINE
  5
1EB
330
199
100
AcDbEntity
  8
hidden
100
AcDbLine
 10
12.45674222297935
 20
42.60605143772592
 30
0.0
 11
12.23133095736479
 21
42.38064017211133
 31
0.0
  0
LINE
  5
1EC
330
199
100
AcDbEntity
  8
hidden
100
AcDbLine
 10
13.10162865942105
 20
41.25095705425956
 30
0.0
 11
13.32493010486303
 21
41.47425849970153
 31
0.0
  0
ARC
  5
1ED
330
199
100
AcDbEntity
  8
hidden
100
AcDbCircle
 10
28.4999999999999
 20
54.01379999999986
 30
0.0
 40
19.68559999999983
100
AcDbArc
 50
219.567777924389
 51
263.5890360730537
  0
LINE
  5
1EE
330
199
100
AcDbEntity
  8
bold
100
AcDbLine
 10
38.586
 20
-68.2836
 30
0.0
 11
41.0
 21
-68.2836
 31
0.0
  0
LINE
  5
1EF
330
199
100
AcDbEntity
  8
bold
100
AcDbLine
 10
41.0
 20
-68.2836
 30
0.0
 11
41.0
 21
-60.0
 31
0.0
  0
LINE
  5
1F0
330
199
100
AcDbEntity
  8
bold
100
AcDbLine
 10
38.0
 20
-61.25700000000001
 30
0.0
 11
38.0
 21
-60.00000000000001
 31
0.0
  0
LINE
  5
1F1
330
199
100
AcDbEntity
  8
bold
100
AcDbLine
 10
38.0
 20
-1.256999999999998
 30
0.0
 11
38.0
 21
-0.0000000000000035
 31
0.0
  0
LINE
  5
1F2
330
199
100
AcDbEntity
  8
bold
100
AcDbLine
 10
38.586
 20
-8.283600000000005
 30
0.0
 11
41.0
 21
-8.283600000000005
 31
0.0
  0
LINE
  5
1F3
330
199
100
AcDbEntity
  8
bold
100
AcDbLine
 10
41.0
 20
-8.283600000000005
 30
0.0
 11
41.0
 21
0.0
 31
0.0
  0
LINE
  5
1F4
330
199
100
AcDbEntity
  8
bold
100
AcDbLine
 10
19.0
 20
-61.25700000000001
 30
0.0
 11
19.0
 21
-60.00000000000001
 31
0.0
  0
LINE
  5
1F5
330
199
100
AcDbEntity
  8
bold
100
AcDbLine
 10
16.0
 20
-68.2836
 30
0.0
 11
18.586
 21
-68.2836
 31
0.0
  0
LINE
  5
1F6
330
199
100
AcDbEntity
  8
bold
100
AcDbLine
 10
16.0
 20
-68.2836
 30
0.0
 11
16.0
 21
-60.0
 31
0.0
  0
LINE
  5
1F7
330
199
100
AcDbEntity
  8
bold
100
AcDbLine
 10
19.0
 20
58.743
 30
0.0
 11
19.0
 21
60.00000000000001
 31
0.0
  0
LINE
  5
1F8
330
199
100
AcDbEntity
  8
bold
100
AcDbLine
 10
16.0
 20
51.7164
 30
0.0
 11
16.0
 21
60.0
 31
0.0
  0
LINE
  5
1F9
330
199
100
AcDbEntity
  8
bold
100
AcDbLine
 10
16.0
 20
51.7164
 30
0.0
 11
18.586
 21
51.7164
 31
0.0
  0
LINE
  5
1FA
330
199
100
AcDbEntity
  8
bold
100
AcDbLine
 10
38.0
 20
58.743
 30
0.0
 11
38.0
 21
60.00000000000001
 31
0.0
  0
LINE
  5
1FB
330
199
100
AcDbEntity
  8
bold
100
AcDbLine
 10
38.586
 20
51.7164
 30
0.0
 11
41.0
 21
51.7164
 31
0.0
  0
LINE
  5
1FC
330
199
100
AcDbEntity
  8
bold
100
AcDbLine
 10
41.0
 20
51.7164
 30
0.0
 11
41.0
 21
60.0
 31
0.0
  0
LINE
  5
1FD
330
199
100
AcDbEntity
  8
bold
100
AcDbLine
 10
16.0
 20
-8.283600000000005
 30
0.0
 11
16.0
 21
0.0
 31
0.0
  0
LINE
  5
1FE
330
199
100
AcDbEntity
  8
bold
100
AcDbLine
 10
16.0
 20
-8.283600000000005
 30
0.0
 11
18.586
 21
-8.283600000000005
 31
0.0
  0
LINE
  5
1FF
330
199
100
AcDbEntity
  8
bold
100
AcDbLine
 10
19.0
 20
-1.256999999999998
 30
0.0
 11
19.0
 21
-0.0000000000000035
 31
0.0
  0
LINE
  5
200
330
199
100
AcDbEntity
  8
bold
100
AcDbLine
 10
13.66202811837143
 20
-60.0
 30
0.0
 11
43.33797188162857
 21
-60.0
 31
0.0
  0
LINE
  5
201
330
199
100
AcDbEntity
  8
bold
100
AcDbLine
 10
13.66202811837143
 20
60.0
 30
0.0
 11
43.33797188162857
 21
60.0
 31
0.0
  0
LINE
  5
202
330
199
100
AcDbEntity
  8
bold
100
AcDbLine
 10
13.66202811837143
 20
0.0
 30
0.0
 11
43.33797188162857
 21
0.0
 31
0.0
  0
LINE
  5
203
330
199
100
AcDbEntity
  8
bold
100
AcDbLine
 10
16.08308445546962
 20
-55.8956
 30
0.0
 11
40.91691554453038
 21
-55.8956
 31
0.0
  0
LINE
  5
204
330
199
100
AcDbEntity
  8
bold
100
AcDbLine
 10
16.62637566536655
 20
-76.7108
 30
0.0
 11
40.37362433463345
 21
-76.7108
 31
0.0
  0
LINE
  5
205
330
199
100
AcDbEntity
  8
bold
100
AcDbLine
 10
16.08308445546962
 20
4.104399999999998
 30
0.0
 11
40.91691554453038
 21
4.104399999999998
 31
0.0
  0
LINE
  5
206
330
199
100
AcDbEntity
  8
bold
100
AcDbLine
 10
16.62637566536654
 20
43.2892
 30
0.0
 11
40.37362433463345
 21
43.2892
 31
0.0
  0
LINE
  5
207
330
199
100
AcDbEntity
  8
bold
100
AcDbLine
 10
16.62637566536653
 20
-16.7108
 30
0.0
 11
40.37362433463347
 21
-16.7108
 31
0.0
  0
LINE
  5
208
330
199
100
AcDbEntity
  8
bold
100
AcDbLine
 10
16.08308445546962
 20
64.10440000000001
 30
0.0
 11
40.91691554453038
 21
64.10440000000001
 31
0.0
  0
LINE
  5
209
330
199
100
AcDbEntity
  8
bold
100
AcDbLine
 10
57.0
 20
77.14930000000001
 30
0.0
 11
0.0
 21
77.14930000000001
 31
0.0
  0
LINE
  5
20A
330
199
100
AcDbEntity
  8
bold
100
AcDbLine
 10
57.0
 20
77.14930000000001
 30
0.0
 11
57.0
 21
-100.8507
 31
0.0
  0
LINE
  5
20B
330
199
100
AcDbEntity
  8
bold
100
AcDbLine
 10
57.0
 20
-100.8507
 30
0.0
 11
0.0
 21
-100.8507
 31
0.0
  0
LINE
  5
20C
330
199
100
AcDbEntity
  8
bold
100
AcDbLine
 10
0.0
 20
77.14930000000001
 30
0.0
 11
0.0
 21
-100.8507
 31
0.0
  0
LINE
  5
20D
330
199
100
AcDbEntity
  8
bold
100
AcDbLine
 10
51.00000000000001
 20
-52.85070000000001
 30
0.0
 11
55.0
 21
-52.85070000000001
 31
0.0
  0
LINE
  5
20E
330
199
100
AcDbEntity
  8
bold
100
AcDbLine
 10
51.00000000000001
 20
-46.8507
 30
0.0
 11
51.00000000000001
 21
-52.85070000000001
 31
0.0
  0
LINE
  5
20F
330
199
100
AcDbEntity
  8
bold
100
AcDbLine
 10
55.0
 20
-46.8507
 30
0.0
 11
51.00000000000001
 21
-46.8507
 31
0.0
  0
LINE
  5
210
330
199
100
AcDbEntity
  8
bold
100
AcDbLine
 10
55.0
 20
-52.85070000000001
 30
0.0
 11
55.0
 21
-46.8507
 31
0.0
  0
LINE
  5
211
330
199
100
AcDbEntity
  8
bold
100
AcDbLine
 10
50.0
 20
-65.85069999999999
 30
0.0
 11
56.0
 21
-65.8507
 31
0.0
  0
LINE
  5
212
330
199
100
AcDbEntity
  8
bold
100
AcDbLine
 10
56.0
 20
-65.8507
 30
0.0
 11
56.0
 21
-13.85070000000001
 31
0.0
  0
LINE
  5
213
330
199
100
AcDbEntity
  8
bold
100
AcDbLine
 10
56.0
 20
-13.85070000000001
 30
0.0
 11
50.0
 21
-13.8507
 31
0.0
  0
LINE
  5
214
330
199
100
AcDbEntity
  8
bold
100
AcDbLine
 10
50.0
 20
-13.8507
 30
0.0
 11
50.0
 21
-65.85069999999999
 31
0.0
  0
LINE
  5
215
330
199
100
AcDbEntity
  8
bold
100
AcDbLine
 10
12.23133095736479
 20
-17.61935982788867
 30
0.0
 11
2.00004200418423
 21
-27.85064878106923
 31
0.0
  0
LINE
  5
216
330
199
100
AcDbEntity
  8
bold
100
AcDbLine
 10
9.424663206642968
 20
-35.27526998352799
 30
0.0
 11
11.4853137883768
 21
-37.33592056526183
 31
0.0
  0
LINE
  5
217
330
199
100
AcDbEntity
  8
bold
100
AcDbLine
 10
11.4853137883768
 20
-37.33592056526183
 30
0.0
 11
21.00000121466678
 21
-27.82123313897192
 31
0.0
  0
LINE
  5
218
330
199
100
AcDbEntity
  8
bold
100
AcDbLine
 10
21.00000121466678
 20
-27.82123313897192
 30
0.0
 11
24.0146802655775
 21
-30.83591218988265
 31
0.0
  0
LINE
  5
219
330
199
100
AcDbEntity
  8
bold
100
AcDbLine
 10
24.0146802655775
 20
-30.83591218988265
 30
0.0
 11
28.86777418769131
 21
-25.98281826776887
 31
0.0
  0
LINE
  5
21A
330
199
100
AcDbEntity
  8
bold
100
AcDbLine
 10
2.00004200418423
 20
-27.85064878106923
 30
0.0
 11
4.060692585918069
 21
-29.91129936280307
 31
0.0
  0
LINE
  5
21B
330
199
100
AcDbEntity
  8
bold
100
AcDbLine
 10
4.060692585918069
 20
-29.91129936280307
 30
0.0
 11
5.060682995872085
 21
-28.91130895284905
 31
0.0
  0
LINE
  5
21C
330
199
100
AcDbEntity
  8
bold
100
AcDbLine
 10
5.060682995872085
 20
-28.91130895284905
 30
0.0
 11
4.000022824092267
 21
-27.85064878106923
 31
0.0
  0
LINE
  5
21D
330
199
100
AcDbEntity
  8
bold
100
AcDbLine
 10
4.000022824092267
 20
-27.85064878106923
 30
0.0
 11
13.10162865942105
 21
-18.74904294574045
 31
0.0
  0
LINE
  5
21E
330
199
100
AcDbEntity
  8
bold
100
AcDbLine
 10
26.01891276337306
 20
-25.83170846222507
 30
0.0
 11
24.13983816584753
 21
-27.71078305975059
 31
0.0
  0
LINE
  5
21F
330
199
100
AcDbEntity
  8
bold
100
AcDbLine
 10
24.13983816584753
 20
-27.71078305975059
 30
0.0
 11
21.62515431991381
 21
-25.19609921381686
 31
0.0
  0
LINE
  5
220
330
199
100
AcDbEntity
  8
bold
100
AcDbLine
 10
21.62515431991381
 20
-25.19609921381686
 30
0.0
 11
11.48531378837681
 21
-35.3359397453538
 31
0.0
  0
LINE
  5
221
330
199
100
AcDbEntity
  8
bold
100
AcDbLine
 10
11.48531378837681
 20
-35.3359397453538
 30
0.0
 11
10.42465361659699
 21
-34.27527957357398
 31
0.0
  0
LINE
  5
222
330
199
100
AcDbEntity
  8
bold
100
AcDbLine
 10
10.42465361659699
 20
-34.27527957357398
 30
0.0
 11
9.424663206642968
 21
-35.27526998352799
 31
0.0
  0
LINE
  5
223
330
199
100
AcDbEntity
  8
bold
100
AcDbLine
 10
26.01891276337319
 20
-85.83170846222508
 30
0.0
 11
24.13983816584753
 21
-87.71078305975072
 31
0.0
  0
LINE
  5
224
330
199
100
AcDbEntity
  8
bold
100
AcDbLine
 10
24.13983816584753
 20
-87.71078305975072
 30
0.0
 11
21.62515431991384
 21
-85.19609921381695
 31
0.0
  0
LINE
  5
225
330
199
100
AcDbEntity
  8
bold
100
AcDbLine
 10
21.62515431991384
 20
-85.19609921381695
 30
0.0
 11
11.48531378837676
 21
-95.33593974535383
 31
0.0
  0
LINE
  5
226
330
199
100
AcDbEntity
  8
bold
100
AcDbLine
 10
10.42465361659696
 20
-94.27527957357398
 30
0.0
 11
9.42466320664294
 21
-95.27526998352799
 31
0.0
  0
LINE
  5
227
330
199
100
AcDbEntity
  8
bold
100
AcDbLine
 10
11.48531378837676
 20
-95.33593974535383
 30
0.0
 11
10.42465361659696
 21
-94.27527957357398
 31
0.0
  0
LINE
  5
228
330
199
100
AcDbEntity
  8
bold
100
AcDbLine
 10
9.42466320664294
 20
-95.27526998352799
 30
0.0
 11
11.48531378837674
 21
-97.33592056526184
 31
0.0
  0
LINE
  5
229
330
199
100
AcDbEntity
  8
bold
100
AcDbLine
 10
11.48531378837674
 20
-97.33592056526184
 30
0.0
 11
21.00000121466679
 21
-87.82123313897202
 31
0.0
  0
LINE
  5
22A
330
199
100
AcDbEntity
  8
bold
100
AcDbLine
 10
21.00000121466679
 20
-87.82123313897202
 30
0.0
 11
24.01468026557748
 21
-90.83591218988276
 31
0.0
  0
LINE
  5
22B
330
199
100
AcDbEntity
  8
bold
100
AcDbLine
 10
24.01468026557748
 20
-90.83591218988276
 30
0.0
 11
28.86777418769146
 21
-85.98281826776888
 31
0.0
  0
LINE
  5
22C
330
199
100
AcDbEntity
  8
bold
100
AcDbLine
 10
12.2313309573648
 20
-77.61935982788867
 30
0.0
 11
2.000042004184232
 21
-87.85064878106924
 31
0.0
  0
LINE
  5
22D
330
199
100
AcDbEntity
  8
bold
100
AcDbLine
 10
2.000042004184232
 20
-87.85064878106924
 30
0.0
 11
4.060692585918062
 21
-89.91129936280306
 31
0.0
  0
LINE
  5
22E
330
199
100
AcDbEntity
  8
bold
100
AcDbLine
 10
4.060692585918062
 20
-89.91129936280306
 30
0.0
 11
5.060682995872082
 21
-88.91130895284905
 31
0.0
  0
LINE
  5
22F
330
199
100
AcDbEntity
  8
bold
100
AcDbLine
 10
5.060682995872082
 20
-88.91130895284905
 30
0.0
 11
4.000022824092259
 21
-87.85064878106924
 31
0.0
  0
LINE
  5
230
330
199
100
AcDbEntity
  8
bold
100
AcDbLine
 10
4.000022824092259
 20
-87.85064878106924
 30
0.0
 11
13.10162865942105
 21
-78.74904294574046
 31
0.0
  0
LINE
  5
231
330
199
100
AcDbEntity
  8
bold
100
AcDbLine
 10
4.060692585918069
 20
30.08870063719693
 30
0.0
 11
5.06068299587209
 21
31.08869104715095
 31
0.0
  0
LINE
  5
232
330
199
100
AcDbEntity
  8
bold
100
AcDbLine
 10
10.424653616597
 20
25.72472042642604
 30
0.0
 11
9.424663206642983
 21
24.72473001647202
 31
0.0
  0
LINE
  5
233
330
199
100
AcDbEntity
  8
bold
100
AcDbLine
 10
2.00004200418423
 20
32.14935121893077
 30
0.0
 11
4.060692585918069
 21
30.08870063719693
 31
0.0
  0
LINE
  5
234
330
199
100
AcDbEntity
  8
bold
100
AcDbLine
 10
5.06068299587209
 20
31.08869104715095
 30
0.0
 11
4.000022824092267
 21
32.14935121893078
 31
0.0
  0
LINE
  5
235
330
199
100
AcDbEntity
  8
bold
100
AcDbLine
 10
26.01891276337299
 20
34.16829153777495
 30
0.0
 11
24.13983816584751
 21
32.28921694024947
 31
0.0
  0
LINE
  5
236
330
199
100
AcDbEntity
  8
bold
100
AcDbLine
 10
11.48531378837683
 20
24.66406025464622
 30
0.0
 11
10.424653616597
 21
25.72472042642604
 31
0.0
  0
LINE
  5
237
330
199
100
AcDbEntity
  8
bold
100
AcDbLine
 10
21.62515431991379
 20
34.80390078618318
 30
0.0
 11
11.48531378837683
 21
24.66406025464622
 31
0.0
  0
LINE
  5
238
330
199
100
AcDbEntity
  8
bold
100
AcDbLine
 10
9.424663206642983
 20
24.72473001647202
 30
0.0
 11
11.48531378837682
 21
22.66407943473818
 31
0.0
  0
LINE
  5
239
330
199
100
AcDbEntity
  8
bold
100
AcDbLine
 10
11.48531378837682
 20
22.66407943473818
 30
0.0
 11
21.00000121466677
 21
32.17876686102812
 31
0.0
  0
LINE
  5
23A
330
199
100
AcDbEntity
  8
bold
100
AcDbLine
 10
21.00000121466677
 20
32.17876686102812
 30
0.0
 11
24.01468026557749
 21
29.1640878101174
 31
0.0
  0
LINE
  5
23B
330
199
100
AcDbEntity
  8
bold
100
AcDbLine
 10
24.01468026557749
 20
29.1640878101174
 30
0.0
 11
28.86777418769123
 21
34.01718173223113
 31
0.0
  0
LINE
  5
23C
330
199
100
AcDbEntity
  8
bold
100
AcDbLine
 10
12.23133095736479
 20
42.38064017211133
 30
0.0
 11
2.00004200418423
 21
32.14935121893077
 31
0.0
  0
LINE
  5
23D
330
199
100
AcDbEntity
  8
bold
100
AcDbLine
 10
4.000022824092267
 20
32.14935121893078
 30
0.0
 11
13.10162865942105
 21
41.25095705425956
 31
0.0
  0
LINE
  5
23E
330
199
100
AcDbEntity
  8
bold
100
AcDbLine
 10
24.13983816584751
 20
32.28921694024947
 30
0.0
 11
21.62515431991379
 21
34.80390078618318
 31
0.0
  0
ENDBLK
  5
19C
330
199
100
AcDbEntity
  8
0
100
AcDbBlockEnd
  0
BLOCK
  5
243
330
242
100
AcDbEntity
  8
0
100
AcDbBlockBegin
  2
*D11
 70
     1
 10
0.0
 20
0.0
 30
0.0
  3
*D11
  1

  0
LINE
  5
245
330
242
100
AcDbEntity
  8
dimension
 62
     0
370
    -2
100
AcDbLine
 10
0.0
 20
-100.8507
 30
0.0
 11
0.0
 21
-125.850700378418
 31
0.0
  0
LINE
  5
246
330
242
100
AcDbEntity
  8
dimension
 62
     0
370
    -2
100
AcDbLine
 10
57.0
 20
-100.8507
 30
0.0
 11
57.0
 21
-125.850700378418
 31
0.0
  0
LINE
  5
247
330
242
100
AcDbEntity
  8
dimension
 62
     0
370
    -2
100
AcDbLine
 10
5.0
 20
-125.850700378418
 30
0.0
 11
52.0
 21
-125.850700378418
 31
0.0
  0
SOLID
  5
248
330
242
100
AcDbEntity
  8
dimension
 62
     0
100
AcDbTrace
 10
5.0
 20
-125.0173670450846
 30
0.0
 11
5.0
 21
-126.6840337117513
 31
0.0
 12
0.0
 22
-125.850700378418
 32
0.0
 13
0.0
 23
-125.850700378418
 33
0.0
  0
SOLID
  5
249
330
242
100
AcDbEntity
  8
dimension
 62
     0
100
AcDbTrace
 10
52.0
 20
-126.6840337117513
 30
0.0
 11
52.0
 21
-125.0173670450846
 31
0.0
 12
57.0
 22
-125.850700378418
 32
0.0
 13
57.0
 23
-125.850700378418
 33
0.0
  0
MTEXT
  5
24A
330
242
100
AcDbEntity
  8
dimension
 62
     0
100
AcDbMText
 10
28.5
 20
-121.850700378418
 30
0.0
 40
5.0
 41
0.0
 46
0.0
 71
     5
 72
     1
  1
57
 73
     1
 44
1.0
  0
POINT
  5
24B
330
242
100
AcDbEntity
  8
Defpoints
 62
     0
100
AcDbPoint
 10
0.0
 20
-100.8507
 30
0.0
  0
POINT
  5
24C
330
242
100
AcDbEntity
  8
Defpoints
 62
     0
100
AcDbPoint
 10
57.0
 20
-100.8507
 30
0.0
  0
POINT
  5
24D
330
242
100
AcDbEntity
  8
Defpoints
 62
     0
100
AcDbPoint
 10
57.0
 20
-125.850700378418
 30
0.0
  0
ENDBLK
  5
244
330
242
100
AcDbEntity
  8
0
100
AcDbBlockEnd
  0
BLOCK
  5
250
330
24F
100
AcDbEntity
  8
0
100
AcDbBlockBegin
  2
*D12
 70
     1
 10
0.0
 20
0.0
 30
0.0
  3
*D12
  1

  0
LINE
  5
252
330
24F
100
AcDbEntity
  8
dimension
 62
     0
370
    -2
100
AcDbLine
 10
57.0
 20
77.1493
 30
0.0
 11
82.0
 21
77.1493
 31
0.0
  0
LINE
  5
253
330
24F
100
AcDbEntity
  8
dimension
 62
     0
370
    -2
100
AcDbLine
 10
57.0
 20
-100.8507
 30
0.0
 11
82.0
 21
-100.8507
 31
0.0
  0
LINE
  5
254
330
24F
100
AcDbEntity
  8
dimension
 62
     0
370
    -2
100
AcDbLine
 10
82.0
 20
72.1493
 30
0.0
 11
82.0
 21
-4.398319047619054
 31
0.0
  0
LINE
  5
255
330
24F
100
AcDbEntity
  8
dimension
 62
     0
370
    -2
100
AcDbLine
 10
82.0
 20
-95.8507
 30
0.0
 11
82.0
 21
-19.30308095238095
 31
0.0
  0
SOLID
  5
256
330
24F
100
AcDbEntity
  8
dimension
 62
     0
100
AcDbTrace
 10
82.83333333333333
 20
72.1493
 30
0.0
 11
81.16666666666667
 21
72.1493
 31
0.0
 12
82.0
 22
77.1493
 32
0.0
 13
82.0
 23
77.1493
 33
0.0
  0
SOLID
  5
257
330
24F
100
AcDbEntity
  8
dimension
 62
     0
100
AcDbTrace
 10
81.16666666666667
 20
-95.8507
 30
0.0
 11
82.83333333333333
 21
-95.8507
 31
0.0
 12
82.0
 22
-100.8507
 32
0.0
 13
82.0
 23
-100.8507
 33
0.0
  0
MTEXT
  5
258
330
24F
100
AcDbEntity
  8
dimension
 62
     0
100
AcDbMText
 10
82.0
 20
-11.8507
 30
0.0
 40
5.0
 41
0.0
 46
0.0
 71
     5
 72
     1
  1
169
 11
6.123233995736766E-17
 21
1.0
 31
0.0
 73
     1
 44
1.0
  0
POINT
  5
259
330
24F
100
AcDbEntity
  8
Defpoints
 62
     0
100
AcDbPoint
 10
57.0
 20
77.1493
 30
0.0
  0
POINT
  5
25A
330
24F
100
AcDbEntity
  8
Defpoints
 62
     0
100
AcDbPoint
 10
57.0
 20
-100.8507
 30
0.0
  0
POINT
  5
25B
330
24F
100
AcDbEntity
  8
Defpoints
 62
     0
100
AcDbPoint
 10
82.0
 20
-100.8507
 30
0.0
  0
ENDBLK
  5
251
330
24F
100
AcDbEntity
  8
0
100
AcDbBlockEnd
  0
ENDSEC
  0
SECTION
  2
ENTITIES
  0
ATTDEF
  5
5F
330
1F
100
AcDbEntity
  8
attrib
100
AcDbText
 10
62.0
 20
77.14930000000001
 30
0.0
 40
0.5
  1
31442
100
AcDbAttributeDefinition
  3

  2
NB
 70
     8
280
     0
  0
ATTDEF
  5
60
330
1F
100
AcDbEntity
  8
attrib
100
AcDbText
 10
62.0
 20
76.64930000000001
 30
0.0
 40
0.5
  1
E33, gauge screw
100
AcDbAttributeDefinition
  3

  2
NN
 70
     8
280
     0
  0
ATTDEF
  5
61
330
1F
100
AcDbEntity
  8
attrib
100
AcDbText
 10
62.0
 20
76.14930000000001
 30
0.0
 40
0.5
  1

100
AcDbAttributeDefinition
  3

  2
NT
 70
     8
280
     0
  0
ATTDEF
  5
62
330
1F
100
AcDbEntity
  8
attrib
100
AcDbText
 10
62.0
 20
75.64930000000001
 30
0.0
 40
0.5
  1
$ARTNR.
100
AcDbAttributeDefinition
  3

  2
NBSYN
 70
     8
280
     0
  0
ATTDEF
  5
63
330
1F
100
AcDbEntity
  8
attrib
100
AcDbText
 10
62.0
 20
75.14930000000001
 30
0.0
 40
0.5
  1
31442000
100
AcDbAttributeDefinition
  3

  2
LINA
 70
     8
280
     0
  0
ATTDEF
  5
64
330
1F
100
AcDbEntity
  8
attrib
100
AcDbText
 10
62.0
 20
74.64930000000001
 30
0.0
 40
0.5
  1
Wöhner
100
AcDbAttributeDefinition
  3

  2
CATALOG
 70
     8
280
     0
  0
ATTDEF
  5
65
330
1F
100
AcDbEntity
  8
attrib
100
AcDbText
 10
62.0
 20
74.14930000000001
 30
0.0
 40
0.5
  1
31442
100
AcDbAttributeDefinition
  3

  2
ARTNR
 70
     8
280
     0
  0
ATTDEF
  5
66
330
1F
100
AcDbEntity
  8
attrib
100
AcDbText
 10
62.0
 20
73.64930000000001
 30
0.0
 40
0.5
  1
12, 15, 20, 25, 30 x 5, 10 and section busbars
100
AcDbAttributeDefinition
  3

  2
BUSB
 70
     8
280
     0
  0
ATTDEF
  5
67
330
1F
100
AcDbEntity
  8
attrib
100
AcDbText
 10
62.0
 20
73.14930000000001
 30
0.0
 40
0.5
  1
CUSTO®60Classic
100
AcDbAttributeDefinition
  3

  2
POF
 70
     8
280
     0
  0
ATTDEF
  5
68
330
1F
100
AcDbEntity
  8
attrib
100
AcDbText
 10
62.0
 20
72.64930000000001
 30
0.0
 40
0.5
  1
10
100
AcDbAttributeDefinition
  3

  2
QNT
 70
     8
280
     0
  0
ATTDEF
  5
69
330
1F
100
AcDbEntity
  8
attrib
100
AcDbText
 10
62.0
 20
72.14930000000001
 30
0.0
 40
0.5
  1
57
100
AcDbAttributeDefinition
  3

  2
W
 70
     8
280
     0
  0
ATTDEF
  5
6A
330
1F
100
AcDbEntity
  8
attrib
100
AcDbText
 10
62.0
 20
71.64930000000001
 30
0.0
 40
0.5
  1
200
100
AcDbAttributeDefinition
  3

  2
H
 70
     8
280
     0
  0
ATTDEF
  5
6B
330
1F
100
AcDbEntity
  8
attrib
100
AcDbText
 10
62.0
 20
71.14930000000001
 30
0.0
 40
0.5
  1
43
100
AcDbAttributeDefinition
  3

  2
D
 70
     8
280
     0
  0
ATTDEF
  5
6C
330
1F
100
AcDbEntity
  8
attrib
100
AcDbText
 10
62.0
 20
70.64930000000001
 30
0.0
 40
0.5
  1
Product link
100
AcDbAttributeDefinition
  3

  2
LINK
 70
     8
280
     0
  0
ATTDEF
  5
6D
330
1F
100
AcDbEntity
  8
attrib
100
AcDbText
 10
62.0
 20
70.14930000000001
 30
0.0
 40
0.5
  1
woehner
100
AcDbAttributeDefinition
  3

  2
COMPANY
 70
     8
280
     0
  0
ATTDEF
  5
6E
330
1F
100
AcDbEntity
  8
attrib
100
AcDbText
 10
62.0
 20
69.64930000000001
 30
0.0
 40
0.5
  1
{$CADENAS_DATA/23d-libs/woehner/sys_60classic/d_fuse_bases/d_fuse_base_custo_e33_passschraube_asmtab.prj},192 {VTYP=3D},{STYP=ASSTAB},{NB=31442},{LINA=31442000},{NN=E33, Passschraube},{DATE=26.01.2024 06:39:58},{GEOMDATE=02.10.2023 12:32:13},{VERSION=v231
100
AcDbAttributeDefinition
  3

  2
PSOL_0
 70
     9
280
     0
  0
ATTDEF
  5
6F
330
1F
100
AcDbEntity
  8
attrib
100
AcDbText
 10
62.0
 20
69.14930000000001
 30
0.0
 40
0.5
  1
002115156},{LINEID=990},{WBVAR=},{WBNUMERIC=}  {NB=31442},{LINA=31442000},{KT=DUMMY},{EAN=4021267314422},{ARTICLEORDER=3},{BOM=31442000},{ARTNR=31442},{BUSB=12, 15, 20, 25, 30 x 5, 10 and section busbars},{BE=D-fuse base, busbar mounted, 57mm},{POF=CUSTO®
100
AcDbAttributeDefinition
  3

  2
PSOL_1
 70
     9
280
     0
  0
ATTDEF
  5
70
330
1F
100
AcDbEntity
  8
attrib
100
AcDbText
 10
62.0
 20
68.64930000000001
 30
0.0
 40
0.5
  1
60Classic},{TYPE=E 33 / 3P},{QNT=10},{W=57},{H=200},{D=43},{CONCA=},{BUSIN=},{IPR=},{IPRF=},{SEARCH=},{EDZ=},{IODD=},{DIST=7.5},{LINK=Product link},{LINKX=https://www.woehner.de/de/produkte/31442.html},{VER1=1},{VER2=2},{PRA=2},{PPATH=parts/d_fuse_base_cu
100
AcDbAttributeDefinition
  3

  2
PSOL_2
 70
     9
280
     0
  0
ATTDEF
  5
71
330
1F
100
AcDbEntity
  8
attrib
100
AcDbText
 10
62.0
 20
68.14930000000001
 30
0.0
 40
0.5
  1
sto_asmtpl.prj},{AAO677=Wöhner},{MANUFACTURER_URL=www.woehner.de},{AAQ326=www.woehner.de/de/produkte/31442.html },{AAO676=31442},{CTN=85361050},{AAU731=CUSTO®60Classic},{DESCRIPTION_LONG=D-fuse base, busbar mounted, 57mm, screw-in gauge ring, E 33 / 3P},{
100
AcDbAttributeDefinition
  3

  2
PSOL_3
 70
     9
280
     0
  0
ATTDEF
  5
72
330
1F
100
AcDbEntity
  8
attrib
100
AcDbText
 10
62.0
 20
67.64930000000001
 30
0.0
 40
0.5
  1
DESCRIPTION_SHORT=D-fuse base, busbar mounted, 57mm},{AAT080=3},{BAH005=500}
100
AcDbAttributeDefinition
  3

  2
PSOL_4
 70
     9
280
     0
  0
INSERT
  5
74
330
1F
100
AcDbEntity
  8
0
100
AcDbBlockReference
  2
1_75076000_1_0_in_31442_0
 10
0.0
 20
0.0
 30
0.0
  0
INSERT
  5
8D
330
1F
100
AcDbEntity
  8
0
100
AcDbBlockReference
  2
2_75076000_2_0_in_31442_0
 10
0.0
 20
0.0
 30
0.0
  0
INSERT
  5
A3
330
1F
100
AcDbEntity
  8
0
100
AcDbBlockReference
  2
3_75076000_3_0_in_31442_0
 10
0.0
 20
0.0
 30
0.0
  0
INSERT
  5
B9
330
1F
100
AcDbEntity
  8
0
100
AcDbBlockReference
  2
4_30414000_1_0_in_31442_0
 10
0.0
 20
0.0
 30
0.0
  0
INSERT
  5
EB
330
1F
100
AcDbEntity
  8
0
100
AcDbBlockReference
  2
5_30414000_2_0_in_31442_0
 10
0.0
 20
0.0
 30
0.0
  0
INSERT
  5
11A
330
1F
100
AcDbEntity
  8
0
100
AcDbBlockReference
  2
6_30414000_3_0_in_31442_0
 10
0.0
 20
0.0
 30
0.0
  0
INSERT
  5
149
330
1F
100
AcDbEntity
  8
0
100
AcDbBlockReference
  2
7_71437000_1_0_in_31442_0
 10
0.0
 20
0.0
 30
0.0
  0
INSERT
  5
164
330
1F
100
AcDbEntity
  8
0
100
AcDbBlockReference
  2
8_71437000_2_0_in_31442_0
 10
0.0
 20
0.0
 30
0.0
  0
INSERT
  5
17F
330
1F
100
AcDbEntity
  8
0
100
AcDbBlockReference
  2
9_71437000_3_0_in_31442_0
 10
0.0
 20
0.0
 30
0.0
  0
INSERT
  5
19A
330
1F
100
AcDbEntity
  8
0
100
AcDbBlockReference
  2
10_78547000_0_in_31442_0
 10
0.0
 20
0.0
 30
0.0
  0
DIMENSION
  5
240
330
1F
100
AcDbEntity
  8
dimension
100
AcDbDimension
280
     0
  2
*D11
 10
57.0
 20
-125.850700378418
 30
0.0
 11
28.5
 21
-125.850700378418
 31
0.0
 70
   160
  1
57
 71
     5
 42
57.0
 73
     0
 74
     0
 75
     0
  3
ISO-25
100
AcDbAlignedDimension
 13
0.0
 23
-100.8507
 33
0.0
 14
57.0
 24
-100.8507
 34
0.0
100
AcDbRotatedDimension
1001
ACAD
1000
DSTYLE
1002
{
1070
   147
1040
1.5
1070
    42
1040
0.0
1070
    44
1040
0.0
1070
    41
1040
5.0
1070
   140
1040
5.0
1002
}
  0
DIMENSION
  5
24E
330
1F
100
AcDbEntity
  8
dimension
100
AcDbDimension
280
     0
  2
*D12
 10
82.0
 20
-100.8507
 30
0.0
 11
82.0
 21
-11.8507
 31
0.0
 70
   160
  1
169
 71
     5
 42
178.0
 73
     0
 74
     0
 75
     0
 53
90.0
  3
ISO-25
100
AcDbAlignedDimension
 13
57.0
 23
77.1493
 33
0.0
 14
57.0
 24
-100.8507
 34
0.0
 50
90.0
100
AcDbRotatedDimension
1001
ACAD
1000
DSTYLE
1002
{
1070
   147
1040
1.5
1070
    42
1040
0.0
1070
    44
1040
0.0
1070
    41
1040
5.0
1070
   140
1040
5.0
1002
}
  0
POINT
  5
25D
330
1F
100
AcDbEntity
  8
connection
100
AcDbPoint
 10
28.5
 20
-5.986199999999997
 30
0.0
  0
POINT
  5
25E
330
1F
100
AcDbEntity
  8
connection
100
AcDbPoint
 10
28.5
 20
54.0138
 30
0.0
  0
POINT
  5
25F
330
1F
100
AcDbEntity
  8
connection
100
AcDbPoint
 10
8.241320008327298
 20
-91.38752618988622
 30
0.0
  0
POINT
  5
260
330
1F
100
AcDbEntity
  8
connection
100
AcDbPoint
 10
8.241320008327298
 20
-31.38752618988622
 30
0.0
  0
POINT
  5
261
330
1F
100
AcDbEntity
  8
connection
100
AcDbPoint
 10
8.241320008327298
 20
28.61247381011378
 30
0.0
  0
POINT
  5
262
330
1F
100
AcDbEntity
  8
connection
100
AcDbPoint
 10
18.586
 20
-66.257
 30
0.0
  0
POINT
  5
263
330
1F
100
AcDbEntity
  8
connection
100
AcDbPoint
 10
18.586
 20
-6.256999999999998
 30
0.0
  0
POINT
  5
264
330
1F
100
AcDbEntity
  8
connection
100
AcDbPoint
 10
18.586
 20
53.743
 30
0.0
  0
POINT
  5
265
330
1F
100
AcDbEntity
  8
connection
100
AcDbPoint
 10
21.0
 20
53.04
 30
0.0
  0
POINT
  5
266
330
1F
100
AcDbEntity
  8
connection
100
AcDbPoint
 10
21.0
 20
-6.96
 30
0.0
  0
POINT
  5
267
330
1F
100
AcDbEntity
  8
connection
100
AcDbPoint
 10
21.0
 20
-66.96
 30
0.0
  0
POINT
  5
268
330
1F
100
AcDbEntity
  8
connection
100
AcDbPoint
 10
11.41115631921163
 20
33.07242826673779
 30
0.0
  0
POINT
  5
269
330
1F
100
AcDbEntity
  8
connection
100
AcDbPoint
 10
11.6231838594064
 20
-29.40920939043473
 30
0.0
  0
POINT
  5
26A
330
1F
100
AcDbEntity
  8
connection
100
AcDbPoint
 10
9.906848570541555
 20
-89.59271371825031
 30
0.0
  0
POINT
  5
26B
330
1F
100
AcDbEntity
  8
connection
100
AcDbPoint
 10
0.0
 20
0.0
 30
0.0
  0
POINT
  5
26C
330
1F
100
AcDbEntity
  8
connection
100
AcDbPoint
 10
0.0
 20
0.0
 30
0.0
  0
POINT
  5
26D
330
1F
100
AcDbEntity
  8
connection
100
AcDbPoint
 10
0.0
 20
-100.0
 30
0.0
  0
POINT
  5
26E
330
1F
100
AcDbEntity
  8
connection
100
AcDbPoint
 10
57.0
 20
75.0
 30
0.0
  0
POINT
  5
26F
330
1F
100
AcDbEntity
  8
connection
100
AcDbPoint
 10
0.0
 20
-106.0
 30
0.0
  0
POINT
  5
270
330
1F
100
AcDbEntity
  8
connection
100
AcDbPoint
 10
0.0
 20
-106.0
 30
0.0
  0
POINT
  5
271
330
1F
100
AcDbEntity
  8
connection
100
AcDbPoint
 10
18.586
 20
53.743
 30
0.0
  0
POINT
  5
272
330
1F
100
AcDbEntity
  8
connection
100
AcDbPoint
 10
18.586
 20
-6.256999999999998
 30
0.0
  0
POINT
  5
273
330
1F
100
AcDbEntity
  8
connection
100
AcDbPoint
 10
18.586
 20
-66.257
 30
0.0
  0
POINT
  5
274
330
1F
100
AcDbEntity
  8
connection
100
AcDbPoint
 10
8.241320008327298
 20
28.61247381011378
 30
0.0
  0
POINT
  5
275
330
1F
100
AcDbEntity
  8
connection
100
AcDbPoint
 10
8.241320008327298
 20
-31.38752618988622
 30
0.0
  0
POINT
  5
276
330
1F
100
AcDbEntity
  8
connection
100
AcDbPoint
 10
8.241320008327298
 20
-91.38752618988622
 30
0.0
  0
POINT
  5
277
330
1F
100
AcDbEntity
  8
connection
100
AcDbPoint
 10
28.5
 20
54.0138
 30
0.0
  0
POINT
  5
278
330
1F
100
AcDbEntity
  8
connection
100
AcDbPoint
 10
28.5
 20
-5.986199999999997
 30
0.0
  0
POINT
  5
279
330
1F
100
AcDbEntity
  8
connection
100
AcDbPoint
 10
28.5
 20
-65.9862
 30
0.0
  0
POINT
  5
27A
330
1F
100
AcDbEntity
  8
connection
100
AcDbPoint
 10
28.5
 20
54.0138
 30
0.0
  0
POINT
  5
27B
330
1F
100
AcDbEntity
  8
connection
100
AcDbPoint
 10
28.5
 20
-5.986199999999997
 30
0.0
  0
POINT
  5
27C
330
1F
100
AcDbEntity
  8
connection
100
AcDbPoint
 10
28.5
 20
-65.9862
 30
0.0
  0
ENDSEC
  0
SECTION
  2
OBJECTS
  0
DICTIONARY
  5
C
330
0
100
AcDbDictionary
281
     1
  3
ACAD_DETAILVIEWSTYLE
350
284
  3
ACAD_GROUP
350
D
  3
ACAD_LAYOUT
350
1A
  3
ACAD_MATERIAL
350
43
  3
ACAD_MLEADERSTYLE
350
5B
  3
ACAD_MLINESTYLE
350
17
  3
ACAD_PLOTSETTINGS
350
19
  3
ACAD_PLOTSTYLENAME
350
E
  3
ACAD_SCALELIST
350
47
  3
ACAD_SECTIONVIEWSTYLE
350
285
  3
ACAD_TABLESTYLE
350
59
  3
ACAD_VISUALSTYLE
350
2A
  3
ACDB_RECOMPOSE_DATA
350
281
  3
AcDbVariableDictionary
350
27D
  0
SUN
  5
5D
330
29
100
AcDbSun
 90
        1
290
     0
 63
     7
421
 16777215
 40
1.0
291
     1
 91
  2455826
 92
 54000000
292
     0
 70
     2
 71
   256
280
     1
  0
DICTIONARY
  5
284
102
{ACAD_REACTORS
330
C
102
}
330
C
100
AcDbDictionary
281
     1
  0
DICTIONARY
  5
D
102
{ACAD_REACTORS
330
C
102
}
330
C
100
AcDbDictionary
281
     1
  0
DICTIONARY
  5
1A
102
{ACAD_REACTORS
330
C
102
}
330
C
100
AcDbDictionary
281
     1
  3
Layout1
350
1E
  3
Layout2
350
26
  3
Model
350
22
  0
DICTIONARY
  5
43
102
{ACAD_REACTORS
330
C
102
}
330
C
100
AcDbDictionary
281
     1
  3
ByBlock
350
45
  3
ByLayer
350
44
  3
Global
350
46
  0
DICTIONARY
  5
5B
102
{ACAD_REACTORS
330
C
102
}
330
C
100
AcDbDictionary
281
     1
  3
Standard
350
5C
  0
DICTIONARY
  5
17
102
{ACAD_REACTORS
330
C
102
}
330
C
100
AcDbDictionary
281
     1
  3
Standard
350
18
  0
DICTIONARY
  5
19
102
{ACAD_REACTORS
330
C
102
}
330
C
100
AcDbDictionary
281
     1
  0
ACDBDICTIONARYWDFLT
  5
E
102
{ACAD_REACTORS
330
C
102
}
330
C
100
AcDbDictionary
281
     1
  3
Normal
350
F
100
AcDbDictionaryWithDefault
340
F
  0
DICTIONARY
  5
47
102
{ACAD_REACTORS
330
C
102
}
330
C
100
AcDbDictionary
281
     1
  3
A0
350
48
  3
A1
350
49
  3
A2
350
4A
  3
A3
350
4B
  3
A4
350
4C
  3
A5
350
4D
  3
A6
350
4E
  3
A7
350
4F
  3
A8
350
50
  3
A9
350
51
  3
B0
350
52
  3
B1
350
53
  3
B2
350
54
  3
B3
350
55
  3
B4
350
56
  3
B5
350
57
  3
B6
350
58
  0
DICTIONARY
  5
285
102
{ACAD_REACTORS
330
C
102
}
330
C
100
AcDbDictionary
281
     1
  0
DICTIONARY
  5
59
102
{ACAD_REACTORS
330
C
102
}
330
C
100
AcDbDictionary
281
     1
  3
Standard
350
5A
  0
DICTIONARY
  5
2A
102
{ACAD_REACTORS
330
C
102
}
330
C
100
AcDbDictionary
281
     1
  3
2dWireframe
350
2F
  3
Basic
350
32
  3
Brighten
350
36
  3
ColorChange
350
3A
  3
Conceptual
350
34
  3
Dim
350
35
  3
EdgeColorOff
350
3D
  3
Facepattern
350
39
  3
Flat
350
2B
  3
FlatWithEdges
350
2C
  3
Gouraud
350
2D
  3
GouraudWithEdges
350
2E
  3
Hidden
350
31
  3
JitterOff
350
3B
  3
Linepattern
350
38
  3
OverhangOff
350
3C
  3
Realistic
350
33
  3
Shaded
350
42
  3
Shaded with edges
350
41
  3
Shades of Gray
350
3E
  3
Sketchy
350
3F
  3
Thicken
350
37
  3
Wireframe
350
30
  3
X-Ray
350
40
  0
XRECORD
  5
281
102
{ACAD_REACTORS
330
C
102
}
330
C
100
AcDbXrecord
280
     1
 90
        1
330
5A
  0
DICTIONARY
  5
27D
102
{ACAD_REACTORS
330
C
102
}
330
C
100
AcDbDictionary
281
     1
  3
CANNOSCALE
350
27E
  3
CENTEREXE
350
286
  3
CENTERLTYPEFILE
350
287
  3
CMLEADERSTYLE
350
283
  3
CTABLESTYLE
350
282
  0
LAYOUT
  5
1E
102
{ACAD_REACTORS
330
1A
102
}
330
1A
100
AcDbPlotSettings
  1

  2
none_device
  4

  6

 40
0.0
 41
0.0
 42
0.0
 43
0.0
 44
0.0
 45
0.0
 46
0.0
 47
0.0
 48
0.0
 49
0.0
140
0.0
141
0.0
142
1.0
143
1.0
 70
   688
 72
     1
 73
     0
 74
     5
  7

 75
    16
 76
     0
 77
     2
 78
   300
147
1.0
148
0.0
149
0.0
100
AcDbLayout
  1
Layout1
 70
     1
 71
     1
 10
0.0
 20
0.0
 11
420.0
 21
297.0
 12
0.0
 22
0.0
 32
0.0
 14
1.000000000000000E+20
 24
1.000000000000000E+20
 34
1.000000000000000E+20
 15
-1.000000000000000E+20
 25
-1.000000000000000E+20
 35
-1.000000000000000E+20
146
0.0
 13
0.0
 23
0.0
 33
0.0
 16
1.0
 26
0.0
 36
0.0
 17
0.0
 27
1.0
 37
0.0
 76
     0
330
1B
  0
LAYOUT
  5
26
102
{ACAD_REACTORS
330
1A
102
}
330
1A
100
AcDbPlotSettings
  1

  2
none_device
  4

  6

 40
0.0
 41
0.0
 42
0.0
 43
0.0
 44
0.0
 45
0.0
 46
0.0
 47
0.0
 48
0.0
 49
0.0
140
0.0
141
0.0
142
1.0
143
1.0
 70
   688
 72
     1
 73
     0
 74
     5
  7

 75
    16
 76
     0
 77
     2
 78
   300
147
1.0
148
0.0
149
0.0
100
AcDbLayout
  1
Layout2
 70
     1
 71
     2
 10
0.0
 20
0.0
 11
0.0
 21
0.0
 12
0.0
 22
0.0
 32
0.0
 14
0.0
 24
0.0
 34
0.0
 15
0.0
 25
0.0
 35
0.0
146
0.0
 13
0.0
 23
0.0
 33
0.0
 16
1.0
 26
0.0
 36
0.0
 17
0.0
 27
1.0
 37
0.0
 76
     0
330
23
  0
LAYOUT
  5
22
102
{ACAD_REACTORS
330
1A
102
}
330
1A
100
AcDbPlotSettings
  1

  2
none_device
  4
Letter_(8.50_x_11.00_Inches)
  6

 40
6.35
 41
6.35
 42
6.35000508
 43
6.35000508
 44
215.9
 45
279.4
 46
0.0
 47
0.0
 48
0.0
 49
0.0
140
0.0
141
0.0
142
1.0
143
1.0
 70
  1712
 72
     1
 73
     0
 74
     0
  7

 75
     0
 76
     0
 77
     2
 78
   300
147
1.0
148
0.0
149
0.0
100
AcDbLayout
  1
Model
 70
     1
 71
     0
 10
0.0
 20
0.0
 11
420.0
 21
297.0
 12
0.0
 22
0.0
 32
0.0
 14
0.0
 24
-126.6840337117513
 34
0.0
 15
84.5
 25
77.64930000000001
 35
0.0
146
0.0
 13
0.0
 23
0.0
 33
0.0
 16
1.0
 26
0.0
 36
0.0
 17
0.0
 27
1.0
 37
0.0
 76
     0
330
1F
331
29
  0
MATERIAL
  5
45
102
{ACAD_REACTORS
330
43
102
}
330
43
100
AcDbMaterial
  1
ByBlock
 72
     1
 94
      127
  0
MATERIAL
  5
44
102
{ACAD_REACTORS
330
43
102
}
330
43
100
AcDbMaterial
  1
ByLayer
 72
     1
 94
      127
  0
MATERIAL
  5
46
102
{ACAD_REACTORS
330
43
102
}
330
43
100
AcDbMaterial
  1
Global
 72
     1
 94
      127
  0
MLEADERSTYLE
  5
5C
102
{ACAD_REACTORS
330
5B
102
}
330
5B
100
AcDbMLeaderStyle
179
     2
170
     2
171
     1
172
     0
 90
        2
 40
0.0
 41
0.0
173
     1
 91
-1056964608
340
14
 92
       -2
290
     1
 42
2.0
291
     1
 43
8.0
  3
Standard
341
0
 44
4.0
300

342
11
174
     1
178
     6
175
     1
176
     0
 93
-1056964608
 45
4.0
292
     0
297
     0
 46
4.0
343
0
 94
-1056964608
 47
1.0
 49
1.0
140
1.0
293
     1
141
0.0
294
     1
177
     0
142
1.0
295
     0
296
     0
143
3.75
271
     0
272
     9
273
     9
298
     0
  0
MLINESTYLE
  5
18
102
{ACAD_REACTORS
330
17
102
}
330
17
100
AcDbMlineStyle
  2
Standard
 70
     0
  3

 62
   256
 51
90.0
 52
90.0
 71
     2
 49
0.5
 62
   256
  6
BYLAYER
 49
-0.5
 62
   256
  6
BYLAYER
  0
ACDBPLACEHOLDER
  5
F
102
{ACAD_REACTORS
330
E
102
}
330
E
  0
SCALE
  5
48
102
{ACAD_REACTORS
330
47
102
}
330
47
100
AcDbScale
 70
     0
300
1:1
140
1.0
141
1.0
290
     1
  0
SCALE
  5
49
102
{ACAD_REACTORS
330
47
102
}
330
47
100
AcDbScale
 70
     0
300
1:2
140
1.0
141
2.0
290
     0
  0
SCALE
  5
4A
102
{ACAD_REACTORS
330
47
102
}
330
47
100
AcDbScale
 70
     0
300
1:4
140
1.0
141
4.0
290
     0
  0
SCALE
  5
4B
102
{ACAD_REACTORS
330
47
102
}
330
47
100
AcDbScale
 70
     0
300
1:5
140
1.0
141
5.0
290
     0
  0
SCALE
  5
4C
102
{ACAD_REACTORS
330
47
102
}
330
47
100
AcDbScale
 70
     0
300
1:8
140
1.0
141
8.0
290
     0
  0
SCALE
  5
4D
102
{ACAD_REACTORS
330
47
102
}
330
47
100
AcDbScale
 70
     0
300
1:10
140
1.0
141
10.0
290
     0
  0
SCALE
  5
4E
102
{ACAD_REACTORS
330
47
102
}
330
47
100
AcDbScale
 70
     0
300
1:16
140
1.0
141
16.0
290
     0
  0
SCALE
  5
4F
102
{ACAD_REACTORS
330
47
102
}
330
47
100
AcDbScale
 70
     0
300
1:20
140
1.0
141
20.0
290
     0
  0
SCALE
  5
50
102
{ACAD_REACTORS
330
47
102
}
330
47
100
AcDbScale
 70
     0
300
1:30
140
1.0
141
30.0
290
     0
  0
SCALE
  5
51
102
{ACAD_REACTORS
330
47
102
}
330
47
100
AcDbScale
 70
     0
300
1:40
140
1.0
141
40.0
290
     0
  0
SCALE
  5
52
102
{ACAD_REACTORS
330
47
102
}
330
47
100
AcDbScale
 70
     0
300
1:50
140
1.0
141
50.0
290
     0
  0
SCALE
  5
53
102
{ACAD_REACTORS
330
47
102
}
330
47
100
AcDbScale
 70
     0
300
1:100
140
1.0
141
100.0
290
     0
  0
SCALE
  5
54
102
{ACAD_REACTORS
330
47
102
}
330
47
100
AcDbScale
 70
     0
300
2:1
140
2.0
141
1.0
290
     0
  0
SCALE
  5
55
102
{ACAD_REACTORS
330
47
102
}
330
47
100
AcDbScale
 70
     0
300
4:1
140
4.0
141
1.0
290
     0
  0
SCALE
  5
56
102
{ACAD_REACTORS
330
47
102
}
330
47
100
AcDbScale
 70
     0
300
8:1
140
8.0
141
1.0
290
     0
  0
SCALE
  5
57
102
{ACAD_REACTORS
330
47
102
}
330
47
100
AcDbScale
 70
     0
300
10:1
140
10.0
141
1.0
290
     0
  0
SCALE
  5
58
102
{ACAD_REACTORS
330
47
102
}
330
47
100
AcDbScale
 70
     0
300
100:1
140
100.0
141
1.0
290
     0
  0
TABLESTYLE
  5
5A
102
{ACAD_REACTORS
330
59
102
}
102
{ACAD_XDICTIONARY
360
27F
102
}
330
59
100
AcDbTableStyle
  3
Standard
 70
     0
 71
     0
 40
0.06
 41
0.06
280
     0
281
     0
  7
Standard
140
4.5
170
     2
 62
     0
 63
   257
283
     0
 90
        4
 91
        0
  1

274
    -2
284
     1
 64
     0
275
    -2
285
     1
 65
     0
276
    -2
286
     1
 66
     0
277
    -2
287
     1
 67
     0
278
    -2
288
     1
 68
     0
279
    -2
289
     1
 69
     0
  7
Standard
140
6.0
170
     5
 62
     0
 63
   257
283
     0
 90
        4
 91
        0
  1

274
    -2
284
     1
 64
     0
275
    -2
285
     1
 65
     0
276
    -2
286
     1
 66
     0
277
    -2
287
     1
 67
     0
278
    -2
288
     1
 68
     0
279
    -2
289
     1
 69
     0
  7
Standard
140
4.5
170
     5
 62
     0
 63
   257
283
     0
 90
        4
 91
        0
  1

274
    -2
284
     1
 64
     0
275
    -2
285
     1
 65
     0
276
    -2
286
     1
 66
     0
277
    -2
287
     1
 67
     0
278
    -2
288
     1
 68
     0
279
    -2
289
     1
 69
     0
  0
VISUALSTYLE
  5
2F
102
{ACAD_REACTORS
330
2A
102
}
330
2A
100
AcDbVisualStyle
  2
2dWireframe
 70
     4
177
     3
291
     0
 70
    58
 90
        0
176
     1
 90
        2
176
     1
 90
        0
176
     1
 90
        0
176
     1
 40
0.6
176
     1
 40
30.0
176
     1
 62
     7
420
 16777215
176
     1
 90
        1
176
     1
 90
        4
176
     1
 62
     7
176
     1
 62
   257
176
     1
 90
        1
176
     1
 90
        1
176
     1
 40
1.0
176
     1
 90
        0
176
     1
 62
   257
176
     1
 40
1.0
176
     1
 90
        1
176
     1
 90
        6
176
     1
 90
        2
176
     1
 62
     7
176
     1
 90
        5
176
     1
 90
        0
176
     1
 90
        0
176
     1
290
     0
176
     1
 90
        1
176
     1
 40
0.0
176
     1
 90
        0
176
     1
290
     1
176
     1
290
     1
176
     1
290
     0
176
     1
290
     0
176
     1
290
     0
176
     1
290
     0
176
     1
290
     0
176
     1
290
     0
176
     1
290
     0
176
     1
 90
       50
176
     1
 40
0.0
176
     1
 40
1.0
176
     1
 90
        0
176
     1
 62
    18
420
        0
176
     1
 90
       50
176
     1
 90
        3
176
     1
 62
     5
420
      255
176
     1
290
     0
176
     1
 90
       50
176
     1
 90
       50
176
     1
 90
       50
176
     1
290
     0
176
     1
 90
       50
176
     1
 62
   256
176
     0
 40
1.0
176
     0
 90
        2
176
     1
  1
strokes_ogs.tif
176
     1
290
     0
176
     1
 40
1.0
176
     1
 40
1.0
176
     1
  0
VISUALSTYLE
  5
32
102
{ACAD_REACTORS
330
2A
102
}
330
2A
100
AcDbVisualStyle
  2
Basic
 70
     7
177
     3
291
     1
 70
    58
 90
        1
176
     1
 90
        0
176
     1
 90
        1
176
     1
 90
        0
176
     1
 40
0.6
176
     1
 40
30.0
176
     1
 62
     7
420
 16777215
176
     1
 90
        0
176
     1
 90
        4
176
     1
 62
     7
176
     1
 62
   257
176
     1
 90
        1
176
     1
 90
        1
176
     1
 40
1.0
176
     1
 90
        8
176
     1
 62
     7
176
     1
 40
1.0
176
     1
 90
        1
176
     1
 90
        6
176
     1
 90
        2
176
     1
 62
     7
176
     1
 90
        5
176
     1
 90
        0
176
     1
 90
        0
176
     1
290
     0
176
     1
 90
        1
176
     1
 40
0.0
176
     1
 90
        0
176
     1
290
     0
176
     1
290
     1
176
     1
290
     1
176
     1
290
     0
176
     1
290
     0
176
     1
290
     0
176
     1
290
     0
176
     1
290
     0
176
     1
290
     0
176
     1
 90
       50
176
     1
 40
0.0
176
     1
 40
1.0
176
     1
 90
        0
176
     1
 62
    18
420
        0
176
     1
 90
       50
176
     1
 90
        3
176
     1
 62
     5
420
      255
176
     1
290
     0
176
     1
 90
       50
176
     1
 90
       50
176
     1
 90
       50
176
     1
290
     0
176
     1
 90
       50
176
     1
 62
   256
176
     0
 40
1.0
176
     0
 90
        2
176
     1
  1
strokes_ogs.tif
176
     1
290
     0
176
     1
 40
1.0
176
     1
 40
1.0
176
     1
  0
VISUALSTYLE
  5
36
102
{ACAD_REACTORS
330
2A
102
}
330
2A
100
AcDbVisualStyle
  2
Brighten
 70
    12
177
     3
291
     1
 70
    58
 90
        2
176
     1
 90
        2
176
     1
 90
        0
176
     1
 90
        0
176
     1
 40
0.6
176
     1
 40
30.0
176
     1
 62
     7
420
 16777215
176
     1
 90
        1
176
     1
 90
        4
176
     1
 62
     7
176
     1
 62
   257
176
     1
 90
        1
176
     1
 90
        1
176
     1
 40
1.0
176
     1
 90
        8
176
     1
 62
     7
176
     1
 40
1.0
176
     1
 90
        1
176
     1
 90
        6
176
     1
 90
        2
176
     1
 62
     7
176
     1
 90
        5
176
     1
 90
        0
176
     1
 90
        0
176
     1
290
     0
176
     1
 90
        1
176
     1
 40
50.0
176
     1
 90
        0
176
     1
290
     0
176
     1
290
     1
176
     1
290
     1
176
     1
290
     0
176
     1
290
     0
176
     1
290
     0
176
     1
290
     0
176
     1
290
     0
176
     1
290
     0
176
     1
 90
       50
176
     1
 40
0.0
176
     1
 40
1.0
176
     1
 90
        0
176
     1
 62
    18
420
        0
176
     1
 90
       50
176
     1
 90
        3
176
     1
 62
     5
420
      255
176
     1
290
     0
176
     1
 90
       50
176
     1
 90
       50
176
     1
 90
       50
176
     1
290
     0
176
     1
 90
       50
176
     1
 62
   256
176
     0
 40
1.0
176
     0
 90
        2
176
     1
  1
strokes_ogs.tif
176
     1
290
     0
176
     1
 40
1.0
176
     1
 40
1.0
176
     1
  0
VISUALSTYLE
  5
3A
102
{ACAD_REACTORS
330
2A
102
}
330
2A
100
AcDbVisualStyle
  2
ColorChange
 70
    16
177
     3
291
     1
 70
    58
 90
        2
176
     1
 90
        2
176
     1
 90
        3
176
     1
 90
        0
176
     1
 40
0.6
176
     1
 40
30.0
176
     1
 62
     8
420
  8421504
176
     1
 90
        1
176
     1
 90
        4
176
     1
 62
     7
176
     1
 62
   257
176
     1
 90
        1
176
     1
 90
        1
176
     1
 40
1.0
176
     1
 90
        8
176
     1
 62
     8
420
  8421504
176
     1
 40
1.0
176
     1
 90
        1
176
     1
 90
        6
176
     1
 90
        2
176
     1
 62
     7
176
     1
 90
        5
176
     1
 90
        0
176
     1
 90
        0
176
     1
290
     0
176
     1
 90
        1
176
     1
 40
0.0
176
     1
 90
        0
176
     1
290
     0
176
     1
290
     1
176
     1
290
     1
176
     1
290
     0
176
     1
290
     0
176
     1
290
     0
176
     1
290
     0
176
     1
290
     0
176
     1
290
     0
176
     1
 90
       50
176
     1
 40
0.0
176
     1
 40
1.0
176
     1
 90
        0
176
     1
 62
    18
420
        0
176
     1
 90
       50
176
     1
 90
        3
176
     1
 62
     5
420
      255
176
     1
290
     0
176
     1
 90
       50
176
     1
 90
       50
176
     1
 90
       50
176
     1
290
     0
176
     1
 90
       50
176
     1
 62
   256
176
     0
 40
1.0
176
     0
 90
        2
176
     1
  1
strokes_ogs.tif
176
     1
290
     0
176
     1
 40
1.0
176
     1
 40
1.0
176
     1
  0
VISUALSTYLE
  5
34
102
{ACAD_REACTORS
330
2A
102
}
330
2A
100
AcDbVisualStyle
  2
Conceptual
 70
     9
177
     3
291
     0
 70
    58
 90
        3
176
     1
 90
        2
176
     1
 90
        0
176
     1
 90
        0
176
     1
 40
0.6
176
     1
 40
30.0
176
     1
 62
     7
420
 16777215
176
     1
 90
        2
176
     1
 90
        2
176
     1
 62
     7
176
     1
 62
   257
176
     1
 90
        1
176
     1
 90
        1
176
     1
 40
179.0
176
     1
 90
        8
176
     1
 62
     7
176
     1
 40
1.0
176
     1
 90
        1
176
     1
 90
        6
176
     1
 90
        2
176
     1
 62
     7
176
     1
 90
        3
176
     1
 90
        0
176
     1
 90
        0
176
     1
290
     0
176
     1
 90
        1
176
     1
 40
0.0
176
     1
 90
        0
176
     1
290
     0
176
     1
290
     1
176
     1
290
     1
176
     1
290
     0
176
     1
290
     0
176
     1
290
     0
176
     1
290
     0
176
     1
290
     0
176
     1
290
     0
176
     1
 90
       50
176
     1
 40
0.0
176
     1
 40
1.0
176
     1
 90
        0
176
     1
 62
    18
420
        0
176
     1
 90
       50
176
     1
 90
        3
176
     1
 62
     5
420
      255
176
     1
290
     0
176
     1
 90
       50
176
     1
 90
       50
176
     1
 90
       50
176
     1
290
     0
176
     1
 90
       50
176
     1
 62
   256
176
     0
 40
1.0
176
     0
 90
        2
176
     1
  1
strokes_ogs.tif
176
     1
290
     0
176
     1
 40
1.0
176
     1
 40
1.0
176
     1
  0
VISUALSTYLE
  5
35
102
{ACAD_REACTORS
330
2A
102
}
330
2A
100
AcDbVisualStyle
  2
Dim
 70
    11
177
     3
291
     1
 70
    58
 90
        2
176
     1
 90
        2
176
     1
 90
        0
176
     1
 90
        0
176
     1
 40
0.6
176
     1
 40
30.0
176
     1
 62
     7
420
 16777215
176
     1
 90
        1
176
     1
 90
        4
176
     1
 62
     7
176
     1
 62
   257
176
     1
 90
        1
176
     1
 90
        1
176
     1
 40
1.0
176
     1
 90
        8
176
     1
 62
     7
176
     1
 40
1.0
176
     1
 90
        1
176
     1
 90
        6
176
     1
 90
        2
176
     1
 62
     7
176
     1
 90
        5
176
     1
 90
        0
176
     1
 90
        0
176
     1
290
     0
176
     1
 90
        1
176
     1
 40
-50.0
176
     1
 90
        0
176
     1
290
     0
176
     1
290
     1
176
     1
290
     1
176
     1
290
     0
176
     1
290
     0
176
     1
290
     0
176
     1
290
     0
176
     1
290
     0
176
     1
290
     0
176
     1
 90
       50
176
     1
 40
0.0
176
     1
 40
1.0
176
     1
 90
        0
176
     1
 62
    18
420
        0
176
     1
 90
       50
176
     1
 90
        3
176
     1
 62
     5
420
      255
176
     1
290
     0
176
     1
 90
       50
176
     1
 90
       50
176
     1
 90
       50
176
     1
290
     0
176
     1
 90
       50
176
     1
 62
   256
176
     0
 40
1.0
176
     0
 90
        2
176
     1
  1
strokes_ogs.tif
176
     1
290
     0
176
     1
 40
1.0
176
     1
 40
1.0
176
     1
  0
VISUALSTYLE
  5
3D
102
{ACAD_REACTORS
330
2A
102
}
330
2A
100
AcDbVisualStyle
  2
EdgeColorOff
 70
    22
177
     3
291
     1
 70
    58
 90
        2
176
     0
 90
        2
176
     0
 90
        0
176
     0
 90
        0
176
     0
 40
0.6
176
     0
 40
30.0
176
     0
 62
     7
420
 16777215
176
     0
 90
        1
176
     0
 90
        4
176
     0
 62
     7
176
     0
 62
   257
176
     0
 90
        1
176
     0
 90
        1
176
     0
 40
1.0
176
     0
 90
        8
176
     2
 62
     7
176
     0
 40
1.0
176
     0
 90
        1
176
     0
 90
        6
176
     0
 90
        2
176
     0
 62
     7
176
     0
 90
        5
176
     0
 90
        0
176
     0
 90
        0
176
     0
290
     0
176
     0
 90
        1
176
     0
 40
0.0
176
     0
 90
        0
176
     0
290
     0
176
     0
290
     1
176
     0
290
     1
176
     0
290
     0
176
     0
290
     0
176
     0
290
     0
176
     0
290
     0
176
     0
290
     0
176
     0
290
     0
176
     0
 90
       50
176
     0
 40
0.0
176
     0
 40
1.0
176
     0
 90
        0
176
     0
 62
    18
420
        0
176
     0
 90
       50
176
     0
 90
        3
176
     0
 62
     5
420
      255
176
     0
290
     0
176
     0
 90
       50
176
     0
 90
       50
176
     0
 90
       50
176
     0
290
     0
176
     0
 90
       50
176
     0
 62
   256
176
     0
 40
1.0
176
     0
 90
        2
176
     0
  1
strokes_ogs.tif
176
     0
290
     0
176
     0
 40
1.0
176
     0
 40
1.0
176
     0
  0
VISUALSTYLE
  5
39
102
{ACAD_REACTORS
330
2A
102
}
330
2A
100
AcDbVisualStyle
  2
Facepattern
 70
    15
177
     3
291
     1
 70
    58
 90
        2
176
     1
 90
        2
176
     1
 90
        0
176
     1
 90
        0
176
     1
 40
0.6
176
     1
 40
30.0
176
     1
 62
     7
420
 16777215
176
     1
 90
        1
176
     1
 90
        4
176
     1
 62
     7
176
     1
 62
   257
176
     1
 90
        1
176
     1
 90
        1
176
     1
 40
1.0
176
     1
 90
        8
176
     1
 62
     7
176
     1
 40
1.0
176
     1
 90
        1
176
     1
 90
        6
176
     1
 90
        2
176
     1
 62
     7
176
     1
 90
        5
176
     1
 90
        0
176
     1
 90
        0
176
     1
290
     0
176
     1
 90
        1
176
     1
 40
0.0
176
     1
 90
        0
176
     1
290
     0
176
     1
290
     1
176
     1
290
     1
176
     1
290
     0
176
     1
290
     0
176
     1
290
     0
176
     1
290
     0
176
     1
290
     0
176
     1
290
     0
176
     1
 90
       50
176
     1
 40
0.0
176
     1
 40
1.0
176
     1
 90
        0
176
     1
 62
    18
420
        0
176
     1
 90
       50
176
     1
 90
        3
176
     1
 62
     5
420
      255
176
     1
290
     0
176
     1
 90
       50
176
     1
 90
       50
176
     1
 90
       50
176
     1
290
     0
176
     1
 90
       50
176
     1
 62
   256
176
     0
 40
1.0
176
     0
 90
        2
176
     1
  1
strokes_ogs.tif
176
     1
290
     0
176
     1
 40
1.0
176
     1
 40
1.0
176
     1
  0
VISUALSTYLE
  5
2B
102
{ACAD_REACTORS
330
2A
102
}
330
2A
100
AcDbVisualStyle
  2
Flat
 70
     0
177
     3
291
     1
 70
    58
 90
        2
176
     1
 90
        1
176
     1
 90
        1
176
     1
 90
        2
176
     1
 40
0.6
176
     1
 40
30.0
176
     1
 62
     7
420
 16777215
176
     1
 90
        0
176
     1
 90
        0
176
     1
 62
     7
176
     1
 62
   257
176
     1
 90
        1
176
     1
 90
        1
176
     1
 40
1.0
176
     1
 90
        8
176
     1
 62
     7
176
     1
 40
1.0
176
     1
 90
        1
176
     1
 90
        6
176
     1
 90
        2
176
     1
 62
     7
176
     1
 90
        5
176
     1
 90
        0
176
     1
 90
        0
176
     1
290
     0
176
     1
 90
       13
176
     1
 40
0.0
176
     1
 90
        0
176
     1
290
     0
176
     1
290
     1
176
     1
290
     1
176
     1
290
     0
176
     1
290
     0
176
     1
290
     0
176
     1
290
     0
176
     1
290
     0
176
     1
290
     0
176
     1
 90
       50
176
     1
 40
0.0
176
     1
 40
1.0
176
     1
 90
        0
176
     1
 62
    18
420
        0
176
     1
 90
       50
176
     1
 90
        3
176
     1
 62
     5
420
      255
176
     1
290
     0
176
     1
 90
       50
176
     1
 90
       50
176
     1
 90
       50
176
     1
290
     0
176
     1
 90
       50
176
     1
 62
   256
176
     0
 40
1.0
176
     0
 90
        2
176
     1
  1
strokes_ogs.tif
176
     1
290
     0
176
     1
 40
1.0
176
     1
 40
1.0
176
     1
  0
VISUALSTYLE
  5
2C
102
{ACAD_REACTORS
330
2A
102
}
330
2A
100
AcDbVisualStyle
  2
FlatWithEdges
 70
     1
177
     3
291
     1
 70
    58
 90
        2
176
     1
 90
        1
176
     1
 90
        1
176
     1
 90
        2
176
     1
 40
0.6
176
     1
 40
30.0
176
     1
 62
     7
420
 16777215
176
     1
 90
        1
176
     1
 90
        0
176
     1
 62
     7
176
     1
 62
   257
176
     1
 90
        1
176
     1
 90
        1
176
     1
 40
1.0
176
     1
 90
        0
176
     1
 62
   257
176
     1
 40
1.0
176
     1
 90
        1
176
     1
 90
        6
176
     1
 90
        2
176
     1
 62
     7
176
     1
 90
        5
176
     1
 90
        0
176
     1
 90
        0
176
     1
290
     0
176
     1
 90
       13
176
     1
 40
0.0
176
     1
 90
        0
176
     1
290
     0
176
     1
290
     1
176
     1
290
     1
176
     1
290
     0
176
     1
290
     0
176
     1
290
     0
176
     1
290
     0
176
     1
290
     0
176
     1
290
     0
176
     1
 90
       50
176
     1
 40
0.0
176
     1
 40
1.0
176
     1
 90
        0
176
     1
 62
    18
420
        0
176
     1
 90
       50
176
     1
 90
        3
176
     1
 62
     5
420
      255
176
     1
290
     0
176
     1
 90
       50
176
     1
 90
       50
176
     1
 90
       50
176
     1
290
     0
176
     1
 90
       50
176
     1
 62
   256
176
     0
 40
1.0
176
     0
 90
        2
176
     1
  1
strokes_ogs.tif
176
     1
290
     0
176
     1
 40
1.0
176
     1
 40
1.0
176
     1
  0
VISUALSTYLE
  5
2D
102
{ACAD_REACTORS
330
2A
102
}
330
2A
100
AcDbVisualStyle
  2
Gouraud
 70
     2
177
     3
291
     1
 70
    58
 90
        2
176
     1
 90
        2
176
     1
 90
        1
176
     1
 90
        2
176
     1
 40
0.6
176
     1
 40
30.0
176
     1
 62
     7
420
 16777215
176
     1
 90
        0
176
     1
 90
        0
176
     1
 62
     7
176
     1
 62
   257
176
     1
 90
        1
176
     1
 90
        1
176
     1
 40
1.0
176
     1
 90
        0
176
     1
 62
     7
176
     1
 40
1.0
176
     1
 90
        1
176
     1
 90
        6
176
     1
 90
        2
176
     1
 62
     7
176
     1
 90
        5
176
     1
 90
        0
176
     1
 90
        0
176
     1
290
     0
176
     1
 90
       13
176
     1
 40
0.0
176
     1
 90
        0
176
     1
290
     0
176
     1
290
     1
176
     1
290
     1
176
     1
290
     0
176
     1
290
     0
176
     1
290
     0
176
     1
290
     0
176
     1
290
     0
176
     1
290
     0
176
     1
 90
       50
176
     1
 40
0.0
176
     1
 40
1.0
176
     1
 90
        0
176
     1
 62
    18
420
        0
176
     1
 90
       50
176
     1
 90
        3
176
     1
 62
     5
420
      255
176
     1
290
     0
176
     1
 90
       50
176
     1
 90
       50
176
     1
 90
       50
176
     1
290
     0
176
     1
 90
       50
176
     1
 62
   256
176
     0
 40
1.0
176
     0
 90
        2
176
     1
  1
strokes_ogs.tif
176
     1
290
     0
176
     1
 40
1.0
176
     1
 40
1.0
176
     1
  0
VISUALSTYLE
  5
2E
102
{ACAD_REACTORS
330
2A
102
}
330
2A
100
AcDbVisualStyle
  2
GouraudWithEdges
 70
     3
177
     3
291
     1
 70
    58
 90
        2
176
     1
 90
        2
176
     1
 90
        1
176
     1
 90
        2
176
     1
 40
0.6
176
     1
 40
30.0
176
     1
 62
     7
420
 16777215
176
     1
 90
        1
176
     1
 90
        0
176
     1
 62
     7
176
     1
 62
   257
176
     1
 90
        1
176
     1
 90
        1
176
     1
 40
1.0
176
     1
 90
        0
176
     1
 62
   257
176
     1
 40
1.0
176
     1
 90
        1
176
     1
 90
        6
176
     1
 90
        2
176
     1
 62
     7
176
     1
 90
        5
176
     1
 90
        0
176
     1
 90
        0
176
     1
290
     0
176
     1
 90
       13
176
     1
 40
0.0
176
     1
 90
        0
176
     1
290
     0
176
     1
290
     1
176
     1
290
     1
176
     1
290
     0
176
     1
290
     0
176
     1
290
     0
176
     1
290
     0
176
     1
290
     0
176
     1
290
     0
176
     1
 90
       50
176
     1
 40
0.0
176
     1
 40
1.0
176
     1
 90
        0
176
     1
 62
    18
420
        0
176
     1
 90
       50
176
     1
 90
        3
176
     1
 62
     5
420
      255
176
     1
290
     0
176
     1
 90
       50
176
     1
 90
       50
176
     1
 90
       50
176
     1
290
     0
176
     1
 90
       50
176
     1
 62
   256
176
     0
 40
1.0
176
     0
 90
        2
176
     1
  1
strokes_ogs.tif
176
     1
290
     0
176
     1
 40
1.0
176
     1
 40
1.0
176
     1
  0
VISUALSTYLE
  5
31
102
{ACAD_REACTORS
330
2A
102
}
330
2A
100
AcDbVisualStyle
  2
Hidden
 70
     6
177
     3
291
     0
 70
    58
 90
        1
176
     1
 90
        2
176
     1
 90
        2
176
     1
 90
        0
176
     1
 40
0.6
176
     1
 40
30.0
176
     1
 62
     7
420
 16777215
176
     1
 90
        2
176
     1
 90
        2
176
     1
 62
     7
176
     1
 62
   257
176
     1
 90
        2
176
     1
 90
        1
176
     1
 40
40.0
176
     1
 90
        0
176
     1
 62
   257
176
     1
 40
1.0
176
     1
 90
        1
176
     1
 90
        6
176
     1
 90
        2
176
     1
 62
     7
176
     1
 90
        3
176
     1
 90
        0
176
     1
 90
        0
176
     1
290
     0
176
     1
 90
        1
176
     1
 40
0.0
176
     1
 90
        0
176
     1
290
     0
176
     1
290
     1
176
     1
290
     1
176
     1
290
     0
176
     1
290
     0
176
     1
290
     0
176
     1
290
     0
176
     1
290
     0
176
     1
290
     0
176
     1
 90
       50
176
     1
 40
0.0
176
     1
 40
1.0
176
     1
 90
        0
176
     1
 62
    18
420
        0
176
     1
 90
       50
176
     1
 90
        3
176
     1
 62
     5
420
      255
176
     1
290
     0
176
     1
 90
       50
176
     1
 90
       50
176
     1
 90
       50
176
     1
290
     0
176
     1
 90
       50
176
     1
 62
   256
176
     0
 40
1.0
176
     0
 90
        2
176
     1
  1
strokes_ogs.tif
176
     1
290
     0
176
     1
 40
1.0
176
     1
 40
1.0
176
     1
  0
VISUALSTYLE
  5
3B
102
{ACAD_REACTORS
330
2A
102
}
330
2A
100
AcDbVisualStyle
  2
JitterOff
 70
    20
177
     3
291
     1
 70
    58
 90
        2
176
     0
 90
        2
176
     0
 90
        0
176
     0
 90
        0
176
     0
 40
0.6
176
     0
 40
30.0
176
     0
 62
     7
420
 16777215
176
     0
 90
        1
176
     0
 90
        4
176
     0
 62
     7
176
     0
 62
   257
176
     0
 90
        1
176
     0
 90
        1
176
     0
 40
1.0
176
     0
 90
       10
176
     2
 62
     7
176
     0
 40
1.0
176
     0
 90
        1
176
     0
 90
        6
176
     0
 90
        2
176
     0
 62
     7
176
     0
 90
        5
176
     0
 90
        0
176
     0
 90
        0
176
     0
290
     0
176
     0
 90
        1
176
     0
 40
0.0
176
     0
 90
        0
176
     0
290
     0
176
     0
290
     1
176
     0
290
     1
176
     0
290
     0
176
     0
290
     0
176
     0
290
     0
176
     0
290
     0
176
     0
290
     0
176
     0
290
     0
176
     0
 90
       50
176
     0
 40
0.0
176
     0
 40
1.0
176
     0
 90
        0
176
     0
 62
    18
420
        0
176
     0
 90
       50
176
     0
 90
        3
176
     0
 62
     5
420
      255
176
     0
290
     0
176
     0
 90
       50
176
     0
 90
       50
176
     0
 90
       50
176
     0
290
     0
176
     0
 90
       50
176
     0
 62
   256
176
     0
 40
1.0
176
     0
 90
        2
176
     0
  1
strokes_ogs.tif
176
     0
290
     0
176
     0
 40
1.0
176
     0
 40
1.0
176
     0
  0
VISUALSTYLE
  5
38
102
{ACAD_REACTORS
330
2A
102
}
330
2A
100
AcDbVisualStyle
  2
Linepattern
 70
    14
177
     3
291
     1
 70
    58
 90
        2
176
     1
 90
        2
176
     1
 90
        0
176
     1
 90
        0
176
     1
 40
0.6
176
     1
 40
30.0
176
     1
 62
     7
420
 16777215
176
     1
 90
        1
176
     1
 90
        4
176
     1
 62
     7
176
     1
 62
   257
176
     1
 90
        7
176
     1
 90
        7
176
     1
 40
1.0
176
     1
 90
        8
176
     1
 62
     7
176
     1
 40
1.0
176
     1
 90
        1
176
     1
 90
        6
176
     1
 90
        2
176
     1
 62
     7
176
     1
 90
        5
176
     1
 90
        0
176
     1
 90
        0
176
     1
290
     0
176
     1
 90
        1
176
     1
 40
0.0
176
     1
 90
        0
176
     1
290
     0
176
     1
290
     1
176
     1
290
     1
176
     1
290
     0
176
     1
290
     0
176
     1
290
     0
176
     1
290
     0
176
     1
290
     0
176
     1
290
     0
176
     1
 90
       50
176
     1
 40
0.0
176
     1
 40
1.0
176
     1
 90
        0
176
     1
 62
    18
420
        0
176
     1
 90
       50
176
     1
 90
        3
176
     1
 62
     5
420
      255
176
     1
290
     0
176
     1
 90
       50
176
     1
 90
       50
176
     1
 90
       50
176
     1
290
     0
176
     1
 90
       50
176
     1
 62
   256
176
     0
 40
1.0
176
     0
 90
        2
176
     1
  1
strokes_ogs.tif
176
     1
290
     0
176
     1
 40
1.0
176
     1
 40
1.0
176
     1
  0
VISUALSTYLE
  5
3C
102
{ACAD_REACTORS
330
2A
102
}
330
2A
100
AcDbVisualStyle
  2
OverhangOff
 70
    21
177
     3
291
     1
 70
    58
 90
        2
176
     0
 90
        2
176
     0
 90
        0
176
     0
 90
        0
176
     0
 40
0.6
176
     0
 40
30.0
176
     0
 62
     7
420
 16777215
176
     0
 90
        1
176
     0
 90
        4
176
     0
 62
     7
176
     0
 62
   257
176
     0
 90
        1
176
     0
 90
        1
176
     0
 40
1.0
176
     0
 90
        9
176
     2
 62
     7
176
     0
 40
1.0
176
     0
 90
        1
176
     0
 90
        6
176
     0
 90
        2
176
     0
 62
     7
176
     0
 90
        5
176
     0
 90
        0
176
     0
 90
        0
176
     0
290
     0
176
     0
 90
        1
176
     0
 40
0.0
176
     0
 90
        0
176
     0
290
     0
176
     0
290
     1
176
     0
290
     1
176
     0
290
     0
176
     0
290
     0
176
     0
290
     0
176
     0
290
     0
176
     0
290
     0
176
     0
290
     0
176
     0
 90
       50
176
     0
 40
0.0
176
     0
 40
1.0
176
     0
 90
        0
176
     0
 62
    18
420
        0
176
     0
 90
       50
176
     0
 90
        3
176
     0
 62
     5
420
      255
176
     0
290
     0
176
     0
 90
       50
176
     0
 90
       50
176
     0
 90
       50
176
     0
290
     0
176
     0
 90
       50
176
     0
 62
   256
176
     0
 40
1.0
176
     0
 90
        2
176
     0
  1
strokes_ogs.tif
176
     0
290
     0
176
     0
 40
1.0
176
     0
 40
1.0
176
     0
  0
VISUALSTYLE
  5
33
102
{ACAD_REACTORS
330
2A
102
}
330
2A
100
AcDbVisualStyle
  2
Realistic
 70
     8
177
     3
291
     0
 70
    58
 90
        2
176
     1
 90
        3
176
     1
 90
        0
176
     1
 90
        2
176
     1
 40
0.6
176
     1
 40
30.0
176
     1
 62
     7
420
 16777215
176
     1
 90
        0
176
     1
 90
        0
176
     1
 62
     7
176
     1
 62
   257
176
     1
 90
        1
176
     1
 90
        1
176
     1
 40
1.0
176
     1
 90
        8
176
     1
 62
   257
176
     1
 40
1.0
176
     1
 90
        1
176
     1
 90
        6
176
     1
 90
        2
176
     1
 62
     7
176
     1
 90
        3
176
     1
 90
        0
176
     1
 90
        0
176
     1
290
     0
176
     1
 90
       13
176
     1
 40
0.0
176
     1
 90
        0
176
     1
290
     0
176
     1
290
     1
176
     1
290
     1
176
     1
290
     0
176
     1
290
     0
176
     1
290
     0
176
     1
290
     0
176
     1
290
     0
176
     1
290
     0
176
     1
 90
       50
176
     1
 40
0.0
176
     1
 40
1.0
176
     1
 90
        0
176
     1
 62
    18
420
        0
176
     1
 90
       50
176
     1
 90
        3
176
     1
 62
     5
420
      255
176
     1
290
     0
176
     1
 90
       50
176
     1
 90
       50
176
     1
 90
       50
176
     1
290
     0
176
     1
 90
       50
176
     1
 62
   256
176
     0
 40
1.0
176
     0
 90
        2
176
     1
  1
strokes_ogs.tif
176
     1
290
     0
176
     1
 40
1.0
176
     1
 40
1.0
176
     1
  0
VISUALSTYLE
  5
42
102
{ACAD_REACTORS
330
2A
102
}
330
2A
100
AcDbVisualStyle
  2
Shaded
 70
    27
177
     3
291
     0
 70
    58
 90
        2
176
     1
 90
        2
176
     1
 90
        1
176
     1
 90
        2
176
     1
 40
0.6
176
     1
 40
30.0
176
     1
 62
     7
420
 16777215
176
     1
 90
        0
176
     1
 90
        4
176
     1
 62
     7
176
     1
 62
   257
176
     1
 90
        1
176
     1
 90
        1
176
     1
 40
1.0
176
     1
 90
        8
176
     1
 62
   257
176
     1
 40
1.0
176
     1
 90
        1
176
     1
 90
        6
176
     1
 90
        2
176
     1
 62
     8
420
  7895160
176
     1
 90
        3
176
     1
 90
        0
176
     1
 90
        0
176
     1
290
     0
176
     1
 90
        5
176
     1
 40
0.0
176
     1
 90
        0
176
     1
290
     0
176
     1
290
     1
176
     1
290
     1
176
     1
290
     0
176
     1
290
     0
176
     1
290
     0
176
     1
290
     0
176
     1
290
     0
176
     1
290
     0
176
     1
 90
       50
176
     1
 40
0.0
176
     1
 40
1.0
176
     1
 90
        0
176
     1
 62
    18
420
        0
176
     1
 90
       50
176
     1
 90
        3
176
     1
 62
     5
420
      255
176
     1
290
     0
176
     1
 90
       50
176
     1
 90
       50
176
     1
 90
       50
176
     1
290
     0
176
     1
 90
       50
176
     1
 62
   256
176
     0
 40
1.0
176
     0
 90
        2
176
     1
  1
strokes_ogs.tif
176
     1
290
     0
176
     1
 40
1.0
176
     1
 40
1.0
176
     1
  0
VISUALSTYLE
  5
41
102
{ACAD_REACTORS
330
2A
102
}
330
2A
100
AcDbVisualStyle
  2
Shaded with edges
 70
    26
177
     3
291
     0
 70
    58
 90
        2
176
     1
 90
        2
176
     1
 90
        1
176
     1
 90
        2
176
     1
 40
0.6
176
     1
 40
30.0
176
     1
 62
     7
420
 16777215
176
     1
 90
        1
176
     1
 90
       10
176
     1
 62
     7
176
     1
 62
   257
176
     1
 90
        2
176
     1
 90
        1
176
     1
 40
1.0
176
     1
 90
        8
176
     1
 62
   257
176
     1
 40
1.0
176
     1
 90
        1
176
     1
 90
        6
176
     1
 90
        2
176
     1
 62
     7
176
     1
 90
        3
176
     1
 90
        0
176
     1
 90
        0
176
     1
290
     0
176
     1
 90
        5
176
     1
 40
0.0
176
     1
 90
        0
176
     1
290
     0
176
     1
290
     1
176
     1
290
     1
176
     1
290
     0
176
     1
290
     0
176
     1
290
     0
176
     1
290
     0
176
     1
290
     0
176
     1
290
     0
176
     1
 90
       50
176
     1
 40
0.0
176
     1
 40
1.0
176
     1
 90
        0
176
     1
 62
    18
420
        0
176
     1
 90
       50
176
     1
 90
        3
176
     1
 62
     5
420
      255
176
     1
290
     0
176
     1
 90
       50
176
     1
 90
       50
176
     1
 90
       50
176
     1
290
     0
176
     1
 90
       50
176
     1
 62
   256
176
     0
 40
1.0
176
     0
 90
        2
176
     1
  1
strokes_ogs.tif
176
     1
290
     0
176
     1
 40
1.0
176
     1
 40
1.0
176
     1
  0
VISUALSTYLE
  5
3E
102
{ACAD_REACTORS
330
2A
102
}
330
2A
100
AcDbVisualStyle
  2
Shades of Gray
 70
    23
177
     3
291
     0
 70
    58
 90
        2
176
     1
 90
        2
176
     1
 90
        3
176
     1
 90
        0
176
     1
 40
0.6
176
     1
 40
30.0
176
     1
 62
     7
420
 16777215
176
     1
 90
        2
176
     1
 90
        2
176
     1
 62
     7
176
     1
 62
     7
176
     1
 90
        1
176
     1
 90
        1
176
     1
 40
40.0
176
     1
 90
        8
176
     1
 62
     7
176
     1
 40
1.0
176
     1
 90
        1
176
     1
 90
        6
176
     1
 90
        2
176
     1
 62
     7
176
     1
 90
        3
176
     1
 90
        0
176
     1
 90
        0
176
     1
290
     0
176
     1
 90
        1
176
     1
 40
0.0
176
     1
 90
        0
176
     1
290
     0
176
     1
290
     1
176
     1
290
     1
176
     1
290
     0
176
     1
290
     0
176
     1
290
     0
176
     1
290
     0
176
     1
290
     0
176
     1
290
     0
176
     1
 90
       50
176
     1
 40
0.0
176
     1
 40
1.0
176
     1
 90
        0
176
     1
 62
    18
420
        0
176
     1
 90
       50
176
     1
 90
        3
176
     1
 62
     5
420
      255
176
     1
290
     0
176
     1
 90
       50
176
     1
 90
       50
176
     1
 90
       50
176
     1
290
     0
176
     1
 90
       50
176
     1
 62
   256
176
     0
 40
1.0
176
     0
 90
        2
176
     1
  1
strokes_ogs.tif
176
     1
290
     0
176
     1
 40
1.0
176
     1
 40
1.0
176
     1
  0
VISUALSTYLE
  5
3F
102
{ACAD_REACTORS
330
2A
102
}
330
2A
100
AcDbVisualStyle
  2
Sketchy
 70
    24
177
     3
291
     0
 70
    58
 90
        1
176
     1
 90
        2
176
     1
 90
        2
176
     1
 90
        0
176
     1
 40
0.6
176
     1
 40
30.0
176
     1
 62
     7
420
 16777215
176
     1
 90
        2
176
     1
 90
        2
176
     1
 62
     7
176
     1
 62
     7
176
     1
 90
        1
176
     1
 90
        1
176
     1
 40
40.0
176
     1
 90
       11
176
     1
 62
     7
176
     1
 40
1.0
176
     1
 90
        1
176
     1
 90
        6
176
     1
 90
        2
176
     1
 62
     7
176
     1
 90
        6
176
     1
 90
        0
176
     1
 90
        0
176
     1
290
     0
176
     1
 90
        1
176
     1
 40
0.0
176
     1
 90
        0
176
     1
290
     0
176
     1
290
     1
176
     1
290
     1
176
     1
290
     0
176
     1
290
     0
176
     1
290
     0
176
     1
290
     0
176
     1
290
     0
176
     1
290
     0
176
     1
 90
       50
176
     1
 40
0.0
176
     1
 40
1.0
176
     1
 90
        0
176
     1
 62
    18
420
        0
176
     1
 90
       50
176
     1
 90
        3
176
     1
 62
     5
420
      255
176
     1
290
     0
176
     1
 90
       50
176
     1
 90
       50
176
     1
 90
       50
176
     1
290
     0
176
     1
 90
       50
176
     1
 62
   256
176
     0
 40
1.0
176
     0
 90
        2
176
     1
  1
strokes_ogs.tif
176
     1
290
     0
176
     1
 40
1.0
176
     1
 40
1.0
176
     1
  0
VISUALSTYLE
  5
37
102
{ACAD_REACTORS
330
2A
102
}
330
2A
100
AcDbVisualStyle
  2
Thicken
 70
    13
177
     3
291
     1
 70
    58
 90
        2
176
     1
 90
        2
176
     1
 90
        0
176
     1
 90
        0
176
     1
 40
0.6
176
     1
 40
30.0
176
     1
 62
     7
420
 16777215
176
     1
 90
        1
176
     1
 90
        4
176
     1
 62
     7
176
     1
 62
   257
176
     1
 90
        1
176
     1
 90
        1
176
     1
 40
1.0
176
     1
 90
       12
176
     1
 62
     7
176
     1
 40
1.0
176
     1
 90
        1
176
     1
 90
        6
176
     1
 90
        2
176
     1
 62
     7
176
     1
 90
        5
176
     1
 90
        0
176
     1
 90
        0
176
     1
290
     0
176
     1
 90
        1
176
     1
 40
0.0
176
     1
 90
        0
176
     1
290
     0
176
     1
290
     1
176
     1
290
     1
176
     1
290
     0
176
     1
290
     0
176
     1
290
     0
176
     1
290
     0
176
     1
290
     0
176
     1
290
     0
176
     1
 90
       50
176
     1
 40
0.0
176
     1
 40
1.0
176
     1
 90
        0
176
     1
 62
    18
420
        0
176
     1
 90
       50
176
     1
 90
        3
176
     1
 62
     5
420
      255
176
     1
290
     0
176
     1
 90
       50
176
     1
 90
       50
176
     1
 90
       50
176
     1
290
     0
176
     1
 90
       50
176
     1
 62
   256
176
     0
 40
1.0
176
     0
 90
        2
176
     1
  1
strokes_ogs.tif
176
     1
290
     0
176
     1
 40
1.0
176
     1
 40
1.0
176
     1
  0
VISUALSTYLE
  5
30
102
{ACAD_REACTORS
330
2A
102
}
330
2A
100
AcDbVisualStyle
  2
Wireframe
 70
     5
177
     3
291
     0
 70
    58
 90
        0
176
     1
 90
        2
176
     1
 90
        0
176
     1
 90
        0
176
     1
 40
0.6
176
     1
 40
30.0
176
     1
 62
     7
420
 16777215
176
     1
 90
        1
176
     1
 90
        4
176
     1
 62
     7
176
     1
 62
   257
176
     1
 90
        1
176
     1
 90
        1
176
     1
 40
1.0
176
     1
 90
        0
176
     1
 62
   257
176
     1
 40
1.0
176
     1
 90
        1
176
     1
 90
        6
176
     1
 90
        2
176
     1
 62
     7
176
     1
 90
        3
176
     1
 90
        0
176
     1
 90
        0
176
     1
290
     0
176
     1
 90
        1
176
     1
 40
0.0
176
     1
 90
        0
176
     1
290
     0
176
     1
290
     1
176
     1
290
     1
176
     1
290
     0
176
     1
290
     0
176
     1
290
     0
176
     1
290
     0
176
     1
290
     0
176
     1
290
     0
176
     1
 90
       50
176
     1
 40
0.0
176
     1
 40
1.0
176
     1
 90
        0
176
     1
 62
    18
420
        0
176
     1
 90
       50
176
     1
 90
        3
176
     1
 62
     5
420
      255
176
     1
290
     0
176
     1
 90
       50
176
     1
 90
       50
176
     1
 90
       50
176
     1
290
     0
176
     1
 90
       50
176
     1
 62
   256
176
     0
 40
1.0
176
     0
 90
        2
176
     1
  1
strokes_ogs.tif
176
     1
290
     0
176
     1
 40
1.0
176
     1
 40
1.0
176
     1
  0
VISUALSTYLE
  5
40
102
{ACAD_REACTORS
330
2A
102
}
330
2A
100
AcDbVisualStyle
  2
X-Ray
 70
    25
177
     3
291
     0
 70
    58
 90
        2
176
     1
 90
        2
176
     1
 90
        1
176
     1
 90
        1
176
     1
 40
0.5
176
     1
 40
30.0
176
     1
 62
     7
420
 16777215
176
     1
 90
        1
176
     1
 90
        0
176
     1
 62
     7
176
     1
 62
   257
176
     1
 90
        1
176
     1
 90
        1
176
     1
 40
1.0
176
     1
 90
        8
176
     1
 62
     7
176
     1
 40
1.0
176
     1
 90
        1
176
     1
 90
        6
176
     1
 90
        2
176
     1
 62
     7
176
     1
 90
        3
176
     1
 90
        0
176
     1
 90
        0
176
     1
290
     0
176
     1
 90
       13
176
     1
 40
0.0
176
     1
 90
        0
176
     1
290
     0
176
     1
290
     1
176
     1
290
     1
176
     1
290
     0
176
     1
290
     0
176
     1
290
     0
176
     1
290
     0
176
     1
290
     0
176
     1
290
     0
176
     1
 90
       50
176
     1
 40
0.0
176
     1
 40
1.0
176
     1
 90
        0
176
     1
 62
    18
420
        0
176
     1
 90
       50
176
     1
 90
        3
176
     1
 62
     5
420
      255
176
     1
290
     0
176
     1
 90
       50
176
     1
 90
       50
176
     1
 90
       50
176
     1
290
     0
176
     1
 90
       50
176
     1
 62
   256
176
     0
 40
1.0
176
     0
 90
        2
176
     1
  1
strokes_ogs.tif
176
     1
290
     0
176
     1
 40
1.0
176
     1
 40
1.0
176
     1
  0
DICTIONARYVAR
  5
27E
102
{ACAD_REACTORS
330
27D
102
}
330
27D
100
DictionaryVariables
280
     0
  1
1:1
  0
DICTIONARYVAR
  5
286
102
{ACAD_REACTORS
330
27D
102
}
330
27D
100
DictionaryVariables
280
     0
  1
3.500000
  0
DICTIONARYVAR
  5
287
102
{ACAD_REACTORS
330
27D
102
}
330
27D
100
DictionaryVariables
280
     0
  1
acadiso.lin
  0
DICTIONARYVAR
  5
283
102
{ACAD_REACTORS
330
27D
102
}
330
27D
100
DictionaryVariables
280
     0
  1
Standard
  0
DICTIONARYVAR
  5
282
102
{ACAD_REACTORS
330
27D
102
}
330
27D
100
DictionaryVariables
280
     0
  1
Standard
  0
DICTIONARY
  5
27F
330
5A
100
AcDbDictionary
280
     1
281
     1
  3
ACAD_ROUNDTRIP_2008_TABLESTYLE_CELLSTYLEMAP
360
280
  0
CELLSTYLEMAP
  5
280
102
{ACAD_REACTORS
330
27F
102
}
330
27F
100
AcDbCellStyleMap
 90
        3
300
CELLSTYLE
  1
TABLEFORMAT_BEGIN
 90
        5
170
     1
 91
        0
 92
    32768
 62
   257
 93
        1
300
CONTENTFORMAT
  1
CONTENTFORMAT_BEGIN
 90
        0
 91
        0
 92
        4
 93
        0
300

 40
0.0
140
1.0
 94
        5
 62
     0
340
11
144
6.0
309
CONTENTFORMAT_END
171
     1
301
MARGIN
  1
CELLMARGIN_BEGIN
 40
1.5
 40
1.5
 40
1.5
 40
1.5
 40
1.5
 40
1.5
309
CELLMARGIN_END
 94
        6
 95
        1
302
GRIDFORMAT
  1
GRIDFORMAT_BEGIN
 90
        0
 91
        1
 62
     0
 92
       -2
340
14
 93
        0
 40
0.045
309
GRIDFORMAT_END
 95
        2
302
GRIDFORMAT
  1
GRIDFORMAT_BEGIN
 90
        0
 91
        1
 62
     0
 92
       -2
340
14
 93
        0
 40
0.045
309
GRIDFORMAT_END
 95
        4
302
GRIDFORMAT
  1
GRIDFORMAT_BEGIN
 90
        0
 91
        1
 62
     0
 92
       -2
340
14
 93
        0
 40
0.045
309
GRIDFORMAT_END
 95
        8
302
GRIDFORMAT
  1
GRIDFORMAT_BEGIN
 90
        0
 91
        1
 62
     0
 92
       -2
340
14
 93
        0
 40
0.045
309
GRIDFORMAT_END
 95
       16
302
GRIDFORMAT
  1
GRIDFORMAT_BEGIN
 90
        0
 91
        1
 62
     0
 92
       -2
340
14
 93
        0
 40
0.045
309
GRIDFORMAT_END
 95
       32
302
GRIDFORMAT
  1
GRIDFORMAT_BEGIN
 90
        0
 91
        1
 62
     0
 92
       -2
340
14
 93
        0
 40
0.045
309
GRIDFORMAT_END
309
TABLEFORMAT_END
  1
CELLSTYLE_BEGIN
 90
        1
 91
        1
300
_TITLE
309
CELLSTYLE_END
300
CELLSTYLE
  1
TABLEFORMAT_BEGIN
 90
        5
170
     1
 91
        0
 92
        0
 62
   257
 93
        1
300
CONTENTFORMAT
  1
CONTENTFORMAT_BEGIN
 90
        0
 91
        0
 92
        4
 93
        0
300

 40
0.0
140
1.0
 94
        5
 62
     0
340
11
144
4.5
309
CONTENTFORMAT_END
171
     1
301
MARGIN
  1
CELLMARGIN_BEGIN
 40
1.5
 40
1.5
 40
1.5
 40
1.5
 40
1.5
 40
1.5
309
CELLMARGIN_END
 94
        6
 95
        1
302
GRIDFORMAT
  1
GRIDFORMAT_BEGIN
 90
        0
 91
        1
 62
     0
 92
       -2
340
14
 93
        0
 40
0.045
309
GRIDFORMAT_END
 95
        2
302
GRIDFORMAT
  1
GRIDFORMAT_BEGIN
 90
        0
 91
        1
 62
     0
 92
       -2
340
14
 93
        0
 40
0.045
309
GRIDFORMAT_END
 95
        4
302
GRIDFORMAT
  1
GRIDFORMAT_BEGIN
 90
        0
 91
        1
 62
     0
 92
       -2
340
14
 93
        0
 40
0.045
309
GRIDFORMAT_END
 95
        8
302
GRIDFORMAT
  1
GRIDFORMAT_BEGIN
 90
        0
 91
        1
 62
     0
 92
       -2
340
14
 93
        0
 40
0.045
309
GRIDFORMAT_END
 95
       16
302
GRIDFORMAT
  1
GRIDFORMAT_BEGIN
 90
        0
 91
        1
 62
     0
 92
       -2
340
14
 93
        0
 40
0.045
309
GRIDFORMAT_END
 95
       32
302
GRIDFORMAT
  1
GRIDFORMAT_BEGIN
 90
        0
 91
        1
 62
     0
 92
       -2
340
14
 93
        0
 40
0.045
309
GRIDFORMAT_END
309
TABLEFORMAT_END
  1
CELLSTYLE_BEGIN
 90
        2
 91
        1
300
_HEADER
309
CELLSTYLE_END
300
CELLSTYLE
  1
TABLEFORMAT_BEGIN
 90
        5
170
     1
 91
        0
 92
        0
 62
   257
 93
        1
300
CONTENTFORMAT
  1
CONTENTFORMAT_BEGIN
 90
        0
 91
        0
 92
        4
 93
        0
300

 40
0.0
140
1.0
 94
        2
 62
     0
340
11
144
4.5
309
CONTENTFORMAT_END
171
     1
301
MARGIN
  1
CELLMARGIN_BEGIN
 40
1.5
 40
1.5
 40
1.5
 40
1.5
 40
1.5
 40
1.5
309
CELLMARGIN_END
 94
        6
 95
        1
302
GRIDFORMAT
  1
GRIDFORMAT_BEGIN
 90
        0
 91
        1
 62
     0
 92
       -2
340
14
 93
        0
 40
0.045
309
GRIDFORMAT_END
 95
        2
302
GRIDFORMAT
  1
GRIDFORMAT_BEGIN
 90
        0
 91
        1
 62
     0
 92
       -2
340
14
 93
        0
 40
0.045
309
GRIDFORMAT_END
 95
        4
302
GRIDFORMAT
  1
GRIDFORMAT_BEGIN
 90
        0
 91
        1
 62
     0
 92
       -2
340
14
 93
        0
 40
0.045
309
GRIDFORMAT_END
 95
        8
302
GRIDFORMAT
  1
GRIDFORMAT_BEGIN
 90
        0
 91
        1
 62
     0
 92
       -2
340
14
 93
        0
 40
0.045
309
GRIDFORMAT_END
 95
       16
302
GRIDFORMAT
  1
GRIDFORMAT_BEGIN
 90
        0
 91
        1
 62
     0
 92
       -2
340
14
 93
        0
 40
0.045
309
GRIDFORMAT_END
 95
       32
302
GRIDFORMAT
  1
GRIDFORMAT_BEGIN
 90
        0
 91
        1
 62
     0
 92
       -2
340
14
 93
        0
 40
0.045
309
GRIDFORMAT_END
309
TABLEFORMAT_END
  1
CELLSTYLE_BEGIN
 90
        3
 91
        2
300
_DATA
309
CELLSTYLE_END
  0
ENDSEC
  0
EOF
