  0
SECTION
  2
HEADER
  9
$ACADVER
  1
AC1027
  9
$ACADMAINTVER
 70
   105
  9
$DWGCODEPAGE
  3
ANSI_1252
  9
$COMMENTS
  1
File was created by Cadenas
  9
$LASTSAVEDBY
  1
psAdmin
  9
$CUSTOMPROPERTYTAG
  1
NB
  9
$CUSTOMPROPERTY
  1
31572
  9
$CUSTOMPROPERTYTAG
  1
NN
  9
$CUSTOMPROPERTY
  1
Fuse holders for cylindrical fuses 10x38 acc. to IEC
  9
$CUSTOMPROPERTYTAG
  1
NT
  9
$CUSTOMPROPERTY
  1

  9
$CUSTOMPROPERTYTAG
  1
NBSYN
  9
$CUSTOMPROPERTY
  1
$ARTNR.
  9
$CUSTOMPROPERTYTAG
  1
LINA
  9
$CUSTOMPROPERTY
  1
31572000AB
  9
$CUSTOMPROPERTYTAG
  1
CATALOG
  9
$CUSTOMPROPERTY
  1
Wöhner
  9
$CUSTOMPROPERTYTAG
  1
ARTNR
  9
$CUSTOMPROPERTY
  1
31572
  9
$CUSTOMPROPERTYTAG
  1
BUSB
  9
$CUSTOMPROPERTY
  1
20 x 5, 10
  9
$CUSTOMPROPERTYTAG
  1
POF
  9
$CUSTOMPROPERTY
  1
AMBUS®60Classic
  9
$CUSTOMPROPERTYTAG
  1
TYPE
  9
$CUSTOMPROPERTY
  1
AEL10x38/PV-20
  9
$CUSTOMPROPERTYTAG
  1
QNT
  9
$CUSTOMPROPERTY
  1
12
  9
$CUSTOMPROPERTYTAG
  1
W
  9
$CUSTOMPROPERTY
  1
22.5
  9
$CUSTOMPROPERTYTAG
  1
H
  9
$CUSTOMPROPERTY
  1
70
  9
$CUSTOMPROPERTYTAG
  1
D
  9
$CUSTOMPROPERTY
  1
73
  9
$CUSTOMPROPERTYTAG
  1
LINK
  9
$CUSTOMPROPERTY
  1
Product link
  9
$CUSTOMPROPERTYTAG
  1
COMPANY
  9
$CUSTOMPROPERTY
  1
woehner
  9
$REQUIREDVERSIONS
160
                 0
  9
$INSBASE
 10
0.0
 20
0.0
 30
0.0
  9
$EXTMIN
 10
0.0
 20
-68.94444444444444
 30
0.0
  9
$EXTMAX
 10
30.95238095238095
 20
43.10000000000001
 30
0.0
  9
$LIMMIN
 10
0.0
 20
0.0
  9
$LIMMAX
 10
420.0
 20
297.0
  9
$ORTHOMODE
 70
     0
  9
$REGENMODE
 70
     1
  9
$FILLMODE
 70
     1
  9
$QTEXTMODE
 70
     0
  9
$MIRRTEXT
 70
     1
  9
$LTSCALE
 40
1.0
  9
$ATTMODE
 70
     1
  9
$TEXTSIZE
 40
2.5
  9
$TRACEWID
 40
1.0
  9
$TEXTSTYLE
  7
Standard
  9
$CLAYER
  8
0
  9
$CELTYPE
  6
ByLayer
  9
$CECOLOR
 62
   256
  9
$CELTSCALE
 40
1.0
  9
$DISPSILH
 70
     0
  9
$DIMSCALE
 40
1.0
  9
$DIMASZ
 40
2.5
  9
$DIMEXO
 40
0.625
  9
$DIMDLI
 40
3.75
  9
$DIMRND
 40
0.0
  9
$DIMDLE
 40
0.0
  9
$DIMEXE
 40
1.25
  9
$DIMTP
 40
0.0
  9
$DIMTM
 40
0.0
  9
$DIMTXT
 40
2.5
  9
$DIMCEN
 40
2.5
  9
$DIMTSZ
 40
0.0
  9
$DIMTOL
 70
     0
  9
$DIMLIM
 70
     0
  9
$DIMTIH
 70
     0
  9
$DIMTOH
 70
     0
  9
$DIMSE1
 70
     0
  9
$DIMSE2
 70
     0
  9
$DIMTAD
 70
     1
  9
$DIMZIN
 70
     8
  9
$DIMBLK
  1

  9
$DIMASO
 70
     1
  9
$DIMSHO
 70
     1
  9
$DIMPOST
  1

  9
$DIMAPOST
  1

  9
$DIMALT
 70
     0
  9
$DIMALTD
 70
     3
  9
$DIMALTF
 40
0.03937007874016
  9
$DIMLFAC
 40
1.0
  9
$DIMTOFL
 70
     1
  9
$DIMTVP
 40
0.0
  9
$DIMTIX
 70
     0
  9
$DIMSOXD
 70
     0
  9
$DIMSAH
 70
     0
  9
$DIMBLK1
  1

  9
$DIMBLK2
  1

  9
$DIMSTYLE
  2
ISO-25
  9
$DIMCLRD
 70
     0
  9
$DIMCLRE
 70
     0
  9
$DIMCLRT
 70
     0
  9
$DIMTFAC
 40
1.0
  9
$DIMGAP
 40
0.625
  9
$DIMJUST
 70
     0
  9
$DIMSD1
 70
     0
  9
$DIMSD2
 70
     0
  9
$DIMTOLJ
 70
     0
  9
$DIMTZIN
 70
     8
  9
$DIMALTZ
 70
     0
  9
$DIMALTTZ
 70
     0
  9
$DIMUPT
 70
     0
  9
$DIMDEC
 70
     2
  9
$DIMTDEC
 70
     2
  9
$DIMALTU
 70
     2
  9
$DIMALTTD
 70
     3
  9
$DIMTXSTY
  7
Standard
  9
$DIMAUNIT
 70
     0
  9
$DIMADEC
 70
     0
  9
$DIMALTRND
 40
0.0
  9
$DIMAZIN
 70
     0
  9
$DIMDSEP
 70
    44
  9
$DIMATFIT
 70
     3
  9
$DIMFRAC
 70
     0
  9
$DIMLDRBLK
  1

  9
$DIMLUNIT
 70
     2
  9
$DIMLWD
 70
    -2
  9
$DIMLWE
 70
    -2
  9
$DIMTMOVE
 70
     0
  9
$DIMFXL
 40
1.0
  9
$DIMFXLON
 70
     0
  9
$DIMJOGANG
 40
0.7853981633974483
  9
$DIMTFILL
 70
     0
  9
$DIMTFILLCLR
 70
     0
  9
$DIMARCSYM
 70
     0
  9
$DIMLTYPE
  6

  9
$DIMLTEX1
  6

  9
$DIMLTEX2
  6

  9
$DIMTXTDIRECTION
 70
     0
  9
$LUNITS
 70
     2
  9
$LUPREC
 70
     4
  9
$SKETCHINC
 40
1.0
  9
$FILLETRAD
 40
0.0
  9
$AUNITS
 70
     0
  9
$AUPREC
 70
     0
  9
$MENU
  1
.
  9
$ELEVATION
 40
0.0
  9
$PELEVATION
 40
0.0
  9
$THICKNESS
 40
0.0
  9
$LIMCHECK
 70
     0
  9
$CHAMFERA
 40
0.0
  9
$CHAMFERB
 40
0.0
  9
$CHAMFERC
 40
0.0
  9
$CHAMFERD
 40
0.0
  9
$SKPOLY
 70
     0
  9
$TDCREATE
 40
2460341.624036702
  9
$TDUCREATE
 40
2460341.582370035
  9
$TDUPDATE
 40
2460341.62403706
  9
$TDUUPDATE
 40
2460341.582370394
  9
$TDINDWG
 40
0.0000000116
  9
$TDUSRTIMER
 40
0.0000000116
  9
$USRTIMER
 70
     1
  9
$ANGBASE
 50
0.0
  9
$ANGDIR
 70
     0
  9
$PDMODE
 70
     0
  9
$PDSIZE
 40
0.0
  9
$PLINEWID
 40
0.0
  9
$SPLFRAME
 70
     0
  9
$SPLINETYPE
 70
     6
  9
$SPLINESEGS
 70
     8
  9
$HANDSEED
  5
21B
  9
$SURFTAB1
 70
     6
  9
$SURFTAB2
 70
     6
  9
$SURFTYPE
 70
     6
  9
$SURFU
 70
     6
  9
$SURFV
 70
     6
  9
$UCSBASE
  2

  9
$UCSNAME
  2

  9
$UCSORG
 10
0.0
 20
0.0
 30
0.0
  9
$UCSXDIR
 10
1.0
 20
0.0
 30
0.0
  9
$UCSYDIR
 10
0.0
 20
1.0
 30
0.0
  9
$UCSORTHOREF
  2

  9
$UCSORTHOVIEW
 70
     0
  9
$UCSORGTOP
 10
0.0
 20
0.0
 30
0.0
  9
$UCSORGBOTTOM
 10
0.0
 20
0.0
 30
0.0
  9
$UCSORGLEFT
 10
0.0
 20
0.0
 30
0.0
  9
$UCSORGRIGHT
 10
0.0
 20
0.0
 30
0.0
  9
$UCSORGFRONT
 10
0.0
 20
0.0
 30
0.0
  9
$UCSORGBACK
 10
0.0
 20
0.0
 30
0.0
  9
$PUCSBASE
  2

  9
$PUCSNAME
  2

  9
$PUCSORG
 10
0.0
 20
0.0
 30
0.0
  9
$PUCSXDIR
 10
1.0
 20
0.0
 30
0.0
  9
$PUCSYDIR
 10
0.0
 20
1.0
 30
0.0
  9
$PUCSORTHOREF
  2

  9
$PUCSORTHOVIEW
 70
     0
  9
$PUCSORGTOP
 10
0.0
 20
0.0
 30
0.0
  9
$PUCSORGBOTTOM
 10
0.0
 20
0.0
 30
0.0
  9
$PUCSORGLEFT
 10
0.0
 20
0.0
 30
0.0
  9
$PUCSORGRIGHT
 10
0.0
 20
0.0
 30
0.0
  9
$PUCSORGFRONT
 10
0.0
 20
0.0
 30
0.0
  9
$PUCSORGBACK
 10
0.0
 20
0.0
 30
0.0
  9
$USERI1
 70
     0
  9
$USERI2
 70
     0
  9
$USERI3
 70
     0
  9
$USERI4
 70
     0
  9
$USERI5
 70
     0
  9
$USERR1
 40
0.0
  9
$USERR2
 40
0.0
  9
$USERR3
 40
0.0
  9
$USERR4
 40
0.0
  9
$USERR5
 40
0.0
  9
$WORLDVIEW
 70
     1
  9
$SHADEDGE
 70
     3
  9
$SHADEDIF
 70
    70
  9
$TILEMODE
 70
     1
  9
$MAXACTVP
 70
    64
  9
$PINSBASE
 10
0.0
 20
0.0
 30
0.0
  9
$PLIMCHECK
 70
     0
  9
$PEXTMIN
 10
1.000000000000000E+20
 20
1.000000000000000E+20
 30
1.000000000000000E+20
  9
$PEXTMAX
 10
-1.000000000000000E+20
 20
-1.000000000000000E+20
 30
-1.000000000000000E+20
  9
$PLIMMIN
 10
0.0
 20
0.0
  9
$PLIMMAX
 10
420.0
 20
297.0
  9
$UNITMODE
 70
     0
  9
$VISRETAIN
 70
     1
  9
$PLINEGEN
 70
     0
  9
$PSLTSCALE
 70
     1
  9
$TREEDEPTH
 70
  3020
  9
$CMLSTYLE
  2
Standard
  9
$CMLJUST
 70
     0
  9
$CMLSCALE
 40
20.0
  9
$PROXYGRAPHICS
 70
     1
  9
$MEASUREMENT
 70
     1
  9
$CELWEIGHT
370
    -1
  9
$ENDCAPS
280
     0
  9
$JOINSTYLE
280
     0
  9
$LWDISPLAY
290
     0
  9
$INSUNITS
 70
     4
  9
$HYPERLINKBASE
  1

  9
$STYLESHEET
  1

  9
$XEDIT
290
     1
  9
$CEPSNTYPE
380
     0
  9
$PSTYLEMODE
290
     1
  9
$FINGERPRINTGUID
  2
{32b63ac2-7ca6-4d0b-bb14-22f6f9303f58}
  9
$VERSIONGUID
  2
{FAEB1C32-E019-11D5-929B-00C0DF256EC4}
  9
$EXTNAMES
290
     1
  9
$PSVPSCALE
 40
0.0
  9
$OLESTARTUP
290
     0
  9
$SORTENTS
280
   127
  9
$INDEXCTL
280
     0
  9
$HIDETEXT
280
     1
  9
$XCLIPFRAME
280
     2
  9
$HALOGAP
280
     0
  9
$OBSCOLOR
 70
   257
  9
$OBSLTYPE
280
     0
  9
$INTERSECTIONDISPLAY
280
     0
  9
$INTERSECTIONCOLOR
 70
   257
  9
$DIMASSOC
280
     2
  9
$PROJECTNAME
  1

  9
$CAMERADISPLAY
290
     0
  9
$LENSLENGTH
 40
50.0
  9
$CAMERAHEIGHT
 40
0.0
  9
$STEPSPERSEC
 40
2.0
  9
$STEPSIZE
 40
6.0
  9
$3DDWFPREC
 40
2.0
  9
$PSOLWIDTH
 40
5.0
  9
$PSOLHEIGHT
 40
80.0
  9
$LOFTANG1
 40
1.570796326794897
  9
$LOFTANG2
 40
1.570796326794897
  9
$LOFTMAG1
 40
0.0
  9
$LOFTMAG2
 40
0.0
  9
$LOFTPARAM
 70
     7
  9
$LOFTNORMALS
280
     1
  9
$LATITUDE
 40
37.795
  9
$LONGITUDE
 40
-122.394
  9
$NORTHDIRECTION
 40
0.0
  9
$TIMEZONE
 70
 -8000
  9
$LIGHTGLYPHDISPLAY
280
     1
  9
$TILEMODELIGHTSYNCH
280
     1
  9
$CMATERIAL
347
44
  9
$SOLIDHIST
280
     0
  9
$SHOWHIST
280
     1
  9
$DWFFRAME
280
     2
  9
$DGNFRAME
280
     2
  9
$REALWORLDSCALE
290
     1
  9
$INTERFERECOLOR
 62
   256
  9
$CSHADOW
280
     0
  9
$SHADOWPLANELOCATION
 40
0.0
  0
ENDSEC
  0
SECTION
  2
CLASSES
  0
CLASS
  1
ACDBDICTIONARYWDFLT
  2
AcDbDictionaryWithDefault
  3
ObjectDBX Classes
 90
        0
 91
        3
280
     0
281
     0
  0
CLASS
  1
VISUALSTYLE
  2
AcDbVisualStyle
  3
ObjectDBX Classes
 90
     4095
 91
        3
280
     0
281
     0
  0
CLASS
  1
MATERIAL
  2
AcDbMaterial
  3
ObjectDBX Classes
 90
     1153
 91
        3
280
     0
281
     0
  0
CLASS
  1
SCALE
  2
AcDbScale
  3
ObjectDBX Classes
 90
     1153
 91
        3
280
     0
281
     0
  0
CLASS
  1
TABLESTYLE
  2
AcDbTableStyle
  3
ObjectDBX Classes
 90
     4095
 91
        3
280
     0
281
     0
  0
CLASS
  1
MLEADERSTYLE
  2
AcDbMLeaderStyle
  3
ACDB_MLEADERSTYLE_CLASS
 90
     4095
 91
        3
280
     0
281
     0
  0
CLASS
  1
SUN
  2
AcDbSun
  3
SCENEOE
 90
     1153
 91
        3
280
     0
281
     0
  0
CLASS
  1
DICTIONARYVAR
  2
AcDbDictionaryVar
  3
ObjectDBX Classes
 90
        0
 91
        3
280
     0
281
     0
  0
CLASS
  1
CELLSTYLEMAP
  2
AcDbCellStyleMap
  3
ObjectDBX Classes
 90
     1152
 91
        3
280
     0
281
     0
  0
ENDSEC
  0
SECTION
  2
TABLES
  0
TABLE
  2
VPORT
  5
8
330
0
100
AcDbSymbolTable
 70
     1
  0
VPORT
  5
29
330
8
100
AcDbSymbolTableRecord
100
AcDbViewportTableRecord
  2
*Active
 70
     0
 10
0.0
 20
0.0
 11
1.0
 21
1.0
 12
15.47619047619048
 22
-12.92222222222222
 13
0.0
 23
0.0
 14
10.0
 24
10.0
 15
10.0
 25
10.0
 16
0.0
 26
0.0
 36
1.0
 17
0.0
 27
0.0
 37
0.0
 40
114.2853333333334
 41
0.2762509208364028
 42
50.0
 43
0.0
 44
0.0
 50
0.0
 51
0.0
 71
     0
 72
   100
 73
     1
 74
     3
 75
     0
 76
     0
 77
     0
 78
     0
281
     0
 65
     1
110
0.0
120
0.0
130
0.0
111
1.0
121
0.0
131
0.0
112
0.0
122
1.0
132
0.0
 79
     0
146
0.0
348
2F
 60
     3
 61
     5
292
     1
282
     1
141
0.0
142
0.0
 63
   250
361
5D
  0
ENDTAB
  0
TABLE
  2
LTYPE
  5
5
330
0
100
AcDbSymbolTable
 70
     3
  0
LTYPE
  5
14
330
5
100
AcDbSymbolTableRecord
100
AcDbLinetypeTableRecord
  2
ByBlock
 70
     0
  3

 72
    65
 73
     0
 40
0.0
  0
LTYPE
  5
15
330
5
100
AcDbSymbolTableRecord
100
AcDbLinetypeTableRecord
  2
ByLayer
 70
     0
  3

 72
    65
 73
     0
 40
0.0
  0
LTYPE
  5
16
330
5
100
AcDbSymbolTableRecord
100
AcDbLinetypeTableRecord
  2
Continuous
 70
     0
  3
Solid line
 72
    65
 73
     0
 40
0.0
  0
LTYPE
  5
84
330
5
100
AcDbSymbolTableRecord
100
AcDbLinetypeTableRecord
  2
Dashed
 70
     0
  3

 72
    65
 73
     2
 40
2.0
 49
1.0
 74
     0
 49
-1.0
 74
     0
  0
LTYPE
  5
C6
330
5
100
AcDbSymbolTableRecord
100
AcDbLinetypeTableRecord
  2
Center
 70
     0
  3

 72
    65
 73
     4
 40
1.5
 49
0.45
 74
     0
 49
-0.5
 74
     0
 49
0.05
 74
     0
 49
-0.5
 74
     0
  0
ENDTAB
  0
TABLE
  2
LAYER
  5
2
330
0
100
AcDbSymbolTable
 70
     9
  0
LAYER
  5
10
330
2
100
AcDbSymbolTableRecord
100
AcDbLayerTableRecord
  2
0
 70
     0
 62
     7
  6
Continuous
370
    -3
390
F
347
46
348
0
  0
LAYER
  5
5E
330
2
100
AcDbSymbolTableRecord
100
AcDbLayerTableRecord
  2
attrib
 70
     0
 62
    -2
  6
Continuous
370
    35
390
F
347
46
348
0
  0
LAYER
  5
85
330
2
100
AcDbSymbolTableRecord
100
AcDbLayerTableRecord
  2
hidden
 70
     0
 62
    -6
  6
Dashed
370
    25
390
F
347
46
348
0
  0
LAYER
  5
C7
330
2
100
AcDbSymbolTableRecord
100
AcDbLayerTableRecord
  2
center
 70
     0
 62
    -7
  6
Center
370
    25
390
F
347
46
348
0
  0
LAYER
  5
CA
330
2
100
AcDbSymbolTableRecord
100
AcDbLayerTableRecord
  2
bold
 70
     0
 62
     7
  6
Continuous
370
    50
390
F
347
46
348
0
  0
LAYER
  5
CF
330
2
100
AcDbSymbolTableRecord
100
AcDbLayerTableRecord
  2
light
 70
     0
 62
    -3
  6
Continuous
370
    25
390
F
347
46
348
0
  0
LAYER
  5
1E7
330
2
100
AcDbSymbolTableRecord
100
AcDbLayerTableRecord
  2
dimension
 70
     0
 62
    -5
  6
Continuous
370
    25
390
F
347
46
348
0
  0
LAYER
  5
1E9
330
2
100
AcDbSymbolTableRecord
100
AcDbLayerTableRecord
  2
Defpoints
 70
     0
 62
     7
  6
Continuous
290
     0
370
    -3
390
F
347
46
348
0
  0
LAYER
  5
203
330
2
100
AcDbSymbolTableRecord
100
AcDbLayerTableRecord
  2
connection
 70
     0
 62
    -7
  6
Continuous
370
    50
390
F
347
46
348
0
  0
ENDTAB
  0
TABLE
  2
STYLE
  5
3
330
0
100
AcDbSymbolTable
 70
     1
  0
STYLE
  5
11
330
3
100
AcDbSymbolTableRecord
100
AcDbTextStyleTableRecord
  2
Standard
 70
     0
 40
0.0
 41
1.0
 50
0.0
 71
     0
 42
2.5
  3
txt
  4

  0
ENDTAB
  0
TABLE
  2
VIEW
  5
6
330
0
100
AcDbSymbolTable
 70
     0
  0
ENDTAB
  0
TABLE
  2
UCS
  5
7
330
0
100
AcDbSymbolTable
 70
     0
  0
ENDTAB
  0
TABLE
  2
APPID
  5
9
330
0
100
AcDbSymbolTable
 70
     1
  0
APPID
  5
12
330
9
100
AcDbSymbolTableRecord
100
AcDbRegAppTableRecord
  2
ACAD
 70
     0
  0
ENDTAB
  0
TABLE
  2
DIMSTYLE
  5
A
330
0
100
AcDbSymbolTable
 70
     1
100
AcDbDimStyleTable
  0
DIMSTYLE
105
27
102
{ACAD_REACTORS
330
1E8
330
1F6
102
}
330
A
100
AcDbSymbolTableRecord
100
AcDbDimStyleTableRecord
  2
ISO-25
 70
     0
 41
2.5
 42
0.625
 43
3.75
 44
1.25
 73
     0
 74
     0
 77
     1
 78
     8
140
2.5
141
2.5
143
0.03937007874016
147
0.625
171
     3
172
     1
178
     0
271
     2
272
     2
274
     3
278
    44
283
     0
284
     8
340
11
  0
ENDTAB
  0
TABLE
  2
BLOCK_RECORD
  5
1
330
0
100
AcDbSymbolTable
 70
     8
  0
BLOCK_RECORD
  5
1F
330
1
100
AcDbSymbolTableRecord
100
AcDbBlockTableRecord
  2
*Model_Space
340
22
 70
     0
280
     1
281
     0
  0
BLOCK_RECORD
  5
1B
330
1
100
AcDbSymbolTableRecord
100
AcDbBlockTableRecord
  2
*Paper_Space
340
1E
 70
     0
280
     1
281
     0
  0
BLOCK_RECORD
  5
23
330
1
100
AcDbSymbolTableRecord
100
AcDbBlockTableRecord
  2
*Paper_Space0
340
26
 70
     0
280
     1
281
     0
  0
BLOCK_RECORD
  5
74
330
1
100
AcDbSymbolTableRecord
100
AcDbBlockTableRecord
  2
1_79602000_0_in_31572_0
340
0
102
{BLKREFS
331
75
102
}
 70
     0
280
     1
281
     0
  0
BLOCK_RECORD
  5
F1
330
1
100
AcDbSymbolTableRecord
100
AcDbBlockTableRecord
  2
2_77229000_0_in_31572_0
340
0
102
{BLKREFS
331
F2
102
}
 70
     0
280
     1
281
     0
  0
BLOCK_RECORD
  5
12C
330
1
100
AcDbSymbolTableRecord
100
AcDbBlockTableRecord
  2
3_77228000_0_in_31572_0
340
0
102
{BLKREFS
331
12D
102
}
 70
     0
280
     1
281
     0
  0
BLOCK_RECORD
  5
15B
330
1
100
AcDbSymbolTableRecord
100
AcDbBlockTableRecord
  2
4_30414000_0_in_31572_0
340
0
102
{BLKREFS
331
15C
102
}
 70
     0
280
     1
281
     0
  0
BLOCK_RECORD
  5
188
330
1
100
AcDbSymbolTableRecord
100
AcDbBlockTableRecord
  2
5_77225000_0_in_31572_0
340
0
102
{BLKREFS
331
189
102
}
 70
     0
280
     1
281
     0
  0
BLOCK_RECORD
  5
1EA
330
1
100
AcDbSymbolTableRecord
100
AcDbBlockTableRecord
  2
*D6
340
0
 70
     0
280
     1
281
     0
  0
BLOCK_RECORD
  5
1F7
330
1
100
AcDbSymbolTableRecord
100
AcDbBlockTableRecord
  2
*D7
340
0
 70
     0
280
     1
281
     0
  0
ENDTAB
  0
ENDSEC
  0
SECTION
  2
BLOCKS
  0
BLOCK
  5
20
330
1F
100
AcDbEntity
  8
0
100
AcDbBlockBegin
  2
*Model_Space
 70
     2
 10
0.0
 20
0.0
 30
0.0
  3
*Model_Space
  1

  0
ENDBLK
  5
21
330
1F
100
AcDbEntity
  8
0
100
AcDbBlockEnd
  0
BLOCK
  5
1C
330
1B
100
AcDbEntity
 67
     1
  8
0
100
AcDbBlockBegin
  2
*Paper_Space
 70
     0
 10
0.0
 20
0.0
 30
0.0
  3
*Paper_Space
  1

  0
ENDBLK
  5
1D
330
1B
100
AcDbEntity
 67
     1
  8
0
100
AcDbBlockEnd
  0
BLOCK
  5
24
330
23
100
AcDbEntity
  8
0
100
AcDbBlockBegin
  2
*Paper_Space0
 70
     0
 10
0.0
 20
0.0
 30
0.0
  3
*Paper_Space0
  1

  0
ENDBLK
  5
25
330
23
100
AcDbEntity
  8
0
100
AcDbBlockEnd
  0
BLOCK
  5
76
330
74
100
AcDbEntity
  8
0
100
AcDbBlockBegin
  2
1_79602000_0_in_31572_0
 70
     2
 10
0.0
 20
0.0
 30
0.0
  3
1_79602000_0_in_31572_0
  1

  0
ATTDEF
  5
78
330
74
100
AcDbEntity
  8
attrib
100
AcDbText
 10
25.6
 20
11.53355569552035
 30
0.0
 40
0.5
  1
79602000
100
AcDbAttributeDefinition
  3

  2
NB
 70
     8
280
     0
  0
ATTDEF
  5
79
330
74
100
AcDbEntity
  8
attrib
100
AcDbText
 10
25.6
 20
11.03355569552035
 30
0.0
 40
0.5
  1
AMBUS60 Holder for cylindrical fuse part
100
AcDbAttributeDefinition
  3

  2
NN
 70
     8
280
     0
  0
ATTDEF
  5
7A
330
74
100
AcDbEntity
  8
attrib
100
AcDbText
 10
25.6
 20
10.53355569552035
 30
0.0
 40
0.5
  1

100
AcDbAttributeDefinition
  3

  2
NT
 70
     8
280
     0
  0
ATTDEF
  5
7B
330
74
100
AcDbEntity
  8
attrib
100
AcDbText
 10
25.6
 20
10.03355569552035
 30
0.0
 40
0.5
  1
$ARTNR.
100
AcDbAttributeDefinition
  3

  2
NBSYN
 70
     8
280
     0
  0
ATTDEF
  5
7C
330
74
100
AcDbEntity
  8
attrib
100
AcDbText
 10
25.6
 20
9.53355569552035
 30
0.0
 40
0.5
  1
79602000
100
AcDbAttributeDefinition
  3

  2
LINA
 70
     8
280
     0
  0
ATTDEF
  5
7D
330
74
100
AcDbEntity
  8
attrib
100
AcDbText
 10
25.6
 20
9.03355569552035
 30
0.0
 40
0.5
  1
Wöhner
100
AcDbAttributeDefinition
  3

  2
CATALOG
 70
     8
280
     0
  0
ATTDEF
  5
7E
330
74
100
AcDbEntity
  8
attrib
100
AcDbText
 10
25.6
 20
8.53355569552035
 30
0.0
 40
0.5
  1
79602000
100
AcDbAttributeDefinition
  3

  2
ARTNR
 70
     8
280
     0
  0
ATTDEF
  5
7F
330
74
100
AcDbEntity
  8
attrib
100
AcDbText
 10
25.6
 20
8.03355569552035
 30
0.0
 40
0.5
  1
AMBUS®60Classic
100
AcDbAttributeDefinition
  3

  2
POF
 70
     8
280
     0
  0
ATTDEF
  5
80
330
74
100
AcDbEntity
  8
attrib
100
AcDbText
 10
25.6
 20
7.53355569552035
 30
0.0
 40
0.5
  1
1
100
AcDbAttributeDefinition
  3

  2
VER
 70
     8
280
     0
  0
ATTDEF
  5
81
330
74
100
AcDbEntity
  8
attrib
100
AcDbText
 10
25.6
 20
7.03355569552035
 30
0.0
 40
0.5
  1
woehner
100
AcDbAttributeDefinition
  3

  2
COMPANY
 70
     8
280
     0
  0
ATTDEF
  5
82
330
74
100
AcDbEntity
  8
attrib
100
AcDbText
 10
25.6
 20
6.53355569552035
 30
0.0
 40
0.5
  1
{$CADENAS_DATA/23d-libs/woehner/sys_60classic/fuse_holders_iec_en/parts/holder_fuse_ambus_iec_v1_part4__v2_part2.prj},191 {VTYP=3D},{NB=79602000},{LINA=79602000},{NN=AMBUS60 Holder for cylindrical fuse part},{DATE=26.01.2024 06:39:58},{GEOMDATE=29.12.2022
100
AcDbAttributeDefinition
  3

  2
PSOL_0
 70
     9
280
     0
  0
ATTDEF
  5
83
330
74
100
AcDbEntity
  8
attrib
100
AcDbText
 10
25.6
 20
6.03355569552035
 30
0.0
 40
0.5
  1
 11:29:00},{VERSION=},{LINEID=380},{WBVAR=},{WBNUMERIC=}  {NB=79602000},{LINA=79602000},{KT=DUMMY},{ARTNR=79602000},{POF=AMBUS®60Classic},{VER=1}
100
AcDbAttributeDefinition
  3

  2
PSOL_1
 70
     9
280
     0
  0
LINE
  5
86
330
74
100
AcDbEntity
  8
hidden
100
AcDbLine
 10
18.25
 20
-22.47104791342502
 30
0.0
 11
14.06774215991901
 21
-22.47104791342502
 31
0.0
  0
LINE
  5
87
330
74
100
AcDbEntity
  8
hidden
100
AcDbLine
 10
8.43225784008099
 20
-22.47104791342502
 30
0.0
 11
4.249999999999999
 21
-22.47104791342502
 31
0.0
  0
LINE
  5
88
330
74
100
AcDbEntity
  8
hidden
100
AcDbLine
 10
18.25
 20
-22.31902640662642
 30
0.0
 11
4.249999999999999
 21
-22.31902640662642
 31
0.0
  0
LINE
  5
89
330
74
100
AcDbEntity
  8
hidden
100
AcDbLine
 10
18.25
 20
-1.57315496354813
 30
0.0
 11
13.23417108986012
 21
-1.57315496354813
 31
0.0
  0
LINE
  5
8A
330
74
100
AcDbEntity
  8
hidden
100
AcDbLine
 10
9.265828910139888
 20
-1.57315496354813
 30
0.0
 11
4.249999999999999
 21
-1.57315496354813
 31
0.0
  0
LINE
  5
8B
330
74
100
AcDbEntity
  8
hidden
100
AcDbLine
 10
18.25
 20
-1.421133456749532
 30
0.0
 11
4.249999999999999
 21
-1.421133456749532
 31
0.0
  0
LWPOLYLINE
  5
8C
330
74
100
AcDbEntity
  8
hidden
100
AcDbPolyline
 90
       13
 70
     0
 43
0.0
 10
14.06774215991901
 20
-22.47104791342502
 10
14.41700919853877
 20
-22.5361308344708
 10
14.74217338486521
 20
-22.6085480542259
 10
15.04076002310089
 20
-22.68774843392129
 10
15.31049668863728
 20
-22.77312921084497
 10
15.54933052257821
 20
-22.86404058573024
 10
15.75544385523557
 20
-22.95979066812043
 10
15.92726803969321
 20
-23.05965074207308
 10
16.06349539015713
 20
-23.16286081212823
 10
16.16308913423396
 20
-23.26863538733284
 10
16.22529130339495
 20
-23.37616945930114
 10
16.24962850157408
 20
-23.48464462881463
 10
16.25
 20
-23.49982555385925
  0
LWPOLYLINE
  5
8D
330
74
100
AcDbEntity
  8
hidden
100
AcDbPolyline
 90
       15
 70
     0
 43
0.0
 10
9.265828910139895
 20
-1.573154963548132
 10
8.873382225742205
 20
-1.528443371020743
 10
8.499023037647667
 20
-1.475869643272686
 10
8.145600445321936
 20
-1.415833898117007
 10
7.815804208095004
 20
-1.348793043824915
 10
7.512144274468585
 20
-1.275257301777948
 10
7.236931679892455
 20
-1.195786323375179
 10
6.992260958389246
 20
-1.110984930748141
 10
6.779994201885818
 20
-1.021498513699206
 10
6.601746888569337
 20
-0.9280081178954939
 10
6.458875588122807
 20
-0.8312252617001143
 10
6.352467637410681
 20
-0.7318865210878007
 10
6.283332865188751
 20
-0.6307479238569843
 10
6.251997428818346
 20
-0.5285791958017462
 10
6.249999999999997
 20
-0.4953932464545135
  0
LWPOLYLINE
  5
8E
330
74
100
AcDbEntity
  8
hidden
100
AcDbPolyline
 90
       11
 70
     0
 43
0.0
 10
13.23417108986011
 20
-1.573154963548131
 10
12.82662366539333
 20
-1.561334914448454
 10
12.4070771828415
 20
-1.552260401461629
 10
11.97872464426595
 20
-1.546000487110827
 10
11.54482607113156
 20
-1.542602813124097
 10
11.10868369357501
 20
-1.54209323785205
 10
10.67361681843948
 20
-1.544475639470196
 10
10.2429365673453
 20
-1.549731886463688
 10
9.819920677055146
 20
-1.557821975619096
 10
9.40778855391811
 20
-1.568684336473019
 10
9.265828910139891
 20
-1.573154963548131
  0
LWPOLYLINE
  5
8F
330
74
100
AcDbEntity
  8
hidden
100
AcDbPolyline
 90
       15
 70
     0
 43
0.0
 10
8.43225784008099
 20
-22.47104791342502
 10
8.802969597936967
 20
-22.45357151434601
 10
9.192304734709998
 20
-22.43861808899339
 10
9.597300174922257
 20
-22.42630144196321
 10
10.0148736587308
 20
-22.41671531037639
 10
10.44184719978607
 20
-22.40993265048254
 10
10.87497127162698
 20
-22.40600508241895
 10
11.31094953853933
 20
-22.40496249735011
 10
11.74646394266107
 20
-22.40681282997793
 10
12.17819995640604
 20
-22.41154199815385
 10
12.60287180802029
 20
-22.41911401005249
 10
13.01724748828918
 20
-22.42947123809121
 10
13.41817334807898
 20
-22.44253485751076
 10
13.80259809951104
 20
-22.45820544627934
 10
14.06774215991901
 20
-22.47104791342502
  0
LINE
  5
90
330
74
100
AcDbEntity
  8
hidden
100
AcDbLine
 10
16.25
 20
-23.49982555385925
 30
0.0
 11
16.25
 21
-0.4953932464545133
 31
0.0
  0
LINE
  5
91
330
74
100
AcDbEntity
  8
hidden
100
AcDbLine
 10
6.249999999999998
 20
-0.4953932464545133
 30
0.0
 11
6.249999999999998
 21
-23.49982555385925
 31
0.0
  0
LWPOLYLINE
  5
92
330
74
100
AcDbEntity
  8
hidden
100
AcDbPolyline
 90
       37
 70
     0
 43
0.0
 10
6.249999999999997
 20
-0.4953932464545135
 10
6.26902650954127
 20
-0.3930573541107935
 10
6.325961234938957
 20
-0.2915002996999104
 10
6.420370868554656
 20
-0.1914949937277572
 10
6.551536896070455
 20
-0.0938025369576365
 10
6.718461064816747
 20
0.0008335720261126
 10
6.919872981077803
 20
0.0916930952912791
 10
7.154239778555036
 20
0.1780845370033347
 10
7.419777784405104
 20
0.259350406126272
 10
7.714466094067256
 20
0.3348722203263923
 10
8.036061951567298
 20
0.4040752129963139
 10
8.382117818244764
 20
0.46643270757591
 10
8.749999999999993
 20
0.5214701258789446
 10
9.136908691296496
 20
0.5687685999196304
 10
9.539899283371646
 20
0.6079681597509178
 10
9.955904774487387
 20
0.6387704730531493
 10
10.38175911166534
 20
0.6609411156231502
 10
10.8142212862617
 20
0.6743113554839618
 10
11.24999999999999
 20
0.678779437037073
 10
11.68577871373828
 20
0.6743113554839625
 10
12.11824088833464
 20
0.6609411156231507
 10
12.54409522551259
 20
0.6387704730531504
 10
12.96010071662833
 20
0.6079681597509192
 10
13.36309130870349
 20
0.5687685999196322
 10
13.74999999999999
 20
0.521470125878947
 10
14.11788218175522
 20
0.4664327075759127
 10
14.46393804843269
 20
0.4040752129963173
 10
14.78553390593273
 20
0.3348722203263954
 10
15.08022221559488
 20
0.2593504061262757
 10
15.34576022144495
 20
0.1780845370033386
 10
15.58012701892219
 20
0.0916930952912831
 10
15.78153893518324
 20
0.0008335720261169
 10
15.94846310392954
 20
-0.093802536957632
 10
16.07962913144534
 20
-0.1914949937277526
 10
16.17403876506104
 20
-0.2915002996999057
 10
16.23097349045873
 20
-0.3930573541107887
 10
16.25
 20
-0.4953932464545087
  0
LWPOLYLINE
  5
93
330
74
100
AcDbEntity
  8
hidden
100
AcDbPolyline
 90
       15
 70
     0
 43
0.0
 10
16.25
 20
-0.4953932464545132
 10
16.23097349045873
 20
-0.5977291387982332
 10
16.17403876506105
 20
-0.6992861932091162
 10
16.07962913144534
 20
-0.7992914991812696
 10
15.94846310392954
 20
-0.8969839559513901
 10
15.78153893518325
 20
-0.9916200649351392
 10
15.5801270189222
 20
-1.082479588200306
 10
15.34576022144496
 20
-1.168871029912361
 10
15.08022221559489
 20
-1.250136899035299
 10
14.78553390593274
 20
-1.325658713235419
 10
14.4639380484327
 20
-1.394861705905341
 10
14.11788218175524
 20
-1.457219200484937
 10
13.75000000000001
 20
-1.512256618787971
 10
13.3630913087035
 20
-1.559555092828657
 10
13.23417108986011
 20
-1.573154963548132
  0
LWPOLYLINE
  5
94
330
74
100
AcDbEntity
  8
hidden
100
AcDbPolyline
 90
       37
 70
     0
 43
0.0
 10
16.25
 20
-23.49982555385925
 10
16.23097349045873
 20
-23.60836655593805
 10
16.17403876506105
 20
-23.7160814954522
 10
16.07962913144534
 20
-23.82215059667191
 10
15.94846310392954
 20
-23.92576660969064
 10
15.78153893518325
 20
-24.02614095408424
 10
15.5801270189222
 20
-24.12250972048421
 10
15.34576022144496
 20
-24.21413948438918
 10
15.08022221559489
 20
-24.30033288796828
 10
14.78553390593274
 20
-24.38043394737526
 10
14.4639380484327
 20
-24.4538330451817
 10
14.11788218175524
 20
-24.5199715699337
 10
13.75000000000001
 20
-24.57834616752237
 10
13.3630913087035
 20
-24.62851257201251
 10
12.96010071662835
 20
-24.67008898677465
 10
12.54409522551261
 20
-24.70275899018793
 10
12.11824088833466
 20
-24.72627394379967
 10
11.6857787137383
 20
-24.74045488461418
 10
11.25000000000001
 20
-24.74519388710918
 10
10.81422128626172
 20
-24.74045488461418
 10
10.38175911166536
 20
-24.72627394379967
 10
9.955904774487406
 20
-24.70275899018793
 10
9.539899283371666
 20
-24.67008898677465
 10
9.136908691296512
 20
-24.62851257201251
 10
8.750000000000009
 20
-24.57834616752237
 10
8.38211781824478
 20
-24.51997156993371
 10
8.036061951567312
 20
-24.4538330451817
 10
7.71446609406727
 20
-24.38043394737527
 10
7.419777784405118
 20
-24.30033288796828
 10
7.154239778555048
 20
-24.21413948438919
 10
6.919872981077813
 20
-24.12250972048421
 10
6.718461064816754
 20
-24.02614095408425
 10
6.551536896070462
 20
-23.92576660969064
 10
6.42037086855466
 20
-23.82215059667191
 10
6.32596123493896
 20
-23.7160814954522
 10
6.269026509541272
 20
-23.60836655593806
 10
6.249999999999997
 20
-23.49982555385925
  0
LWPOLYLINE
  5
95
330
74
100
AcDbEntity
  8
hidden
100
AcDbPolyline
 90
       13
 70
     0
 43
0.0
 10
6.249999999999997
 20
-23.49982555385925
 10
6.26902650954127
 20
-23.39128455178044
 10
6.325961234938957
 20
-23.28356961226629
 10
6.420370868554656
 20
-23.17750051104658
 10
6.551536896070455
 20
-23.07388449802786
 10
6.718461064816747
 20
-22.97351015363425
 10
6.919872981077803
 20
-22.87714138723428
 10
7.154239778555036
 20
-22.78551162332931
 10
7.419777784405104
 20
-22.69931821975021
 10
7.714466094067256
 20
-22.61921716034323
 10
8.036061951567298
 20
-22.54581806253679
 10
8.382117818244764
 20
-22.47967953778479
 10
8.432257840080984
 20
-22.47104791342502
  0
LINE
  5
96
330
74
100
AcDbEntity
  8
hidden
100
AcDbLine
 10
18.25
 20
7.174461342934653
 30
0.0
 11
4.249999999999999
 21
7.174461342934653
 31
0.0
  0
LINE
  5
97
330
74
100
AcDbEntity
  8
hidden
100
AcDbLine
 10
18.25
 20
5.176570384506772
 30
0.0
 11
4.249999999999999
 21
5.176570384506772
 31
0.0
  0
LINE
  5
98
330
74
100
AcDbEntity
  8
hidden
100
AcDbLine
 10
18.25
 20
5.222482578508287
 30
0.0
 11
4.249999999999999
 21
5.222482578508287
 31
0.0
  0
LINE
  5
99
330
74
100
AcDbEntity
  8
hidden
100
AcDbLine
 10
18.25
 20
6.279898202756183
 30
0.0
 11
4.249999999999999
 21
6.279898202756183
 31
0.0
  0
LINE
  5
9A
330
74
100
AcDbEntity
  8
hidden
100
AcDbLine
 10
18.25
 20
6.221428057722227
 30
0.0
 11
4.249999999999999
 21
6.221428057722227
 31
0.0
  0
LINE
  5
9B
330
74
100
AcDbEntity
  8
hidden
100
AcDbLine
 10
18.25
 20
1.881986794291999
 30
0.0
 11
4.249999999999999
 21
1.881986794291999
 31
0.0
  0
LINE
  5
9C
330
74
100
AcDbEntity
  8
hidden
100
AcDbLine
 10
19.75
 20
-15.078
 30
0.0
 11
2.749999999999999
 21
-15.078
 31
0.0
  0
LINE
  5
9D
330
74
100
AcDbEntity
  8
hidden
100
AcDbLine
 10
2.749999999999999
 20
-19.57800000000001
 30
0.0
 11
19.75
 21
-19.57800000000001
 31
0.0
  0
LINE
  5
9E
330
74
100
AcDbEntity
  8
hidden
100
AcDbLine
 10
18.25
 20
7.307961678221147
 30
0.0
 11
18.25
 21
-11.46439243530436
 31
0.0
  0
LINE
  5
9F
330
74
100
AcDbEntity
  8
hidden
100
AcDbLine
 10
4.249999999999999
 20
7.307961678221147
 30
0.0
 11
4.249999999999999
 21
-11.46439243530436
 31
0.0
  0
LINE
  5
A0
330
74
100
AcDbEntity
  8
hidden
100
AcDbLine
 10
18.25
 20
1.932429828323808
 30
0.0
 11
4.249999999999999
 21
1.932429828323808
 31
0.0
  0
LINE
  5
A1
330
74
100
AcDbEntity
  8
hidden
100
AcDbLine
 10
18.25
 20
7.307961678221147
 30
0.0
 11
4.249999999999999
 21
7.307961678221147
 31
0.0
  0
LINE
  5
A2
330
74
100
AcDbEntity
  8
hidden
100
AcDbLine
 10
3.75
 20
-13.828
 30
0.0
 11
2.749999999999999
 21
-13.828
 31
0.0
  0
LINE
  5
A3
330
74
100
AcDbEntity
  8
hidden
100
AcDbLine
 10
2.749999999999999
 20
-20.828
 30
0.0
 11
3.75
 21
-20.828
 31
0.0
  0
LINE
  5
A4
330
74
100
AcDbEntity
  8
hidden
100
AcDbLine
 10
2.749999999999999
 20
-13.828
 30
0.0
 11
2.749999999999999
 21
-20.828
 31
0.0
  0
LINE
  5
A5
330
74
100
AcDbEntity
  8
hidden
100
AcDbLine
 10
19.75
 20
-13.828
 30
0.0
 11
18.75
 21
-13.828
 31
0.0
  0
LINE
  5
A6
330
74
100
AcDbEntity
  8
hidden
100
AcDbLine
 10
18.75
 20
-20.828
 30
0.0
 11
19.75
 21
-20.828
 31
0.0
  0
LINE
  5
A7
330
74
100
AcDbEntity
  8
hidden
100
AcDbLine
 10
19.75
 20
-13.828
 30
0.0
 11
19.75
 21
-20.828
 31
0.0
  0
LINE
  5
A8
330
74
100
AcDbEntity
  8
hidden
100
AcDbLine
 10
18.25
 20
2.506350821878077
 30
0.0
 11
4.249999999999999
 21
2.506350821878077
 31
0.0
  0
LINE
  5
A9
330
74
100
AcDbEntity
  8
hidden
100
AcDbLine
 10
18.25
 20
-28.00000000000001
 30
0.0
 11
18.25
 21
-28.60488910615095
 31
0.0
  0
LINE
  5
AA
330
74
100
AcDbEntity
  8
hidden
100
AcDbLine
 10
4.249999999999999
 20
-28.00000000000001
 30
0.0
 11
4.249999999999999
 21
-28.60488910615095
 31
0.0
  0
LINE
  5
AB
330
74
100
AcDbEntity
  8
hidden
100
AcDbLine
 10
18.25
 20
-28.60488910615095
 30
0.0
 11
4.249999999999999
 21
-28.60488910615095
 31
0.0
  0
LINE
  5
AC
330
74
100
AcDbEntity
  8
hidden
100
AcDbLine
 10
18.25
 20
-18.99459989316657
 30
0.0
 11
4.249999999999999
 21
-18.99459989316657
 31
0.0
  0
LINE
  5
AD
330
74
100
AcDbEntity
  8
hidden
100
AcDbLine
 10
18.25
 20
-18.99100215369786
 30
0.0
 11
4.249999999999999
 21
-18.99100215369786
 31
0.0
  0
ELLIPSE
  5
AE
330
74
100
AcDbEntity
  8
hidden
100
AcDbEllipse
 10
13.45000000000049
 20
-13.41967967628782
 30
0.0
 11
-1.500000000000496
 21
-2.157788896499687E-11
 31
0.0
210
0.0
220
0.0
230
1.0
 40
0.9952030140417365
 41
3.076010421826229
 42
6.348767538913537
  0
LINE
  5
AF
330
74
100
AcDbEntity
  8
hidden
100
AcDbLine
 10
11.95
 20
-13.41967967628805
 30
0.0
 11
11.95
 21
-13.61534225157779
 31
0.0
  0
LINE
  5
B0
330
74
100
AcDbEntity
  8
hidden
100
AcDbLine
 10
14.95
 20
-13.61534225157779
 30
0.0
 11
14.95
 21
-13.41967967628805
 31
0.0
  0
ELLIPSE
  5
B1
330
74
100
AcDbEntity
  8
hidden
100
AcDbEllipse
 10
9.049999999999924
 20
-13.41967967628722
 30
0.0
 11
-1.499999999999925
 21
-8.877813433331152E-11
 31
0.0
210
0.0
220
0.0
230
1.0
 40
0.9952030140417495
 41
3.07601042178225
 42
6.348767538868014
  0
LINE
  5
B2
330
74
100
AcDbEntity
  8
hidden
100
AcDbLine
 10
7.55
 20
-13.41967967628805
 30
0.0
 11
7.55
 21
-13.61534225157779
 31
0.0
  0
LINE
  5
B3
330
74
100
AcDbEntity
  8
hidden
100
AcDbLine
 10
10.55
 20
-13.61534225157779
 30
0.0
 11
10.55
 21
-13.41967967628805
 31
0.0
  0
LINE
  5
B4
330
74
100
AcDbEntity
  8
hidden
100
AcDbLine
 10
8.9
 20
-11.62493622349433
 30
0.0
 11
13.6
 21
-11.62493622349433
 31
0.0
  0
ELLIPSE
  5
B5
330
74
100
AcDbEntity
  8
hidden
100
AcDbEllipse
 10
8.900000000006308
 20
-13.615342251559
 30
0.0
 11
2.00000000000631
 21
1.957893402959598E-9
 31
0.0
210
0.0
220
0.0
230
1.0
 40
0.9952030140417962
 41
3.14159265261557
 42
3.154175418586266
  0
LINE
  5
B6
330
74
100
AcDbEntity
  8
hidden
100
AcDbLine
 10
8.9
 20
-11.67878443257998
 30
0.0
 11
8.9
 21
-11.62493622349433
 31
0.0
  0
LINE
  5
B7
330
74
100
AcDbEntity
  8
hidden
100
AcDbLine
 10
6.899999999999999
 20
-13.61534225157779
 30
0.0
 11
6.899999999999999
 21
-13.66538264542945
 31
0.0
  0
ELLIPSE
  5
B8
330
74
100
AcDbEntity
  8
hidden
100
AcDbEllipse
 10
8.9
 20
-13.61534225157779
 30
0.0
 11
2.000000000000002
 21
5.861977570020827E-14
 31
0.0
210
0.0
220
0.0
230
1.0
 40
0.9952030140417305
 41
1.570796326794867
 42
3.141592653589763
  0
LINE
  5
B9
330
74
100
AcDbEntity
  8
hidden
100
AcDbLine
 10
13.6
 20
-11.67878443257998
 30
0.0
 11
13.6
 21
-11.62493622349433
 31
0.0
  0
ELLIPSE
  5
BA
330
74
100
AcDbEntity
  8
hidden
100
AcDbEllipse
 10
13.6
 20
-13.61534225157779
 30
0.0
 11
2.0
 21
-6.088599125926746E-14
 31
0.0
210
0.0
220
0.0
230
1.0
 40
0.9952030140417314
 41
6.27060253047222
 42
7.853981633974513
  0
LINE
  5
BB
330
74
100
AcDbEntity
  8
hidden
100
AcDbLine
 10
15.6
 20
-13.66538264542945
 30
0.0
 11
15.6
 21
-13.61534225157779
 31
0.0
  0
LINE
  5
BC
330
74
100
AcDbEntity
  8
hidden
100
AcDbLine
 10
4.25
 20
-11.34779714482461
 30
0.0
 11
2.749999999999999
 21
-11.34779714482461
 31
0.0
  0
LINE
  5
BD
330
74
100
AcDbEntity
  8
hidden
100
AcDbLine
 10
19.75
 20
-11.34779714482461
 30
0.0
 11
18.25
 21
-11.34779714482461
 31
0.0
  0
LINE
  5
BE
330
74
100
AcDbEntity
  8
hidden
100
AcDbLine
 10
19.75
 20
-11.36654262331441
 30
0.0
 11
2.749999999999999
 21
-11.36654262331441
 31
0.0
  0
LINE
  5
BF
330
74
100
AcDbEntity
  8
hidden
100
AcDbLine
 10
19.75
 20
-11.38074680053628
 30
0.0
 11
18.25
 21
-11.38074680053628
 31
0.0
  0
LINE
  5
C0
330
74
100
AcDbEntity
  8
hidden
100
AcDbLine
 10
4.249999999999999
 20
-11.38074680053628
 30
0.0
 11
2.749999999999999
 21
-11.38074680053628
 31
0.0
  0
LINE
  5
C1
330
74
100
AcDbEntity
  8
hidden
100
AcDbLine
 10
19.75
 20
-1.021387224651265
 30
0.0
 11
2.749999999999999
 21
-1.021387224651265
 31
0.0
  0
LINE
  5
C2
330
74
100
AcDbEntity
  8
hidden
100
AcDbLine
 10
2.749999999999999
 20
-4.021387224651267
 30
0.0
 11
19.75
 21
-4.021387224651267
 31
0.0
  0
LINE
  5
C3
330
74
100
AcDbEntity
  8
hidden
100
AcDbLine
 10
19.75
 20
-2.232565352613207
 30
0.0
 11
18.25
 21
-2.232565352613203
 31
0.0
  0
LINE
  5
C4
330
74
100
AcDbEntity
  8
hidden
100
AcDbLine
 10
4.25
 20
-2.232565352613207
 30
0.0
 11
2.749999999999999
 21
-2.232565352613207
 31
0.0
  0
LINE
  5
C5
330
74
100
AcDbEntity
  8
hidden
100
AcDbLine
 10
19.75
 20
-3.718139503843936
 30
0.0
 11
2.749999999999999
 21
-3.718139503843936
 31
0.0
  0
LINE
  5
C8
330
74
100
AcDbEntity
  8
center
100
AcDbLine
 10
1.899999999999999
 20
-17.328
 30
0.0
 11
20.6
 21
-17.328
 31
0.0
  0
LINE
  5
C9
330
74
100
AcDbEntity
  8
center
100
AcDbLine
 10
1.899999999999999
 20
-2.52138722465127
 30
0.0
 11
20.6
 21
-2.52138722465127
 31
0.0
  0
LINE
  5
CB
330
74
100
AcDbEntity
  8
bold
100
AcDbLine
 10
4.25
 20
-13.828
 30
0.0
 11
3.75
 21
-13.828
 31
0.0
  0
LINE
  5
CC
330
74
100
AcDbEntity
  8
bold
100
AcDbLine
 10
3.75
 20
-20.828
 30
0.0
 11
4.25
 21
-20.828
 31
0.0
  0
LINE
  5
CD
330
74
100
AcDbEntity
  8
bold
100
AcDbLine
 10
18.75
 20
-13.828
 30
0.0
 11
18.25
 21
-13.828
 31
0.0
  0
LINE
  5
CE
330
74
100
AcDbEntity
  8
bold
100
AcDbLine
 10
18.25
 20
-20.828
 30
0.0
 11
18.75
 21
-20.828
 31
0.0
  0
LINE
  5
D0
330
74
100
AcDbEntity
  8
light
100
AcDbLine
 10
18.25
 20
-20.48740441422916
 30
0.0
 11
4.249999999999999
 21
-20.48740441422916
 31
0.0
  0
LINE
  5
D1
330
74
100
AcDbEntity
  8
bold
100
AcDbLine
 10
18.25
 20
-23.26686329346662
 30
0.0
 11
4.249999999999999
 21
-23.26686329346662
 31
0.0
  0
LINE
  5
D2
330
74
100
AcDbEntity
  8
bold
100
AcDbLine
 10
18.25
 20
-20.56077787996282
 30
0.0
 11
4.249999999999999
 21
-20.56077787996282
 31
0.0
  0
ELLIPSE
  5
D3
330
74
100
AcDbEntity
  8
bold
100
AcDbEllipse
 10
13.45
 20
-13.41967967628805
 30
0.0
 11
-1.500000000000002
 21
-1.047444401652941E-14
 31
0.0
210
0.0
220
0.0
230
1.0
 40
0.9952030140417278
 41
0.0655822317482677
 42
3.076010421840848
  0
ELLIPSE
  5
D4
330
74
100
AcDbEntity
  8
bold
100
AcDbEllipse
 10
9.049999999999999
 20
-13.41967967628805
 30
0.0
 11
-1.5
 21
2.682904961087586E-14
 31
0.0
210
0.0
220
0.0
230
1.0
 40
0.9952030140417302
 41
0.0655822317473582
 42
3.076010421842289
  0
LINE
  5
D5
330
74
100
AcDbEntity
  8
bold
100
AcDbLine
 10
13.6
 20
-15.60574827966125
 30
0.0
 11
8.9
 21
-15.60574827966125
 31
0.0
  0
LINE
  5
D6
330
74
100
AcDbEntity
  8
bold
100
AcDbLine
 10
13.6
 20
-15.63449637637756
 30
0.0
 11
8.9
 21
-15.63449637637756
 31
0.0
  0
LINE
  5
D7
330
74
100
AcDbEntity
  8
bold
100
AcDbLine
 10
18.25
 20
-19.06797335890022
 30
0.0
 11
4.249999999999999
 21
-19.06797335890022
 31
0.0
  0
LWPOLYLINE
  5
D8
330
74
100
AcDbEntity
  8
bold
100
AcDbPolyline
 90
       16
 70
     0
 43
0.0
 10
8.899999915706303
 20
-15.63449637637756
 10
8.725688430531749
 20
-15.62703050849697
 10
8.552703561653054
 20
-15.60468973903171
 10
8.382361828373499
 20
-15.56764409472714
 10
8.215959634138496
 20
-15.51617551530517
 10
8.054763400122567
 20
-15.4506757077328
 10
7.899999926999516
 20
-15.37164316509552
 10
7.752847058248554
 20
-15.27967937276393
 10
7.614424716054204
 20
-15.17548423072696
 10
7.485786378022262
 20
-15.05985072693024
 10
7.367911059579101
 20
-14.93365890215908
 10
7.26169586307314
 20
-14.79786915239671
 10
7.167949150284275
 20
-14.6535149196309
 10
7.087384390302645
 20
-14.50169482673647
 10
7.020614729598043
 20
-14.34356431629183
 10
6.986111181700068
 20
-14.2420349892521
  0
LINE
  5
D9
330
74
100
AcDbEntity
  8
light
100
AcDbLine
 10
8.9
 20
-15.63449637637756
 30
0.0
 11
8.9
 21
-15.60574827966125
 31
0.0
  0
ELLIPSE
  5
DA
330
74
100
AcDbEntity
  8
bold
100
AcDbEllipse
 10
8.9
 20
-13.61534225157779
 30
0.0
 11
2.000000000000004
 21
5.684341886080801E-14
 31
0.0
210
0.0
220
0.0
230
1.0
 40
0.9952030140417314
 41
3.154175419560502
 42
4.712388980384661
  0
LWPOLYLINE
  5
DB
330
74
100
AcDbEntity
  8
bold
100
AcDbPolyline
 90
       19
 70
     0
 43
0.0
 10
6.899999999999999
 20
-13.66538264542945
 10
6.907610603816509
 20
-13.49223920264738
 10
6.930384493975584
 20
-13.32041348601176
 10
6.968148347421862
 20
-13.15121319297737
 10
7.020614758428183
 20
-12.98592603994016
 10
7.087384425926699
 20
-12.82580996193783
 10
7.167949192431122
 20
-12.67208353900472
 10
7.261695911422016
 20
-12.52591672204189
 10
7.367911113762043
 20
-12.38842192878439
 10
7.485786437626903
 20
-12.26064557763051
 10
7.61442478062692
 20
-12.14356012376602
 10
7.752847127297906
 20
-12.03805665819295
 10
7.899999999999998
 20
-11.94493812598904
 10
8.054763476518598
 20
-11.86491321541088
 10
8.21595971334866
 20
-11.79859096434833
 10
8.382361909794955
 20
-11.74647612517844
 10
8.552703644666137
 20
-11.70896532329509
 10
8.72568851450468
 20
-11.68634403855027
 10
8.89999995785315
 20
-11.67878443257998
  0
LINE
  5
DC
330
74
100
AcDbEntity
  8
light
100
AcDbLine
 10
13.6
 20
-15.63449637637756
 30
0.0
 11
13.6
 21
-15.60574827966125
 31
0.0
  0
LWPOLYLINE
  5
DD
330
74
100
AcDbEntity
  8
bold
100
AcDbPolyline
 90
       16
 70
     0
 43
0.0
 10
15.51388881829993
 20
-14.2420349892521
 10
15.45600828097757
 20
-14.40350183934031
 10
15.38400239994852
 20
-14.55940557980293
 10
15.29841918344577
 20
-14.70855968903781
 10
15.19990997142345
 20
-14.84982901421193
 10
15.08922447846655
 20
-14.98213841045999
 10
14.96720508801019
 20
-15.10448092338592
 10
14.83478044129307
 20
-15.21592545259395
 10
14.69295836983689
 20
-15.31562383792475
 10
14.54281822523995
 20
-15.40281731446641
 10
14.38550266465972
 20
-15.47684228721361
 10
14.22220895450196
 20
-15.53713538142622
 10
14.05417985850039
 20
-15.58323773025134
 10
13.88269417953435
 20
-15.61479846697703
 10
13.70905702716663
 20
-15.63157739533992
 10
13.5999999157063
 20
-15.63449637637756
  0
ELLIPSE
  5
DE
330
74
100
AcDbEntity
  8
bold
100
AcDbEllipse
 10
13.6
 20
-13.61534225157779
 30
0.0
 11
2.000000000000004
 21
1.421085471520200E-14
 31
0.0
210
0.0
220
0.0
230
1.0
 40
0.9952030140417305
 41
4.712388980384683
 42
6.270602530472181
  0
LWPOLYLINE
  5
DF
330
74
100
AcDbEntity
  8
bold
100
AcDbPolyline
 90
        5
 70
     0
 43
0.0
 10
15.6
 20
-13.66538264542945
 10
15.59238939618349
 20
-13.83852608821151
 10
15.56961550602442
 20
-14.01035180484714
 10
15.53185165257814
 20
-14.17955209788152
 10
15.51388881829993
 20
-14.2420349892521
  0
LINE
  5
E0
330
74
100
AcDbEntity
  8
bold
100
AcDbLine
 10
18.25
 20
-11.46439243530436
 30
0.0
 11
18.25
 21
-28.00000000000001
 31
0.0
  0
LINE
  5
E1
330
74
100
AcDbEntity
  8
bold
100
AcDbLine
 10
4.249999999999999
 20
-11.46439243530436
 30
0.0
 11
4.249999999999999
 21
-28.00000000000001
 31
0.0
  0
LINE
  5
E2
330
74
100
AcDbEntity
  8
bold
100
AcDbLine
 10
6.986111181700074
 20
-14.2420349892521
 30
0.0
 11
4.249999999999999
 21
-14.2420349892521
 31
0.0
  0
LWPOLYLINE
  5
E3
330
74
100
AcDbEntity
  8
bold
100
AcDbPolyline
 90
        5
 70
     0
 43
0.0
 10
6.986111181700069
 20
-14.2420349892521
 10
6.942796493922631
 20
-14.07415200343648
 10
6.914377306618232
 20
-13.90315803598474
 10
6.90106990696223
 20
-13.73035445423817
 10
6.899999999999999
 20
-13.66538264542945
  0
LINE
  5
E4
330
74
100
AcDbEntity
  8
bold
100
AcDbLine
 10
8.9
 20
-11.67878443257998
 30
0.0
 11
13.6
 21
-11.67878443257998
 31
0.0
  0
LWPOLYLINE
  5
E5
330
74
100
AcDbEntity
  8
bold
100
AcDbPolyline
 90
       19
 70
     0
 43
0.0
 10
13.59999995785315
 20
-11.67878443257998
 10
13.77431144350885
 20
-11.68634403490154
 10
13.94729631382732
 20
-11.70896531602541
 10
14.11763804949431
 20
-11.74647611434312
 10
14.28404024704625
 20
-11.79859095002985
 10
14.44523648528338
 20
-11.86491319771821
 10
14.59999996349976
 20
-11.94493810505683
 10
14.74715283817741
 20
-12.0380566341805
 10
14.88557518708672
 20
-12.14356009685608
 10
15.01421353257077
 20
-12.26064554802789
 10
15.13208885914648
 20
-12.38842189671437
 10
15.23830406440354
 20
-12.52591668774856
 10
15.33205078649545
 20
-12.67208350274906
 10
15.41261555626127
 20
-12.82580992399577
 10
15.47938522715674
 20
-12.98592600060046
 10
15.53185164166973
 20
-13.15121315253944
 10
15.56961549870569
 20
-13.32041344478334
 10
15.59238939251015
 20
-13.49223916094226
 10
15.6
 20
-13.66538260356502
  0
LINE
  5
E6
330
74
100
AcDbEntity
  8
bold
100
AcDbLine
 10
18.25
 20
-14.2420349892521
 30
0.0
 11
15.51388881829993
 21
-14.2420349892521
 31
0.0
  0
LINE
  5
E7
330
74
100
AcDbEntity
  8
bold
100
AcDbLine
 10
19.75
 20
-10.07525378496225
 30
0.0
 11
2.749999999999999
 21
-10.07525378496225
 31
0.0
  0
LINE
  5
E8
330
74
100
AcDbEntity
  8
bold
100
AcDbLine
 10
19.75
 20
-11.46439243530436
 30
0.0
 11
2.749999999999999
 21
-11.46439243530436
 31
0.0
  0
LINE
  5
E9
330
74
100
AcDbEntity
  8
bold
100
AcDbLine
 10
19.75
 20
-10.1731035969522
 30
0.0
 11
2.749999999999999
 21
-10.1731035969522
 31
0.0
  0
LINE
  5
EA
330
74
100
AcDbEntity
  8
bold
100
AcDbLine
 10
19.75
 20
-3.815989315833886
 30
0.0
 11
2.749999999999999
 21
-3.815989315833886
 31
0.0
  0
LINE
  5
EB
330
74
100
AcDbEntity
  8
bold
100
AcDbLine
 10
19.75
 20
11.53355569552035
 30
0.0
 11
19.75
 21
-11.46439243530436
 31
0.0
  0
LINE
  5
EC
330
74
100
AcDbEntity
  8
bold
100
AcDbLine
 10
2.749999999999999
 20
11.53355569552035
 30
0.0
 11
2.749999999999999
 21
-11.46439243530436
 31
0.0
  0
LINE
  5
ED
330
74
100
AcDbEntity
  8
bold
100
AcDbLine
 10
19.75
 20
11.1602665105873
 30
0.0
 11
2.749999999999999
 21
11.1602665105873
 31
0.0
  0
LINE
  5
EE
330
74
100
AcDbEntity
  8
bold
100
AcDbLine
 10
19.75
 20
11.53355569552035
 30
0.0
 11
2.749999999999999
 21
11.53355569552035
 31
0.0
  0
ELLIPSE
  5
EF
330
74
100
AcDbEntity
  8
bold
100
AcDbEllipse
 10
13.45
 20
-13.61534225157779
 30
0.0
 11
-1.5
 21
-1.148570609678085E-15
 31
0.0
210
0.0
220
0.0
230
1.0
 40
0.9952030140417302
 41
0.0
 42
6.283185307179586
  0
ELLIPSE
  5
F0
330
74
100
AcDbEntity
  8
bold
100
AcDbEllipse
 10
9.05
 20
-13.61534225157779
 30
0.0
 11
-1.499999999999998
 21
-1.148570609678084E-15
 31
0.0
210
0.0
220
0.0
230
1.0
 40
0.9952030140417314
 41
0.0
 42
6.283185307179586
  0
ENDBLK
  5
77
330
74
100
AcDbEntity
  8
0
100
AcDbBlockEnd
  0
BLOCK
  5
F3
330
F1
100
AcDbEntity
  8
0
100
AcDbBlockBegin
  2
2_77229000_0_in_31572_0
 70
     2
 10
0.0
 20
0.0
 30
0.0
  3
2_77229000_0_in_31572_0
  1

  0
ATTDEF
  5
F5
330
F1
100
AcDbEntity
  8
attrib
100
AcDbText
 10
22.75000000000001
 20
-16.0
 30
0.0
 40
0.5
  1
77229000
100
AcDbAttributeDefinition
  3

  2
NB
 70
     8
280
     0
  0
ATTDEF
  5
F6
330
F1
100
AcDbEntity
  8
attrib
100
AcDbText
 10
22.75000000000001
 20
-16.5
 30
0.0
 40
0.5
  1
AMBUS60 Holder for cylindrical fuse part
100
AcDbAttributeDefinition
  3

  2
NN
 70
     8
280
     0
  0
ATTDEF
  5
F7
330
F1
100
AcDbEntity
  8
attrib
100
AcDbText
 10
22.75000000000001
 20
-17.0
 30
0.0
 40
0.5
  1

100
AcDbAttributeDefinition
  3

  2
NT
 70
     8
280
     0
  0
ATTDEF
  5
F8
330
F1
100
AcDbEntity
  8
attrib
100
AcDbText
 10
22.75000000000001
 20
-17.5
 30
0.0
 40
0.5
  1
$ARTNR.
100
AcDbAttributeDefinition
  3

  2
NBSYN
 70
     8
280
     0
  0
ATTDEF
  5
F9
330
F1
100
AcDbEntity
  8
attrib
100
AcDbText
 10
22.75000000000001
 20
-18.0
 30
0.0
 40
0.5
  1
77229000
100
AcDbAttributeDefinition
  3

  2
LINA
 70
     8
280
     0
  0
ATTDEF
  5
FA
330
F1
100
AcDbEntity
  8
attrib
100
AcDbText
 10
22.75000000000001
 20
-18.5
 30
0.0
 40
0.5
  1
Wöhner
100
AcDbAttributeDefinition
  3

  2
CATALOG
 70
     8
280
     0
  0
ATTDEF
  5
FB
330
F1
100
AcDbEntity
  8
attrib
100
AcDbText
 10
22.75000000000001
 20
-19.0
 30
0.0
 40
0.5
  1
77229000
100
AcDbAttributeDefinition
  3

  2
ARTNR
 70
     8
280
     0
  0
ATTDEF
  5
FC
330
F1
100
AcDbEntity
  8
attrib
100
AcDbText
 10
22.75000000000001
 20
-19.5
 30
0.0
 40
0.5
  1
AMBUS®60Classic
100
AcDbAttributeDefinition
  3

  2
POF
 70
     8
280
     0
  0
ATTDEF
  5
FD
330
F1
100
AcDbEntity
  8
attrib
100
AcDbText
 10
22.75000000000001
 20
-20.0
 30
0.0
 40
0.5
  1
2
100
AcDbAttributeDefinition
  3

  2
VER
 70
     8
280
     0
  0
ATTDEF
  5
FE
330
F1
100
AcDbEntity
  8
attrib
100
AcDbText
 10
22.75000000000001
 20
-20.5
 30
0.0
 40
0.5
  1
woehner
100
AcDbAttributeDefinition
  3

  2
COMPANY
 70
     8
280
     0
  0
ATTDEF
  5
FF
330
F1
100
AcDbEntity
  8
attrib
100
AcDbText
 10
22.75000000000001
 20
-21.0
 30
0.0
 40
0.5
  1
{$CADENAS_DATA/23d-libs/woehner/sys_60classic/fuse_holders_iec_en/parts/holder_cylindrical_fuse_ambus_iec_v1_part3.prj},191 {VTYP=3D},{NB=77229000},{LINA=77229000},{NN=AMBUS60 Holder for cylindrical fuse part},{DATE=26.01.2024 06:39:58},{GEOMDATE=28.12.20
100
AcDbAttributeDefinition
  3

  2
PSOL_0
 70
     9
280
     0
  0
ATTDEF
  5
100
330
F1
100
AcDbEntity
  8
attrib
100
AcDbText
 10
22.75000000000001
 20
-21.5
 30
0.0
 40
0.5
  1
22 07:55:00},{VERSION=},{LINEID=920},{WBVAR=},{WBNUMERIC=}  {NB=77229000},{LINA=77229000},{KT=DUMMY},{ARTNR=77229000},{POF=AMBUS®60Classic},{VER=2}
100
AcDbAttributeDefinition
  3

  2
PSOL_1
 70
     9
280
     0
  0
LINE
  5
101
330
F1
100
AcDbEntity
  8
hidden
100
AcDbLine
 10
4.749999999999999
 20
-20.0
 30
0.0
 11
4.749999999999999
 21
-17.0
 31
0.0
  0
LINE
  5
102
330
F1
100
AcDbEntity
  8
hidden
100
AcDbLine
 10
14.5
 20
-26.0
 30
0.0
 11
13.0
 21
-26.0
 31
0.0
  0
LINE
  5
103
330
F1
100
AcDbEntity
  8
hidden
100
AcDbLine
 10
9.5
 20
-37.50000000000001
 30
0.0
 11
13.0
 21
-37.50000000000001
 31
0.0
  0
ARC
  5
104
330
F1
100
AcDbEntity
  8
hidden
100
AcDbCircle
 10
9.50000000000001
 20
-36.74999999999999
 30
0.0
 40
0.7500000000000124
100
AcDbArc
 50
180.0000000000011
 51
269.9999999999992
  0
LINE
  5
105
330
F1
100
AcDbEntity
  8
hidden
100
AcDbLine
 10
5.75
 20
-16.0
 30
0.0
 11
16.75
 21
-16.0
 31
0.0
  0
ARC
  5
106
330
F1
100
AcDbEntity
  8
hidden
100
AcDbCircle
 10
9.499999999999998
 20
-20.75
 30
0.0
 40
0.75
100
AcDbArc
 50
359.9999999999997
 51
89.99999999999987
  0
LINE
  5
107
330
F1
100
AcDbEntity
  8
hidden
100
AcDbLine
 10
13.75
 20
-36.75000000000001
 30
0.0
 11
13.75
 21
-31.25
 31
0.0
  0
ARC
  5
108
330
F1
100
AcDbEntity
  8
hidden
100
AcDbCircle
 10
12.99999999999999
 20
-36.74999999999999
 30
0.0
 40
0.7500000000000142
100
AcDbArc
 50
270.0000000000007
 51
359.9999999999989
  0
ARC
  5
109
330
F1
100
AcDbEntity
  8
hidden
100
AcDbCircle
 10
14.49999999999999
 20
-44.25000000000001
 30
0.0
 40
0.7500000000000107
100
AcDbArc
 50
0.0000000000005428
 51
89.99999999999947
  0
LINE
  5
10A
330
F1
100
AcDbEntity
  8
hidden
100
AcDbLine
 10
7.999999999999998
 20
-43.50000000000001
 30
0.0
 11
14.5
 21
-43.5
 31
0.0
  0
LINE
  5
10B
330
F1
100
AcDbEntity
  8
hidden
100
AcDbLine
 10
16.75
 20
-16.0
 30
0.0
 11
17.75
 21
-17.0
 31
0.0
  0
LINE
  5
10C
330
F1
100
AcDbEntity
  8
hidden
100
AcDbLine
 10
10.25
 20
-20.75
 30
0.0
 11
10.25
 21
-25.25
 31
0.0
  0
ARC
  5
10D
330
F1
100
AcDbEntity
  8
hidden
100
AcDbCircle
 10
14.49999999999999
 20
-25.25
 30
0.0
 40
0.7500000000000071
100
AcDbArc
 50
270.0000000000006
 51
359.9999999999997
  0
ARC
  5
10E
330
F1
100
AcDbEntity
  8
hidden
100
AcDbCircle
 10
14.5
 20
-31.25
 30
0.0
 40
0.75
100
AcDbArc
 50
0.0
 51
180.0
  0
ARC
  5
10F
330
F1
100
AcDbEntity
  8
hidden
100
AcDbCircle
 10
13.0
 20
-25.25
 30
0.0
 40
0.7500000000000036
100
AcDbArc
 50
179.9999999999997
 51
269.9999999999997
  0
LINE
  5
110
330
F1
100
AcDbEntity
  8
hidden
100
AcDbLine
 10
4.749999999999999
 20
-17.0
 30
0.0
 11
5.75
 21
-16.0
 31
0.0
  0
ARC
  5
111
330
F1
100
AcDbEntity
  8
hidden
100
AcDbCircle
 10
7.999999999999994
 20
-44.25
 30
0.0
 40
0.7499999999999929
100
AcDbArc
 50
89.99999999999969
 51
180.0
  0
LINE
  5
112
330
F1
100
AcDbEntity
  8
hidden
100
AcDbLine
 10
17.75
 20
-17.0
 30
0.0
 11
17.75
 21
-20.0
 31
0.0
  0
LINE
  5
113
330
F1
100
AcDbEntity
  8
hidden
100
AcDbLine
 10
12.25
 20
-25.25
 30
0.0
 11
12.25
 21
-20.75
 31
0.0
  0
ARC
  5
114
330
F1
100
AcDbEntity
  8
hidden
100
AcDbCircle
 10
6.249999999999995
 20
-47.50000000000001
 30
0.0
 40
1.499999999999996
100
AcDbArc
 50
179.9999999999997
 51
270.0000000000002
  0
ARC
  5
115
330
F1
100
AcDbEntity
  8
hidden
100
AcDbCircle
 10
16.25
 20
-47.5
 30
0.0
 40
1.500000000000007
100
AcDbArc
 50
270.0
 51
0.0000000000002714
  0
LINE
  5
116
330
F1
100
AcDbEntity
  8
hidden
100
AcDbLine
 10
15.25
 20
-20.75
 30
0.0
 11
15.25
 21
-25.25
 31
0.0
  0
ARC
  5
117
330
F1
100
AcDbEntity
  8
hidden
100
AcDbCircle
 10
7.999999999999986
 20
-39.75000000000001
 30
0.0
 40
0.7499999999999867
100
AcDbArc
 50
179.9999999999989
 51
270.0000000000011
  0
LINE
  5
118
330
F1
100
AcDbEntity
  8
hidden
100
AcDbLine
 10
14.5
 20
-40.5
 30
0.0
 11
8.0
 21
-40.5
 31
0.0
  0
ARC
  5
119
330
F1
100
AcDbEntity
  8
hidden
100
AcDbCircle
 10
14.50000000000001
 20
-39.75000000000001
 30
0.0
 40
0.7499999999999858
100
AcDbArc
 50
269.9999999999989
 51
0.0000000000010856
  0
LINE
  5
11A
330
F1
100
AcDbEntity
  8
hidden
100
AcDbLine
 10
15.25
 20
-31.25
 30
0.0
 11
15.25
 21
-35.0
 31
0.0
  0
LINE
  5
11B
330
F1
100
AcDbEntity
  8
hidden
100
AcDbLine
 10
7.249999999999999
 20
-25.25
 30
0.0
 11
7.249999999999999
 21
-20.75
 31
0.0
  0
ARC
  5
11C
330
F1
100
AcDbEntity
  8
hidden
100
AcDbCircle
 10
9.499999999999993
 20
-25.25
 30
0.0
 40
0.7500000000000036
100
AcDbArc
 50
270.0000000000006
 51
0.0
  0
LINE
  5
11D
330
F1
100
AcDbEntity
  8
hidden
100
AcDbLine
 10
8.749999999999998
 20
-31.25
 30
0.0
 11
8.749999999999998
 21
-36.75000000000001
 31
0.0
  0
ARC
  5
11E
330
F1
100
AcDbEntity
  8
hidden
100
AcDbCircle
 10
7.999999999999998
 20
-31.25
 30
0.0
 40
0.75
100
AcDbArc
 50
0.0
 51
180.0
  0
ARC
  5
11F
330
F1
100
AcDbEntity
  8
hidden
100
AcDbCircle
 10
8.000000000000005
 20
-25.25
 30
0.0
 40
0.7500000000000062
100
AcDbArc
 50
180.0000000000002
 51
269.9999999999996
  0
LINE
  5
120
330
F1
100
AcDbEntity
  8
hidden
100
AcDbLine
 10
9.5
 20
-26.0
 30
0.0
 11
8.0
 21
-26.0
 31
0.0
  0
ARC
  5
121
330
F1
100
AcDbEntity
  8
hidden
100
AcDbCircle
 10
7.999999999999997
 20
-20.75
 30
0.0
 40
0.7499999999999964
100
AcDbArc
 50
89.99999999999982
 51
180.0000000000002
  0
ARC
  5
122
330
F1
100
AcDbEntity
  8
hidden
100
AcDbCircle
 10
13.0
 20
-20.75
 30
0.0
 40
0.7499999999999964
100
AcDbArc
 50
89.99999999999987
 51
180.0000000000002
  0
LINE
  5
123
330
F1
100
AcDbEntity
  8
hidden
100
AcDbLine
 10
7.249999999999999
 20
-35.0
 30
0.0
 11
7.249999999999999
 21
-31.25
 31
0.0
  0
ARC
  5
124
330
F1
100
AcDbEntity
  8
hidden
100
AcDbCircle
 10
14.50000000000001
 20
-46.75000000000001
 30
0.0
 40
0.7499999999999858
100
AcDbArc
 50
269.9999999999989
 51
0.0000000000010856
  0
ARC
  5
125
330
F1
100
AcDbEntity
  8
hidden
100
AcDbCircle
 10
7.999999999999985
 20
-46.75000000000001
 30
0.0
 40
0.7499999999999831
100
AcDbArc
 50
179.9999999999989
 51
270.0000000000011
  0
ARC
  5
126
330
F1
100
AcDbEntity
  8
hidden
100
AcDbCircle
 10
14.5
 20
-20.75
 30
0.0
 40
0.7500000000000018
100
AcDbArc
 50
0.0
 51
90.0
  0
LINE
  5
127
330
F1
100
AcDbEntity
  8
hidden
100
AcDbLine
 10
16.25
 20
-49.00000000000001
 30
0.0
 11
6.249999999999999
 21
-49.0
 31
0.0
  0
LINE
  5
128
330
F1
100
AcDbEntity
  8
center
100
AcDbLine
 10
7.212499999999999
 20
-31.25
 30
0.0
 11
8.7875
 21
-31.25
 31
0.0
  0
LINE
  5
129
330
F1
100
AcDbEntity
  8
center
100
AcDbLine
 10
7.999999999999999
 20
-32.0375
 30
0.0
 11
7.999999999999999
 21
-30.4625
 31
0.0
  0
LINE
  5
12A
330
F1
100
AcDbEntity
  8
center
100
AcDbLine
 10
13.7125
 20
-31.25
 30
0.0
 11
15.2875
 21
-31.25
 31
0.0
  0
LINE
  5
12B
330
F1
100
AcDbEntity
  8
center
100
AcDbLine
 10
14.5
 20
-32.0375
 30
0.0
 11
14.5
 21
-30.4625
 31
0.0
  0
ENDBLK
  5
F4
330
F1
100
AcDbEntity
  8
0
100
AcDbBlockEnd
  0
BLOCK
  5
12E
330
12C
100
AcDbEntity
  8
0
100
AcDbBlockBegin
  2
3_77228000_0_in_31572_0
 70
     2
 10
0.0
 20
0.0
 30
0.0
  3
3_77228000_0_in_31572_0
  1

  0
ATTDEF
  5
130
330
12C
100
AcDbEntity
  8
attrib
100
AcDbText
 10
22.75
 20
19.0
 30
0.0
 40
0.5
  1
77228000
100
AcDbAttributeDefinition
  3

  2
NB
 70
     8
280
     0
  0
ATTDEF
  5
131
330
12C
100
AcDbEntity
  8
attrib
100
AcDbText
 10
22.75
 20
18.5
 30
0.0
 40
0.5
  1
AMBUS60 Holder for cylindrical fuse part
100
AcDbAttributeDefinition
  3

  2
NN
 70
     8
280
     0
  0
ATTDEF
  5
132
330
12C
100
AcDbEntity
  8
attrib
100
AcDbText
 10
22.75
 20
18.0
 30
0.0
 40
0.5
  1

100
AcDbAttributeDefinition
  3

  2
NT
 70
     8
280
     0
  0
ATTDEF
  5
133
330
12C
100
AcDbEntity
  8
attrib
100
AcDbText
 10
22.75
 20
17.5
 30
0.0
 40
0.5
  1
$ARTNR.
100
AcDbAttributeDefinition
  3

  2
NBSYN
 70
     8
280
     0
  0
ATTDEF
  5
134
330
12C
100
AcDbEntity
  8
attrib
100
AcDbText
 10
22.75
 20
17.0
 30
0.0
 40
0.5
  1
77228000
100
AcDbAttributeDefinition
  3

  2
LINA
 70
     8
280
     0
  0
ATTDEF
  5
135
330
12C
100
AcDbEntity
  8
attrib
100
AcDbText
 10
22.75
 20
16.5
 30
0.0
 40
0.5
  1
Wöhner
100
AcDbAttributeDefinition
  3

  2
CATALOG
 70
     8
280
     0
  0
ATTDEF
  5
136
330
12C
100
AcDbEntity
  8
attrib
100
AcDbText
 10
22.75
 20
16.0
 30
0.0
 40
0.5
  1
77228000
100
AcDbAttributeDefinition
  3

  2
ARTNR
 70
     8
280
     0
  0
ATTDEF
  5
137
330
12C
100
AcDbEntity
  8
attrib
100
AcDbText
 10
22.75
 20
15.5
 30
0.0
 40
0.5
  1
AMBUS®60Classic
100
AcDbAttributeDefinition
  3

  2
POF
 70
     8
280
     0
  0
ATTDEF
  5
138
330
12C
100
AcDbEntity
  8
attrib
100
AcDbText
 10
22.75
 20
15.0
 30
0.0
 40
0.5
  1
1
100
AcDbAttributeDefinition
  3

  2
VER
 70
     8
280
     0
  0
ATTDEF
  5
139
330
12C
100
AcDbEntity
  8
attrib
100
AcDbText
 10
22.75
 20
14.5
 30
0.0
 40
0.5
  1
woehner
100
AcDbAttributeDefinition
  3

  2
COMPANY
 70
     8
280
     0
  0
ATTDEF
  5
13A
330
12C
100
AcDbEntity
  8
attrib
100
AcDbText
 10
22.75
 20
14.0
 30
0.0
 40
0.5
  1
{$CADENAS_DATA/23d-libs/woehner/sys_60classic/fuse_holders_iec_en/parts/holder_cylindrical_fuse_ambus_iec_v1_part3.prj},191 {VTYP=3D},{NB=77228000},{LINA=77228000},{NN=AMBUS60 Holder for cylindrical fuse part},{DATE=26.01.2024 06:39:58},{GEOMDATE=28.12.20
100
AcDbAttributeDefinition
  3

  2
PSOL_0
 70
     9
280
     0
  0
ATTDEF
  5
13B
330
12C
100
AcDbEntity
  8
attrib
100
AcDbText
 10
22.75
 20
13.5
 30
0.0
 40
0.5
  1
22 07:55:00},{VERSION=},{LINEID=380},{WBVAR=},{WBNUMERIC=}  {NB=77228000},{LINA=77228000},{KT=DUMMY},{ARTNR=77228000},{POF=AMBUS®60Classic},{VER=1}
100
AcDbAttributeDefinition
  3

  2
PSOL_1
 70
     9
280
     0
  0
ARC
  5
13C
330
12C
100
AcDbEntity
  8
hidden
100
AcDbCircle
 10
14.5
 20
9.750000000000002
 30
0.0
 40
0.7499999999999982
100
AcDbArc
 50
359.9999999999998
 51
90.00000000000028
  0
ARC
  5
13D
330
12C
100
AcDbEntity
  8
hidden
100
AcDbCircle
 10
14.5
 20
1.250000000000002
 30
0.0
 40
0.7500000000000018
100
AcDbArc
 50
180.0000000000002
 51
359.9999999999998
  0
LINE
  5
13E
330
12C
100
AcDbEntity
  8
hidden
100
AcDbLine
 10
14.5
 20
13.5
 30
0.0
 11
8.0
 21
13.5
 31
0.0
  0
LINE
  5
13F
330
12C
100
AcDbEntity
  8
hidden
100
AcDbLine
 10
8.0
 20
10.5
 30
0.0
 11
14.5
 21
10.5
 31
0.0
  0
ARC
  5
140
330
12C
100
AcDbEntity
  8
hidden
100
AcDbCircle
 10
8.000000000000002
 20
14.25
 30
0.0
 40
0.75
100
AcDbArc
 50
180.0000000000004
 51
269.9999999999999
  0
LINE
  5
141
330
12C
100
AcDbEntity
  8
hidden
100
AcDbLine
 10
6.249999999999999
 20
19.0
 30
0.0
 11
16.25
 21
19.0
 31
0.0
  0
ARC
  5
142
330
12C
100
AcDbEntity
  8
hidden
100
AcDbCircle
 10
14.5
 20
14.25
 30
0.0
 40
0.7500000000000036
100
AcDbArc
 50
270.0
 51
359.9999999999997
  0
ARC
  5
143
330
12C
100
AcDbEntity
  8
hidden
100
AcDbCircle
 10
16.25
 20
17.5
 30
0.0
 40
1.5
100
AcDbArc
 50
0.0000000000001357
 51
90.00000000000016
  0
ARC
  5
144
330
12C
100
AcDbEntity
  8
hidden
100
AcDbCircle
 10
6.249999999999995
 20
17.5
 30
0.0
 40
1.499999999999996
100
AcDbArc
 50
89.99999999999983
 51
180.0000000000002
  0
ARC
  5
145
330
12C
100
AcDbEntity
  8
hidden
100
AcDbCircle
 10
7.999999999999999
 20
9.75
 30
0.0
 40
0.75
100
AcDbArc
 50
89.99999999999991
 51
179.9999999999998
  0
LINE
  5
146
330
12C
100
AcDbEntity
  8
hidden
100
AcDbLine
 10
15.25
 20
9.75
 30
0.0
 11
15.25
 21
1.249999999999999
 31
0.0
  0
ARC
  5
147
330
12C
100
AcDbEntity
  8
hidden
100
AcDbCircle
 10
7.99999999999999
 20
16.75000000000001
 30
0.0
 40
0.7499999999999893
100
AcDbArc
 50
89.99999999999926
 51
180.0000000000006
  0
LINE
  5
148
330
12C
100
AcDbEntity
  8
hidden
100
AcDbLine
 10
7.250000000000002
 20
14.25
 30
0.0
 11
7.249999999999999
 21
16.75
 31
0.0
  0
ARC
  5
149
330
12C
100
AcDbEntity
  8
hidden
100
AcDbCircle
 10
13.0
 20
6.749999999999999
 30
0.0
 40
0.7500000000000018
100
AcDbArc
 50
0.0000000000001357
 51
89.99999999999987
  0
LINE
  5
14A
330
12C
100
AcDbEntity
  8
hidden
100
AcDbLine
 10
13.75
 20
1.25
 30
0.0
 11
13.75
 21
6.750000000000001
 31
0.0
  0
LINE
  5
14B
330
12C
100
AcDbEntity
  8
hidden
100
AcDbLine
 10
7.249999999999999
 20
1.25
 30
0.0
 11
7.249999999999999
 21
9.750000000000002
 31
0.0
  0
ARC
  5
14C
330
12C
100
AcDbEntity
  8
hidden
100
AcDbCircle
 10
7.999999999999998
 20
1.250000000000001
 30
0.0
 40
0.7499999999999991
100
AcDbArc
 50
180.0
 51
359.9999999999999
  0
LINE
  5
14D
330
12C
100
AcDbEntity
  8
hidden
100
AcDbLine
 10
8.749999999999998
 20
6.750000000000001
 30
0.0
 11
8.749999999999998
 21
1.25
 31
0.0
  0
ARC
  5
14E
330
12C
100
AcDbEntity
  8
hidden
100
AcDbCircle
 10
9.499999999999998
 20
6.749999999999999
 30
0.0
 40
0.7500000000000009
100
AcDbArc
 50
89.99999999999987
 51
179.9999999999998
  0
LINE
  5
14F
330
12C
100
AcDbEntity
  8
hidden
100
AcDbLine
 10
13.0
 20
7.5
 30
0.0
 11
9.5
 21
7.5
 31
0.0
  0
LINE
  5
150
330
12C
100
AcDbEntity
  8
hidden
100
AcDbLine
 10
5.75
 20
-4.0
 30
0.0
 11
4.749999999999999
 21
-3.0
 31
0.0
  0
LINE
  5
151
330
12C
100
AcDbEntity
  8
hidden
100
AcDbLine
 10
4.749999999999999
 20
-3.0
 30
0.0
 11
4.749999999999999
 21
0.0
 31
0.0
  0
LINE
  5
152
330
12C
100
AcDbEntity
  8
hidden
100
AcDbLine
 10
16.75
 20
-4.0
 30
0.0
 11
5.75
 21
-4.0
 31
0.0
  0
LINE
  5
153
330
12C
100
AcDbEntity
  8
hidden
100
AcDbLine
 10
15.25
 20
16.75
 30
0.0
 11
15.25
 21
14.25
 31
0.0
  0
ARC
  5
154
330
12C
100
AcDbEntity
  8
hidden
100
AcDbCircle
 10
14.5
 20
16.75
 30
0.0
 40
0.7499999999999982
100
AcDbArc
 50
359.9999999999997
 51
90.0000000000004
  0
LINE
  5
155
330
12C
100
AcDbEntity
  8
hidden
100
AcDbLine
 10
17.75
 20
-2.999999999999999
 30
0.0
 11
16.75
 21
-4.0
 31
0.0
  0
LINE
  5
156
330
12C
100
AcDbEntity
  8
hidden
100
AcDbLine
 10
17.75
 20
-0.0000000000000009
 30
0.0
 11
17.75
 21
-2.999999999999999
 31
0.0
  0
LINE
  5
157
330
12C
100
AcDbEntity
  8
center
100
AcDbLine
 10
7.212499999999999
 20
1.250000000000001
 30
0.0
 11
8.787499999999998
 21
1.250000000000001
 31
0.0
  0
LINE
  5
158
330
12C
100
AcDbEntity
  8
center
100
AcDbLine
 10
7.999999999999998
 20
0.4625000000000014
 30
0.0
 11
7.999999999999998
 21
2.0375
 31
0.0
  0
LINE
  5
159
330
12C
100
AcDbEntity
  8
center
100
AcDbLine
 10
13.7125
 20
1.250000000000002
 30
0.0
 11
15.2875
 21
1.250000000000002
 31
0.0
  0
LINE
  5
15A
330
12C
100
AcDbEntity
  8
center
100
AcDbLine
 10
14.5
 20
0.4625000000000008
 30
0.0
 11
14.5
 21
2.037500000000004
 31
0.0
  0
ENDBLK
  5
12F
330
12C
100
AcDbEntity
  8
0
100
AcDbBlockEnd
  0
BLOCK
  5
15D
330
15B
100
AcDbEntity
  8
0
100
AcDbBlockBegin
  2
4_30414000_0_in_31572_0
 70
     2
 10
0.0
 20
0.0
 30
0.0
  3
4_30414000_0_in_31572_0
  1

  0
ATTDEF
  5
15F
330
15B
100
AcDbEntity
  8
attrib
100
AcDbText
 10
20.25000000000022
 20
-36.0
 30
0.0
 40
0.5
  1
30414000
100
AcDbAttributeDefinition
  3

  2
NB
 70
     8
280
     0
  0
ATTDEF
  5
160
330
15B
100
AcDbEntity
  8
attrib
100
AcDbText
 10
20.25000000000022
 20
-36.5
 30
0.0
 40
0.5
  1
CUSTO60 Part
100
AcDbAttributeDefinition
  3

  2
NN
 70
     8
280
     0
  0
ATTDEF
  5
161
330
15B
100
AcDbEntity
  8
attrib
100
AcDbText
 10
20.25000000000022
 20
-37.0
 30
0.0
 40
0.5
  1

100
AcDbAttributeDefinition
  3

  2
NT
 70
     8
280
     0
  0
ATTDEF
  5
162
330
15B
100
AcDbEntity
  8
attrib
100
AcDbText
 10
20.25000000000022
 20
-37.5
 30
0.0
 40
0.5
  1
$ARTNR.
100
AcDbAttributeDefinition
  3

  2
NBSYN
 70
     8
280
     0
  0
ATTDEF
  5
163
330
15B
100
AcDbEntity
  8
attrib
100
AcDbText
 10
20.25000000000022
 20
-38.0
 30
0.0
 40
0.5
  1
30414000
100
AcDbAttributeDefinition
  3

  2
LINA
 70
     8
280
     0
  0
ATTDEF
  5
164
330
15B
100
AcDbEntity
  8
attrib
100
AcDbText
 10
20.25000000000022
 20
-38.5
 30
0.0
 40
0.5
  1
Wöhner
100
AcDbAttributeDefinition
  3

  2
CATALOG
 70
     8
280
     0
  0
ATTDEF
  5
165
330
15B
100
AcDbEntity
  8
attrib
100
AcDbText
 10
20.25000000000022
 20
-39.0
 30
0.0
 40
0.5
  1
30414000
100
AcDbAttributeDefinition
  3

  2
ARTNR
 70
     8
280
     0
  0
ATTDEF
  5
166
330
15B
100
AcDbEntity
  8
attrib
100
AcDbText
 10
20.25000000000022
 20
-39.5
 30
0.0
 40
0.5
  1
CUSTO®60Classic
100
AcDbAttributeDefinition
  3

  2
POF
 70
     8
280
     0
  0
ATTDEF
  5
167
330
15B
100
AcDbEntity
  8
attrib
100
AcDbText
 10
20.25000000000022
 20
-40.0
 30
0.0
 40
0.5
  1
woehner
100
AcDbAttributeDefinition
  3

  2
COMPANY
 70
     8
280
     0
  0
ATTDEF
  5
168
330
15B
100
AcDbEntity
  8
attrib
100
AcDbText
 10
20.25000000000022
 20
-40.5
 30
0.0
 40
0.5
  1
{$CADENAS_DATA/23d-libs/woehner/sys_60classic/d_fuse_bases/parts/d_fuse_base_custo_part2.prj},163 {VTYP=3D},{NB=30414000},{LINA=30414000},{NN=CUSTO60 Part},{DATE=26.01.2024 06:39:58},{GEOMDATE=08.12.2022 06:03:00},{VERSION=},{LINEID=380},{WBVAR=},{WBNUMER
100
AcDbAttributeDefinition
  3

  2
PSOL_0
 70
     9
280
     0
  0
ATTDEF
  5
169
330
15B
100
AcDbEntity
  8
attrib
100
AcDbText
 10
20.25000000000022
 20
-41.0
 30
0.0
 40
0.5
  1
IC=}  {NB=30414000},{LINA=30414000},{KT=DUMMY},{ARTNR=30414000},{POF=CUSTO®60Classic}
100
AcDbAttributeDefinition
  3

  2
PSOL_1
 70
     9
280
     0
  0
LINE
  5
16A
330
15B
100
AcDbEntity
  8
hidden
100
AcDbLine
 10
14.25
 20
-41.724810008
 30
0.0
 11
14.25
 21
-46.0
 31
0.0
  0
LINE
  5
16B
330
15B
100
AcDbEntity
  8
hidden
100
AcDbLine
 10
14.25
 20
-36.0
 30
0.0
 11
14.25
 21
-40.315689992
 31
0.0
  0
LINE
  5
16C
330
15B
100
AcDbEntity
  8
hidden
100
AcDbLine
 10
8.25
 20
-41.724810008
 30
0.0
 11
8.25
 21
-46.0
 31
0.0
  0
LINE
  5
16D
330
15B
100
AcDbEntity
  8
hidden
100
AcDbLine
 10
8.25
 20
-36.0
 30
0.0
 11
8.25
 21
-40.315689992
 31
0.0
  0
LINE
  5
16E
330
15B
100
AcDbEntity
  8
hidden
100
AcDbLine
 10
9.250000000000002
 20
-36.0
 30
0.0
 11
9.250000000000002
 21
-46.0
 31
0.0
  0
LINE
  5
16F
330
15B
100
AcDbEntity
  8
hidden
100
AcDbLine
 10
7.249999999999999
 20
-36.0
 30
0.0
 11
7.249999999999999
 21
-46.0
 31
0.0
  0
LINE
  5
170
330
15B
100
AcDbEntity
  8
hidden
100
AcDbLine
 10
7.249999999999999
 20
-36.0
 30
0.0
 11
15.25
 21
-36.0
 31
0.0
  0
LINE
  5
171
330
15B
100
AcDbEntity
  8
hidden
100
AcDbLine
 10
7.249999999999999
 20
-46.0
 30
0.0
 11
15.25
 21
-46.0
 31
0.0
  0
LINE
  5
172
330
15B
100
AcDbEntity
  8
hidden
100
AcDbLine
 10
15.25
 20
-36.0
 30
0.0
 11
15.25
 21
-46.0
 31
0.0
  0
LINE
  5
173
330
15B
100
AcDbEntity
  8
hidden
100
AcDbLine
 10
13.25
 20
-36.0
 30
0.0
 11
13.25
 21
-46.0
 31
0.0
  0
CIRCLE
  5
174
330
15B
100
AcDbEntity
  8
hidden
100
AcDbCircle
 10
11.25
 20
-41.0
 30
0.0
 40
2.0
  0
LINE
  5
175
330
15B
100
AcDbEntity
  8
hidden
100
AcDbLine
 10
11.98935
 20
-44.9310763891713
 30
0.0
 11
11.98935
 21
-44.41365819533803
 31
0.0
  0
LINE
  5
176
330
15B
100
AcDbEntity
  8
hidden
100
AcDbLine
 10
11.98935
 20
-37.58656026879837
 30
0.0
 11
11.98935
 21
-37.06892361082871
 31
0.0
  0
LINE
  5
177
330
15B
100
AcDbEntity
  8
hidden
100
AcDbLine
 10
10.51065
 20
-37.06892361082871
 30
0.0
 11
10.51065
 21
-37.58681576471803
 31
0.0
  0
LINE
  5
178
330
15B
100
AcDbEntity
  8
hidden
100
AcDbLine
 10
10.51065
 20
-44.41391730960351
 30
0.0
 11
10.51065
 21
-44.9310763891713
 31
0.0
  0
CIRCLE
  5
179
330
15B
100
AcDbEntity
  8
hidden
100
AcDbCircle
 10
11.25
 20
-41.00000000000023
 30
0.0
 40
4.00000000000022
  0
LINE
  5
17A
330
15B
100
AcDbEntity
  8
bold
100
AcDbLine
 10
11.98935
 20
-41.71579999999999
 30
0.0
 11
14.25
 21
-41.71579999999999
 31
0.0
  0
LINE
  5
17B
330
15B
100
AcDbEntity
  8
bold
100
AcDbLine
 10
11.98935
 20
-44.41365819533803
 30
0.0
 11
11.98935
 21
-41.71579999999999
 31
0.0
  0
LINE
  5
17C
330
15B
100
AcDbEntity
  8
bold
100
AcDbLine
 10
14.25
 20
-40.3247
 30
0.0
 11
11.98935
 21
-40.3247
 31
0.0
  0
LINE
  5
17D
330
15B
100
AcDbEntity
  8
bold
100
AcDbLine
 10
14.25
 20
-41.71579999999999
 30
0.0
 11
14.25
 21
-40.3247
 31
0.0
  0
LINE
  5
17E
330
15B
100
AcDbEntity
  8
bold
100
AcDbLine
 10
11.98935
 20
-40.3247
 30
0.0
 11
11.98935
 21
-37.58656026879837
 31
0.0
  0
ARC
  5
17F
330
15B
100
AcDbEntity
  8
light
100
AcDbCircle
 10
11.24999999999998
 20
-41.00000000000001
 30
0.0
 40
3.000000000000028
100
AcDbArc
 50
13.00875859019876
 51
75.73245957884511
  0
LINE
  5
180
330
15B
100
AcDbEntity
  8
bold
100
AcDbLine
 10
10.51065
 20
-41.71579999999999
 30
0.0
 11
10.51065
 21
-44.41391730960351
 31
0.0
  0
LINE
  5
181
330
15B
100
AcDbEntity
  8
bold
100
AcDbLine
 10
8.25
 20
-41.71579999999999
 30
0.0
 11
10.51065
 21
-41.71579999999999
 31
0.0
  0
LINE
  5
182
330
15B
100
AcDbEntity
  8
bold
100
AcDbLine
 10
10.51065
 20
-40.3247
 30
0.0
 11
8.25
 21
-40.3247
 31
0.0
  0
LINE
  5
183
330
15B
100
AcDbEntity
  8
bold
100
AcDbLine
 10
10.51065
 20
-37.58681576471803
 30
0.0
 11
10.51065
 21
-40.3247
 31
0.0
  0
ARC
  5
184
330
15B
100
AcDbEntity
  8
light
100
AcDbCircle
 10
11.25
 20
-41.00000000000001
 30
0.0
 40
2.999999999999995
100
AcDbArc
 50
284.2675404211546
 51
346.1960740424146
  0
ARC
  5
185
330
15B
100
AcDbEntity
  8
light
100
AcDbCircle
 10
11.25000000000001
 20
-40.99999999999999
 30
0.0
 40
3.000000000000017
100
AcDbArc
 50
193.8039259575857
 51
255.7324595788452
  0
LINE
  5
186
330
15B
100
AcDbEntity
  8
bold
100
AcDbLine
 10
8.25
 20
-40.3247
 30
0.0
 11
8.25
 21
-41.71579999999999
 31
0.0
  0
ARC
  5
187
330
15B
100
AcDbEntity
  8
light
100
AcDbCircle
 10
11.25000000000002
 20
-41.00000000000001
 30
0.0
 40
3.000000000000028
100
AcDbArc
 50
104.2675404211549
 51
166.9912414098013
  0
ENDBLK
  5
15E
330
15B
100
AcDbEntity
  8
0
100
AcDbBlockEnd
  0
BLOCK
  5
18A
330
188
100
AcDbEntity
  8
0
100
AcDbBlockBegin
  2
5_77225000_0_in_31572_0
 70
     2
 10
0.0
 20
0.0
 30
0.0
  3
5_77225000_0_in_31572_0
  1

  0
ATTDEF
  5
18C
330
188
100
AcDbEntity
  8
attrib
100
AcDbText
 10
27.5
 20
20.0
 30
0.0
 40
0.5
  1
77225000
100
AcDbAttributeDefinition
  3

  2
NB
 70
     8
280
     0
  0
ATTDEF
  5
18D
330
188
100
AcDbEntity
  8
attrib
100
AcDbText
 10
27.5
 20
19.5
 30
0.0
 40
0.5
  1
AMBUS60 Holder for cylindrical fuse part
100
AcDbAttributeDefinition
  3

  2
NN
 70
     8
280
     0
  0
ATTDEF
  5
18E
330
188
100
AcDbEntity
  8
attrib
100
AcDbText
 10
27.5
 20
19.0
 30
0.0
 40
0.5
  1

100
AcDbAttributeDefinition
  3

  2
NT
 70
     8
280
     0
  0
ATTDEF
  5
18F
330
188
100
AcDbEntity
  8
attrib
100
AcDbText
 10
27.5
 20
18.5
 30
0.0
 40
0.5
  1
$ARTNR.
100
AcDbAttributeDefinition
  3

  2
NBSYN
 70
     8
280
     0
  0
ATTDEF
  5
190
330
188
100
AcDbEntity
  8
attrib
100
AcDbText
 10
27.5
 20
18.0
 30
0.0
 40
0.5
  1
77225000
100
AcDbAttributeDefinition
  3

  2
LINA
 70
     8
280
     0
  0
ATTDEF
  5
191
330
188
100
AcDbEntity
  8
attrib
100
AcDbText
 10
27.5
 20
17.5
 30
0.0
 40
0.5
  1
Wöhner
100
AcDbAttributeDefinition
  3

  2
CATALOG
 70
     8
280
     0
  0
ATTDEF
  5
192
330
188
100
AcDbEntity
  8
attrib
100
AcDbText
 10
27.5
 20
17.0
 30
0.0
 40
0.5
  1
77225000
100
AcDbAttributeDefinition
  3

  2
ARTNR
 70
     8
280
     0
  0
ATTDEF
  5
193
330
188
100
AcDbEntity
  8
attrib
100
AcDbText
 10
27.5
 20
16.5
 30
0.0
 40
0.5
  1
AMBUS®60Classic
100
AcDbAttributeDefinition
  3

  2
POF
 70
     8
280
     0
  0
ATTDEF
  5
194
330
188
100
AcDbEntity
  8
attrib
100
AcDbText
 10
27.5
 20
16.0
 30
0.0
 40
0.5
  1
2
100
AcDbAttributeDefinition
  3

  2
VER
 70
     8
280
     0
  0
ATTDEF
  5
195
330
188
100
AcDbEntity
  8
attrib
100
AcDbText
 10
27.5
 20
15.5
 30
0.0
 40
0.5
  1
woehner
100
AcDbAttributeDefinition
  3

  2
COMPANY
 70
     8
280
     0
  0
ATTDEF
  5
196
330
188
100
AcDbEntity
  8
attrib
100
AcDbText
 10
27.5
 20
15.0
 30
0.0
 40
0.5
  1
{$CADENAS_DATA/23d-libs/woehner/sys_60classic/fuse_holders_iec_en/parts/holder_cylindrical_fuse_ambus_iec_v1_part1.prj},204 {VTYP=3D},{NB=77225000},{LINA=77225000},{NN=AMBUS60 Holder for cylindrical fuse part},{DATE=26.01.2024 07:04:31},{GEOMDATE=26.09.20
100
AcDbAttributeDefinition
  3

  2
PSOL_0
 70
     9
280
     0
  0
ATTDEF
  5
197
330
188
100
AcDbEntity
  8
attrib
100
AcDbText
 10
27.5
 20
14.5
 30
0.0
 40
0.5
  1
23 11:54:00},{VERSION=v231002115156},{LINEID=920},{WBVAR=},{WBNUMERIC=}  {NB=77225000},{LINA=77225000},{KT=DUMMY},{ARTNR=77225000},{POF=AMBUS®60Classic},{VER=2}
100
AcDbAttributeDefinition
  3

  2
PSOL_1
 70
     9
280
     0
  0
LINE
  5
198
330
188
100
AcDbEntity
  8
hidden
100
AcDbLine
 10
15.25
 20
12.0
 30
0.0
 11
13.25
 21
14.0
 31
0.0
  0
LINE
  5
199
330
188
100
AcDbEntity
  8
hidden
100
AcDbLine
 10
13.25
 20
14.0
 30
0.0
 11
13.25
 21
17.5
 31
0.0
  0
LINE
  5
19A
330
188
100
AcDbEntity
  8
hidden
100
AcDbLine
 10
15.25
 20
9.75
 30
0.0
 11
15.25
 21
12.0
 31
0.0
  0
LINE
  5
19B
330
188
100
AcDbEntity
  8
hidden
100
AcDbLine
 10
15.25
 20
0.0
 30
0.0
 11
15.25
 21
1.249999999999999
 31
0.0
  0
LINE
  5
19C
330
188
100
AcDbEntity
  8
hidden
100
AcDbLine
 10
7.249999999999999
 20
-42.0
 30
0.0
 11
9.25
 21
-44.00000000000001
 31
0.0
  0
LINE
  5
19D
330
188
100
AcDbEntity
  8
hidden
100
AcDbLine
 10
9.25
 20
-46.0
 30
0.0
 11
9.25
 21
-47.5
 31
0.0
  0
LINE
  5
19E
330
188
100
AcDbEntity
  8
hidden
100
AcDbLine
 10
7.249999999999999
 20
-25.25
 30
0.0
 11
7.249999999999999
 21
-31.25
 31
0.0
  0
LINE
  5
19F
330
188
100
AcDbEntity
  8
hidden
100
AcDbLine
 10
7.249999999999999
 20
-20.0
 30
0.0
 11
7.249999999999999
 21
-20.75
 31
0.0
  0
LINE
  5
1A0
330
188
100
AcDbEntity
  8
hidden
100
AcDbLine
 10
9.25
 20
14.0
 30
0.0
 11
7.249999999999999
 21
12.0
 31
0.0
  0
LINE
  5
1A1
330
188
100
AcDbEntity
  8
hidden
100
AcDbLine
 10
7.249999999999999
 20
1.25
 30
0.0
 11
7.249999999999999
 21
0.0
 31
0.0
  0
LINE
  5
1A2
330
188
100
AcDbEntity
  8
hidden
100
AcDbLine
 10
7.249999999999999
 20
12.0
 30
0.0
 11
7.249999999999999
 21
9.750000000000002
 31
0.0
  0
LINE
  5
1A3
330
188
100
AcDbEntity
  8
hidden
100
AcDbLine
 10
9.25
 20
17.5
 30
0.0
 11
9.25
 21
14.0
 31
0.0
  0
LINE
  5
1A4
330
188
100
AcDbEntity
  8
hidden
100
AcDbLine
 10
13.25
 20
-47.5
 30
0.0
 11
13.25
 21
-46.0
 31
0.0
  0
LINE
  5
1A5
330
188
100
AcDbEntity
  8
hidden
100
AcDbLine
 10
15.25
 20
-20.75
 30
0.0
 11
15.25
 21
-20.0
 31
0.0
  0
LINE
  5
1A6
330
188
100
AcDbEntity
  8
hidden
100
AcDbLine
 10
15.25
 20
-31.25
 30
0.0
 11
15.25
 21
-25.25
 31
0.0
  0
LINE
  5
1A7
330
188
100
AcDbEntity
  8
hidden
100
AcDbLine
 10
13.25
 20
-44.00000000000001
 30
0.0
 11
15.25
 21
-42.0
 31
0.0
  0
LINE
  5
1A8
330
188
100
AcDbEntity
  8
hidden
100
AcDbLine
 10
4.749999999999999
 20
-20.0
 30
0.0
 11
4.749999999999999
 21
-47.5
 31
0.0
  0
LINE
  5
1A9
330
188
100
AcDbEntity
  8
hidden
100
AcDbLine
 10
4.749999999999999
 20
17.5
 30
0.0
 11
4.749999999999999
 21
0.0
 31
0.0
  0
LINE
  5
1AA
330
188
100
AcDbEntity
  8
hidden
100
AcDbLine
 10
17.75
 20
17.5
 30
0.0
 11
17.75
 21
0.0
 31
0.0
  0
LINE
  5
1AB
330
188
100
AcDbEntity
  8
hidden
100
AcDbLine
 10
17.75
 20
-20.0
 30
0.0
 11
17.75
 21
-47.5
 31
0.0
  0
LINE
  5
1AC
330
188
100
AcDbEntity
  8
hidden
100
AcDbLine
 10
3.25
 20
17.5
 30
0.0
 11
19.25
 21
17.5
 31
0.0
  0
LINE
  5
1AD
330
188
100
AcDbEntity
  8
hidden
100
AcDbLine
 10
3.25
 20
-47.5
 30
0.0
 11
19.25
 21
-47.5
 31
0.0
  0
LINE
  5
1AE
330
188
100
AcDbEntity
  8
hidden
100
AcDbLine
 10
0.0
 20
-20.0
 30
0.0
 11
22.5
 21
-20.0
 31
0.0
  0
LINE
  5
1AF
330
188
100
AcDbEntity
  8
hidden
100
AcDbLine
 10
0.0
 20
0.0
 30
0.0
 11
22.5
 21
0.0
 31
0.0
  0
LINE
  5
1B0
330
188
100
AcDbEntity
  8
hidden
100
AcDbLine
 10
19.25
 20
-50.0
 30
0.0
 11
19.25
 21
-47.5
 31
0.0
  0
LINE
  5
1B1
330
188
100
AcDbEntity
  8
hidden
100
AcDbLine
 10
3.25
 20
-50.0
 30
0.0
 11
3.25
 21
-47.5
 31
0.0
  0
LINE
  5
1B2
330
188
100
AcDbEntity
  8
hidden
100
AcDbLine
 10
19.25
 20
17.5
 30
0.0
 11
19.25
 21
20.0
 31
0.0
  0
LINE
  5
1B3
330
188
100
AcDbEntity
  8
hidden
100
AcDbLine
 10
3.25
 20
17.5
 30
0.0
 11
3.25
 21
20.0
 31
0.0
  0
LINE
  5
1B4
330
188
100
AcDbEntity
  8
hidden
100
AcDbLine
 10
11.25
 20
-35.0
 30
0.0
 11
11.25
 21
-50.0
 31
0.0
  0
LINE
  5
1B5
330
188
100
AcDbEntity
  8
hidden
100
AcDbLine
 10
15.25
 20
-46.0
 30
0.0
 11
15.25
 21
-50.0
 31
0.0
  0
LINE
  5
1B6
330
188
100
AcDbEntity
  8
hidden
100
AcDbLine
 10
15.25
 20
-35.0
 30
0.0
 11
15.25
 21
-36.0
 31
0.0
  0
LINE
  5
1B7
330
188
100
AcDbEntity
  8
hidden
100
AcDbLine
 10
7.249999999999999
 20
-46.0
 30
0.0
 11
7.249999999999999
 21
-50.0
 31
0.0
  0
LINE
  5
1B8
330
188
100
AcDbEntity
  8
hidden
100
AcDbLine
 10
7.249999999999999
 20
-35.0
 30
0.0
 11
7.25
 21
-36.0
 31
0.0
  0
LINE
  5
1B9
330
188
100
AcDbEntity
  8
hidden
100
AcDbLine
 10
7.249999999999999
 20
-35.0
 30
0.0
 11
15.25
 21
-35.0
 31
0.0
  0
LINE
  5
1BA
330
188
100
AcDbEntity
  8
hidden
100
AcDbLine
 10
3.75
 20
-20.328
 30
0.0
 11
18.75
 21
-20.328
 31
0.0
  0
LINE
  5
1BB
330
188
100
AcDbEntity
  8
hidden
100
AcDbLine
 10
18.75
 20
-14.328
 30
0.0
 11
3.75
 21
-14.328
 31
0.0
  0
LINE
  5
1BC
330
188
100
AcDbEntity
  8
hidden
100
AcDbLine
 10
18.75
 20
-11.46439243530436
 30
0.0
 11
18.75
 21
11.0
 31
0.0
  0
LINE
  5
1BD
330
188
100
AcDbEntity
  8
hidden
100
AcDbLine
 10
2.749999999999999
 20
-2.000000000000002
 30
0.0
 11
3.75
 21
-2.000000000000002
 31
0.0
  0
LINE
  5
1BE
330
188
100
AcDbEntity
  8
hidden
100
AcDbLine
 10
3.75
 20
11.0
 30
0.0
 11
3.75
 21
-11.46439243530436
 31
0.0
  0
LINE
  5
1BF
330
188
100
AcDbEntity
  8
hidden
100
AcDbLine
 10
18.75
 20
11.0
 30
0.0
 11
3.75
 21
11.0
 31
0.0
  0
LINE
  5
1C0
330
188
100
AcDbEntity
  8
hidden
100
AcDbLine
 10
2.749999999999999
 20
9.999999999999988
 30
0.0
 11
3.75
 21
9.999999999999988
 31
0.0
  0
LINE
  5
1C1
330
188
100
AcDbEntity
  8
hidden
100
AcDbLine
 10
18.75
 20
-2.000000000000002
 30
0.0
 11
19.75
 21
-2.000000000000002
 31
0.0
  0
LINE
  5
1C2
330
188
100
AcDbEntity
  8
hidden
100
AcDbLine
 10
18.75
 20
9.999999999999988
 30
0.0
 11
19.75
 21
9.999999999999988
 31
0.0
  0
LINE
  5
1C3
330
188
100
AcDbEntity
  8
center
100
AcDbLine
 10
7.575
 20
-41.0
 30
0.0
 11
14.925
 21
-41.0
 31
0.0
  0
LINE
  5
1C4
330
188
100
AcDbEntity
  8
center
100
AcDbLine
 10
11.25
 20
-44.675
 30
0.0
 11
11.25
 21
-37.325
 31
0.0
  0
LINE
  5
1C5
330
188
100
AcDbEntity
  8
bold
100
AcDbLine
 10
20.24999999999999
 20
2.999999999999996
 30
0.0
 11
22.5
 21
2.999999999999996
 31
0.0
  0
LINE
  5
1C6
330
188
100
AcDbEntity
  8
bold
100
AcDbLine
 10
0.0
 20
2.999999999999996
 30
0.0
 11
2.249999999999999
 21
2.999999999999996
 31
0.0
  0
LINE
  5
1C7
330
188
100
AcDbEntity
  8
bold
100
AcDbLine
 10
22.5
 20
-23.0
 30
0.0
 11
22.5
 21
2.999999999999996
 31
0.0
  0
LINE
  5
1C8
330
188
100
AcDbEntity
  8
bold
100
AcDbLine
 10
20.25
 20
-23.0
 30
0.0
 11
22.5
 21
-23.0
 31
0.0
  0
LINE
  5
1C9
330
188
100
AcDbEntity
  8
bold
100
AcDbLine
 10
0.0
 20
-23.0
 30
0.0
 11
0.0
 21
2.999999999999996
 31
0.0
  0
LINE
  5
1CA
330
188
100
AcDbEntity
  8
bold
100
AcDbLine
 10
0.0
 20
-23.0
 30
0.0
 11
2.249999999999999
 21
-23.0
 31
0.0
  0
LINE
  5
1CB
330
188
100
AcDbEntity
  8
bold
100
AcDbLine
 10
0.0
 20
1.500000000000001
 30
0.0
 11
2.249999999999999
 21
1.500000000000001
 31
0.0
  0
LINE
  5
1CC
330
188
100
AcDbEntity
  8
bold
100
AcDbLine
 10
20.25
 20
1.500000000000001
 30
0.0
 11
22.5
 21
1.500000000000001
 31
0.0
  0
LINE
  5
1CD
330
188
100
AcDbEntity
  8
bold
100
AcDbLine
 10
0.0
 20
-21.5
 30
0.0
 11
2.249999999999999
 21
-21.5
 31
0.0
  0
LINE
  5
1CE
330
188
100
AcDbEntity
  8
bold
100
AcDbLine
 10
20.25
 20
-21.5
 30
0.0
 11
22.5
 21
-21.5
 31
0.0
  0
LINE
  5
1CF
330
188
100
AcDbEntity
  8
light
100
AcDbLine
 10
0.0
 20
-0.5000000000000004
 30
0.0
 11
2.249999999999999
 21
-0.5000000000000004
 31
0.0
  0
LINE
  5
1D0
330
188
100
AcDbEntity
  8
light
100
AcDbLine
 10
0.0
 20
-19.5
 30
0.0
 11
2.249999999999999
 21
-19.5
 31
0.0
  0
LINE
  5
1D1
330
188
100
AcDbEntity
  8
light
100
AcDbLine
 10
20.25
 20
-0.5000000000000073
 30
0.0
 11
22.5
 21
-0.5000000000000004
 31
0.0
  0
LINE
  5
1D2
330
188
100
AcDbEntity
  8
light
100
AcDbLine
 10
20.25
 20
-19.5
 30
0.0
 11
22.5
 21
-19.5
 31
0.0
  0
LINE
  5
1D3
330
188
100
AcDbEntity
  8
bold
100
AcDbLine
 10
2.249999999999999
 20
-50.0
 30
0.0
 11
20.25
 21
-50.0
 31
0.0
  0
LINE
  5
1D4
330
188
100
AcDbEntity
  8
bold
100
AcDbLine
 10
2.249999999999999
 20
-50.0
 30
0.0
 11
2.249999999999999
 21
20.0
 31
0.0
  0
LINE
  5
1D5
330
188
100
AcDbEntity
  8
bold
100
AcDbLine
 10
20.25
 20
-50.0
 30
0.0
 11
20.25
 21
20.0
 31
0.0
  0
LINE
  5
1D6
330
188
100
AcDbEntity
  8
bold
100
AcDbLine
 10
2.249999999999999
 20
20.0
 30
0.0
 11
20.25
 21
20.0
 31
0.0
  0
LINE
  5
1D7
330
188
100
AcDbEntity
  8
light
100
AcDbLine
 10
2.249999999999999
 20
18.0
 30
0.0
 11
20.25
 21
18.0
 31
0.0
  0
CIRCLE
  5
1D8
330
188
100
AcDbEntity
  8
bold
100
AcDbCircle
 10
11.25
 20
-41.0
 30
0.0
 40
3.5
  0
LINE
  5
1D9
330
188
100
AcDbEntity
  8
light
100
AcDbLine
 10
2.249999999999999
 20
-48.0
 30
0.0
 11
20.25
 21
-48.0
 31
0.0
  0
LINE
  5
1DA
330
188
100
AcDbEntity
  8
bold
100
AcDbLine
 10
3.75
 20
-28.0
 30
0.0
 11
18.75
 21
-28.0
 31
0.0
  0
LINE
  5
1DB
330
188
100
AcDbEntity
  8
bold
100
AcDbLine
 10
2.249999999999999
 20
-32.0
 30
0.0
 11
20.25
 21
-32.0
 31
0.0
  0
LINE
  5
1DC
330
188
100
AcDbEntity
  8
bold
100
AcDbLine
 10
18.75
 20
-28.0
 30
0.0
 11
18.75
 21
-11.46439243530436
 31
0.0
  0
LINE
  5
1DD
330
188
100
AcDbEntity
  8
bold
100
AcDbLine
 10
2.249999999999999
 20
-23.32800000000001
 30
0.0
 11
3.75
 21
-23.32800000000001
 31
0.0
  0
LINE
  5
1DE
330
188
100
AcDbEntity
  8
bold
100
AcDbLine
 10
3.75
 20
-11.46439243530436
 30
0.0
 11
3.75
 21
-28.0
 31
0.0
  0
LINE
  5
1DF
330
188
100
AcDbEntity
  8
bold
100
AcDbLine
 10
2.249999999999999
 20
-15.52524844136668
 30
0.0
 11
3.75
 21
-15.52524844136668
 31
0.0
  0
LINE
  5
1E0
330
188
100
AcDbEntity
  8
bold
100
AcDbLine
 10
18.75
 20
-23.32800000000001
 30
0.0
 11
20.25
 21
-23.32800000000001
 31
0.0
  0
LINE
  5
1E1
330
188
100
AcDbEntity
  8
bold
100
AcDbLine
 10
18.75
 20
-15.52524844136668
 30
0.0
 11
20.25
 21
-15.52524844136668
 31
0.0
  0
LINE
  5
1E2
330
188
100
AcDbEntity
  8
bold
100
AcDbLine
 10
2.249999999999999
 20
-2.000000000000002
 30
0.0
 11
2.749999999999999
 21
-2.000000000000002
 31
0.0
  0
LINE
  5
1E3
330
188
100
AcDbEntity
  8
bold
100
AcDbLine
 10
2.249999999999999
 20
13.0
 30
0.0
 11
20.25
 21
13.0
 31
0.0
  0
LINE
  5
1E4
330
188
100
AcDbEntity
  8
bold
100
AcDbLine
 10
2.249999999999999
 20
9.999999999999988
 30
0.0
 11
2.749999999999999
 21
9.999999999999988
 31
0.0
  0
LINE
  5
1E5
330
188
100
AcDbEntity
  8
bold
100
AcDbLine
 10
19.75
 20
-2.000000000000002
 30
0.0
 11
20.25
 21
-2.000000000000002
 31
0.0
  0
LINE
  5
1E6
330
188
100
AcDbEntity
  8
bold
100
AcDbLine
 10
19.75
 20
9.999999999999988
 30
0.0
 11
20.25
 21
9.999999999999988
 31
0.0
  0
ENDBLK
  5
18B
330
188
100
AcDbEntity
  8
0
100
AcDbBlockEnd
  0
BLOCK
  5
1EB
330
1EA
100
AcDbEntity
  8
0
100
AcDbBlockBegin
  2
*D6
 70
     1
 10
0.0
 20
0.0
 30
0.0
  3
*D6
  1

  0
LINE
  5
1ED
330
1EA
100
AcDbEntity
  8
dimension
 62
     0
370
    -2
100
AcDbLine
 10
0.0
 20
3.0
 30
0.0
 11
0.0
 21
38.33333333333334
 31
0.0
  0
LINE
  5
1EE
330
1EA
100
AcDbEntity
  8
dimension
 62
     0
370
    -2
100
AcDbLine
 10
22.5
 20
3.0
 30
0.0
 11
22.5
 21
38.33333333333334
 31
0.0
  0
LINE
  5
1EF
330
1EA
100
AcDbEntity
  8
dimension
 62
     0
370
    -2
100
AcDbLine
 10
3.666666666666667
 20
38.33333333333334
 30
0.0
 11
18.83333333333333
 21
38.33333333333334
 31
0.0
  0
SOLID
  5
1F0
330
1EA
100
AcDbEntity
  8
dimension
 62
     0
100
AcDbTrace
 10
3.666666666666667
 20
38.94444444444445
 30
0.0
 11
3.666666666666667
 21
37.72222222222222
 31
0.0
 12
0.0
 22
38.33333333333334
 32
0.0
 13
0.0
 23
38.33333333333334
 33
0.0
  0
SOLID
  5
1F1
330
1EA
100
AcDbEntity
  8
dimension
 62
     0
100
AcDbTrace
 10
18.83333333333333
 20
37.72222222222222
 30
0.0
 11
18.83333333333333
 21
38.94444444444445
 31
0.0
 12
22.5
 22
38.33333333333334
 32
0.0
 13
22.5
 23
38.33333333333334
 33
0.0
  0
MTEXT
  5
1F2
330
1EA
100
AcDbEntity
  8
dimension
 62
     0
100
AcDbMText
 10
11.25
 20
41.26666666666667
 30
0.0
 40
3.666666666666667
 41
0.0
 46
0.0
 71
     5
 72
     1
  1
22.5
 73
     1
 44
1.0
  0
POINT
  5
1F3
330
1EA
100
AcDbEntity
  8
Defpoints
 62
     0
100
AcDbPoint
 10
0.0
 20
3.0
 30
0.0
  0
POINT
  5
1F4
330
1EA
100
AcDbEntity
  8
Defpoints
 62
     0
100
AcDbPoint
 10
22.5
 20
3.0
 30
0.0
  0
POINT
  5
1F5
330
1EA
100
AcDbEntity
  8
Defpoints
 62
     0
100
AcDbPoint
 10
22.5
 20
38.33333333333334
 30
0.0
  0
ENDBLK
  5
1EC
330
1EA
100
AcDbEntity
  8
0
100
AcDbBlockEnd
  0
BLOCK
  5
1F8
330
1F7
100
AcDbEntity
  8
0
100
AcDbBlockBegin
  2
*D7
 70
     1
 10
0.0
 20
0.0
 30
0.0
  3
*D7
  1

  0
LINE
  5
1FA
330
1F7
100
AcDbEntity
  8
dimension
 62
     0
370
    -2
100
AcDbLine
 10
20.25
 20
-50.0
 30
0.0
 11
20.25
 21
-68.33333333333333
 31
0.0
  0
LINE
  5
1FB
330
1F7
100
AcDbEntity
  8
dimension
 62
     0
370
    -2
100
AcDbLine
 10
2.25
 20
-50.0
 30
0.0
 11
2.25
 21
-68.33333333333333
 31
0.0
  0
LINE
  5
1FC
330
1F7
100
AcDbEntity
  8
dimension
 62
     0
370
    -2
100
AcDbLine
 10
16.58333333333333
 20
-68.33333333333333
 30
0.0
 11
5.916666666666666
 21
-68.33333333333333
 31
0.0
  0
SOLID
  5
1FD
330
1F7
100
AcDbEntity
  8
dimension
 62
     0
100
AcDbTrace
 10
16.58333333333333
 20
-68.94444444444444
 30
0.0
 11
16.58333333333333
 21
-67.72222222222221
 31
0.0
 12
20.25
 22
-68.33333333333333
 32
0.0
 13
20.25
 23
-68.33333333333333
 33
0.0
  0
SOLID
  5
1FE
330
1F7
100
AcDbEntity
  8
dimension
 62
     0
100
AcDbTrace
 10
5.916666666666666
 20
-67.72222222222221
 30
0.0
 11
5.916666666666666
 21
-68.94444444444444
 31
0.0
 12
2.25
 22
-68.33333333333333
 32
0.0
 13
2.25
 23
-68.33333333333333
 33
0.0
  0
MTEXT
  5
1FF
330
1F7
100
AcDbEntity
  8
dimension
 62
     0
100
AcDbMText
 10
11.25
 20
-65.4
 30
0.0
 40
3.666666666666667
 41
0.0
 46
0.0
 71
     5
 72
     1
  1
18
 73
     1
 44
1.0
  0
POINT
  5
200
330
1F7
100
AcDbEntity
  8
Defpoints
 62
     0
100
AcDbPoint
 10
20.25
 20
-50.0
 30
0.0
  0
POINT
  5
201
330
1F7
100
AcDbEntity
  8
Defpoints
 62
     0
100
AcDbPoint
 10
2.25
 20
-50.0
 30
0.0
  0
POINT
  5
202
330
1F7
100
AcDbEntity
  8
Defpoints
 62
     0
100
AcDbPoint
 10
2.25
 20
-68.33333333333333
 30
0.0
  0
ENDBLK
  5
1F9
330
1F7
100
AcDbEntity
  8
0
100
AcDbBlockEnd
  0
ENDSEC
  0
SECTION
  2
ENTITIES
  0
ATTDEF
  5
5F
330
1F
100
AcDbEntity
  8
attrib
100
AcDbText
 10
27.5
 20
20.0
 30
0.0
 40
0.5
  1
31572
100
AcDbAttributeDefinition
  3

  2
NB
 70
     8
280
     0
  0
ATTDEF
  5
60
330
1F
100
AcDbEntity
  8
attrib
100
AcDbText
 10
27.5
 20
19.5
 30
0.0
 40
0.5
  1
Fuse holders for cylindrical fuses 10x38 acc. to IEC
100
AcDbAttributeDefinition
  3

  2
NN
 70
     8
280
     0
  0
ATTDEF
  5
61
330
1F
100
AcDbEntity
  8
attrib
100
AcDbText
 10
27.5
 20
19.0
 30
0.0
 40
0.5
  1

100
AcDbAttributeDefinition
  3

  2
NT
 70
     8
280
     0
  0
ATTDEF
  5
62
330
1F
100
AcDbEntity
  8
attrib
100
AcDbText
 10
27.5
 20
18.5
 30
0.0
 40
0.5
  1
$ARTNR.
100
AcDbAttributeDefinition
  3

  2
NBSYN
 70
     8
280
     0
  0
ATTDEF
  5
63
330
1F
100
AcDbEntity
  8
attrib
100
AcDbText
 10
27.5
 20
18.0
 30
0.0
 40
0.5
  1
31572000AB
100
AcDbAttributeDefinition
  3

  2
LINA
 70
     8
280
     0
  0
ATTDEF
  5
64
330
1F
100
AcDbEntity
  8
attrib
100
AcDbText
 10
27.5
 20
17.5
 30
0.0
 40
0.5
  1
Wöhner
100
AcDbAttributeDefinition
  3

  2
CATALOG
 70
     8
280
     0
  0
ATTDEF
  5
65
330
1F
100
AcDbEntity
  8
attrib
100
AcDbText
 10
27.5
 20
17.0
 30
0.0
 40
0.5
  1
31572
100
AcDbAttributeDefinition
  3

  2
ARTNR
 70
     8
280
     0
  0
ATTDEF
  5
66
330
1F
100
AcDbEntity
  8
attrib
100
AcDbText
 10
27.5
 20
16.5
 30
0.0
 40
0.5
  1
20 x 5, 10
100
AcDbAttributeDefinition
  3

  2
BUSB
 70
     8
280
     0
  0
ATTDEF
  5
67
330
1F
100
AcDbEntity
  8
attrib
100
AcDbText
 10
27.5
 20
16.0
 30
0.0
 40
0.5
  1
AMBUS®60Classic
100
AcDbAttributeDefinition
  3

  2
POF
 70
     8
280
     0
  0
ATTDEF
  5
68
330
1F
100
AcDbEntity
  8
attrib
100
AcDbText
 10
27.5
 20
15.5
 30
0.0
 40
0.5
  1
AEL10x38/PV-20
100
AcDbAttributeDefinition
  3

  2
TYPE
 70
     8
280
     0
  0
ATTDEF
  5
69
330
1F
100
AcDbEntity
  8
attrib
100
AcDbText
 10
27.5
 20
15.0
 30
0.0
 40
0.5
  1
12
100
AcDbAttributeDefinition
  3

  2
QNT
 70
     8
280
     0
  0
ATTDEF
  5
6A
330
1F
100
AcDbEntity
  8
attrib
100
AcDbText
 10
27.5
 20
14.5
 30
0.0
 40
0.5
  1
22.5
100
AcDbAttributeDefinition
  3

  2
W
 70
     8
280
     0
  0
ATTDEF
  5
6B
330
1F
100
AcDbEntity
  8
attrib
100
AcDbText
 10
27.5
 20
14.0
 30
0.0
 40
0.5
  1
70
100
AcDbAttributeDefinition
  3

  2
H
 70
     8
280
     0
  0
ATTDEF
  5
6C
330
1F
100
AcDbEntity
  8
attrib
100
AcDbText
 10
27.5
 20
13.5
 30
0.0
 40
0.5
  1
73
100
AcDbAttributeDefinition
  3

  2
D
 70
     8
280
     0
  0
ATTDEF
  5
6D
330
1F
100
AcDbEntity
  8
attrib
100
AcDbText
 10
27.5
 20
13.0
 30
0.0
 40
0.5
  1
Product link
100
AcDbAttributeDefinition
  3

  2
LINK
 70
     8
280
     0
  0
ATTDEF
  5
6E
330
1F
100
AcDbEntity
  8
attrib
100
AcDbText
 10
27.5
 20
12.5
 30
0.0
 40
0.5
  1
woehner
100
AcDbAttributeDefinition
  3

  2
COMPANY
 70
     8
280
     0
  0
ATTDEF
  5
6F
330
1F
100
AcDbEntity
  8
attrib
100
AcDbText
 10
27.5
 20
12.0
 30
0.0
 40
0.5
  1
{$CADENAS_DATA/23d-libs/woehner/sys_60classic/fuse_holders_iec_en/holder_cylindrical_fuse_ambus_iec_asmtab.prj},220 {VTYP=3D},{STYP=ASSTAB},{NB=31572},{LINA=31572000AB},{NN=Halter für zyl. Sicherungen 10x38 nach IEC},{DATE=26.01.2024 06:39:58},{GEOMDATE=0
100
AcDbAttributeDefinition
  3

  2
PSOL_0
 70
     9
280
     0
  0
ATTDEF
  5
70
330
1F
100
AcDbEntity
  8
attrib
100
AcDbText
 10
27.5
 20
11.5
 30
0.0
 40
0.5
  1
2.10.2023 12:35:06},{VERSION=v231002115156},{LINEID=1050},{WBVAR=},{WBNUMERIC=}  {NB=31572},{LINA=31572000AB},{KT=DUMMY},{BOM=31572000AB},{ARTNR=31572},{BUSB=20 x 5, 10},{BE=busbar mounted fuse holder 1000 V},{POF=AMBUS®60Classic},{TYPE=AEL10x38/PV-20},{Q
100
AcDbAttributeDefinition
  3

  2
PSOL_1
 70
     9
280
     0
  0
ATTDEF
  5
71
330
1F
100
AcDbEntity
  8
attrib
100
AcDbText
 10
27.5
 20
11.0
 30
0.0
 40
0.5
  1
NT=12},{W=22.5},{H=70},{D=73},{CONCA=Frame clamp},{BUSIN=},{IPR=},{IPRF=},{SEARCH=},{EDZ=},{IODD=},{DIST=5.5},{LINK=Product link},{LINKX=https://www.woehner.de/de/produkte/31572.html},{VER=1},{VER2=1},{PPATH=parts/holder_cylindrical_fuse_ambus_iec_asmtpl.
100
AcDbAttributeDefinition
  3

  2
PSOL_2
 70
     9
280
     0
  0
ATTDEF
  5
72
330
1F
100
AcDbEntity
  8
attrib
100
AcDbText
 10
27.5
 20
10.5
 30
0.0
 40
0.5
  1
prj},{AAO677=Wöhner},{MANUFACTURER_URL=www.woehner.de},{AAQ326=www.woehner.de/de/produkte/31572.html },{AAO676=31572},{TC=AEL10x38/PV-20},{EAN=4021267315726},{CTN=85361050},{AAU731=AMBUS®60Classic},{DESCRIPTION_LONG=busbar mounted fuse holder 1000 V, for 
100
AcDbAttributeDefinition
  3

  2
PSOL_3
 70
     9
280
     0
  0
ATTDEF
  5
73
330
1F
100
AcDbEntity
  8
attrib
100
AcDbText
 10
27.5
 20
10.0
 30
0.0
 40
0.5
  1
fuses 10x38 IEC 60269-6, 1-pole, for busbars 20 x 5/10 },{DESCRIPTION_SHORT=busbar mounted fuse holder 1000 V},{AAT080=},{BAH005=}
100
AcDbAttributeDefinition
  3

  2
PSOL_4
 70
     9
280
     0
  0
INSERT
  5
75
330
1F
100
AcDbEntity
  8
0
100
AcDbBlockReference
  2
1_79602000_0_in_31572_0
 10
0.0
 20
0.0
 30
0.0
  0
INSERT
  5
F2
330
1F
100
AcDbEntity
  8
0
100
AcDbBlockReference
  2
2_77229000_0_in_31572_0
 10
0.0
 20
0.0
 30
0.0
  0
INSERT
  5
12D
330
1F
100
AcDbEntity
  8
0
100
AcDbBlockReference
  2
3_77228000_0_in_31572_0
 10
0.0
 20
0.0
 30
0.0
  0
INSERT
  5
15C
330
1F
100
AcDbEntity
  8
0
100
AcDbBlockReference
  2
4_30414000_0_in_31572_0
 10
0.0
 20
0.0
 30
0.0
  0
INSERT
  5
189
330
1F
100
AcDbEntity
  8
0
100
AcDbBlockReference
  2
5_77225000_0_in_31572_0
 10
0.0
 20
0.0
 30
0.0
  0
DIMENSION
  5
1E8
330
1F
100
AcDbEntity
  8
dimension
100
AcDbDimension
280
     0
  2
*D6
 10
22.5
 20
38.33333333333334
 30
0.0
 11
11.25
 21
38.33333333333334
 31
0.0
 70
   160
  1
22.5
 71
     5
 42
22.5
 73
     0
 74
     0
 75
     0
  3
ISO-25
100
AcDbAlignedDimension
 13
0.0
 23
3.0
 33
0.0
 14
22.5
 24
3.0
 34
0.0
100
AcDbRotatedDimension
1001
ACAD
1000
DSTYLE
1002
{
1070
   147
1040
1.1
1070
    42
1040
0.0
1070
    44
1040
0.0
1070
    41
1040
3.666666666666667
1070
   140
1040
3.666666666666667
1002
}
  0
DIMENSION
  5
1F6
330
1F
100
AcDbEntity
  8
dimension
100
AcDbDimension
280
     0
  2
*D7
 10
2.25
 20
-68.33333333333333
 30
0.0
 11
11.25
 21
-68.33333333333333
 31
0.0
 70
   160
  1
18
 71
     5
 42
18.0
 73
     0
 74
     0
 75
     0
  3
ISO-25
100
AcDbAlignedDimension
 13
20.25
 23
-50.0
 33
0.0
 14
2.25
 24
-50.0
 34
0.0
100
AcDbRotatedDimension
1001
ACAD
1000
DSTYLE
1002
{
1070
   147
1040
1.1
1070
    42
1040
0.0
1070
    44
1040
0.0
1070
    41
1040
3.666666666666667
1070
   140
1040
3.666666666666667
1002
}
  0
POINT
  5
204
330
1F
100
AcDbEntity
  8
connection
100
AcDbPoint
 10
11.25
 20
-16.0
 30
0.0
  0
POINT
  5
205
330
1F
100
AcDbEntity
  8
connection
100
AcDbPoint
 10
11.25
 20
-4.0
 30
0.0
  0
POINT
  5
206
330
1F
100
AcDbEntity
  8
connection
100
AcDbPoint
 10
11.25
 20
-46.0
 30
0.0
  0
POINT
  5
207
330
1F
100
AcDbEntity
  8
connection
100
AcDbPoint
 10
11.25
 20
-15.0
 30
0.0
  0
POINT
  5
208
330
1F
100
AcDbEntity
  8
connection
100
AcDbPoint
 10
11.25
 20
-40.0
 30
0.0
  0
POINT
  5
209
330
1F
100
AcDbEntity
  8
connection
100
AcDbPoint
 10
0.0
 20
0.0
 30
0.0
  0
POINT
  5
20A
330
1F
100
AcDbEntity
  8
connection
100
AcDbPoint
 10
0.0
 20
-15.0
 30
0.0
  0
POINT
  5
20B
330
1F
100
AcDbEntity
  8
connection
100
AcDbPoint
 10
0.0
 20
-50.0
 30
0.0
  0
POINT
  5
20C
330
1F
100
AcDbEntity
  8
connection
100
AcDbPoint
 10
11.25
 20
-46.0
 30
0.0
  0
POINT
  5
20D
330
1F
100
AcDbEntity
  8
connection
100
AcDbPoint
 10
11.25
 20
-4.0
 30
0.0
  0
POINT
  5
20E
330
1F
100
AcDbEntity
  8
connection
100
AcDbPoint
 10
11.25
 20
-16.0
 30
0.0
  0
POINT
  5
20F
330
1F
100
AcDbEntity
  8
connection
100
AcDbPoint
 10
11.25
 20
-17.328
 30
0.0
  0
ENDSEC
  0
SECTION
  2
OBJECTS
  0
DICTIONARY
  5
C
330
0
100
AcDbDictionary
281
     1
  3
ACAD_DETAILVIEWSTYLE
350
217
  3
ACAD_GROUP
350
D
  3
ACAD_LAYOUT
350
1A
  3
ACAD_MATERIAL
350
43
  3
ACAD_MLEADERSTYLE
350
5B
  3
ACAD_MLINESTYLE
350
17
  3
ACAD_PLOTSETTINGS
350
19
  3
ACAD_PLOTSTYLENAME
350
E
  3
ACAD_SCALELIST
350
47
  3
ACAD_SECTIONVIEWSTYLE
350
218
  3
ACAD_TABLESTYLE
350
59
  3
ACAD_VISUALSTYLE
350
2A
  3
ACDB_RECOMPOSE_DATA
350
214
  3
AcDbVariableDictionary
350
210
  0
SUN
  5
5D
330
29
100
AcDbSun
 90
        1
290
     0
 63
     7
421
 16777215
 40
1.0
291
     1
 91
  2455826
 92
 54000000
292
     0
 70
     2
 71
   256
280
     1
  0
DICTIONARY
  5
217
102
{ACAD_REACTORS
330
C
102
}
330
C
100
AcDbDictionary
281
     1
  0
DICTIONARY
  5
D
102
{ACAD_REACTORS
330
C
102
}
330
C
100
AcDbDictionary
281
     1
  0
DICTIONARY
  5
1A
102
{ACAD_REACTORS
330
C
102
}
330
C
100
AcDbDictionary
281
     1
  3
Layout1
350
1E
  3
Layout2
350
26
  3
Model
350
22
  0
DICTIONARY
  5
43
102
{ACAD_REACTORS
330
C
102
}
330
C
100
AcDbDictionary
281
     1
  3
ByBlock
350
45
  3
ByLayer
350
44
  3
Global
350
46
  0
DICTIONARY
  5
5B
102
{ACAD_REACTORS
330
C
102
}
330
C
100
AcDbDictionary
281
     1
  3
Standard
350
5C
  0
DICTIONARY
  5
17
102
{ACAD_REACTORS
330
C
102
}
330
C
100
AcDbDictionary
281
     1
  3
Standard
350
18
  0
DICTIONARY
  5
19
102
{ACAD_REACTORS
330
C
102
}
330
C
100
AcDbDictionary
281
     1
  0
ACDBDICTIONARYWDFLT
  5
E
102
{ACAD_REACTORS
330
C
102
}
330
C
100
AcDbDictionary
281
     1
  3
Normal
350
F
100
AcDbDictionaryWithDefault
340
F
  0
DICTIONARY
  5
47
102
{ACAD_REACTORS
330
C
102
}
330
C
100
AcDbDictionary
281
     1
  3
A0
350
48
  3
A1
350
49
  3
A2
350
4A
  3
A3
350
4B
  3
A4
350
4C
  3
A5
350
4D
  3
A6
350
4E
  3
A7
350
4F
  3
A8
350
50
  3
A9
350
51
  3
B0
350
52
  3
B1
350
53
  3
B2
350
54
  3
B3
350
55
  3
B4
350
56
  3
B5
350
57
  3
B6
350
58
  0
DICTIONARY
  5
218
102
{ACAD_REACTORS
330
C
102
}
330
C
100
AcDbDictionary
281
     1
  0
DICTIONARY
  5
59
102
{ACAD_REACTORS
330
C
102
}
330
C
100
AcDbDictionary
281
     1
  3
Standard
350
5A
  0
DICTIONARY
  5
2A
102
{ACAD_REACTORS
330
C
102
}
330
C
100
AcDbDictionary
281
     1
  3
2dWireframe
350
2F
  3
Basic
350
32
  3
Brighten
350
36
  3
ColorChange
350
3A
  3
Conceptual
350
34
  3
Dim
350
35
  3
EdgeColorOff
350
3D
  3
Facepattern
350
39
  3
Flat
350
2B
  3
FlatWithEdges
350
2C
  3
Gouraud
350
2D
  3
GouraudWithEdges
350
2E
  3
Hidden
350
31
  3
JitterOff
350
3B
  3
Linepattern
350
38
  3
OverhangOff
350
3C
  3
Realistic
350
33
  3
Shaded
350
42
  3
Shaded with edges
350
41
  3
Shades of Gray
350
3E
  3
Sketchy
350
3F
  3
Thicken
350
37
  3
Wireframe
350
30
  3
X-Ray
350
40
  0
XRECORD
  5
214
102
{ACAD_REACTORS
330
C
102
}
330
C
100
AcDbXrecord
280
     1
 90
        1
330
5A
  0
DICTIONARY
  5
210
102
{ACAD_REACTORS
330
C
102
}
330
C
100
AcDbDictionary
281
     1
  3
CANNOSCALE
350
211
  3
CENTEREXE
350
219
  3
CENTERLTYPEFILE
350
21A
  3
CMLEADERSTYLE
350
216
  3
CTABLESTYLE
350
215
  0
LAYOUT
  5
1E
102
{ACAD_REACTORS
330
1A
102
}
330
1A
100
AcDbPlotSettings
  1

  2
none_device
  4

  6

 40
0.0
 41
0.0
 42
0.0
 43
0.0
 44
0.0
 45
0.0
 46
0.0
 47
0.0
 48
0.0
 49
0.0
140
0.0
141
0.0
142
1.0
143
1.0
 70
   688
 72
     1
 73
     0
 74
     5
  7

 75
    16
 76
     0
 77
     2
 78
   300
147
1.0
148
0.0
149
0.0
100
AcDbLayout
  1
Layout1
 70
     1
 71
     1
 10
0.0
 20
0.0
 11
420.0
 21
297.0
 12
0.0
 22
0.0
 32
0.0
 14
1.000000000000000E+20
 24
1.000000000000000E+20
 34
1.000000000000000E+20
 15
-1.000000000000000E+20
 25
-1.000000000000000E+20
 35
-1.000000000000000E+20
146
0.0
 13
0.0
 23
0.0
 33
0.0
 16
1.0
 26
0.0
 36
0.0
 17
0.0
 27
1.0
 37
0.0
 76
     0
330
1B
  0
LAYOUT
  5
26
102
{ACAD_REACTORS
330
1A
102
}
330
1A
100
AcDbPlotSettings
  1

  2
none_device
  4

  6

 40
0.0
 41
0.0
 42
0.0
 43
0.0
 44
0.0
 45
0.0
 46
0.0
 47
0.0
 48
0.0
 49
0.0
140
0.0
141
0.0
142
1.0
143
1.0
 70
   688
 72
     1
 73
     0
 74
     5
  7

 75
    16
 76
     0
 77
     2
 78
   300
147
1.0
148
0.0
149
0.0
100
AcDbLayout
  1
Layout2
 70
     1
 71
     2
 10
0.0
 20
0.0
 11
0.0
 21
0.0
 12
0.0
 22
0.0
 32
0.0
 14
0.0
 24
0.0
 34
0.0
 15
0.0
 25
0.0
 35
0.0
146
0.0
 13
0.0
 23
0.0
 33
0.0
 16
1.0
 26
0.0
 36
0.0
 17
0.0
 27
1.0
 37
0.0
 76
     0
330
23
  0
LAYOUT
  5
22
102
{ACAD_REACTORS
330
1A
102
}
330
1A
100
AcDbPlotSettings
  1

  2
none_device
  4
Letter_(8.50_x_11.00_Inches)
  6

 40
6.35
 41
6.35
 42
6.35000508
 43
6.35000508
 44
215.9
 45
279.4
 46
0.0
 47
0.0
 48
0.0
 49
0.0
140
0.0
141
0.0
142
1.0
143
1.0
 70
  1712
 72
     1
 73
     0
 74
     0
  7

 75
     0
 76
     0
 77
     2
 78
   300
147
1.0
148
0.0
149
0.0
100
AcDbLayout
  1
Model
 70
     1
 71
     0
 10
0.0
 20
0.0
 11
420.0
 21
297.0
 12
0.0
 22
0.0
 32
0.0
 14
0.0
 24
-68.94444444444444
 34
0.0
 15
30.95238095238095
 25
43.10000000000001
 35
0.0
146
0.0
 13
0.0
 23
0.0
 33
0.0
 16
1.0
 26
0.0
 36
0.0
 17
0.0
 27
1.0
 37
0.0
 76
     0
330
1F
331
29
  0
MATERIAL
  5
45
102
{ACAD_REACTORS
330
43
102
}
330
43
100
AcDbMaterial
  1
ByBlock
 72
     1
 94
      127
  0
MATERIAL
  5
44
102
{ACAD_REACTORS
330
43
102
}
330
43
100
AcDbMaterial
  1
ByLayer
 72
     1
 94
      127
  0
MATERIAL
  5
46
102
{ACAD_REACTORS
330
43
102
}
330
43
100
AcDbMaterial
  1
Global
 72
     1
 94
      127
  0
MLEADERSTYLE
  5
5C
102
{ACAD_REACTORS
330
5B
102
}
330
5B
100
AcDbMLeaderStyle
179
     2
170
     2
171
     1
172
     0
 90
        2
 40
0.0
 41
0.0
173
     1
 91
-1056964608
340
14
 92
       -2
290
     1
 42
2.0
291
     1
 43
8.0
  3
Standard
341
0
 44
4.0
300

342
11
174
     1
178
     6
175
     1
176
     0
 93
-1056964608
 45
4.0
292
     0
297
     0
 46
4.0
343
0
 94
-1056964608
 47
1.0
 49
1.0
140
1.0
293
     1
141
0.0
294
     1
177
     0
142
1.0
295
     0
296
     0
143
3.75
271
     0
272
     9
273
     9
298
     0
  0
MLINESTYLE
  5
18
102
{ACAD_REACTORS
330
17
102
}
330
17
100
AcDbMlineStyle
  2
Standard
 70
     0
  3

 62
   256
 51
90.0
 52
90.0
 71
     2
 49
0.5
 62
   256
  6
BYLAYER
 49
-0.5
 62
   256
  6
BYLAYER
  0
ACDBPLACEHOLDER
  5
F
102
{ACAD_REACTORS
330
E
102
}
330
E
  0
SCALE
  5
48
102
{ACAD_REACTORS
330
47
102
}
330
47
100
AcDbScale
 70
     0
300
1:1
140
1.0
141
1.0
290
     1
  0
SCALE
  5
49
102
{ACAD_REACTORS
330
47
102
}
330
47
100
AcDbScale
 70
     0
300
1:2
140
1.0
141
2.0
290
     0
  0
SCALE
  5
4A
102
{ACAD_REACTORS
330
47
102
}
330
47
100
AcDbScale
 70
     0
300
1:4
140
1.0
141
4.0
290
     0
  0
SCALE
  5
4B
102
{ACAD_REACTORS
330
47
102
}
330
47
100
AcDbScale
 70
     0
300
1:5
140
1.0
141
5.0
290
     0
  0
SCALE
  5
4C
102
{ACAD_REACTORS
330
47
102
}
330
47
100
AcDbScale
 70
     0
300
1:8
140
1.0
141
8.0
290
     0
  0
SCALE
  5
4D
102
{ACAD_REACTORS
330
47
102
}
330
47
100
AcDbScale
 70
     0
300
1:10
140
1.0
141
10.0
290
     0
  0
SCALE
  5
4E
102
{ACAD_REACTORS
330
47
102
}
330
47
100
AcDbScale
 70
     0
300
1:16
140
1.0
141
16.0
290
     0
  0
SCALE
  5
4F
102
{ACAD_REACTORS
330
47
102
}
330
47
100
AcDbScale
 70
     0
300
1:20
140
1.0
141
20.0
290
     0
  0
SCALE
  5
50
102
{ACAD_REACTORS
330
47
102
}
330
47
100
AcDbScale
 70
     0
300
1:30
140
1.0
141
30.0
290
     0
  0
SCALE
  5
51
102
{ACAD_REACTORS
330
47
102
}
330
47
100
AcDbScale
 70
     0
300
1:40
140
1.0
141
40.0
290
     0
  0
SCALE
  5
52
102
{ACAD_REACTORS
330
47
102
}
330
47
100
AcDbScale
 70
     0
300
1:50
140
1.0
141
50.0
290
     0
  0
SCALE
  5
53
102
{ACAD_REACTORS
330
47
102
}
330
47
100
AcDbScale
 70
     0
300
1:100
140
1.0
141
100.0
290
     0
  0
SCALE
  5
54
102
{ACAD_REACTORS
330
47
102
}
330
47
100
AcDbScale
 70
     0
300
2:1
140
2.0
141
1.0
290
     0
  0
SCALE
  5
55
102
{ACAD_REACTORS
330
47
102
}
330
47
100
AcDbScale
 70
     0
300
4:1
140
4.0
141
1.0
290
     0
  0
SCALE
  5
56
102
{ACAD_REACTORS
330
47
102
}
330
47
100
AcDbScale
 70
     0
300
8:1
140
8.0
141
1.0
290
     0
  0
SCALE
  5
57
102
{ACAD_REACTORS
330
47
102
}
330
47
100
AcDbScale
 70
     0
300
10:1
140
10.0
141
1.0
290
     0
  0
SCALE
  5
58
102
{ACAD_REACTORS
330
47
102
}
330
47
100
AcDbScale
 70
     0
300
100:1
140
100.0
141
1.0
290
     0
  0
TABLESTYLE
  5
5A
102
{ACAD_REACTORS
330
59
102
}
102
{ACAD_XDICTIONARY
360
212
102
}
330
59
100
AcDbTableStyle
  3
Standard
 70
     0
 71
     0
 40
0.06
 41
0.06
280
     0
281
     0
  7
Standard
140
4.5
170
     2
 62
     0
 63
   257
283
     0
 90
        4
 91
        0
  1

274
    -2
284
     1
 64
     0
275
    -2
285
     1
 65
     0
276
    -2
286
     1
 66
     0
277
    -2
287
     1
 67
     0
278
    -2
288
     1
 68
     0
279
    -2
289
     1
 69
     0
  7
Standard
140
6.0
170
     5
 62
     0
 63
   257
283
     0
 90
        4
 91
        0
  1

274
    -2
284
     1
 64
     0
275
    -2
285
     1
 65
     0
276
    -2
286
     1
 66
     0
277
    -2
287
     1
 67
     0
278
    -2
288
     1
 68
     0
279
    -2
289
     1
 69
     0
  7
Standard
140
4.5
170
     5
 62
     0
 63
   257
283
     0
 90
        4
 91
        0
  1

274
    -2
284
     1
 64
     0
275
    -2
285
     1
 65
     0
276
    -2
286
     1
 66
     0
277
    -2
287
     1
 67
     0
278
    -2
288
     1
 68
     0
279
    -2
289
     1
 69
     0
  0
VISUALSTYLE
  5
2F
102
{ACAD_REACTORS
330
2A
102
}
330
2A
100
AcDbVisualStyle
  2
2dWireframe
 70
     4
177
     3
291
     0
 70
    58
 90
        0
176
     1
 90
        2
176
     1
 90
        0
176
     1
 90
        0
176
     1
 40
0.6
176
     1
 40
30.0
176
     1
 62
     7
420
 16777215
176
     1
 90
        1
176
     1
 90
        4
176
     1
 62
     7
176
     1
 62
   257
176
     1
 90
        1
176
     1
 90
        1
176
     1
 40
1.0
176
     1
 90
        0
176
     1
 62
   257
176
     1
 40
1.0
176
     1
 90
        1
176
     1
 90
        6
176
     1
 90
        2
176
     1
 62
     7
176
     1
 90
        5
176
     1
 90
        0
176
     1
 90
        0
176
     1
290
     0
176
     1
 90
        1
176
     1
 40
0.0
176
     1
 90
        0
176
     1
290
     1
176
     1
290
     1
176
     1
290
     0
176
     1
290
     0
176
     1
290
     0
176
     1
290
     0
176
     1
290
     0
176
     1
290
     0
176
     1
290
     0
176
     1
 90
       50
176
     1
 40
0.0
176
     1
 40
1.0
176
     1
 90
        0
176
     1
 62
    18
420
        0
176
     1
 90
       50
176
     1
 90
        3
176
     1
 62
     5
420
      255
176
     1
290
     0
176
     1
 90
       50
176
     1
 90
       50
176
     1
 90
       50
176
     1
290
     0
176
     1
 90
       50
176
     1
 62
   256
176
     0
 40
1.0
176
     0
 90
        2
176
     1
  1
strokes_ogs.tif
176
     1
290
     0
176
     1
 40
1.0
176
     1
 40
1.0
176
     1
  0
VISUALSTYLE
  5
32
102
{ACAD_REACTORS
330
2A
102
}
330
2A
100
AcDbVisualStyle
  2
Basic
 70
     7
177
     3
291
     1
 70
    58
 90
        1
176
     1
 90
        0
176
     1
 90
        1
176
     1
 90
        0
176
     1
 40
0.6
176
     1
 40
30.0
176
     1
 62
     7
420
 16777215
176
     1
 90
        0
176
     1
 90
        4
176
     1
 62
     7
176
     1
 62
   257
176
     1
 90
        1
176
     1
 90
        1
176
     1
 40
1.0
176
     1
 90
        8
176
     1
 62
     7
176
     1
 40
1.0
176
     1
 90
        1
176
     1
 90
        6
176
     1
 90
        2
176
     1
 62
     7
176
     1
 90
        5
176
     1
 90
        0
176
     1
 90
        0
176
     1
290
     0
176
     1
 90
        1
176
     1
 40
0.0
176
     1
 90
        0
176
     1
290
     0
176
     1
290
     1
176
     1
290
     1
176
     1
290
     0
176
     1
290
     0
176
     1
290
     0
176
     1
290
     0
176
     1
290
     0
176
     1
290
     0
176
     1
 90
       50
176
     1
 40
0.0
176
     1
 40
1.0
176
     1
 90
        0
176
     1
 62
    18
420
        0
176
     1
 90
       50
176
     1
 90
        3
176
     1
 62
     5
420
      255
176
     1
290
     0
176
     1
 90
       50
176
     1
 90
       50
176
     1
 90
       50
176
     1
290
     0
176
     1
 90
       50
176
     1
 62
   256
176
     0
 40
1.0
176
     0
 90
        2
176
     1
  1
strokes_ogs.tif
176
     1
290
     0
176
     1
 40
1.0
176
     1
 40
1.0
176
     1
  0
VISUALSTYLE
  5
36
102
{ACAD_REACTORS
330
2A
102
}
330
2A
100
AcDbVisualStyle
  2
Brighten
 70
    12
177
     3
291
     1
 70
    58
 90
        2
176
     1
 90
        2
176
     1
 90
        0
176
     1
 90
        0
176
     1
 40
0.6
176
     1
 40
30.0
176
     1
 62
     7
420
 16777215
176
     1
 90
        1
176
     1
 90
        4
176
     1
 62
     7
176
     1
 62
   257
176
     1
 90
        1
176
     1
 90
        1
176
     1
 40
1.0
176
     1
 90
        8
176
     1
 62
     7
176
     1
 40
1.0
176
     1
 90
        1
176
     1
 90
        6
176
     1
 90
        2
176
     1
 62
     7
176
     1
 90
        5
176
     1
 90
        0
176
     1
 90
        0
176
     1
290
     0
176
     1
 90
        1
176
     1
 40
50.0
176
     1
 90
        0
176
     1
290
     0
176
     1
290
     1
176
     1
290
     1
176
     1
290
     0
176
     1
290
     0
176
     1
290
     0
176
     1
290
     0
176
     1
290
     0
176
     1
290
     0
176
     1
 90
       50
176
     1
 40
0.0
176
     1
 40
1.0
176
     1
 90
        0
176
     1
 62
    18
420
        0
176
     1
 90
       50
176
     1
 90
        3
176
     1
 62
     5
420
      255
176
     1
290
     0
176
     1
 90
       50
176
     1
 90
       50
176
     1
 90
       50
176
     1
290
     0
176
     1
 90
       50
176
     1
 62
   256
176
     0
 40
1.0
176
     0
 90
        2
176
     1
  1
strokes_ogs.tif
176
     1
290
     0
176
     1
 40
1.0
176
     1
 40
1.0
176
     1
  0
VISUALSTYLE
  5
3A
102
{ACAD_REACTORS
330
2A
102
}
330
2A
100
AcDbVisualStyle
  2
ColorChange
 70
    16
177
     3
291
     1
 70
    58
 90
        2
176
     1
 90
        2
176
     1
 90
        3
176
     1
 90
        0
176
     1
 40
0.6
176
     1
 40
30.0
176
     1
 62
     8
420
  8421504
176
     1
 90
        1
176
     1
 90
        4
176
     1
 62
     7
176
     1
 62
   257
176
     1
 90
        1
176
     1
 90
        1
176
     1
 40
1.0
176
     1
 90
        8
176
     1
 62
     8
420
  8421504
176
     1
 40
1.0
176
     1
 90
        1
176
     1
 90
        6
176
     1
 90
        2
176
     1
 62
     7
176
     1
 90
        5
176
     1
 90
        0
176
     1
 90
        0
176
     1
290
     0
176
     1
 90
        1
176
     1
 40
0.0
176
     1
 90
        0
176
     1
290
     0
176
     1
290
     1
176
     1
290
     1
176
     1
290
     0
176
     1
290
     0
176
     1
290
     0
176
     1
290
     0
176
     1
290
     0
176
     1
290
     0
176
     1
 90
       50
176
     1
 40
0.0
176
     1
 40
1.0
176
     1
 90
        0
176
     1
 62
    18
420
        0
176
     1
 90
       50
176
     1
 90
        3
176
     1
 62
     5
420
      255
176
     1
290
     0
176
     1
 90
       50
176
     1
 90
       50
176
     1
 90
       50
176
     1
290
     0
176
     1
 90
       50
176
     1
 62
   256
176
     0
 40
1.0
176
     0
 90
        2
176
     1
  1
strokes_ogs.tif
176
     1
290
     0
176
     1
 40
1.0
176
     1
 40
1.0
176
     1
  0
VISUALSTYLE
  5
34
102
{ACAD_REACTORS
330
2A
102
}
330
2A
100
AcDbVisualStyle
  2
Conceptual
 70
     9
177
     3
291
     0
 70
    58
 90
        3
176
     1
 90
        2
176
     1
 90
        0
176
     1
 90
        0
176
     1
 40
0.6
176
     1
 40
30.0
176
     1
 62
     7
420
 16777215
176
     1
 90
        2
176
     1
 90
        2
176
     1
 62
     7
176
     1
 62
   257
176
     1
 90
        1
176
     1
 90
        1
176
     1
 40
179.0
176
     1
 90
        8
176
     1
 62
     7
176
     1
 40
1.0
176
     1
 90
        1
176
     1
 90
        6
176
     1
 90
        2
176
     1
 62
     7
176
     1
 90
        3
176
     1
 90
        0
176
     1
 90
        0
176
     1
290
     0
176
     1
 90
        1
176
     1
 40
0.0
176
     1
 90
        0
176
     1
290
     0
176
     1
290
     1
176
     1
290
     1
176
     1
290
     0
176
     1
290
     0
176
     1
290
     0
176
     1
290
     0
176
     1
290
     0
176
     1
290
     0
176
     1
 90
       50
176
     1
 40
0.0
176
     1
 40
1.0
176
     1
 90
        0
176
     1
 62
    18
420
        0
176
     1
 90
       50
176
     1
 90
        3
176
     1
 62
     5
420
      255
176
     1
290
     0
176
     1
 90
       50
176
     1
 90
       50
176
     1
 90
       50
176
     1
290
     0
176
     1
 90
       50
176
     1
 62
   256
176
     0
 40
1.0
176
     0
 90
        2
176
     1
  1
strokes_ogs.tif
176
     1
290
     0
176
     1
 40
1.0
176
     1
 40
1.0
176
     1
  0
VISUALSTYLE
  5
35
102
{ACAD_REACTORS
330
2A
102
}
330
2A
100
AcDbVisualStyle
  2
Dim
 70
    11
177
     3
291
     1
 70
    58
 90
        2
176
     1
 90
        2
176
     1
 90
        0
176
     1
 90
        0
176
     1
 40
0.6
176
     1
 40
30.0
176
     1
 62
     7
420
 16777215
176
     1
 90
        1
176
     1
 90
        4
176
     1
 62
     7
176
     1
 62
   257
176
     1
 90
        1
176
     1
 90
        1
176
     1
 40
1.0
176
     1
 90
        8
176
     1
 62
     7
176
     1
 40
1.0
176
     1
 90
        1
176
     1
 90
        6
176
     1
 90
        2
176
     1
 62
     7
176
     1
 90
        5
176
     1
 90
        0
176
     1
 90
        0
176
     1
290
     0
176
     1
 90
        1
176
     1
 40
-50.0
176
     1
 90
        0
176
     1
290
     0
176
     1
290
     1
176
     1
290
     1
176
     1
290
     0
176
     1
290
     0
176
     1
290
     0
176
     1
290
     0
176
     1
290
     0
176
     1
290
     0
176
     1
 90
       50
176
     1
 40
0.0
176
     1
 40
1.0
176
     1
 90
        0
176
     1
 62
    18
420
        0
176
     1
 90
       50
176
     1
 90
        3
176
     1
 62
     5
420
      255
176
     1
290
     0
176
     1
 90
       50
176
     1
 90
       50
176
     1
 90
       50
176
     1
290
     0
176
     1
 90
       50
176
     1
 62
   256
176
     0
 40
1.0
176
     0
 90
        2
176
     1
  1
strokes_ogs.tif
176
     1
290
     0
176
     1
 40
1.0
176
     1
 40
1.0
176
     1
  0
VISUALSTYLE
  5
3D
102
{ACAD_REACTORS
330
2A
102
}
330
2A
100
AcDbVisualStyle
  2
EdgeColorOff
 70
    22
177
     3
291
     1
 70
    58
 90
        2
176
     0
 90
        2
176
     0
 90
        0
176
     0
 90
        0
176
     0
 40
0.6
176
     0
 40
30.0
176
     0
 62
     7
420
 16777215
176
     0
 90
        1
176
     0
 90
        4
176
     0
 62
     7
176
     0
 62
   257
176
     0
 90
        1
176
     0
 90
        1
176
     0
 40
1.0
176
     0
 90
        8
176
     2
 62
     7
176
     0
 40
1.0
176
     0
 90
        1
176
     0
 90
        6
176
     0
 90
        2
176
     0
 62
     7
176
     0
 90
        5
176
     0
 90
        0
176
     0
 90
        0
176
     0
290
     0
176
     0
 90
        1
176
     0
 40
0.0
176
     0
 90
        0
176
     0
290
     0
176
     0
290
     1
176
     0
290
     1
176
     0
290
     0
176
     0
290
     0
176
     0
290
     0
176
     0
290
     0
176
     0
290
     0
176
     0
290
     0
176
     0
 90
       50
176
     0
 40
0.0
176
     0
 40
1.0
176
     0
 90
        0
176
     0
 62
    18
420
        0
176
     0
 90
       50
176
     0
 90
        3
176
     0
 62
     5
420
      255
176
     0
290
     0
176
     0
 90
       50
176
     0
 90
       50
176
     0
 90
       50
176
     0
290
     0
176
     0
 90
       50
176
     0
 62
   256
176
     0
 40
1.0
176
     0
 90
        2
176
     0
  1
strokes_ogs.tif
176
     0
290
     0
176
     0
 40
1.0
176
     0
 40
1.0
176
     0
  0
VISUALSTYLE
  5
39
102
{ACAD_REACTORS
330
2A
102
}
330
2A
100
AcDbVisualStyle
  2
Facepattern
 70
    15
177
     3
291
     1
 70
    58
 90
        2
176
     1
 90
        2
176
     1
 90
        0
176
     1
 90
        0
176
     1
 40
0.6
176
     1
 40
30.0
176
     1
 62
     7
420
 16777215
176
     1
 90
        1
176
     1
 90
        4
176
     1
 62
     7
176
     1
 62
   257
176
     1
 90
        1
176
     1
 90
        1
176
     1
 40
1.0
176
     1
 90
        8
176
     1
 62
     7
176
     1
 40
1.0
176
     1
 90
        1
176
     1
 90
        6
176
     1
 90
        2
176
     1
 62
     7
176
     1
 90
        5
176
     1
 90
        0
176
     1
 90
        0
176
     1
290
     0
176
     1
 90
        1
176
     1
 40
0.0
176
     1
 90
        0
176
     1
290
     0
176
     1
290
     1
176
     1
290
     1
176
     1
290
     0
176
     1
290
     0
176
     1
290
     0
176
     1
290
     0
176
     1
290
     0
176
     1
290
     0
176
     1
 90
       50
176
     1
 40
0.0
176
     1
 40
1.0
176
     1
 90
        0
176
     1
 62
    18
420
        0
176
     1
 90
       50
176
     1
 90
        3
176
     1
 62
     5
420
      255
176
     1
290
     0
176
     1
 90
       50
176
     1
 90
       50
176
     1
 90
       50
176
     1
290
     0
176
     1
 90
       50
176
     1
 62
   256
176
     0
 40
1.0
176
     0
 90
        2
176
     1
  1
strokes_ogs.tif
176
     1
290
     0
176
     1
 40
1.0
176
     1
 40
1.0
176
     1
  0
VISUALSTYLE
  5
2B
102
{ACAD_REACTORS
330
2A
102
}
330
2A
100
AcDbVisualStyle
  2
Flat
 70
     0
177
     3
291
     1
 70
    58
 90
        2
176
     1
 90
        1
176
     1
 90
        1
176
     1
 90
        2
176
     1
 40
0.6
176
     1
 40
30.0
176
     1
 62
     7
420
 16777215
176
     1
 90
        0
176
     1
 90
        0
176
     1
 62
     7
176
     1
 62
   257
176
     1
 90
        1
176
     1
 90
        1
176
     1
 40
1.0
176
     1
 90
        8
176
     1
 62
     7
176
     1
 40
1.0
176
     1
 90
        1
176
     1
 90
        6
176
     1
 90
        2
176
     1
 62
     7
176
     1
 90
        5
176
     1
 90
        0
176
     1
 90
        0
176
     1
290
     0
176
     1
 90
       13
176
     1
 40
0.0
176
     1
 90
        0
176
     1
290
     0
176
     1
290
     1
176
     1
290
     1
176
     1
290
     0
176
     1
290
     0
176
     1
290
     0
176
     1
290
     0
176
     1
290
     0
176
     1
290
     0
176
     1
 90
       50
176
     1
 40
0.0
176
     1
 40
1.0
176
     1
 90
        0
176
     1
 62
    18
420
        0
176
     1
 90
       50
176
     1
 90
        3
176
     1
 62
     5
420
      255
176
     1
290
     0
176
     1
 90
       50
176
     1
 90
       50
176
     1
 90
       50
176
     1
290
     0
176
     1
 90
       50
176
     1
 62
   256
176
     0
 40
1.0
176
     0
 90
        2
176
     1
  1
strokes_ogs.tif
176
     1
290
     0
176
     1
 40
1.0
176
     1
 40
1.0
176
     1
  0
VISUALSTYLE
  5
2C
102
{ACAD_REACTORS
330
2A
102
}
330
2A
100
AcDbVisualStyle
  2
FlatWithEdges
 70
     1
177
     3
291
     1
 70
    58
 90
        2
176
     1
 90
        1
176
     1
 90
        1
176
     1
 90
        2
176
     1
 40
0.6
176
     1
 40
30.0
176
     1
 62
     7
420
 16777215
176
     1
 90
        1
176
     1
 90
        0
176
     1
 62
     7
176
     1
 62
   257
176
     1
 90
        1
176
     1
 90
        1
176
     1
 40
1.0
176
     1
 90
        0
176
     1
 62
   257
176
     1
 40
1.0
176
     1
 90
        1
176
     1
 90
        6
176
     1
 90
        2
176
     1
 62
     7
176
     1
 90
        5
176
     1
 90
        0
176
     1
 90
        0
176
     1
290
     0
176
     1
 90
       13
176
     1
 40
0.0
176
     1
 90
        0
176
     1
290
     0
176
     1
290
     1
176
     1
290
     1
176
     1
290
     0
176
     1
290
     0
176
     1
290
     0
176
     1
290
     0
176
     1
290
     0
176
     1
290
     0
176
     1
 90
       50
176
     1
 40
0.0
176
     1
 40
1.0
176
     1
 90
        0
176
     1
 62
    18
420
        0
176
     1
 90
       50
176
     1
 90
        3
176
     1
 62
     5
420
      255
176
     1
290
     0
176
     1
 90
       50
176
     1
 90
       50
176
     1
 90
       50
176
     1
290
     0
176
     1
 90
       50
176
     1
 62
   256
176
     0
 40
1.0
176
     0
 90
        2
176
     1
  1
strokes_ogs.tif
176
     1
290
     0
176
     1
 40
1.0
176
     1
 40
1.0
176
     1
  0
VISUALSTYLE
  5
2D
102
{ACAD_REACTORS
330
2A
102
}
330
2A
100
AcDbVisualStyle
  2
Gouraud
 70
     2
177
     3
291
     1
 70
    58
 90
        2
176
     1
 90
        2
176
     1
 90
        1
176
     1
 90
        2
176
     1
 40
0.6
176
     1
 40
30.0
176
     1
 62
     7
420
 16777215
176
     1
 90
        0
176
     1
 90
        0
176
     1
 62
     7
176
     1
 62
   257
176
     1
 90
        1
176
     1
 90
        1
176
     1
 40
1.0
176
     1
 90
        0
176
     1
 62
     7
176
     1
 40
1.0
176
     1
 90
        1
176
     1
 90
        6
176
     1
 90
        2
176
     1
 62
     7
176
     1
 90
        5
176
     1
 90
        0
176
     1
 90
        0
176
     1
290
     0
176
     1
 90
       13
176
     1
 40
0.0
176
     1
 90
        0
176
     1
290
     0
176
     1
290
     1
176
     1
290
     1
176
     1
290
     0
176
     1
290
     0
176
     1
290
     0
176
     1
290
     0
176
     1
290
     0
176
     1
290
     0
176
     1
 90
       50
176
     1
 40
0.0
176
     1
 40
1.0
176
     1
 90
        0
176
     1
 62
    18
420
        0
176
     1
 90
       50
176
     1
 90
        3
176
     1
 62
     5
420
      255
176
     1
290
     0
176
     1
 90
       50
176
     1
 90
       50
176
     1
 90
       50
176
     1
290
     0
176
     1
 90
       50
176
     1
 62
   256
176
     0
 40
1.0
176
     0
 90
        2
176
     1
  1
strokes_ogs.tif
176
     1
290
     0
176
     1
 40
1.0
176
     1
 40
1.0
176
     1
  0
VISUALSTYLE
  5
2E
102
{ACAD_REACTORS
330
2A
102
}
330
2A
100
AcDbVisualStyle
  2
GouraudWithEdges
 70
     3
177
     3
291
     1
 70
    58
 90
        2
176
     1
 90
        2
176
     1
 90
        1
176
     1
 90
        2
176
     1
 40
0.6
176
     1
 40
30.0
176
     1
 62
     7
420
 16777215
176
     1
 90
        1
176
     1
 90
        0
176
     1
 62
     7
176
     1
 62
   257
176
     1
 90
        1
176
     1
 90
        1
176
     1
 40
1.0
176
     1
 90
        0
176
     1
 62
   257
176
     1
 40
1.0
176
     1
 90
        1
176
     1
 90
        6
176
     1
 90
        2
176
     1
 62
     7
176
     1
 90
        5
176
     1
 90
        0
176
     1
 90
        0
176
     1
290
     0
176
     1
 90
       13
176
     1
 40
0.0
176
     1
 90
        0
176
     1
290
     0
176
     1
290
     1
176
     1
290
     1
176
     1
290
     0
176
     1
290
     0
176
     1
290
     0
176
     1
290
     0
176
     1
290
     0
176
     1
290
     0
176
     1
 90
       50
176
     1
 40
0.0
176
     1
 40
1.0
176
     1
 90
        0
176
     1
 62
    18
420
        0
176
     1
 90
       50
176
     1
 90
        3
176
     1
 62
     5
420
      255
176
     1
290
     0
176
     1
 90
       50
176
     1
 90
       50
176
     1
 90
       50
176
     1
290
     0
176
     1
 90
       50
176
     1
 62
   256
176
     0
 40
1.0
176
     0
 90
        2
176
     1
  1
strokes_ogs.tif
176
     1
290
     0
176
     1
 40
1.0
176
     1
 40
1.0
176
     1
  0
VISUALSTYLE
  5
31
102
{ACAD_REACTORS
330
2A
102
}
330
2A
100
AcDbVisualStyle
  2
Hidden
 70
     6
177
     3
291
     0
 70
    58
 90
        1
176
     1
 90
        2
176
     1
 90
        2
176
     1
 90
        0
176
     1
 40
0.6
176
     1
 40
30.0
176
     1
 62
     7
420
 16777215
176
     1
 90
        2
176
     1
 90
        2
176
     1
 62
     7
176
     1
 62
   257
176
     1
 90
        2
176
     1
 90
        1
176
     1
 40
40.0
176
     1
 90
        0
176
     1
 62
   257
176
     1
 40
1.0
176
     1
 90
        1
176
     1
 90
        6
176
     1
 90
        2
176
     1
 62
     7
176
     1
 90
        3
176
     1
 90
        0
176
     1
 90
        0
176
     1
290
     0
176
     1
 90
        1
176
     1
 40
0.0
176
     1
 90
        0
176
     1
290
     0
176
     1
290
     1
176
     1
290
     1
176
     1
290
     0
176
     1
290
     0
176
     1
290
     0
176
     1
290
     0
176
     1
290
     0
176
     1
290
     0
176
     1
 90
       50
176
     1
 40
0.0
176
     1
 40
1.0
176
     1
 90
        0
176
     1
 62
    18
420
        0
176
     1
 90
       50
176
     1
 90
        3
176
     1
 62
     5
420
      255
176
     1
290
     0
176
     1
 90
       50
176
     1
 90
       50
176
     1
 90
       50
176
     1
290
     0
176
     1
 90
       50
176
     1
 62
   256
176
     0
 40
1.0
176
     0
 90
        2
176
     1
  1
strokes_ogs.tif
176
     1
290
     0
176
     1
 40
1.0
176
     1
 40
1.0
176
     1
  0
VISUALSTYLE
  5
3B
102
{ACAD_REACTORS
330
2A
102
}
330
2A
100
AcDbVisualStyle
  2
JitterOff
 70
    20
177
     3
291
     1
 70
    58
 90
        2
176
     0
 90
        2
176
     0
 90
        0
176
     0
 90
        0
176
     0
 40
0.6
176
     0
 40
30.0
176
     0
 62
     7
420
 16777215
176
     0
 90
        1
176
     0
 90
        4
176
     0
 62
     7
176
     0
 62
   257
176
     0
 90
        1
176
     0
 90
        1
176
     0
 40
1.0
176
     0
 90
       10
176
     2
 62
     7
176
     0
 40
1.0
176
     0
 90
        1
176
     0
 90
        6
176
     0
 90
        2
176
     0
 62
     7
176
     0
 90
        5
176
     0
 90
        0
176
     0
 90
        0
176
     0
290
     0
176
     0
 90
        1
176
     0
 40
0.0
176
     0
 90
        0
176
     0
290
     0
176
     0
290
     1
176
     0
290
     1
176
     0
290
     0
176
     0
290
     0
176
     0
290
     0
176
     0
290
     0
176
     0
290
     0
176
     0
290
     0
176
     0
 90
       50
176
     0
 40
0.0
176
     0
 40
1.0
176
     0
 90
        0
176
     0
 62
    18
420
        0
176
     0
 90
       50
176
     0
 90
        3
176
     0
 62
     5
420
      255
176
     0
290
     0
176
     0
 90
       50
176
     0
 90
       50
176
     0
 90
       50
176
     0
290
     0
176
     0
 90
       50
176
     0
 62
   256
176
     0
 40
1.0
176
     0
 90
        2
176
     0
  1
strokes_ogs.tif
176
     0
290
     0
176
     0
 40
1.0
176
     0
 40
1.0
176
     0
  0
VISUALSTYLE
  5
38
102
{ACAD_REACTORS
330
2A
102
}
330
2A
100
AcDbVisualStyle
  2
Linepattern
 70
    14
177
     3
291
     1
 70
    58
 90
        2
176
     1
 90
        2
176
     1
 90
        0
176
     1
 90
        0
176
     1
 40
0.6
176
     1
 40
30.0
176
     1
 62
     7
420
 16777215
176
     1
 90
        1
176
     1
 90
        4
176
     1
 62
     7
176
     1
 62
   257
176
     1
 90
        7
176
     1
 90
        7
176
     1
 40
1.0
176
     1
 90
        8
176
     1
 62
     7
176
     1
 40
1.0
176
     1
 90
        1
176
     1
 90
        6
176
     1
 90
        2
176
     1
 62
     7
176
     1
 90
        5
176
     1
 90
        0
176
     1
 90
        0
176
     1
290
     0
176
     1
 90
        1
176
     1
 40
0.0
176
     1
 90
        0
176
     1
290
     0
176
     1
290
     1
176
     1
290
     1
176
     1
290
     0
176
     1
290
     0
176
     1
290
     0
176
     1
290
     0
176
     1
290
     0
176
     1
290
     0
176
     1
 90
       50
176
     1
 40
0.0
176
     1
 40
1.0
176
     1
 90
        0
176
     1
 62
    18
420
        0
176
     1
 90
       50
176
     1
 90
        3
176
     1
 62
     5
420
      255
176
     1
290
     0
176
     1
 90
       50
176
     1
 90
       50
176
     1
 90
       50
176
     1
290
     0
176
     1
 90
       50
176
     1
 62
   256
176
     0
 40
1.0
176
     0
 90
        2
176
     1
  1
strokes_ogs.tif
176
     1
290
     0
176
     1
 40
1.0
176
     1
 40
1.0
176
     1
  0
VISUALSTYLE
  5
3C
102
{ACAD_REACTORS
330
2A
102
}
330
2A
100
AcDbVisualStyle
  2
OverhangOff
 70
    21
177
     3
291
     1
 70
    58
 90
        2
176
     0
 90
        2
176
     0
 90
        0
176
     0
 90
        0
176
     0
 40
0.6
176
     0
 40
30.0
176
     0
 62
     7
420
 16777215
176
     0
 90
        1
176
     0
 90
        4
176
     0
 62
     7
176
     0
 62
   257
176
     0
 90
        1
176
     0
 90
        1
176
     0
 40
1.0
176
     0
 90
        9
176
     2
 62
     7
176
     0
 40
1.0
176
     0
 90
        1
176
     0
 90
        6
176
     0
 90
        2
176
     0
 62
     7
176
     0
 90
        5
176
     0
 90
        0
176
     0
 90
        0
176
     0
290
     0
176
     0
 90
        1
176
     0
 40
0.0
176
     0
 90
        0
176
     0
290
     0
176
     0
290
     1
176
     0
290
     1
176
     0
290
     0
176
     0
290
     0
176
     0
290
     0
176
     0
290
     0
176
     0
290
     0
176
     0
290
     0
176
     0
 90
       50
176
     0
 40
0.0
176
     0
 40
1.0
176
     0
 90
        0
176
     0
 62
    18
420
        0
176
     0
 90
       50
176
     0
 90
        3
176
     0
 62
     5
420
      255
176
     0
290
     0
176
     0
 90
       50
176
     0
 90
       50
176
     0
 90
       50
176
     0
290
     0
176
     0
 90
       50
176
     0
 62
   256
176
     0
 40
1.0
176
     0
 90
        2
176
     0
  1
strokes_ogs.tif
176
     0
290
     0
176
     0
 40
1.0
176
     0
 40
1.0
176
     0
  0
VISUALSTYLE
  5
33
102
{ACAD_REACTORS
330
2A
102
}
330
2A
100
AcDbVisualStyle
  2
Realistic
 70
     8
177
     3
291
     0
 70
    58
 90
        2
176
     1
 90
        3
176
     1
 90
        0
176
     1
 90
        2
176
     1
 40
0.6
176
     1
 40
30.0
176
     1
 62
     7
420
 16777215
176
     1
 90
        0
176
     1
 90
        0
176
     1
 62
     7
176
     1
 62
   257
176
     1
 90
        1
176
     1
 90
        1
176
     1
 40
1.0
176
     1
 90
        8
176
     1
 62
   257
176
     1
 40
1.0
176
     1
 90
        1
176
     1
 90
        6
176
     1
 90
        2
176
     1
 62
     7
176
     1
 90
        3
176
     1
 90
        0
176
     1
 90
        0
176
     1
290
     0
176
     1
 90
       13
176
     1
 40
0.0
176
     1
 90
        0
176
     1
290
     0
176
     1
290
     1
176
     1
290
     1
176
     1
290
     0
176
     1
290
     0
176
     1
290
     0
176
     1
290
     0
176
     1
290
     0
176
     1
290
     0
176
     1
 90
       50
176
     1
 40
0.0
176
     1
 40
1.0
176
     1
 90
        0
176
     1
 62
    18
420
        0
176
     1
 90
       50
176
     1
 90
        3
176
     1
 62
     5
420
      255
176
     1
290
     0
176
     1
 90
       50
176
     1
 90
       50
176
     1
 90
       50
176
     1
290
     0
176
     1
 90
       50
176
     1
 62
   256
176
     0
 40
1.0
176
     0
 90
        2
176
     1
  1
strokes_ogs.tif
176
     1
290
     0
176
     1
 40
1.0
176
     1
 40
1.0
176
     1
  0
VISUALSTYLE
  5
42
102
{ACAD_REACTORS
330
2A
102
}
330
2A
100
AcDbVisualStyle
  2
Shaded
 70
    27
177
     3
291
     0
 70
    58
 90
        2
176
     1
 90
        2
176
     1
 90
        1
176
     1
 90
        2
176
     1
 40
0.6
176
     1
 40
30.0
176
     1
 62
     7
420
 16777215
176
     1
 90
        0
176
     1
 90
        4
176
     1
 62
     7
176
     1
 62
   257
176
     1
 90
        1
176
     1
 90
        1
176
     1
 40
1.0
176
     1
 90
        8
176
     1
 62
   257
176
     1
 40
1.0
176
     1
 90
        1
176
     1
 90
        6
176
     1
 90
        2
176
     1
 62
     8
420
  7895160
176
     1
 90
        3
176
     1
 90
        0
176
     1
 90
        0
176
     1
290
     0
176
     1
 90
        5
176
     1
 40
0.0
176
     1
 90
        0
176
     1
290
     0
176
     1
290
     1
176
     1
290
     1
176
     1
290
     0
176
     1
290
     0
176
     1
290
     0
176
     1
290
     0
176
     1
290
     0
176
     1
290
     0
176
     1
 90
       50
176
     1
 40
0.0
176
     1
 40
1.0
176
     1
 90
        0
176
     1
 62
    18
420
        0
176
     1
 90
       50
176
     1
 90
        3
176
     1
 62
     5
420
      255
176
     1
290
     0
176
     1
 90
       50
176
     1
 90
       50
176
     1
 90
       50
176
     1
290
     0
176
     1
 90
       50
176
     1
 62
   256
176
     0
 40
1.0
176
     0
 90
        2
176
     1
  1
strokes_ogs.tif
176
     1
290
     0
176
     1
 40
1.0
176
     1
 40
1.0
176
     1
  0
VISUALSTYLE
  5
41
102
{ACAD_REACTORS
330
2A
102
}
330
2A
100
AcDbVisualStyle
  2
Shaded with edges
 70
    26
177
     3
291
     0
 70
    58
 90
        2
176
     1
 90
        2
176
     1
 90
        1
176
     1
 90
        2
176
     1
 40
0.6
176
     1
 40
30.0
176
     1
 62
     7
420
 16777215
176
     1
 90
        1
176
     1
 90
       10
176
     1
 62
     7
176
     1
 62
   257
176
     1
 90
        2
176
     1
 90
        1
176
     1
 40
1.0
176
     1
 90
        8
176
     1
 62
   257
176
     1
 40
1.0
176
     1
 90
        1
176
     1
 90
        6
176
     1
 90
        2
176
     1
 62
     7
176
     1
 90
        3
176
     1
 90
        0
176
     1
 90
        0
176
     1
290
     0
176
     1
 90
        5
176
     1
 40
0.0
176
     1
 90
        0
176
     1
290
     0
176
     1
290
     1
176
     1
290
     1
176
     1
290
     0
176
     1
290
     0
176
     1
290
     0
176
     1
290
     0
176
     1
290
     0
176
     1
290
     0
176
     1
 90
       50
176
     1
 40
0.0
176
     1
 40
1.0
176
     1
 90
        0
176
     1
 62
    18
420
        0
176
     1
 90
       50
176
     1
 90
        3
176
     1
 62
     5
420
      255
176
     1
290
     0
176
     1
 90
       50
176
     1
 90
       50
176
     1
 90
       50
176
     1
290
     0
176
     1
 90
       50
176
     1
 62
   256
176
     0
 40
1.0
176
     0
 90
        2
176
     1
  1
strokes_ogs.tif
176
     1
290
     0
176
     1
 40
1.0
176
     1
 40
1.0
176
     1
  0
VISUALSTYLE
  5
3E
102
{ACAD_REACTORS
330
2A
102
}
330
2A
100
AcDbVisualStyle
  2
Shades of Gray
 70
    23
177
     3
291
     0
 70
    58
 90
        2
176
     1
 90
        2
176
     1
 90
        3
176
     1
 90
        0
176
     1
 40
0.6
176
     1
 40
30.0
176
     1
 62
     7
420
 16777215
176
     1
 90
        2
176
     1
 90
        2
176
     1
 62
     7
176
     1
 62
     7
176
     1
 90
        1
176
     1
 90
        1
176
     1
 40
40.0
176
     1
 90
        8
176
     1
 62
     7
176
     1
 40
1.0
176
     1
 90
        1
176
     1
 90
        6
176
     1
 90
        2
176
     1
 62
     7
176
     1
 90
        3
176
     1
 90
        0
176
     1
 90
        0
176
     1
290
     0
176
     1
 90
        1
176
     1
 40
0.0
176
     1
 90
        0
176
     1
290
     0
176
     1
290
     1
176
     1
290
     1
176
     1
290
     0
176
     1
290
     0
176
     1
290
     0
176
     1
290
     0
176
     1
290
     0
176
     1
290
     0
176
     1
 90
       50
176
     1
 40
0.0
176
     1
 40
1.0
176
     1
 90
        0
176
     1
 62
    18
420
        0
176
     1
 90
       50
176
     1
 90
        3
176
     1
 62
     5
420
      255
176
     1
290
     0
176
     1
 90
       50
176
     1
 90
       50
176
     1
 90
       50
176
     1
290
     0
176
     1
 90
       50
176
     1
 62
   256
176
     0
 40
1.0
176
     0
 90
        2
176
     1
  1
strokes_ogs.tif
176
     1
290
     0
176
     1
 40
1.0
176
     1
 40
1.0
176
     1
  0
VISUALSTYLE
  5
3F
102
{ACAD_REACTORS
330
2A
102
}
330
2A
100
AcDbVisualStyle
  2
Sketchy
 70
    24
177
     3
291
     0
 70
    58
 90
        1
176
     1
 90
        2
176
     1
 90
        2
176
     1
 90
        0
176
     1
 40
0.6
176
     1
 40
30.0
176
     1
 62
     7
420
 16777215
176
     1
 90
        2
176
     1
 90
        2
176
     1
 62
     7
176
     1
 62
     7
176
     1
 90
        1
176
     1
 90
        1
176
     1
 40
40.0
176
     1
 90
       11
176
     1
 62
     7
176
     1
 40
1.0
176
     1
 90
        1
176
     1
 90
        6
176
     1
 90
        2
176
     1
 62
     7
176
     1
 90
        6
176
     1
 90
        0
176
     1
 90
        0
176
     1
290
     0
176
     1
 90
        1
176
     1
 40
0.0
176
     1
 90
        0
176
     1
290
     0
176
     1
290
     1
176
     1
290
     1
176
     1
290
     0
176
     1
290
     0
176
     1
290
     0
176
     1
290
     0
176
     1
290
     0
176
     1
290
     0
176
     1
 90
       50
176
     1
 40
0.0
176
     1
 40
1.0
176
     1
 90
        0
176
     1
 62
    18
420
        0
176
     1
 90
       50
176
     1
 90
        3
176
     1
 62
     5
420
      255
176
     1
290
     0
176
     1
 90
       50
176
     1
 90
       50
176
     1
 90
       50
176
     1
290
     0
176
     1
 90
       50
176
     1
 62
   256
176
     0
 40
1.0
176
     0
 90
        2
176
     1
  1
strokes_ogs.tif
176
     1
290
     0
176
     1
 40
1.0
176
     1
 40
1.0
176
     1
  0
VISUALSTYLE
  5
37
102
{ACAD_REACTORS
330
2A
102
}
330
2A
100
AcDbVisualStyle
  2
Thicken
 70
    13
177
     3
291
     1
 70
    58
 90
        2
176
     1
 90
        2
176
     1
 90
        0
176
     1
 90
        0
176
     1
 40
0.6
176
     1
 40
30.0
176
     1
 62
     7
420
 16777215
176
     1
 90
        1
176
     1
 90
        4
176
     1
 62
     7
176
     1
 62
   257
176
     1
 90
        1
176
     1
 90
        1
176
     1
 40
1.0
176
     1
 90
       12
176
     1
 62
     7
176
     1
 40
1.0
176
     1
 90
        1
176
     1
 90
        6
176
     1
 90
        2
176
     1
 62
     7
176
     1
 90
        5
176
     1
 90
        0
176
     1
 90
        0
176
     1
290
     0
176
     1
 90
        1
176
     1
 40
0.0
176
     1
 90
        0
176
     1
290
     0
176
     1
290
     1
176
     1
290
     1
176
     1
290
     0
176
     1
290
     0
176
     1
290
     0
176
     1
290
     0
176
     1
290
     0
176
     1
290
     0
176
     1
 90
       50
176
     1
 40
0.0
176
     1
 40
1.0
176
     1
 90
        0
176
     1
 62
    18
420
        0
176
     1
 90
       50
176
     1
 90
        3
176
     1
 62
     5
420
      255
176
     1
290
     0
176
     1
 90
       50
176
     1
 90
       50
176
     1
 90
       50
176
     1
290
     0
176
     1
 90
       50
176
     1
 62
   256
176
     0
 40
1.0
176
     0
 90
        2
176
     1
  1
strokes_ogs.tif
176
     1
290
     0
176
     1
 40
1.0
176
     1
 40
1.0
176
     1
  0
VISUALSTYLE
  5
30
102
{ACAD_REACTORS
330
2A
102
}
330
2A
100
AcDbVisualStyle
  2
Wireframe
 70
     5
177
     3
291
     0
 70
    58
 90
        0
176
     1
 90
        2
176
     1
 90
        0
176
     1
 90
        0
176
     1
 40
0.6
176
     1
 40
30.0
176
     1
 62
     7
420
 16777215
176
     1
 90
        1
176
     1
 90
        4
176
     1
 62
     7
176
     1
 62
   257
176
     1
 90
        1
176
     1
 90
        1
176
     1
 40
1.0
176
     1
 90
        0
176
     1
 62
   257
176
     1
 40
1.0
176
     1
 90
        1
176
     1
 90
        6
176
     1
 90
        2
176
     1
 62
     7
176
     1
 90
        3
176
     1
 90
        0
176
     1
 90
        0
176
     1
290
     0
176
     1
 90
        1
176
     1
 40
0.0
176
     1
 90
        0
176
     1
290
     0
176
     1
290
     1
176
     1
290
     1
176
     1
290
     0
176
     1
290
     0
176
     1
290
     0
176
     1
290
     0
176
     1
290
     0
176
     1
290
     0
176
     1
 90
       50
176
     1
 40
0.0
176
     1
 40
1.0
176
     1
 90
        0
176
     1
 62
    18
420
        0
176
     1
 90
       50
176
     1
 90
        3
176
     1
 62
     5
420
      255
176
     1
290
     0
176
     1
 90
       50
176
     1
 90
       50
176
     1
 90
       50
176
     1
290
     0
176
     1
 90
       50
176
     1
 62
   256
176
     0
 40
1.0
176
     0
 90
        2
176
     1
  1
strokes_ogs.tif
176
     1
290
     0
176
     1
 40
1.0
176
     1
 40
1.0
176
     1
  0
VISUALSTYLE
  5
40
102
{ACAD_REACTORS
330
2A
102
}
330
2A
100
AcDbVisualStyle
  2
X-Ray
 70
    25
177
     3
291
     0
 70
    58
 90
        2
176
     1
 90
        2
176
     1
 90
        1
176
     1
 90
        1
176
     1
 40
0.5
176
     1
 40
30.0
176
     1
 62
     7
420
 16777215
176
     1
 90
        1
176
     1
 90
        0
176
     1
 62
     7
176
     1
 62
   257
176
     1
 90
        1
176
     1
 90
        1
176
     1
 40
1.0
176
     1
 90
        8
176
     1
 62
     7
176
     1
 40
1.0
176
     1
 90
        1
176
     1
 90
        6
176
     1
 90
        2
176
     1
 62
     7
176
     1
 90
        3
176
     1
 90
        0
176
     1
 90
        0
176
     1
290
     0
176
     1
 90
       13
176
     1
 40
0.0
176
     1
 90
        0
176
     1
290
     0
176
     1
290
     1
176
     1
290
     1
176
     1
290
     0
176
     1
290
     0
176
     1
290
     0
176
     1
290
     0
176
     1
290
     0
176
     1
290
     0
176
     1
 90
       50
176
     1
 40
0.0
176
     1
 40
1.0
176
     1
 90
        0
176
     1
 62
    18
420
        0
176
     1
 90
       50
176
     1
 90
        3
176
     1
 62
     5
420
      255
176
     1
290
     0
176
     1
 90
       50
176
     1
 90
       50
176
     1
 90
       50
176
     1
290
     0
176
     1
 90
       50
176
     1
 62
   256
176
     0
 40
1.0
176
     0
 90
        2
176
     1
  1
strokes_ogs.tif
176
     1
290
     0
176
     1
 40
1.0
176
     1
 40
1.0
176
     1
  0
DICTIONARYVAR
  5
211
102
{ACAD_REACTORS
330
210
102
}
330
210
100
DictionaryVariables
280
     0
  1
1:1
  0
DICTIONARYVAR
  5
219
102
{ACAD_REACTORS
330
210
102
}
330
210
100
DictionaryVariables
280
     0
  1
3.500000
  0
DICTIONARYVAR
  5
21A
102
{ACAD_REACTORS
330
210
102
}
330
210
100
DictionaryVariables
280
     0
  1
acadiso.lin
  0
DICTIONARYVAR
  5
216
102
{ACAD_REACTORS
330
210
102
}
330
210
100
DictionaryVariables
280
     0
  1
Standard
  0
DICTIONARYVAR
  5
215
102
{ACAD_REACTORS
330
210
102
}
330
210
100
DictionaryVariables
280
     0
  1
Standard
  0
DICTIONARY
  5
212
330
5A
100
AcDbDictionary
280
     1
281
     1
  3
ACAD_ROUNDTRIP_2008_TABLESTYLE_CELLSTYLEMAP
360
213
  0
CELLSTYLEMAP
  5
213
102
{ACAD_REACTORS
330
212
102
}
330
212
100
AcDbCellStyleMap
 90
        3
300
CELLSTYLE
  1
TABLEFORMAT_BEGIN
 90
        5
170
     1
 91
        0
 92
    32768
 62
   257
 93
        1
300
CONTENTFORMAT
  1
CONTENTFORMAT_BEGIN
 90
        0
 91
        0
 92
        4
 93
        0
300

 40
0.0
140
1.0
 94
        5
 62
     0
340
11
144
6.0
309
CONTENTFORMAT_END
171
     1
301
MARGIN
  1
CELLMARGIN_BEGIN
 40
1.5
 40
1.5
 40
1.5
 40
1.5
 40
1.5
 40
1.5
309
CELLMARGIN_END
 94
        6
 95
        1
302
GRIDFORMAT
  1
GRIDFORMAT_BEGIN
 90
        0
 91
        1
 62
     0
 92
       -2
340
14
 93
        0
 40
0.045
309
GRIDFORMAT_END
 95
        2
302
GRIDFORMAT
  1
GRIDFORMAT_BEGIN
 90
        0
 91
        1
 62
     0
 92
       -2
340
14
 93
        0
 40
0.045
309
GRIDFORMAT_END
 95
        4
302
GRIDFORMAT
  1
GRIDFORMAT_BEGIN
 90
        0
 91
        1
 62
     0
 92
       -2
340
14
 93
        0
 40
0.045
309
GRIDFORMAT_END
 95
        8
302
GRIDFORMAT
  1
GRIDFORMAT_BEGIN
 90
        0
 91
        1
 62
     0
 92
       -2
340
14
 93
        0
 40
0.045
309
GRIDFORMAT_END
 95
       16
302
GRIDFORMAT
  1
GRIDFORMAT_BEGIN
 90
        0
 91
        1
 62
     0
 92
       -2
340
14
 93
        0
 40
0.045
309
GRIDFORMAT_END
 95
       32
302
GRIDFORMAT
  1
GRIDFORMAT_BEGIN
 90
        0
 91
        1
 62
     0
 92
       -2
340
14
 93
        0
 40
0.045
309
GRIDFORMAT_END
309
TABLEFORMAT_END
  1
CELLSTYLE_BEGIN
 90
        1
 91
        1
300
_TITLE
309
CELLSTYLE_END
300
CELLSTYLE
  1
TABLEFORMAT_BEGIN
 90
        5
170
     1
 91
        0
 92
        0
 62
   257
 93
        1
300
CONTENTFORMAT
  1
CONTENTFORMAT_BEGIN
 90
        0
 91
        0
 92
        4
 93
        0
300

 40
0.0
140
1.0
 94
        5
 62
     0
340
11
144
4.5
309
CONTENTFORMAT_END
171
     1
301
MARGIN
  1
CELLMARGIN_BEGIN
 40
1.5
 40
1.5
 40
1.5
 40
1.5
 40
1.5
 40
1.5
309
CELLMARGIN_END
 94
        6
 95
        1
302
GRIDFORMAT
  1
GRIDFORMAT_BEGIN
 90
        0
 91
        1
 62
     0
 92
       -2
340
14
 93
        0
 40
0.045
309
GRIDFORMAT_END
 95
        2
302
GRIDFORMAT
  1
GRIDFORMAT_BEGIN
 90
        0
 91
        1
 62
     0
 92
       -2
340
14
 93
        0
 40
0.045
309
GRIDFORMAT_END
 95
        4
302
GRIDFORMAT
  1
GRIDFORMAT_BEGIN
 90
        0
 91
        1
 62
     0
 92
       -2
340
14
 93
        0
 40
0.045
309
GRIDFORMAT_END
 95
        8
302
GRIDFORMAT
  1
GRIDFORMAT_BEGIN
 90
        0
 91
        1
 62
     0
 92
       -2
340
14
 93
        0
 40
0.045
309
GRIDFORMAT_END
 95
       16
302
GRIDFORMAT
  1
GRIDFORMAT_BEGIN
 90
        0
 91
        1
 62
     0
 92
       -2
340
14
 93
        0
 40
0.045
309
GRIDFORMAT_END
 95
       32
302
GRIDFORMAT
  1
GRIDFORMAT_BEGIN
 90
        0
 91
        1
 62
     0
 92
       -2
340
14
 93
        0
 40
0.045
309
GRIDFORMAT_END
309
TABLEFORMAT_END
  1
CELLSTYLE_BEGIN
 90
        2
 91
        1
300
_HEADER
309
CELLSTYLE_END
300
CELLSTYLE
  1
TABLEFORMAT_BEGIN
 90
        5
170
     1
 91
        0
 92
        0
 62
   257
 93
        1
300
CONTENTFORMAT
  1
CONTENTFORMAT_BEGIN
 90
        0
 91
        0
 92
        4
 93
        0
300

 40
0.0
140
1.0
 94
        2
 62
     0
340
11
144
4.5
309
CONTENTFORMAT_END
171
     1
301
MARGIN
  1
CELLMARGIN_BEGIN
 40
1.5
 40
1.5
 40
1.5
 40
1.5
 40
1.5
 40
1.5
309
CELLMARGIN_END
 94
        6
 95
        1
302
GRIDFORMAT
  1
GRIDFORMAT_BEGIN
 90
        0
 91
        1
 62
     0
 92
       -2
340
14
 93
        0
 40
0.045
309
GRIDFORMAT_END
 95
        2
302
GRIDFORMAT
  1
GRIDFORMAT_BEGIN
 90
        0
 91
        1
 62
     0
 92
       -2
340
14
 93
        0
 40
0.045
309
GRIDFORMAT_END
 95
        4
302
GRIDFORMAT
  1
GRIDFORMAT_BEGIN
 90
        0
 91
        1
 62
     0
 92
       -2
340
14
 93
        0
 40
0.045
309
GRIDFORMAT_END
 95
        8
302
GRIDFORMAT
  1
GRIDFORMAT_BEGIN
 90
        0
 91
        1
 62
     0
 92
       -2
340
14
 93
        0
 40
0.045
309
GRIDFORMAT_END
 95
       16
302
GRIDFORMAT
  1
GRIDFORMAT_BEGIN
 90
        0
 91
        1
 62
     0
 92
       -2
340
14
 93
        0
 40
0.045
309
GRIDFORMAT_END
 95
       32
302
GRIDFORMAT
  1
GRIDFORMAT_BEGIN
 90
        0
 91
        1
 62
     0
 92
       -2
340
14
 93
        0
 40
0.045
309
GRIDFORMAT_END
309
TABLEFORMAT_END
  1
CELLSTYLE_BEGIN
 90
        3
 91
        2
300
_DATA
309
CELLSTYLE_END
  0
ENDSEC
  0
EOF
