  0
SECTION
  2
HEADER
  9
$ACADVER
  1
AC1027
  9
$ACADMAINTVER
 70
   105
  9
$DWGCODEPAGE
  3
ANSI_1252
  9
$COMMENTS
  1
File was created by Cadenas
  9
$LASTSAVEDBY
  1
psAdmin
  9
$CUSTOMPROPERTYTAG
  1
NB
  9
$CUSTOMPROPERTY
  1
31950
  9
$CUSTOMPROPERTYTAG
  1
NN
  9
$CUSTOMPROPERTY
  1
E27, gauge screw
  9
$CUSTOMPROPERTYTAG
  1
NT
  9
$CUSTOMPROPERTY
  1

  9
$CUSTOMPROPERTYTAG
  1
NBSYN
  9
$CUSTOMPROPERTY
  1
$ARTNR.
  9
$CUSTOMPROPERTYTAG
  1
LINA
  9
$CUSTOMPROPERTY
  1
31950000
  9
$CUSTOMPROPERTYTAG
  1
CATALOG
  9
$CUSTOMPROPERTY
  1
Wöhner
  9
$CUSTOMPROPERTYTAG
  1
ARTNR
  9
$CUSTOMPROPERTY
  1
31950
  9
$CUSTOMPROPERTYTAG
  1
BUSB
  9
$CUSTOMPROPERTY
  1
12, 15, 20, 25, 30 x 5, 10 and section busbars
  9
$CUSTOMPROPERTYTAG
  1
POF
  9
$CUSTOMPROPERTY
  1
CUSTO®60Classic
  9
$CUSTOMPROPERTYTAG
  1
QNT
  9
$CUSTOMPROPERTY
  1
8
  9
$CUSTOMPROPERTYTAG
  1
W
  9
$CUSTOMPROPERTY
  1
42
  9
$CUSTOMPROPERTYTAG
  1
H
  9
$CUSTOMPROPERTY
  1
200
  9
$CUSTOMPROPERTYTAG
  1
D
  9
$CUSTOMPROPERTY
  1
43
  9
$CUSTOMPROPERTYTAG
  1
LINK
  9
$CUSTOMPROPERTY
  1
Product link
  9
$CUSTOMPROPERTYTAG
  1
COMPANY
  9
$CUSTOMPROPERTY
  1
woehner
  9
$REQUIREDVERSIONS
160
                 0
  9
$INSBASE
 10
0.0
 20
0.0
 30
0.0
  9
$EXTMIN
 10
0.0
 20
-137.0
 30
0.0
  9
$EXTMAX
 10
102.0
 20
94.50000000000001
 30
0.0
  9
$LIMMIN
 10
0.0
 20
0.0
  9
$LIMMAX
 10
420.0
 20
297.0
  9
$ORTHOMODE
 70
     0
  9
$REGENMODE
 70
     1
  9
$FILLMODE
 70
     1
  9
$QTEXTMODE
 70
     0
  9
$MIRRTEXT
 70
     1
  9
$LTSCALE
 40
1.0
  9
$ATTMODE
 70
     1
  9
$TEXTSIZE
 40
2.5
  9
$TRACEWID
 40
1.0
  9
$TEXTSTYLE
  7
Standard
  9
$CLAYER
  8
0
  9
$CELTYPE
  6
ByLayer
  9
$CECOLOR
 62
   256
  9
$CELTSCALE
 40
1.0
  9
$DISPSILH
 70
     0
  9
$DIMSCALE
 40
1.0
  9
$DIMASZ
 40
2.5
  9
$DIMEXO
 40
0.625
  9
$DIMDLI
 40
3.75
  9
$DIMRND
 40
0.0
  9
$DIMDLE
 40
0.0
  9
$DIMEXE
 40
1.25
  9
$DIMTP
 40
0.0
  9
$DIMTM
 40
0.0
  9
$DIMTXT
 40
2.5
  9
$DIMCEN
 40
2.5
  9
$DIMTSZ
 40
0.0
  9
$DIMTOL
 70
     0
  9
$DIMLIM
 70
     0
  9
$DIMTIH
 70
     0
  9
$DIMTOH
 70
     0
  9
$DIMSE1
 70
     0
  9
$DIMSE2
 70
     0
  9
$DIMTAD
 70
     1
  9
$DIMZIN
 70
     8
  9
$DIMBLK
  1

  9
$DIMASO
 70
     1
  9
$DIMSHO
 70
     1
  9
$DIMPOST
  1

  9
$DIMAPOST
  1

  9
$DIMALT
 70
     0
  9
$DIMALTD
 70
     3
  9
$DIMALTF
 40
0.03937007874016
  9
$DIMLFAC
 40
1.0
  9
$DIMTOFL
 70
     1
  9
$DIMTVP
 40
0.0
  9
$DIMTIX
 70
     0
  9
$DIMSOXD
 70
     0
  9
$DIMSAH
 70
     0
  9
$DIMBLK1
  1

  9
$DIMBLK2
  1

  9
$DIMSTYLE
  2
ISO-25
  9
$DIMCLRD
 70
     0
  9
$DIMCLRE
 70
     0
  9
$DIMCLRT
 70
     0
  9
$DIMTFAC
 40
1.0
  9
$DIMGAP
 40
0.625
  9
$DIMJUST
 70
     0
  9
$DIMSD1
 70
     0
  9
$DIMSD2
 70
     0
  9
$DIMTOLJ
 70
     0
  9
$DIMTZIN
 70
     8
  9
$DIMALTZ
 70
     0
  9
$DIMALTTZ
 70
     0
  9
$DIMUPT
 70
     0
  9
$DIMDEC
 70
     2
  9
$DIMTDEC
 70
     2
  9
$DIMALTU
 70
     2
  9
$DIMALTTD
 70
     3
  9
$DIMTXSTY
  7
Standard
  9
$DIMAUNIT
 70
     0
  9
$DIMADEC
 70
     0
  9
$DIMALTRND
 40
0.0
  9
$DIMAZIN
 70
     0
  9
$DIMDSEP
 70
    44
  9
$DIMATFIT
 70
     3
  9
$DIMFRAC
 70
     0
  9
$DIMLDRBLK
  1

  9
$DIMLUNIT
 70
     2
  9
$DIMLWD
 70
    -2
  9
$DIMLWE
 70
    -2
  9
$DIMTMOVE
 70
     0
  9
$DIMFXL
 40
1.0
  9
$DIMFXLON
 70
     0
  9
$DIMJOGANG
 40
0.7853981633974483
  9
$DIMTFILL
 70
     0
  9
$DIMTFILLCLR
 70
     0
  9
$DIMARCSYM
 70
     0
  9
$DIMLTYPE
  6

  9
$DIMLTEX1
  6

  9
$DIMLTEX2
  6

  9
$DIMTXTDIRECTION
 70
     0
  9
$LUNITS
 70
     2
  9
$LUPREC
 70
     4
  9
$SKETCHINC
 40
1.0
  9
$FILLETRAD
 40
0.0
  9
$AUNITS
 70
     0
  9
$AUPREC
 70
     0
  9
$MENU
  1
.
  9
$ELEVATION
 40
0.0
  9
$PELEVATION
 40
0.0
  9
$THICKNESS
 40
0.0
  9
$LIMCHECK
 70
     0
  9
$CHAMFERA
 40
0.0
  9
$CHAMFERB
 40
0.0
  9
$CHAMFERC
 40
0.0
  9
$CHAMFERD
 40
0.0
  9
$SKPOLY
 70
     0
  9
$TDCREATE
 40
2460341.63998934
  9
$TDUCREATE
 40
2460341.598322674
  9
$TDUPDATE
 40
2460341.639989711
  9
$TDUUPDATE
 40
2460341.598323044
  9
$TDINDWG
 40
0.0000000116
  9
$TDUSRTIMER
 40
0.0000000116
  9
$USRTIMER
 70
     1
  9
$ANGBASE
 50
0.0
  9
$ANGDIR
 70
     0
  9
$PDMODE
 70
     0
  9
$PDSIZE
 40
0.0
  9
$PLINEWID
 40
0.0
  9
$SPLFRAME
 70
     0
  9
$SPLINETYPE
 70
     6
  9
$SPLINESEGS
 70
     8
  9
$HANDSEED
  5
328
  9
$SURFTAB1
 70
     6
  9
$SURFTAB2
 70
     6
  9
$SURFTYPE
 70
     6
  9
$SURFU
 70
     6
  9
$SURFV
 70
     6
  9
$UCSBASE
  2

  9
$UCSNAME
  2

  9
$UCSORG
 10
0.0
 20
0.0
 30
0.0
  9
$UCSXDIR
 10
1.0
 20
0.0
 30
0.0
  9
$UCSYDIR
 10
0.0
 20
1.0
 30
0.0
  9
$UCSORTHOREF
  2

  9
$UCSORTHOVIEW
 70
     0
  9
$UCSORGTOP
 10
0.0
 20
0.0
 30
0.0
  9
$UCSORGBOTTOM
 10
0.0
 20
0.0
 30
0.0
  9
$UCSORGLEFT
 10
0.0
 20
0.0
 30
0.0
  9
$UCSORGRIGHT
 10
0.0
 20
0.0
 30
0.0
  9
$UCSORGFRONT
 10
0.0
 20
0.0
 30
0.0
  9
$UCSORGBACK
 10
0.0
 20
0.0
 30
0.0
  9
$PUCSBASE
  2

  9
$PUCSNAME
  2

  9
$PUCSORG
 10
0.0
 20
0.0
 30
0.0
  9
$PUCSXDIR
 10
1.0
 20
0.0
 30
0.0
  9
$PUCSYDIR
 10
0.0
 20
1.0
 30
0.0
  9
$PUCSORTHOREF
  2

  9
$PUCSORTHOVIEW
 70
     0
  9
$PUCSORGTOP
 10
0.0
 20
0.0
 30
0.0
  9
$PUCSORGBOTTOM
 10
0.0
 20
0.0
 30
0.0
  9
$PUCSORGLEFT
 10
0.0
 20
0.0
 30
0.0
  9
$PUCSORGRIGHT
 10
0.0
 20
0.0
 30
0.0
  9
$PUCSORGFRONT
 10
0.0
 20
0.0
 30
0.0
  9
$PUCSORGBACK
 10
0.0
 20
0.0
 30
0.0
  9
$USERI1
 70
     0
  9
$USERI2
 70
     0
  9
$USERI3
 70
     0
  9
$USERI4
 70
     0
  9
$USERI5
 70
     0
  9
$USERR1
 40
0.0
  9
$USERR2
 40
0.0
  9
$USERR3
 40
0.0
  9
$USERR4
 40
0.0
  9
$USERR5
 40
0.0
  9
$WORLDVIEW
 70
     1
  9
$SHADEDGE
 70
     3
  9
$SHADEDIF
 70
    70
  9
$TILEMODE
 70
     1
  9
$MAXACTVP
 70
    64
  9
$PINSBASE
 10
0.0
 20
0.0
 30
0.0
  9
$PLIMCHECK
 70
     0
  9
$PEXTMIN
 10
1.000000000000000E+20
 20
1.000000000000000E+20
 30
1.000000000000000E+20
  9
$PEXTMAX
 10
-1.000000000000000E+20
 20
-1.000000000000000E+20
 30
-1.000000000000000E+20
  9
$PLIMMIN
 10
0.0
 20
0.0
  9
$PLIMMAX
 10
420.0
 20
297.0
  9
$UNITMODE
 70
     0
  9
$VISRETAIN
 70
     1
  9
$PLINEGEN
 70
     0
  9
$PSLTSCALE
 70
     1
  9
$TREEDEPTH
 70
  3020
  9
$CMLSTYLE
  2
Standard
  9
$CMLJUST
 70
     0
  9
$CMLSCALE
 40
20.0
  9
$PROXYGRAPHICS
 70
     1
  9
$MEASUREMENT
 70
     1
  9
$CELWEIGHT
370
    -1
  9
$ENDCAPS
280
     0
  9
$JOINSTYLE
280
     0
  9
$LWDISPLAY
290
     0
  9
$INSUNITS
 70
     4
  9
$HYPERLINKBASE
  1

  9
$STYLESHEET
  1

  9
$XEDIT
290
     1
  9
$CEPSNTYPE
380
     0
  9
$PSTYLEMODE
290
     1
  9
$FINGERPRINTGUID
  2
{857087aa-af0e-4822-a609-7d82b1ea12f6}
  9
$VERSIONGUID
  2
{FAEB1C32-E019-11D5-929B-00C0DF256EC4}
  9
$EXTNAMES
290
     1
  9
$PSVPSCALE
 40
0.0
  9
$OLESTARTUP
290
     0
  9
$SORTENTS
280
   127
  9
$INDEXCTL
280
     0
  9
$HIDETEXT
280
     1
  9
$XCLIPFRAME
280
     2
  9
$HALOGAP
280
     0
  9
$OBSCOLOR
 70
   257
  9
$OBSLTYPE
280
     0
  9
$INTERSECTIONDISPLAY
280
     0
  9
$INTERSECTIONCOLOR
 70
   257
  9
$DIMASSOC
280
     2
  9
$PROJECTNAME
  1

  9
$CAMERADISPLAY
290
     0
  9
$LENSLENGTH
 40
50.0
  9
$CAMERAHEIGHT
 40
0.0
  9
$STEPSPERSEC
 40
2.0
  9
$STEPSIZE
 40
6.0
  9
$3DDWFPREC
 40
2.0
  9
$PSOLWIDTH
 40
5.0
  9
$PSOLHEIGHT
 40
80.0
  9
$LOFTANG1
 40
1.570796326794897
  9
$LOFTANG2
 40
1.570796326794897
  9
$LOFTMAG1
 40
0.0
  9
$LOFTMAG2
 40
0.0
  9
$LOFTPARAM
 70
     7
  9
$LOFTNORMALS
280
     1
  9
$LATITUDE
 40
37.795
  9
$LONGITUDE
 40
-122.394
  9
$NORTHDIRECTION
 40
0.0
  9
$TIMEZONE
 70
 -8000
  9
$LIGHTGLYPHDISPLAY
280
     1
  9
$TILEMODELIGHTSYNCH
280
     1
  9
$CMATERIAL
347
44
  9
$SOLIDHIST
280
     0
  9
$SHOWHIST
280
     1
  9
$DWFFRAME
280
     2
  9
$DGNFRAME
280
     2
  9
$REALWORLDSCALE
290
     1
  9
$INTERFERECOLOR
 62
   256
  9
$CSHADOW
280
     0
  9
$SHADOWPLANELOCATION
 40
0.0
  0
ENDSEC
  0
SECTION
  2
CLASSES
  0
CLASS
  1
ACDBDICTIONARYWDFLT
  2
AcDbDictionaryWithDefault
  3
ObjectDBX Classes
 90
        0
 91
        3
280
     0
281
     0
  0
CLASS
  1
VISUALSTYLE
  2
AcDbVisualStyle
  3
ObjectDBX Classes
 90
     4095
 91
        3
280
     0
281
     0
  0
CLASS
  1
MATERIAL
  2
AcDbMaterial
  3
ObjectDBX Classes
 90
     1153
 91
        3
280
     0
281
     0
  0
CLASS
  1
SCALE
  2
AcDbScale
  3
ObjectDBX Classes
 90
     1153
 91
        3
280
     0
281
     0
  0
CLASS
  1
TABLESTYLE
  2
AcDbTableStyle
  3
ObjectDBX Classes
 90
     4095
 91
        3
280
     0
281
     0
  0
CLASS
  1
MLEADERSTYLE
  2
AcDbMLeaderStyle
  3
ACDB_MLEADERSTYLE_CLASS
 90
     4095
 91
        3
280
     0
281
     0
  0
CLASS
  1
SUN
  2
AcDbSun
  3
SCENEOE
 90
     1153
 91
        3
280
     0
281
     0
  0
CLASS
  1
DICTIONARYVAR
  2
AcDbDictionaryVar
  3
ObjectDBX Classes
 90
        0
 91
        3
280
     0
281
     0
  0
CLASS
  1
CELLSTYLEMAP
  2
AcDbCellStyleMap
  3
ObjectDBX Classes
 90
     1152
 91
        3
280
     0
281
     0
  0
ENDSEC
  0
SECTION
  2
TABLES
  0
TABLE
  2
VPORT
  5
8
330
0
100
AcDbSymbolTable
 70
     1
  0
VPORT
  5
29
330
8
100
AcDbSymbolTableRecord
100
AcDbViewportTableRecord
  2
*Active
 70
     0
 10
0.0
 20
0.0
 11
1.0
 21
1.0
 12
51.0
 22
-21.25
 13
0.0
 23
0.0
 14
10.0
 24
10.0
 15
10.0
 25
10.0
 16
0.0
 26
0.0
 36
1.0
 17
0.0
 27
0.0
 37
0.0
 40
236.13
 41
0.4406047516198704
 42
50.0
 43
0.0
 44
0.0
 50
0.0
 51
0.0
 71
     0
 72
   100
 73
     1
 74
     3
 75
     0
 76
     0
 77
     0
 78
     0
281
     0
 65
     1
110
0.0
120
0.0
130
0.0
111
1.0
121
0.0
131
0.0
112
0.0
122
1.0
132
0.0
 79
     0
146
0.0
348
2F
 60
     3
 61
     5
292
     1
282
     1
141
0.0
142
0.0
 63
   250
361
5D
  0
ENDTAB
  0
TABLE
  2
LTYPE
  5
5
330
0
100
AcDbSymbolTable
 70
     3
  0
LTYPE
  5
14
330
5
100
AcDbSymbolTableRecord
100
AcDbLinetypeTableRecord
  2
ByBlock
 70
     0
  3

 72
    65
 73
     0
 40
0.0
  0
LTYPE
  5
15
330
5
100
AcDbSymbolTableRecord
100
AcDbLinetypeTableRecord
  2
ByLayer
 70
     0
  3

 72
    65
 73
     0
 40
0.0
  0
LTYPE
  5
16
330
5
100
AcDbSymbolTableRecord
100
AcDbLinetypeTableRecord
  2
Continuous
 70
     0
  3
Solid line
 72
    65
 73
     0
 40
0.0
  0
LTYPE
  5
89
330
5
100
AcDbSymbolTableRecord
100
AcDbLinetypeTableRecord
  2
Dashed
 70
     0
  3

 72
    65
 73
     2
 40
2.0
 49
1.0
 74
     0
 49
-1.0
 74
     0
  0
LTYPE
  5
AB
330
5
100
AcDbSymbolTableRecord
100
AcDbLinetypeTableRecord
  2
Center
 70
     0
  3

 72
    65
 73
     4
 40
1.5
 49
0.45
 74
     0
 49
-0.5
 74
     0
 49
0.05
 74
     0
 49
-0.5
 74
     0
  0
ENDTAB
  0
TABLE
  2
LAYER
  5
2
330
0
100
AcDbSymbolTable
 70
     9
  0
LAYER
  5
10
330
2
100
AcDbSymbolTableRecord
100
AcDbLayerTableRecord
  2
0
 70
     0
 62
     7
  6
Continuous
370
    -3
390
F
347
46
348
0
  0
LAYER
  5
5E
330
2
100
AcDbSymbolTableRecord
100
AcDbLayerTableRecord
  2
attrib
 70
     0
 62
    -2
  6
Continuous
370
    35
390
F
347
46
348
0
  0
LAYER
  5
8A
330
2
100
AcDbSymbolTableRecord
100
AcDbLayerTableRecord
  2
hidden
 70
     0
 62
    -6
  6
Dashed
370
    25
390
F
347
46
348
0
  0
LAYER
  5
AC
330
2
100
AcDbSymbolTableRecord
100
AcDbLayerTableRecord
  2
center
 70
     0
 62
    -7
  6
Center
370
    25
390
F
347
46
348
0
  0
LAYER
  5
B3
330
2
100
AcDbSymbolTableRecord
100
AcDbLayerTableRecord
  2
bold
 70
     0
 62
     7
  6
Continuous
370
    50
390
F
347
46
348
0
  0
LAYER
  5
1FD
330
2
100
AcDbSymbolTableRecord
100
AcDbLayerTableRecord
  2
light
 70
     0
 62
    -3
  6
Continuous
370
    25
390
F
347
46
348
0
  0
LAYER
  5
2CE
330
2
100
AcDbSymbolTableRecord
100
AcDbLayerTableRecord
  2
dimension
 70
     0
 62
    -5
  6
Continuous
370
    25
390
F
347
46
348
0
  0
LAYER
  5
2D0
330
2
100
AcDbSymbolTableRecord
100
AcDbLayerTableRecord
  2
Defpoints
 70
     0
 62
     7
  6
Continuous
290
     0
370
    -3
390
F
347
46
348
0
  0
LAYER
  5
2F9
330
2
100
AcDbSymbolTableRecord
100
AcDbLayerTableRecord
  2
connection
 70
     0
 62
    -7
  6
Continuous
370
    50
390
F
347
46
348
0
  0
ENDTAB
  0
TABLE
  2
STYLE
  5
3
330
0
100
AcDbSymbolTable
 70
     1
  0
STYLE
  5
11
330
3
100
AcDbSymbolTableRecord
100
AcDbTextStyleTableRecord
  2
Standard
 70
     0
 40
0.0
 41
1.0
 50
0.0
 71
     0
 42
2.5
  3
txt
  4

  0
ENDTAB
  0
TABLE
  2
VIEW
  5
6
330
0
100
AcDbSymbolTable
 70
     0
  0
ENDTAB
  0
TABLE
  2
UCS
  5
7
330
0
100
AcDbSymbolTable
 70
     0
  0
ENDTAB
  0
TABLE
  2
APPID
  5
9
330
0
100
AcDbSymbolTable
 70
     1
  0
APPID
  5
12
330
9
100
AcDbSymbolTableRecord
100
AcDbRegAppTableRecord
  2
ACAD
 70
     0
  0
ENDTAB
  0
TABLE
  2
DIMSTYLE
  5
A
330
0
100
AcDbSymbolTable
 70
     1
100
AcDbDimStyleTable
  0
DIMSTYLE
105
27
102
{ACAD_REACTORS
330
2CF
330
2DD
330
2EB
102
}
330
A
100
AcDbSymbolTableRecord
100
AcDbDimStyleTableRecord
  2
ISO-25
 70
     0
 41
2.5
 42
0.625
 43
3.75
 44
1.25
 73
     0
 74
     0
 77
     1
 78
     8
140
2.5
141
2.5
143
0.03937007874016
147
0.625
171
     3
172
     1
178
     0
271
     2
272
     2
274
     3
278
    44
283
     0
284
     8
340
11
  0
ENDTAB
  0
TABLE
  2
BLOCK_RECORD
  5
1
330
0
100
AcDbSymbolTable
 70
    17
  0
BLOCK_RECORD
  5
1F
330
1
100
AcDbSymbolTableRecord
100
AcDbBlockTableRecord
  2
*Model_Space
340
22
 70
     0
280
     1
281
     0
  0
BLOCK_RECORD
  5
1B
330
1
100
AcDbSymbolTableRecord
100
AcDbBlockTableRecord
  2
*Paper_Space
340
1E
 70
     0
280
     1
281
     0
  0
BLOCK_RECORD
  5
23
330
1
100
AcDbSymbolTableRecord
100
AcDbBlockTableRecord
  2
*Paper_Space0
340
26
 70
     0
280
     1
281
     0
  0
BLOCK_RECORD
  5
73
330
1
100
AcDbSymbolTableRecord
100
AcDbBlockTableRecord
  2
1_31070_0_in_31950_0
340
0
102
{BLKREFS
331
74
102
}
 70
     0
280
     1
281
     0
  0
BLOCK_RECORD
  5
D2
330
1
100
AcDbSymbolTableRecord
100
AcDbBlockTableRecord
  2
2_79192_0_in_31950_0
340
0
102
{BLKREFS
331
D3
102
}
 70
     0
280
     1
281
     0
  0
BLOCK_RECORD
  5
E8
330
1
100
AcDbSymbolTableRecord
100
AcDbBlockTableRecord
  2
3_79184000_0_in_31950_0
340
0
102
{BLKREFS
331
E9
102
}
 70
     0
280
     1
281
     0
  0
BLOCK_RECORD
  5
FE
330
1
100
AcDbSymbolTableRecord
100
AcDbBlockTableRecord
  2
4_75075000_1_0_in_31950_0
340
0
102
{BLKREFS
331
FF
102
}
 70
     0
280
     1
281
     0
  0
BLOCK_RECORD
  5
121
330
1
100
AcDbSymbolTableRecord
100
AcDbBlockTableRecord
  2
5_75075000_2_0_in_31950_0
340
0
102
{BLKREFS
331
122
102
}
 70
     0
280
     1
281
     0
  0
BLOCK_RECORD
  5
144
330
1
100
AcDbSymbolTableRecord
100
AcDbBlockTableRecord
  2
6_75075000_3_0_in_31950_0
340
0
102
{BLKREFS
331
145
102
}
 70
     0
280
     1
281
     0
  0
BLOCK_RECORD
  5
167
330
1
100
AcDbSymbolTableRecord
100
AcDbBlockTableRecord
  2
7_30414000_1_0_in_31950_0
340
0
102
{BLKREFS
331
168
102
}
 70
     0
280
     1
281
     0
  0
BLOCK_RECORD
  5
192
330
1
100
AcDbSymbolTableRecord
100
AcDbBlockTableRecord
  2
8_30414000_2_0_in_31950_0
340
0
102
{BLKREFS
331
193
102
}
 70
     0
280
     1
281
     0
  0
BLOCK_RECORD
  5
1BD
330
1
100
AcDbSymbolTableRecord
100
AcDbBlockTableRecord
  2
9_30414000_3_0_in_31950_0
340
0
102
{BLKREFS
331
1BE
102
}
 70
     0
280
     1
281
     0
  0
BLOCK_RECORD
  5
1E8
330
1
100
AcDbSymbolTableRecord
100
AcDbBlockTableRecord
  2
10_71437000_1_0_in_31950_0
340
0
102
{BLKREFS
331
1E9
102
}
 70
     0
280
     1
281
     0
  0
BLOCK_RECORD
  5
203
330
1
100
AcDbSymbolTableRecord
100
AcDbBlockTableRecord
  2
11_71437000_2_0_in_31950_0
340
0
102
{BLKREFS
331
204
102
}
 70
     0
280
     1
281
     0
  0
BLOCK_RECORD
  5
21D
330
1
100
AcDbSymbolTableRecord
100
AcDbBlockTableRecord
  2
12_71437000_3_0_in_31950_0
340
0
102
{BLKREFS
331
21E
102
}
 70
     0
280
     1
281
     0
  0
BLOCK_RECORD
  5
237
330
1
100
AcDbSymbolTableRecord
100
AcDbBlockTableRecord
  2
13_78546000_0_in_31950_0
340
0
102
{BLKREFS
331
238
102
}
 70
     0
280
     1
281
     0
  0
BLOCK_RECORD
  5
2D1
330
1
100
AcDbSymbolTableRecord
100
AcDbBlockTableRecord
  2
*D14
340
0
 70
     0
280
     1
281
     0
  0
BLOCK_RECORD
  5
2DE
330
1
100
AcDbSymbolTableRecord
100
AcDbBlockTableRecord
  2
*D15
340
0
 70
     0
280
     1
281
     0
  0
BLOCK_RECORD
  5
2EC
330
1
100
AcDbSymbolTableRecord
100
AcDbBlockTableRecord
  2
*D16
340
0
 70
     0
280
     1
281
     0
  0
ENDTAB
  0
ENDSEC
  0
SECTION
  2
BLOCKS
  0
BLOCK
  5
20
330
1F
100
AcDbEntity
  8
0
100
AcDbBlockBegin
  2
*Model_Space
 70
     2
 10
0.0
 20
0.0
 30
0.0
  3
*Model_Space
  1

  0
ENDBLK
  5
21
330
1F
100
AcDbEntity
  8
0
100
AcDbBlockEnd
  0
BLOCK
  5
1C
330
1B
100
AcDbEntity
 67
     1
  8
0
100
AcDbBlockBegin
  2
*Paper_Space
 70
     0
 10
0.0
 20
0.0
 30
0.0
  3
*Paper_Space
  1

  0
ENDBLK
  5
1D
330
1B
100
AcDbEntity
 67
     1
  8
0
100
AcDbBlockEnd
  0
BLOCK
  5
24
330
23
100
AcDbEntity
  8
0
100
AcDbBlockBegin
  2
*Paper_Space0
 70
     0
 10
0.0
 20
0.0
 30
0.0
  3
*Paper_Space0
  1

  0
ENDBLK
  5
25
330
23
100
AcDbEntity
  8
0
100
AcDbBlockEnd
  0
BLOCK
  5
75
330
73
100
AcDbEntity
  8
0
100
AcDbBlockBegin
  2
1_31070_0_in_31950_0
 70
     2
 10
0.0
 20
0.0
 30
0.0
  3
1_31070_0_in_31950_0
  1

  0
ATTDEF
  5
77
330
73
100
AcDbEntity
  8
attrib
100
AcDbText
 10
47.0
 20
94.00000000000001
 30
0.0
 40
0.5
  1
31070
100
AcDbAttributeDefinition
  3

  2
NB
 70
     8
280
     0
  0
ATTDEF
  5
78
330
73
100
AcDbEntity
  8
attrib
100
AcDbText
 10
47.0
 20
93.50000000000001
 30
0.0
 40
0.5
  1
D strip cover
100
AcDbAttributeDefinition
  3

  2
NN
 70
     8
280
     0
  0
ATTDEF
  5
79
330
73
100
AcDbEntity
  8
attrib
100
AcDbText
 10
47.0
 20
93.00000000000001
 30
0.0
 40
0.5
  1

100
AcDbAttributeDefinition
  3

  2
NT
 70
     8
280
     0
  0
ATTDEF
  5
7A
330
73
100
AcDbEntity
  8
attrib
100
AcDbText
 10
47.0
 20
92.50000000000001
 30
0.0
 40
0.5
  1
$ARTNR.
100
AcDbAttributeDefinition
  3

  2
NBSYN
 70
     8
280
     0
  0
ATTDEF
  5
7B
330
73
100
AcDbEntity
  8
attrib
100
AcDbText
 10
47.0
 20
92.00000000000001
 30
0.0
 40
0.5
  1
31070000
100
AcDbAttributeDefinition
  3

  2
LINA
 70
     8
280
     0
  0
ATTDEF
  5
7C
330
73
100
AcDbEntity
  8
attrib
100
AcDbText
 10
47.0
 20
91.50000000000001
 30
0.0
 40
0.5
  1
Wöhner
100
AcDbAttributeDefinition
  3

  2
CATALOG
 70
     8
280
     0
  0
ATTDEF
  5
7D
330
73
100
AcDbEntity
  8
attrib
100
AcDbText
 10
47.0
 20
91.00000000000001
 30
0.0
 40
0.5
  1
31070
100
AcDbAttributeDefinition
  3

  2
ARTNR
 70
     8
280
     0
  0
ATTDEF
  5
7E
330
73
100
AcDbEntity
  8
attrib
100
AcDbText
 10
47.0
 20
90.50000000000001
 30
0.0
 40
0.5
  1
E 27
100
AcDbAttributeDefinition
  3

  2
TYPE
 70
     8
280
     0
  0
ATTDEF
  5
7F
330
73
100
AcDbEntity
  8
attrib
100
AcDbText
 10
47.0
 20
90.00000000000001
 30
0.0
 40
0.5
  1
10
100
AcDbAttributeDefinition
  3

  2
QNT
 70
     8
280
     0
  0
ATTDEF
  5
80
330
73
100
AcDbEntity
  8
attrib
100
AcDbText
 10
47.0
 20
89.50000000000001
 30
0.0
 40
0.5
  1
42
100
AcDbAttributeDefinition
  3

  2
W
 70
     8
280
     0
  0
ATTDEF
  5
81
330
73
100
AcDbEntity
  8
attrib
100
AcDbText
 10
47.0
 20
89.00000000000001
 30
0.0
 40
0.5
  1
200
100
AcDbAttributeDefinition
  3

  2
H
 70
     8
280
     0
  0
ATTDEF
  5
82
330
73
100
AcDbEntity
  8
attrib
100
AcDbText
 10
47.0
 20
88.50000000000001
 30
0.0
 40
0.5
  1
17
100
AcDbAttributeDefinition
  3

  2
D
 70
     8
280
     0
  0
ATTDEF
  5
83
330
73
100
AcDbEntity
  8
attrib
100
AcDbText
 10
47.0
 20
88.00000000000001
 30
0.0
 40
0.5
  1
Product link
100
AcDbAttributeDefinition
  3

  2
LINK
 70
     8
280
     0
  0
ATTDEF
  5
84
330
73
100
AcDbEntity
  8
attrib
100
AcDbText
 10
47.0
 20
87.50000000000001
 30
0.0
 40
0.5
  1
woehner
100
AcDbAttributeDefinition
  3

  2
COMPANY
 70
     8
280
     0
  0
ATTDEF
  5
85
330
73
100
AcDbEntity
  8
attrib
100
AcDbText
 10
47.0
 20
87.00000000000001
 30
0.0
 40
0.5
  1
{$CADENAS_DATA/23d-libs/woehner/sys_60classic/accessories_sys_60classic/d_strip_cover.prj},180 {VTYP=3D},{NB=31070},{LINA=31070000},{NN=D-Streifen-Abdeckung},{DATE=26.01.2024 07:04:30},{GEOMDATE=02.10.2023 13:20:28},{VERSION=v231002115156},{LINEID=10},{WB
100
AcDbAttributeDefinition
  3

  2
PSOL_0
 70
     9
280
     0
  0
ATTDEF
  5
86
330
73
100
AcDbEntity
  8
attrib
100
AcDbText
 10
47.0
 20
86.50000000000001
 30
0.0
 40
0.5
  1
VAR=},{WBNUMERIC=}  {NB=31070},{LINA=31070000},{KT=DUMMY},{BOM=31070000},{ARTNR=31070},{BUSB=},{BE=D strip cover},{POF=},{TYPE=E 27},{QNT=10},{W=42},{H=200},{D=17},{CONCA=},{IPR=},{IPRF=},{SEARCH=},{EDZ=},{IODD=},{DIST=7},{LINK=Product link},{LINKX=https:
100
AcDbAttributeDefinition
  3

  2
PSOL_1
 70
     9
280
     0
  0
ATTDEF
  5
87
330
73
100
AcDbEntity
  8
attrib
100
AcDbText
 10
47.0
 20
86.00000000000001
 30
0.0
 40
0.5
  1
//www.woehner.de/de/produkte/31070.html},{AAO677=Wöhner},{MANUFACTURER_URL=www.woehner.de},{AAQ326=www.woehner.de/de/produkte/31070.html },{AAO676=31070},{EAN=4021267310707},{CTN=85361050},{DESCRIPTION_LONG=D strip cover, E 27, 1-fold, elevated, 42 mm wid
100
AcDbAttributeDefinition
  3

  2
PSOL_2
 70
     9
280
     0
  0
ATTDEF
  5
88
330
73
100
AcDbEntity
  8
attrib
100
AcDbText
 10
47.0
 20
85.50000000000001
 30
0.0
 40
0.5
  1
e},{DESCRIPTION_SHORT=D strip cover}
100
AcDbAttributeDefinition
  3

  2
PSOL_3
 70
     9
280
     0
  0
LINE
  5
8B
330
73
100
AcDbEntity
  8
hidden
100
AcDbLine
 10
2.000000000000002
 20
-104.0
 30
0.0
 11
40.0
 21
-104.0
 31
0.0
  0
LINE
  5
8C
330
73
100
AcDbEntity
  8
hidden
100
AcDbLine
 10
2.000000000000002
 20
92.00000000000001
 30
0.0
 11
40.0
 21
92.00000000000001
 31
0.0
  0
CIRCLE
  5
8D
330
73
100
AcDbEntity
  8
hidden
100
AcDbCircle
 10
21.0
 20
-5.999999999999991
 30
0.0
 40
15.5
  0
CIRCLE
  5
8E
330
73
100
AcDbEntity
  8
hidden
100
AcDbCircle
 10
21.0
 20
54.00000000000001
 30
0.0
 40
15.5
  0
CIRCLE
  5
8F
330
73
100
AcDbEntity
  8
hidden
100
AcDbCircle
 10
21.0
 20
-66.0
 30
0.0
 40
15.5
  0
LINE
  5
90
330
73
100
AcDbEntity
  8
hidden
100
AcDbLine
 10
40.0
 20
88.0692
 30
0.0
 11
40.0
 21
92.00000000000001
 31
0.0
  0
LINE
  5
91
330
73
100
AcDbEntity
  8
hidden
100
AcDbLine
 10
2.000000000000002
 20
88.0692
 30
0.0
 11
2.000000000000002
 21
92.00000000000001
 31
0.0
  0
ARC
  5
92
330
73
100
AcDbEntity
  8
hidden
100
AcDbCircle
 10
21.0
 20
-5.999999999999991
 30
0.0
 40
13.5
100
AcDbArc
 50
151.8213572594888
 51
28.17864274028963
  0
LINE
  5
93
330
73
100
AcDbEntity
  8
hidden
100
AcDbLine
 10
40.0
 20
-104.0
 30
0.0
 11
40.0
 21
-99.9308
 31
0.0
  0
LINE
  5
94
330
73
100
AcDbEntity
  8
hidden
100
AcDbLine
 10
2.000000000000002
 20
-104.0
 30
0.0
 11
2.000000000000002
 21
-99.9308
 31
0.0
  0
ARC
  5
95
330
73
100
AcDbEntity
  8
hidden
100
AcDbCircle
 10
21.0
 20
54.00000000000001
 30
0.0
 40
13.5
100
AcDbArc
 50
151.8213572594792
 51
28.17864274039404
  0
ARC
  5
96
330
73
100
AcDbEntity
  8
hidden
100
AcDbCircle
 10
21.0
 20
-66.0
 30
0.0
 40
13.5
100
AcDbArc
 50
151.8213572595051
 51
28.17864274008268
  0
LINE
  5
97
330
73
100
AcDbEntity
  8
hidden
100
AcDbLine
 10
40.0
 20
78.0692
 30
0.0
 11
40.0
 21
29.0692
 31
0.0
  0
LINE
  5
98
330
73
100
AcDbEntity
  8
hidden
100
AcDbLine
 10
2.000000000000002
 20
29.0692
 30
0.0
 11
2.000000000000002
 21
78.06920000000001
 31
0.0
  0
LINE
  5
99
330
73
100
AcDbEntity
  8
hidden
100
AcDbLine
 10
2.000000000000002
 20
87.00000000000001
 30
0.0
 11
40.0
 21
87.00000000000001
 31
0.0
  0
LINE
  5
9A
330
73
100
AcDbEntity
  8
hidden
100
AcDbLine
 10
40.0
 20
19.0692
 30
0.0
 11
40.0
 21
-30.93079999999999
 31
0.0
  0
LINE
  5
9B
330
73
100
AcDbEntity
  8
hidden
100
AcDbLine
 10
2.000000000000002
 20
-30.93079999999999
 30
0.0
 11
2.000000000000002
 21
19.0692
 31
0.0
  0
LINE
  5
9C
330
73
100
AcDbEntity
  8
hidden
100
AcDbLine
 10
40.0
 20
-99.0
 30
0.0
 11
2.000000000000002
 21
-98.99999999999999
 31
0.0
  0
LINE
  5
9D
330
73
100
AcDbEntity
  8
hidden
100
AcDbLine
 10
40.0
 20
-40.9308
 30
0.0
 11
40.0
 21
-89.9308
 31
0.0
  0
LINE
  5
9E
330
73
100
AcDbEntity
  8
hidden
100
AcDbLine
 10
2.000000000000002
 20
-89.9308
 30
0.0
 11
2.000000000000002
 21
-40.9308
 31
0.0
  0
ARC
  5
9F
330
73
100
AcDbEntity
  8
hidden
100
AcDbCircle
 10
21.0
 20
-5.999999999999993
 30
0.0
 40
20.0
100
AcDbArc
 50
18.19487233876677
 51
161.8051276612332
  0
LINE
  5
A0
330
73
100
AcDbEntity
  8
hidden
100
AcDbLine
 10
2.000000000000002
 20
-28.93080000000003
 30
0.0
 11
40.0
 21
-28.93080000000003
 31
0.0
  0
ARC
  5
A1
330
73
100
AcDbEntity
  8
hidden
100
AcDbCircle
 10
21.0
 20
-6.0
 30
0.0
 40
20.0
100
AcDbArc
 50
198.1948723387667
 51
341.8051276612333
  0
LINE
  5
A2
330
73
100
AcDbEntity
  8
hidden
100
AcDbLine
 10
40.0
 20
-42.9308
 30
0.0
 11
2.000000000000002
 21
-42.9308
 31
0.0
  0
ARC
  5
A3
330
73
100
AcDbEntity
  8
hidden
100
AcDbCircle
 10
21.0
 20
-66.0
 30
0.0
 40
20.0
100
AcDbArc
 50
18.19487233876677
 51
161.8051276612332
  0
LINE
  5
A4
330
73
100
AcDbEntity
  8
hidden
100
AcDbLine
 10
40.0
 20
17.06919999999998
 30
0.0
 11
2.000000000000002
 21
17.06919999999998
 31
0.0
  0
ARC
  5
A5
330
73
100
AcDbEntity
  8
hidden
100
AcDbCircle
 10
21.0
 20
-66.0
 30
0.0
 40
20.0
100
AcDbArc
 50
198.1948723387668
 51
341.8051276612332
  0
ARC
  5
A6
330
73
100
AcDbEntity
  8
hidden
100
AcDbCircle
 10
21.0
 20
53.99999999999996
 30
0.0
 40
19.99999999999999
100
AcDbArc
 50
198.1948723387667
 51
341.8051276612333
  0
LINE
  5
A7
330
73
100
AcDbEntity
  8
hidden
100
AcDbLine
 10
2.000000000000002
 20
-87.9308
 30
0.0
 11
40.0
 21
-87.9308
 31
0.0
  0
LINE
  5
A8
330
73
100
AcDbEntity
  8
hidden
100
AcDbLine
 10
40.0
 20
76.06919999999994
 30
0.0
 11
2.000000000000002
 21
76.06919999999994
 31
0.0
  0
ARC
  5
A9
330
73
100
AcDbEntity
  8
hidden
100
AcDbCircle
 10
21.0
 20
54.00000000000001
 30
0.0
 40
20.0
100
AcDbArc
 50
18.19487233876675
 51
161.8051276612333
  0
LINE
  5
AA
330
73
100
AcDbEntity
  8
hidden
100
AcDbLine
 10
2.000000000000002
 20
31.06919999999995
 30
0.0
 11
40.0
 21
31.06919999999995
 31
0.0
  0
LINE
  5
AD
330
73
100
AcDbEntity
  8
center
100
AcDbLine
 10
2.099999999999994
 20
-5.999999999999991
 30
0.0
 11
39.90000000000001
 21
-5.999999999999991
 31
0.0
  0
LINE
  5
AE
330
73
100
AcDbEntity
  8
center
100
AcDbLine
 10
21.0
 20
-24.9
 30
0.0
 11
21.0
 21
12.90000000000001
 31
0.0
  0
LINE
  5
AF
330
73
100
AcDbEntity
  8
center
100
AcDbLine
 10
2.099999999999994
 20
54.00000000000001
 30
0.0
 11
39.90000000000001
 21
54.00000000000001
 31
0.0
  0
LINE
  5
B0
330
73
100
AcDbEntity
  8
center
100
AcDbLine
 10
21.0
 20
35.1
 30
0.0
 11
21.0
 21
72.9
 31
0.0
  0
LINE
  5
B1
330
73
100
AcDbEntity
  8
center
100
AcDbLine
 10
2.099999999999994
 20
-66.0
 30
0.0
 11
39.90000000000001
 21
-66.0
 31
0.0
  0
LINE
  5
B2
330
73
100
AcDbEntity
  8
center
100
AcDbLine
 10
21.0
 20
-84.9
 30
0.0
 11
21.0
 21
-47.09999999999999
 31
0.0
  0
LINE
  5
B4
330
73
100
AcDbEntity
  8
bold
100
AcDbLine
 10
0.0
 20
-106.0
 30
0.0
 11
0.0
 21
94.00000000000001
 31
0.0
  0
LINE
  5
B5
330
73
100
AcDbEntity
  8
bold
100
AcDbLine
 10
42.0
 20
-106.0
 30
0.0
 11
42.0
 21
94.00000000000001
 31
0.0
  0
LINE
  5
B6
330
73
100
AcDbEntity
  8
bold
100
AcDbLine
 10
42.0
 20
94.00000000000001
 30
0.0
 11
0.0
 21
94.00000000000001
 31
0.0
  0
LINE
  5
B7
330
73
100
AcDbEntity
  8
bold
100
AcDbLine
 10
42.0
 20
-106.0
 30
0.0
 11
0.0
 21
-106.0
 31
0.0
  0
ARC
  5
B8
330
73
100
AcDbEntity
  8
bold
100
AcDbCircle
 10
21.0
 20
-5.999999999999972
 30
0.0
 40
13.49999999999999
100
AcDbArc
 50
28.17864274028955
 51
151.8213572594889
  0
ARC
  5
B9
330
73
100
AcDbEntity
  8
bold
100
AcDbCircle
 10
21.0
 20
53.99999999999997
 30
0.0
 40
13.50000000000001
100
AcDbArc
 50
28.17864274039416
 51
151.8213572594791
  0
ARC
  5
BA
330
73
100
AcDbEntity
  8
bold
100
AcDbCircle
 10
21.0
 20
-65.99999999999999
 30
0.0
 40
13.49999999999999
100
AcDbArc
 50
28.17864274008262
 51
151.8213572595052
  0
LINE
  5
BB
330
73
100
AcDbEntity
  8
bold
100
AcDbLine
 10
42.0
 20
-103.0
 30
0.0
 11
0.0
 21
-103.0
 31
0.0
  0
LINE
  5
BC
330
73
100
AcDbEntity
  8
bold
100
AcDbLine
 10
42.0
 20
91.00000000000001
 30
0.0
 11
0.0
 21
91.00000000000001
 31
0.0
  0
LINE
  5
BD
330
73
100
AcDbEntity
  8
bold
100
AcDbLine
 10
2.000000000000002
 20
19.0692
 30
0.0
 11
2.000000000000002
 21
29.0692
 31
0.0
  0
CIRCLE
  5
BE
330
73
100
AcDbEntity
  8
bold
100
AcDbCircle
 10
21.0
 20
-5.999999999999991
 30
0.0
 40
18.0
  0
CIRCLE
  5
BF
330
73
100
AcDbEntity
  8
bold
100
AcDbCircle
 10
21.0
 20
54.00000000000001
 30
0.0
 40
18.0
  0
CIRCLE
  5
C0
330
73
100
AcDbEntity
  8
bold
100
AcDbCircle
 10
21.0
 20
-66.0
 30
0.0
 40
18.0
  0
LINE
  5
C1
330
73
100
AcDbEntity
  8
bold
100
AcDbLine
 10
42.0
 20
-101.0
 30
0.0
 11
0.0
 21
-101.0
 31
0.0
  0
LINE
  5
C2
330
73
100
AcDbEntity
  8
bold
100
AcDbLine
 10
42.0
 20
89.00000000000001
 30
0.0
 11
0.0
 21
89.00000000000001
 31
0.0
  0
LINE
  5
C3
330
73
100
AcDbEntity
  8
bold
100
AcDbLine
 10
2.000000000000002
 20
-99.9308
 30
0.0
 11
2.000000000000002
 21
-89.93079999999999
 31
0.0
  0
LINE
  5
C4
330
73
100
AcDbEntity
  8
bold
100
AcDbLine
 10
2.000000000000002
 20
-89.93079999999999
 30
0.0
 11
40.0
 21
-89.93079999999999
 31
0.0
  0
LINE
  5
C5
330
73
100
AcDbEntity
  8
bold
100
AcDbLine
 10
40.0
 20
-89.93079999999999
 30
0.0
 11
40.0
 21
-99.9308
 31
0.0
  0
LINE
  5
C6
330
73
100
AcDbEntity
  8
bold
100
AcDbLine
 10
40.0
 20
-99.9308
 30
0.0
 11
2.000000000000002
 21
-99.9308
 31
0.0
  0
LINE
  5
C7
330
73
100
AcDbEntity
  8
bold
100
AcDbLine
 10
2.000000000000002
 20
-40.9308
 30
0.0
 11
2.000000000000002
 21
-30.93079999999999
 31
0.0
  0
LINE
  5
C8
330
73
100
AcDbEntity
  8
bold
100
AcDbLine
 10
2.000000000000002
 20
-30.93079999999999
 30
0.0
 11
40.0
 21
-30.93079999999999
 31
0.0
  0
LINE
  5
C9
330
73
100
AcDbEntity
  8
bold
100
AcDbLine
 10
40.0
 20
-30.93079999999999
 30
0.0
 11
40.0
 21
-40.9308
 31
0.0
  0
LINE
  5
CA
330
73
100
AcDbEntity
  8
bold
100
AcDbLine
 10
40.0
 20
-40.9308
 30
0.0
 11
2.000000000000002
 21
-40.9308
 31
0.0
  0
LINE
  5
CB
330
73
100
AcDbEntity
  8
bold
100
AcDbLine
 10
2.000000000000002
 20
29.0692
 30
0.0
 11
40.0
 21
29.0692
 31
0.0
  0
LINE
  5
CC
330
73
100
AcDbEntity
  8
bold
100
AcDbLine
 10
40.0
 20
29.0692
 30
0.0
 11
40.0
 21
19.0692
 31
0.0
  0
LINE
  5
CD
330
73
100
AcDbEntity
  8
bold
100
AcDbLine
 10
40.0
 20
19.0692
 30
0.0
 11
2.000000000000002
 21
19.0692
 31
0.0
  0
LINE
  5
CE
330
73
100
AcDbEntity
  8
bold
100
AcDbLine
 10
2.000000000000002
 20
78.0692
 30
0.0
 11
2.000000000000002
 21
88.0692
 31
0.0
  0
LINE
  5
CF
330
73
100
AcDbEntity
  8
bold
100
AcDbLine
 10
2.000000000000002
 20
88.0692
 30
0.0
 11
40.0
 21
88.0692
 31
0.0
  0
LINE
  5
D0
330
73
100
AcDbEntity
  8
bold
100
AcDbLine
 10
40.0
 20
88.0692
 30
0.0
 11
40.0
 21
78.0692
 31
0.0
  0
LINE
  5
D1
330
73
100
AcDbEntity
  8
bold
100
AcDbLine
 10
40.0
 20
78.0692
 30
0.0
 11
2.000000000000002
 21
78.0692
 31
0.0
  0
ENDBLK
  5
76
330
73
100
AcDbEntity
  8
0
100
AcDbBlockEnd
  0
BLOCK
  5
D4
330
D2
100
AcDbEntity
  8
0
100
AcDbBlockBegin
  2
2_79192_0_in_31950_0
 70
     2
 10
0.0
 20
0.0
 30
0.0
  3
2_79192_0_in_31950_0
  1

  0
ATTDEF
  5
D6
330
D2
100
AcDbEntity
  8
attrib
100
AcDbText
 10
47.0
 20
-100.0
 30
0.0
 40
0.5
  1
79192
100
AcDbAttributeDefinition
  3

  2
NB
 70
     8
280
     0
  0
ATTDEF
  5
D7
330
D2
100
AcDbEntity
  8
attrib
100
AcDbText
 10
47.0
 20
-100.5
 30
0.0
 40
0.5
  1
CUSTO60 Bracket
100
AcDbAttributeDefinition
  3

  2
NN
 70
     8
280
     0
  0
ATTDEF
  5
D8
330
D2
100
AcDbEntity
  8
attrib
100
AcDbText
 10
47.0
 20
-101.0
 30
0.0
 40
0.5
  1

100
AcDbAttributeDefinition
  3

  2
NT
 70
     8
280
     0
  0
ATTDEF
  5
D9
330
D2
100
AcDbEntity
  8
attrib
100
AcDbText
 10
47.0
 20
-101.5
 30
0.0
 40
0.5
  1
$ARTNR.
100
AcDbAttributeDefinition
  3

  2
NBSYN
 70
     8
280
     0
  0
ATTDEF
  5
DA
330
D2
100
AcDbEntity
  8
attrib
100
AcDbText
 10
47.0
 20
-102.0
 30
0.0
 40
0.5
  1
79192
100
AcDbAttributeDefinition
  3

  2
LINA
 70
     8
280
     0
  0
ATTDEF
  5
DB
330
D2
100
AcDbEntity
  8
attrib
100
AcDbText
 10
47.0
 20
-102.5
 30
0.0
 40
0.5
  1
Wöhner
100
AcDbAttributeDefinition
  3

  2
CATALOG
 70
     8
280
     0
  0
ATTDEF
  5
DC
330
D2
100
AcDbEntity
  8
attrib
100
AcDbText
 10
47.0
 20
-103.0
 30
0.0
 40
0.5
  1
79192
100
AcDbAttributeDefinition
  3

  2
ARTNR
 70
     8
280
     0
  0
ATTDEF
  5
DD
330
D2
100
AcDbEntity
  8
attrib
100
AcDbText
 10
47.0
 20
-103.5
 30
0.0
 40
0.5
  1
CUSTO®60Classic
100
AcDbAttributeDefinition
  3

  2
POF
 70
     8
280
     0
  0
ATTDEF
  5
DE
330
D2
100
AcDbEntity
  8
attrib
100
AcDbText
 10
47.0
 20
-104.0
 30
0.0
 40
0.5
  1
E 27 / 3P
100
AcDbAttributeDefinition
  3

  2
TYPE
 70
     8
280
     0
  0
ATTDEF
  5
DF
330
D2
100
AcDbEntity
  8
attrib
100
AcDbText
 10
47.0
 20
-104.5
 30
0.0
 40
0.5
  1
1
100
AcDbAttributeDefinition
  3

  2
VER
 70
     8
280
     0
  0
ATTDEF
  5
E0
330
D2
100
AcDbEntity
  8
attrib
100
AcDbText
 10
47.0
 20
-105.0
 30
0.0
 40
0.5
  1
woehner
100
AcDbAttributeDefinition
  3

  2
COMPANY
 70
     8
280
     0
  0
ATTDEF
  5
E1
330
D2
100
AcDbEntity
  8
attrib
100
AcDbText
 10
47.0
 20
-105.5
 30
0.0
 40
0.5
  1
{$CADENAS_DATA/23d-libs/woehner/sys_60classic/d_fuse_bases/parts/d_fuse_base_custo_bracket2.prj},160 {VTYP=3D},{NB=79192},{LINA=79192},{NN=CUSTO60 Bracket},{DATE=26.01.2024 06:39:58},{GEOMDATE=06.12.2022 13:02:00},{VERSION=},{LINEID=380},{WBVAR=},{WBNUMER
100
AcDbAttributeDefinition
  3

  2
PSOL_0
 70
     9
280
     0
  0
ATTDEF
  5
E2
330
D2
100
AcDbEntity
  8
attrib
100
AcDbText
 10
47.0
 20
-106.0
 30
0.0
 40
0.5
  1
IC=}  {NB=79192},{LINA=79192},{KT=DUMMY},{ARTNR=79192},{POF=CUSTO®60Classic},{TYPE=E 27 / 3P},{VER=1}
100
AcDbAttributeDefinition
  3

  2
PSOL_1
 70
     9
280
     0
  0
LINE
  5
E3
330
D2
100
AcDbEntity
  8
hidden
100
AcDbLine
 10
2.0
 20
-102.0
 30
0.0
 11
0.0
 21
-102.0
 31
0.0
  0
LINE
  5
E4
330
D2
100
AcDbEntity
  8
hidden
100
AcDbLine
 10
42.0
 20
-102.0
 30
0.0
 11
40.0
 21
-102.0
 31
0.0
  0
LINE
  5
E5
330
D2
100
AcDbEntity
  8
hidden
100
AcDbLine
 10
42.0
 20
-100.0
 30
0.0
 11
0.0
 21
-100.0
 31
0.0
  0
LINE
  5
E6
330
D2
100
AcDbEntity
  8
hidden
100
AcDbLine
 10
2.000000000000021
 20
-104.0
 30
0.0
 11
0.0
 21
-104.0
 31
0.0
  0
LINE
  5
E7
330
D2
100
AcDbEntity
  8
hidden
100
AcDbLine
 10
42.0
 20
-104.0
 30
0.0
 11
40.0
 21
-104.0
 31
0.0
  0
ENDBLK
  5
D5
330
D2
100
AcDbEntity
  8
0
100
AcDbBlockEnd
  0
BLOCK
  5
EA
330
E8
100
AcDbEntity
  8
0
100
AcDbBlockBegin
  2
3_79184000_0_in_31950_0
 70
     2
 10
0.0
 20
0.0
 30
0.0
  3
3_79184000_0_in_31950_0
  1

  0
ATTDEF
  5
EC
330
E8
100
AcDbEntity
  8
attrib
100
AcDbText
 10
47.0
 20
93.0
 30
0.0
 40
0.5
  1
79184000
100
AcDbAttributeDefinition
  3

  2
NB
 70
     8
280
     0
  0
ATTDEF
  5
ED
330
E8
100
AcDbEntity
  8
attrib
100
AcDbText
 10
47.0
 20
92.5
 30
0.0
 40
0.5
  1
CUSTO60 Bracket
100
AcDbAttributeDefinition
  3

  2
NN
 70
     8
280
     0
  0
ATTDEF
  5
EE
330
E8
100
AcDbEntity
  8
attrib
100
AcDbText
 10
47.0
 20
92.0
 30
0.0
 40
0.5
  1

100
AcDbAttributeDefinition
  3

  2
NT
 70
     8
280
     0
  0
ATTDEF
  5
EF
330
E8
100
AcDbEntity
  8
attrib
100
AcDbText
 10
47.0
 20
91.5
 30
0.0
 40
0.5
  1
$ARTNR.
100
AcDbAttributeDefinition
  3

  2
NBSYN
 70
     8
280
     0
  0
ATTDEF
  5
F0
330
E8
100
AcDbEntity
  8
attrib
100
AcDbText
 10
47.0
 20
91.0
 30
0.0
 40
0.5
  1
79184000
100
AcDbAttributeDefinition
  3

  2
LINA
 70
     8
280
     0
  0
ATTDEF
  5
F1
330
E8
100
AcDbEntity
  8
attrib
100
AcDbText
 10
47.0
 20
90.5
 30
0.0
 40
0.5
  1
Wöhner
100
AcDbAttributeDefinition
  3

  2
CATALOG
 70
     8
280
     0
  0
ATTDEF
  5
F2
330
E8
100
AcDbEntity
  8
attrib
100
AcDbText
 10
47.0
 20
90.0
 30
0.0
 40
0.5
  1
79184000
100
AcDbAttributeDefinition
  3

  2
ARTNR
 70
     8
280
     0
  0
ATTDEF
  5
F3
330
E8
100
AcDbEntity
  8
attrib
100
AcDbText
 10
47.0
 20
89.5
 30
0.0
 40
0.5
  1
CUSTO®60Classic
100
AcDbAttributeDefinition
  3

  2
POF
 70
     8
280
     0
  0
ATTDEF
  5
F4
330
E8
100
AcDbEntity
  8
attrib
100
AcDbText
 10
47.0
 20
89.0
 30
0.0
 40
0.5
  1
E 27 / 3P
100
AcDbAttributeDefinition
  3

  2
TYPE
 70
     8
280
     0
  0
ATTDEF
  5
F5
330
E8
100
AcDbEntity
  8
attrib
100
AcDbText
 10
47.0
 20
88.5
 30
0.0
 40
0.5
  1
1
100
AcDbAttributeDefinition
  3

  2
VER
 70
     8
280
     0
  0
ATTDEF
  5
F6
330
E8
100
AcDbEntity
  8
attrib
100
AcDbText
 10
47.0
 20
88.0
 30
0.0
 40
0.5
  1
woehner
100
AcDbAttributeDefinition
  3

  2
COMPANY
 70
     8
280
     0
  0
ATTDEF
  5
F7
330
E8
100
AcDbEntity
  8
attrib
100
AcDbText
 10
47.0
 20
87.5
 30
0.0
 40
0.5
  1
{$CADENAS_DATA/23d-libs/woehner/sys_60classic/d_fuse_bases/parts/d_fuse_base_custo_bracket1.prj},166 {VTYP=3D},{NB=79184000},{LINA=79184000},{NN=CUSTO60 Bracket},{DATE=26.01.2024 06:39:58},{GEOMDATE=06.12.2022 12:58:00},{VERSION=},{LINEID=380},{WBVAR=},{W
100
AcDbAttributeDefinition
  3

  2
PSOL_0
 70
     9
280
     0
  0
ATTDEF
  5
F8
330
E8
100
AcDbEntity
  8
attrib
100
AcDbText
 10
47.0
 20
87.0
 30
0.0
 40
0.5
  1
BNUMERIC=}  {NB=79184000},{LINA=79184000},{KT=DUMMY},{ARTNR=79184000},{POF=CUSTO®60Classic},{TYPE=E 27 / 3P},{VER=1}
100
AcDbAttributeDefinition
  3

  2
PSOL_1
 70
     9
280
     0
  0
LINE
  5
F9
330
E8
100
AcDbEntity
  8
hidden
100
AcDbLine
 10
1.000000000000001
 20
76.0
 30
0.0
 11
41.0
 21
76.0
 31
0.0
  0
LINE
  5
FA
330
E8
100
AcDbEntity
  8
hidden
100
AcDbLine
 10
1.000000000000001
 20
93.0
 30
0.0
 11
1.000000000000001
 21
75.0
 31
0.0
  0
LINE
  5
FB
330
E8
100
AcDbEntity
  8
hidden
100
AcDbLine
 10
42.0
 20
75.0
 30
0.0
 11
0.0000000000000069
 21
75.0
 31
0.0
  0
LINE
  5
FC
330
E8
100
AcDbEntity
  8
hidden
100
AcDbLine
 10
41.0
 20
93.0
 30
0.0
 11
1.000000000000001
 21
93.0
 31
0.0
  0
LINE
  5
FD
330
E8
100
AcDbEntity
  8
hidden
100
AcDbLine
 10
41.0
 20
93.0
 30
0.0
 11
41.0
 21
75.0
 31
0.0
  0
ENDBLK
  5
EB
330
E8
100
AcDbEntity
  8
0
100
AcDbBlockEnd
  0
BLOCK
  5
100
330
FE
100
AcDbEntity
  8
0
100
AcDbBlockBegin
  2
4_75075000_1_0_in_31950_0
 70
     2
 10
0.0
 20
0.0
 30
0.0
  3
4_75075000_1_0_in_31950_0
  1

  0
ATTDEF
  5
102
330
FE
100
AcDbEntity
  8
attrib
100
AcDbText
 10
42.8
 20
-50.85249999999998
 30
0.0
 40
0.5
  1
75075000
100
AcDbAttributeDefinition
  3

  2
NB
 70
     8
280
     0
  0
ATTDEF
  5
103
330
FE
100
AcDbEntity
  8
attrib
100
AcDbText
 10
42.8
 20
-51.35249999999998
 30
0.0
 40
0.5
  1
CUSTO60 Part
100
AcDbAttributeDefinition
  3

  2
NN
 70
     8
280
     0
  0
ATTDEF
  5
104
330
FE
100
AcDbEntity
  8
attrib
100
AcDbText
 10
42.8
 20
-51.85249999999998
 30
0.0
 40
0.5
  1

100
AcDbAttributeDefinition
  3

  2
NT
 70
     8
280
     0
  0
ATTDEF
  5
105
330
FE
100
AcDbEntity
  8
attrib
100
AcDbText
 10
42.8
 20
-52.35249999999998
 30
0.0
 40
0.5
  1
$ARTNR.
100
AcDbAttributeDefinition
  3

  2
NBSYN
 70
     8
280
     0
  0
ATTDEF
  5
106
330
FE
100
AcDbEntity
  8
attrib
100
AcDbText
 10
42.8
 20
-52.85249999999998
 30
0.0
 40
0.5
  1
75075000
100
AcDbAttributeDefinition
  3

  2
LINA
 70
     8
280
     0
  0
ATTDEF
  5
107
330
FE
100
AcDbEntity
  8
attrib
100
AcDbText
 10
42.8
 20
-53.35249999999998
 30
0.0
 40
0.5
  1
Wöhner
100
AcDbAttributeDefinition
  3

  2
CATALOG
 70
     8
280
     0
  0
ATTDEF
  5
108
330
FE
100
AcDbEntity
  8
attrib
100
AcDbText
 10
42.8
 20
-53.85249999999998
 30
0.0
 40
0.5
  1
75075000
100
AcDbAttributeDefinition
  3

  2
ARTNR
 70
     8
280
     0
  0
ATTDEF
  5
109
330
FE
100
AcDbEntity
  8
attrib
100
AcDbText
 10
42.8
 20
-54.35249999999998
 30
0.0
 40
0.5
  1
CUSTO®60Classic
100
AcDbAttributeDefinition
  3

  2
POF
 70
     8
280
     0
  0
ATTDEF
  5
10A
330
FE
100
AcDbEntity
  8
attrib
100
AcDbText
 10
42.8
 20
-54.85249999999998
 30
0.0
 40
0.5
  1
E 27 / 3P
100
AcDbAttributeDefinition
  3

  2
TYPE
 70
     8
280
     0
  0
ATTDEF
  5
10B
330
FE
100
AcDbEntity
  8
attrib
100
AcDbText
 10
42.8
 20
-55.35249999999998
 30
0.0
 40
0.5
  1
1
100
AcDbAttributeDefinition
  3

  2
VER
 70
     8
280
     0
  0
ATTDEF
  5
10C
330
FE
100
AcDbEntity
  8
attrib
100
AcDbText
 10
42.8
 20
-55.85249999999998
 30
0.0
 40
0.5
  1
woehner
100
AcDbAttributeDefinition
  3

  2
COMPANY
 70
     8
280
     0
  0
ATTDEF
  5
10D
330
FE
100
AcDbEntity
  8
attrib
100
AcDbText
 10
42.8
 20
-56.35249999999998
 30
0.0
 40
0.5
  1
{$CADENAS_DATA/23d-libs/woehner/sys_60classic/d_fuse_bases/parts/d_fuse_base_custo_part3.prj},163 {VTYP=3D},{NB=75075000},{LINA=75075000},{NN=CUSTO60 Part},{DATE=26.01.2024 06:39:58},{GEOMDATE=06.12.2022 14:24:00},{VERSION=},{LINEID=380},{WBVAR=},{WBNUMER
100
AcDbAttributeDefinition
  3

  2
PSOL_0
 70
     9
280
     0
  0
ATTDEF
  5
10E
330
FE
100
AcDbEntity
  8
attrib
100
AcDbText
 10
42.8
 20
-56.85249999999998
 30
0.0
 40
0.5
  1
IC=}  {NB=75075000},{LINA=75075000},{KT=DUMMY},{ARTNR=75075000},{POF=CUSTO®60Classic},{TYPE=E 27 / 3P},{VER=1}
100
AcDbAttributeDefinition
  3

  2
PSOL_1
 70
     9
280
     0
  0
ARC
  5
10F
330
FE
100
AcDbEntity
  8
hidden
100
AcDbCircle
 10
35.15569999999998
 20
-81.19479999999999
 30
0.0
 40
2.000000000000017
100
AcDbArc
 50
257.5143010172085
 51
353.0489939849941
  0
LINE
  5
110
330
FE
100
AcDbEntity
  8
hidden
100
AcDbLine
 10
37.141
 20
-81.43684113286797
 30
0.0
 11
37.141
 21
-66.53488249871664
 31
0.0
  0
CIRCLE
  5
111
330
FE
100
AcDbEntity
  8
hidden
100
AcDbCircle
 10
35.1557
 20
-81.19480000000001
 30
0.0
 40
1.5
  0
LINE
  5
112
330
FE
100
AcDbEntity
  8
hidden
100
AcDbLine
 10
21.08036815289642
 20
-50.85249999999999
 30
0.0
 11
6.575396252403826
 21
-50.8525
 31
0.0
  0
ARC
  5
113
330
FE
100
AcDbEntity
  8
hidden
100
AcDbCircle
 10
6.810900520023244
 20
-52.83858603538042
 30
0.0
 40
2.000000000000015
100
AcDbArc
 50
96.76238952272249
 51
192.591198636671
  0
LINE
  5
114
330
FE
100
AcDbEntity
  8
hidden
100
AcDbLine
 10
4.859000000000002
 20
-53.27457268647543
 30
0.0
 11
4.859000000000002
 21
-66.53488249871664
 31
0.0
  0
ARC
  5
115
330
FE
100
AcDbEntity
  8
hidden
100
AcDbCircle
 10
21.00000000000001
 20
-67.0
 30
0.0
 40
16.14770000000001
100
AcDbArc
 50
178.3494270897599
 51
270.2851659975916
  0
LINE
  5
116
330
FE
100
AcDbEntity
  8
hidden
100
AcDbLine
 10
21.08036815289642
 20
-83.14750000000001
 30
0.0
 11
34.72330815225076
 21
-83.14750000000001
 31
0.0
  0
ARC
  5
117
330
FE
100
AcDbEntity
  8
hidden
100
AcDbCircle
 10
21.00000000000001
 20
-66.99999999999997
 30
0.0
 40
16.14769999999999
100
AcDbArc
 50
1.650572910240002
 51
89.71483400240852
  0
CIRCLE
  5
118
330
FE
100
AcDbEntity
  8
hidden
100
AcDbCircle
 10
21.0
 20
-67.0
 30
0.0
 40
16.0
  0
CIRCLE
  5
119
330
FE
100
AcDbEntity
  8
hidden
100
AcDbCircle
 10
6.810900520023232
 20
-52.8385860353804
 30
0.0
 40
1.499999999999998
  0
LINE
  5
11A
330
FE
100
AcDbEntity
  8
center
100
AcDbLine
 10
33.58069999999999
 20
-81.19480000000001
 30
0.0
 11
36.7307
 21
-81.19480000000001
 31
0.0
  0
LINE
  5
11B
330
FE
100
AcDbEntity
  8
center
100
AcDbLine
 10
35.1557
 20
-82.76980000000002
 30
0.0
 11
35.1557
 21
-79.61980000000001
 31
0.0
  0
LINE
  5
11C
330
FE
100
AcDbEntity
  8
center
100
AcDbLine
 10
4.199999999999999
 20
-67.0
 30
0.0
 11
37.8
 21
-67.0
 31
0.0
  0
LINE
  5
11D
330
FE
100
AcDbEntity
  8
center
100
AcDbLine
 10
5.235900520023234
 20
-52.8385860353804
 30
0.0
 11
8.38590052002323
 21
-52.8385860353804
 31
0.0
  0
LINE
  5
11E
330
FE
100
AcDbEntity
  8
center
100
AcDbLine
 10
6.810900520023232
 20
-54.4135860353804
 30
0.0
 11
6.810900520023232
 21
-51.26358603538041
 31
0.0
  0
CIRCLE
  5
11F
330
FE
100
AcDbEntity
  8
bold
100
AcDbCircle
 10
21.0
 20
-67.0
 30
0.0
 40
14.0
  0
CIRCLE
  5
120
330
FE
100
AcDbEntity
  8
bold
100
AcDbCircle
 10
21.0
 20
-67.0
 30
0.0
 40
12.0
  0
ENDBLK
  5
101
330
FE
100
AcDbEntity
  8
0
100
AcDbBlockEnd
  0
BLOCK
  5
123
330
121
100
AcDbEntity
  8
0
100
AcDbBlockBegin
  2
5_75075000_2_0_in_31950_0
 70
     2
 10
0.0
 20
0.0
 30
0.0
  3
5_75075000_2_0_in_31950_0
  1

  0
ATTDEF
  5
125
330
121
100
AcDbEntity
  8
attrib
100
AcDbText
 10
42.8
 20
9.147500000000008
 30
0.0
 40
0.5
  1
75075000
100
AcDbAttributeDefinition
  3

  2
NB
 70
     8
280
     0
  0
ATTDEF
  5
126
330
121
100
AcDbEntity
  8
attrib
100
AcDbText
 10
42.8
 20
8.647500000000008
 30
0.0
 40
0.5
  1
CUSTO60 Part
100
AcDbAttributeDefinition
  3

  2
NN
 70
     8
280
     0
  0
ATTDEF
  5
127
330
121
100
AcDbEntity
  8
attrib
100
AcDbText
 10
42.8
 20
8.147500000000008
 30
0.0
 40
0.5
  1

100
AcDbAttributeDefinition
  3

  2
NT
 70
     8
280
     0
  0
ATTDEF
  5
128
330
121
100
AcDbEntity
  8
attrib
100
AcDbText
 10
42.8
 20
7.647500000000008
 30
0.0
 40
0.5
  1
$ARTNR.
100
AcDbAttributeDefinition
  3

  2
NBSYN
 70
     8
280
     0
  0
ATTDEF
  5
129
330
121
100
AcDbEntity
  8
attrib
100
AcDbText
 10
42.8
 20
7.147500000000008
 30
0.0
 40
0.5
  1
75075000
100
AcDbAttributeDefinition
  3

  2
LINA
 70
     8
280
     0
  0
ATTDEF
  5
12A
330
121
100
AcDbEntity
  8
attrib
100
AcDbText
 10
42.8
 20
6.647500000000008
 30
0.0
 40
0.5
  1
Wöhner
100
AcDbAttributeDefinition
  3

  2
CATALOG
 70
     8
280
     0
  0
ATTDEF
  5
12B
330
121
100
AcDbEntity
  8
attrib
100
AcDbText
 10
42.8
 20
6.147500000000008
 30
0.0
 40
0.5
  1
75075000
100
AcDbAttributeDefinition
  3

  2
ARTNR
 70
     8
280
     0
  0
ATTDEF
  5
12C
330
121
100
AcDbEntity
  8
attrib
100
AcDbText
 10
42.8
 20
5.647500000000008
 30
0.0
 40
0.5
  1
CUSTO®60Classic
100
AcDbAttributeDefinition
  3

  2
POF
 70
     8
280
     0
  0
ATTDEF
  5
12D
330
121
100
AcDbEntity
  8
attrib
100
AcDbText
 10
42.8
 20
5.147500000000008
 30
0.0
 40
0.5
  1
E 27 / 3P
100
AcDbAttributeDefinition
  3

  2
TYPE
 70
     8
280
     0
  0
ATTDEF
  5
12E
330
121
100
AcDbEntity
  8
attrib
100
AcDbText
 10
42.8
 20
4.647500000000008
 30
0.0
 40
0.5
  1
1
100
AcDbAttributeDefinition
  3

  2
VER
 70
     8
280
     0
  0
ATTDEF
  5
12F
330
121
100
AcDbEntity
  8
attrib
100
AcDbText
 10
42.8
 20
4.147500000000008
 30
0.0
 40
0.5
  1
woehner
100
AcDbAttributeDefinition
  3

  2
COMPANY
 70
     8
280
     0
  0
ATTDEF
  5
130
330
121
100
AcDbEntity
  8
attrib
100
AcDbText
 10
42.8
 20
3.647500000000008
 30
0.0
 40
0.5
  1
{$CADENAS_DATA/23d-libs/woehner/sys_60classic/d_fuse_bases/parts/d_fuse_base_custo_part3.prj},163 {VTYP=3D},{NB=75075000},{LINA=75075000},{NN=CUSTO60 Part},{DATE=26.01.2024 06:39:58},{GEOMDATE=06.12.2022 14:24:00},{VERSION=},{LINEID=380},{WBVAR=},{WBNUMER
100
AcDbAttributeDefinition
  3

  2
PSOL_0
 70
     9
280
     0
  0
ATTDEF
  5
131
330
121
100
AcDbEntity
  8
attrib
100
AcDbText
 10
42.8
 20
3.147500000000008
 30
0.0
 40
0.5
  1
IC=}  {NB=75075000},{LINA=75075000},{KT=DUMMY},{ARTNR=75075000},{POF=CUSTO®60Classic},{TYPE=E 27 / 3P},{VER=1}
100
AcDbAttributeDefinition
  3

  2
PSOL_1
 70
     9
280
     0
  0
CIRCLE
  5
132
330
121
100
AcDbEntity
  8
hidden
100
AcDbCircle
 10
35.1557
 20
-21.1948
 30
0.0
 40
1.5
  0
LINE
  5
133
330
121
100
AcDbEntity
  8
hidden
100
AcDbLine
 10
21.08036815289642
 20
9.147500000000006
 30
0.0
 11
6.575396252403826
 21
9.147500000000003
 31
0.0
  0
ARC
  5
134
330
121
100
AcDbEntity
  8
hidden
100
AcDbCircle
 10
6.810900520023235
 20
7.161413964619594
 30
0.0
 40
2.000000000000005
100
AcDbArc
 50
96.76238952272229
 51
192.5911986366714
  0
LINE
  5
135
330
121
100
AcDbEntity
  8
hidden
100
AcDbLine
 10
4.859000000000002
 20
6.725427313524571
 30
0.0
 11
4.859000000000002
 21
-6.534882498716639
 31
0.0
  0
ARC
  5
136
330
121
100
AcDbEntity
  8
hidden
100
AcDbCircle
 10
21.0
 20
-7.000000000000002
 30
0.0
 40
16.1477
100
AcDbArc
 50
178.3494270897599
 51
270.2851659975916
  0
LINE
  5
137
330
121
100
AcDbEntity
  8
hidden
100
AcDbLine
 10
21.08036815289642
 20
-23.1475
 30
0.0
 11
34.72330815225076
 21
-23.1475
 31
0.0
  0
ARC
  5
138
330
121
100
AcDbEntity
  8
hidden
100
AcDbCircle
 10
35.1557
 20
-21.19480000000001
 30
0.0
 40
1.999999999999993
100
AcDbArc
 50
257.5143010172079
 51
353.0489939849948
  0
LINE
  5
139
330
121
100
AcDbEntity
  8
hidden
100
AcDbLine
 10
37.141
 20
-21.43684113286796
 30
0.0
 11
37.141
 21
-6.534882498716637
 31
0.0
  0
ARC
  5
13A
330
121
100
AcDbEntity
  8
hidden
100
AcDbCircle
 10
20.99999999999999
 20
-7.000000000000004
 30
0.0
 40
16.14770000000001
100
AcDbArc
 50
1.650572910240129
 51
89.71483400240842
  0
CIRCLE
  5
13B
330
121
100
AcDbEntity
  8
hidden
100
AcDbCircle
 10
21.0
 20
-7.0
 30
0.0
 40
16.0
  0
CIRCLE
  5
13C
330
121
100
AcDbEntity
  8
hidden
100
AcDbCircle
 10
6.810900520023229
 20
7.161413964619599
 30
0.0
 40
1.500000000000001
  0
LINE
  5
13D
330
121
100
AcDbEntity
  8
center
100
AcDbLine
 10
33.58069999999999
 20
-21.1948
 30
0.0
 11
36.7307
 21
-21.1948
 31
0.0
  0
LINE
  5
13E
330
121
100
AcDbEntity
  8
center
100
AcDbLine
 10
35.1557
 20
-22.7698
 30
0.0
 11
35.1557
 21
-19.6198
 31
0.0
  0
LINE
  5
13F
330
121
100
AcDbEntity
  8
center
100
AcDbLine
 10
4.199999999999999
 20
-7.0
 30
0.0
 11
37.8
 21
-7.0
 31
0.0
  0
LINE
  5
140
330
121
100
AcDbEntity
  8
center
100
AcDbLine
 10
5.235900520023228
 20
7.161413964619599
 30
0.0
 11
8.385900520023231
 21
7.161413964619599
 31
0.0
  0
LINE
  5
141
330
121
100
AcDbEntity
  8
center
100
AcDbLine
 10
6.810900520023229
 20
5.586413964619598
 30
0.0
 11
6.810900520023229
 21
8.7364139646196
 31
0.0
  0
CIRCLE
  5
142
330
121
100
AcDbEntity
  8
bold
100
AcDbCircle
 10
21.0
 20
-7.0
 30
0.0
 40
14.0
  0
CIRCLE
  5
143
330
121
100
AcDbEntity
  8
bold
100
AcDbCircle
 10
21.0
 20
-7.0
 30
0.0
 40
12.0
  0
ENDBLK
  5
124
330
121
100
AcDbEntity
  8
0
100
AcDbBlockEnd
  0
BLOCK
  5
146
330
144
100
AcDbEntity
  8
0
100
AcDbBlockBegin
  2
6_75075000_3_0_in_31950_0
 70
     2
 10
0.0
 20
0.0
 30
0.0
  3
6_75075000_3_0_in_31950_0
  1

  0
ATTDEF
  5
148
330
144
100
AcDbEntity
  8
attrib
100
AcDbText
 10
42.8
 20
69.1475
 30
0.0
 40
0.5
  1
75075000
100
AcDbAttributeDefinition
  3

  2
NB
 70
     8
280
     0
  0
ATTDEF
  5
149
330
144
100
AcDbEntity
  8
attrib
100
AcDbText
 10
42.8
 20
68.6475
 30
0.0
 40
0.5
  1
CUSTO60 Part
100
AcDbAttributeDefinition
  3

  2
NN
 70
     8
280
     0
  0
ATTDEF
  5
14A
330
144
100
AcDbEntity
  8
attrib
100
AcDbText
 10
42.8
 20
68.1475
 30
0.0
 40
0.5
  1

100
AcDbAttributeDefinition
  3

  2
NT
 70
     8
280
     0
  0
ATTDEF
  5
14B
330
144
100
AcDbEntity
  8
attrib
100
AcDbText
 10
42.8
 20
67.6475
 30
0.0
 40
0.5
  1
$ARTNR.
100
AcDbAttributeDefinition
  3

  2
NBSYN
 70
     8
280
     0
  0
ATTDEF
  5
14C
330
144
100
AcDbEntity
  8
attrib
100
AcDbText
 10
42.8
 20
67.1475
 30
0.0
 40
0.5
  1
75075000
100
AcDbAttributeDefinition
  3

  2
LINA
 70
     8
280
     0
  0
ATTDEF
  5
14D
330
144
100
AcDbEntity
  8
attrib
100
AcDbText
 10
42.8
 20
66.6475
 30
0.0
 40
0.5
  1
Wöhner
100
AcDbAttributeDefinition
  3

  2
CATALOG
 70
     8
280
     0
  0
ATTDEF
  5
14E
330
144
100
AcDbEntity
  8
attrib
100
AcDbText
 10
42.8
 20
66.1475
 30
0.0
 40
0.5
  1
75075000
100
AcDbAttributeDefinition
  3

  2
ARTNR
 70
     8
280
     0
  0
ATTDEF
  5
14F
330
144
100
AcDbEntity
  8
attrib
100
AcDbText
 10
42.8
 20
65.6475
 30
0.0
 40
0.5
  1
CUSTO®60Classic
100
AcDbAttributeDefinition
  3

  2
POF
 70
     8
280
     0
  0
ATTDEF
  5
150
330
144
100
AcDbEntity
  8
attrib
100
AcDbText
 10
42.8
 20
65.1475
 30
0.0
 40
0.5
  1
E 27 / 3P
100
AcDbAttributeDefinition
  3

  2
TYPE
 70
     8
280
     0
  0
ATTDEF
  5
151
330
144
100
AcDbEntity
  8
attrib
100
AcDbText
 10
42.8
 20
64.6475
 30
0.0
 40
0.5
  1
1
100
AcDbAttributeDefinition
  3

  2
VER
 70
     8
280
     0
  0
ATTDEF
  5
152
330
144
100
AcDbEntity
  8
attrib
100
AcDbText
 10
42.8
 20
64.1475
 30
0.0
 40
0.5
  1
woehner
100
AcDbAttributeDefinition
  3

  2
COMPANY
 70
     8
280
     0
  0
ATTDEF
  5
153
330
144
100
AcDbEntity
  8
attrib
100
AcDbText
 10
42.8
 20
63.64749999999999
 30
0.0
 40
0.5
  1
{$CADENAS_DATA/23d-libs/woehner/sys_60classic/d_fuse_bases/parts/d_fuse_base_custo_part3.prj},163 {VTYP=3D},{NB=75075000},{LINA=75075000},{NN=CUSTO60 Part},{DATE=26.01.2024 06:39:58},{GEOMDATE=06.12.2022 14:24:00},{VERSION=},{LINEID=380},{WBVAR=},{WBNUMER
100
AcDbAttributeDefinition
  3

  2
PSOL_0
 70
     9
280
     0
  0
ATTDEF
  5
154
330
144
100
AcDbEntity
  8
attrib
100
AcDbText
 10
42.8
 20
63.14749999999999
 30
0.0
 40
0.5
  1
IC=}  {NB=75075000},{LINA=75075000},{KT=DUMMY},{ARTNR=75075000},{POF=CUSTO®60Classic},{TYPE=E 27 / 3P},{VER=1}
100
AcDbAttributeDefinition
  3

  2
PSOL_1
 70
     9
280
     0
  0
ARC
  5
155
330
144
100
AcDbEntity
  8
hidden
100
AcDbCircle
 10
21.0
 20
52.99999999999999
 30
0.0
 40
16.1477
100
AcDbArc
 50
178.3494270897599
 51
270.2851659975916
  0
LINE
  5
156
330
144
100
AcDbEntity
  8
hidden
100
AcDbLine
 10
4.859000000000002
 20
66.72542731352458
 30
0.0
 11
4.859000000000002
 21
53.46511750128336
 31
0.0
  0
CIRCLE
  5
157
330
144
100
AcDbEntity
  8
hidden
100
AcDbCircle
 10
35.1557
 20
38.8052
 30
0.0
 40
1.5
  0
LINE
  5
158
330
144
100
AcDbEntity
  8
hidden
100
AcDbLine
 10
21.08036815289642
 20
69.1475
 30
0.0
 11
6.575396252403826
 21
69.1475
 31
0.0
  0
ARC
  5
159
330
144
100
AcDbEntity
  8
hidden
100
AcDbCircle
 10
6.810900520023208
 20
67.16141396461961
 30
0.0
 40
1.999999999999976
100
AcDbArc
 50
96.76238952272159
 51
192.5911986366719
  0
LINE
  5
15A
330
144
100
AcDbEntity
  8
hidden
100
AcDbLine
 10
21.08036815289642
 20
36.8525
 30
0.0
 11
34.72330815225076
 21
36.8525
 31
0.0
  0
LINE
  5
15B
330
144
100
AcDbEntity
  8
hidden
100
AcDbLine
 10
37.141
 20
38.56315886713203
 30
0.0
 11
37.141
 21
53.46511750128336
 31
0.0
  0
ARC
  5
15C
330
144
100
AcDbEntity
  8
hidden
100
AcDbCircle
 10
21.00000000000001
 20
53.00000000000001
 30
0.0
 40
16.14769999999999
100
AcDbArc
 50
1.650572910240078
 51
89.71483400240852
  0
ARC
  5
15D
330
144
100
AcDbEntity
  8
hidden
100
AcDbCircle
 10
35.1557
 20
38.80520000000001
 30
0.0
 40
2.000000000000007
100
AcDbArc
 50
257.514301017208
 51
353.0489939849942
  0
CIRCLE
  5
15E
330
144
100
AcDbEntity
  8
hidden
100
AcDbCircle
 10
21.0
 20
53.0
 30
0.0
 40
16.0
  0
CIRCLE
  5
15F
330
144
100
AcDbEntity
  8
hidden
100
AcDbCircle
 10
6.810900520023239
 20
67.1614139646196
 30
0.0
 40
1.499999999999998
  0
LINE
  5
160
330
144
100
AcDbEntity
  8
center
100
AcDbLine
 10
33.58069999999999
 20
38.8052
 30
0.0
 11
36.7307
 21
38.8052
 31
0.0
  0
LINE
  5
161
330
144
100
AcDbEntity
  8
center
100
AcDbLine
 10
35.1557
 20
37.2302
 30
0.0
 11
35.1557
 21
40.3802
 31
0.0
  0
LINE
  5
162
330
144
100
AcDbEntity
  8
center
100
AcDbLine
 10
4.199999999999999
 20
53.0
 30
0.0
 11
37.8
 21
53.0
 31
0.0
  0
LINE
  5
163
330
144
100
AcDbEntity
  8
center
100
AcDbLine
 10
5.23590052002324
 20
67.1614139646196
 30
0.0
 11
8.385900520023236
 21
67.1614139646196
 31
0.0
  0
LINE
  5
164
330
144
100
AcDbEntity
  8
center
100
AcDbLine
 10
6.810900520023239
 20
65.5864139646196
 30
0.0
 11
6.810900520023239
 21
68.7364139646196
 31
0.0
  0
CIRCLE
  5
165
330
144
100
AcDbEntity
  8
bold
100
AcDbCircle
 10
21.0
 20
53.0
 30
0.0
 40
14.0
  0
CIRCLE
  5
166
330
144
100
AcDbEntity
  8
bold
100
AcDbCircle
 10
21.0
 20
53.0
 30
0.0
 40
12.0
  0
ENDBLK
  5
147
330
144
100
AcDbEntity
  8
0
100
AcDbBlockEnd
  0
BLOCK
  5
169
330
167
100
AcDbEntity
  8
0
100
AcDbBlockBegin
  2
7_30414000_1_0_in_31950_0
 70
     2
 10
0.0
 20
0.0
 30
0.0
  3
7_30414000_1_0_in_31950_0
  1

  0
ATTDEF
  5
16B
330
167
100
AcDbEntity
  8
attrib
100
AcDbText
 10
22.39089217664782
 20
-84.57397306312305
 30
0.0
 40
0.5
  1
30414000
100
AcDbAttributeDefinition
  3

  2
NB
 70
     8
280
     0
  0
ATTDEF
  5
16C
330
167
100
AcDbEntity
  8
attrib
100
AcDbText
 10
22.39089217664782
 20
-85.07397306312305
 30
0.0
 40
0.5
  1
CUSTO60 Part
100
AcDbAttributeDefinition
  3

  2
NN
 70
     8
280
     0
  0
ATTDEF
  5
16D
330
167
100
AcDbEntity
  8
attrib
100
AcDbText
 10
22.39089217664782
 20
-85.57397306312305
 30
0.0
 40
0.5
  1

100
AcDbAttributeDefinition
  3

  2
NT
 70
     8
280
     0
  0
ATTDEF
  5
16E
330
167
100
AcDbEntity
  8
attrib
100
AcDbText
 10
22.39089217664782
 20
-86.07397306312305
 30
0.0
 40
0.5
  1
$ARTNR.
100
AcDbAttributeDefinition
  3

  2
NBSYN
 70
     8
280
     0
  0
ATTDEF
  5
16F
330
167
100
AcDbEntity
  8
attrib
100
AcDbText
 10
22.39089217664782
 20
-86.57397306312305
 30
0.0
 40
0.5
  1
30414000
100
AcDbAttributeDefinition
  3

  2
LINA
 70
     8
280
     0
  0
ATTDEF
  5
170
330
167
100
AcDbEntity
  8
attrib
100
AcDbText
 10
22.39089217664782
 20
-87.07397306312305
 30
0.0
 40
0.5
  1
Wöhner
100
AcDbAttributeDefinition
  3

  2
CATALOG
 70
     8
280
     0
  0
ATTDEF
  5
171
330
167
100
AcDbEntity
  8
attrib
100
AcDbText
 10
22.39089217664782
 20
-87.57397306312305
 30
0.0
 40
0.5
  1
30414000
100
AcDbAttributeDefinition
  3

  2
ARTNR
 70
     8
280
     0
  0
ATTDEF
  5
172
330
167
100
AcDbEntity
  8
attrib
100
AcDbText
 10
22.39089217664782
 20
-88.07397306312305
 30
0.0
 40
0.5
  1
CUSTO®60Classic
100
AcDbAttributeDefinition
  3

  2
POF
 70
     8
280
     0
  0
ATTDEF
  5
173
330
167
100
AcDbEntity
  8
attrib
100
AcDbText
 10
22.39089217664782
 20
-88.57397306312305
 30
0.0
 40
0.5
  1
woehner
100
AcDbAttributeDefinition
  3

  2
COMPANY
 70
     8
280
     0
  0
ATTDEF
  5
174
330
167
100
AcDbEntity
  8
attrib
100
AcDbText
 10
22.39089217664782
 20
-89.07397306312305
 30
0.0
 40
0.5
  1
{$CADENAS_DATA/23d-libs/woehner/sys_60classic/d_fuse_bases/parts/d_fuse_base_custo_part2.prj},163 {VTYP=3D},{NB=30414000},{LINA=30414000},{NN=CUSTO60 Part},{DATE=26.01.2024 06:39:58},{GEOMDATE=08.12.2022 06:03:00},{VERSION=},{LINEID=380},{WBVAR=},{WBNUMER
100
AcDbAttributeDefinition
  3

  2
PSOL_0
 70
     9
280
     0
  0
ATTDEF
  5
175
330
167
100
AcDbEntity
  8
attrib
100
AcDbText
 10
22.39089217664782
 20
-89.57397306312305
 30
0.0
 40
0.5
  1
IC=}  {NB=30414000},{LINA=30414000},{KT=DUMMY},{ARTNR=30414000},{POF=CUSTO®60Classic}
100
AcDbAttributeDefinition
  3

  2
PSOL_1
 70
     9
280
     0
  0
LINE
  5
176
330
167
100
AcDbEntity
  8
hidden
100
AcDbLine
 10
8.487789831513034
 20
-90.07081888059683
 30
0.0
 11
6.415362314195395
 21
-93.80118904041831
 31
0.0
  0
LINE
  5
177
330
167
100
AcDbEntity
  8
hidden
100
AcDbLine
 10
11.27179100058867
 20
-85.05961593176237
 30
0.0
 11
9.179694947091143
 21
-88.8253894626739
 31
0.0
  0
LINE
  5
178
330
167
100
AcDbEntity
  8
hidden
100
AcDbLine
 10
13.73273369670659
 20
-92.9846760924328
 30
0.0
 11
11.66030617938895
 21
-96.71504625225425
 31
0.0
  0
LINE
  5
179
330
167
100
AcDbEntity
  8
hidden
100
AcDbLine
 10
16.51673486578223
 20
-87.97347314359834
 30
0.0
 11
14.4246388122847
 21
-91.73924667450986
 31
0.0
  0
LINE
  5
17A
330
167
100
AcDbEntity
  8
hidden
100
AcDbLine
 10
10.39763368972308
 20
-84.57397306312305
 30
0.0
 11
5.541205003329802
 21
-93.31554617177896
 31
0.0
  0
LINE
  5
17B
330
167
100
AcDbEntity
  8
hidden
100
AcDbLine
 10
12.14594831145427
 20
-85.5452588004017
 30
0.0
 11
7.28951962506099
 21
-94.28683190905763
 31
0.0
  0
LINE
  5
17C
330
167
100
AcDbEntity
  8
hidden
100
AcDbLine
 10
5.541205003329802
 20
-93.31554617177896
 30
0.0
 11
12.53446349025455
 21
-97.2006891208936
 31
0.0
  0
LINE
  5
17D
330
167
100
AcDbEntity
  8
hidden
100
AcDbLine
 10
17.39089217664782
 20
-88.45911601223766
 30
0.0
 11
12.53446349025455
 21
-97.2006891208936
 31
0.0
  0
LINE
  5
17E
330
167
100
AcDbEntity
  8
hidden
100
AcDbLine
 10
10.39763368972308
 20
-84.57397306312305
 30
0.0
 11
17.39089217664782
 21
-88.45911601223766
 31
0.0
  0
LINE
  5
17F
330
167
100
AcDbEntity
  8
hidden
100
AcDbLine
 10
15.64257755491664
 20
-87.48783027495901
 30
0.0
 11
10.78614886852336
 21
-96.22940338361494
 31
0.0
  0
CIRCLE
  5
180
330
167
100
AcDbEntity
  8
hidden
100
AcDbCircle
 10
11.46604858998881
 20
-90.88733109200832
 30
0.0
 40
2.0
  0
LINE
  5
181
330
167
100
AcDbEntity
  8
hidden
100
AcDbLine
 10
14.41647515177773
 20
-91.75394126589876
 30
0.0
 11
12.44031142696943
 21
-90.65607271490927
 31
0.0
  0
LINE
  5
182
330
167
100
AcDbEntity
  8
hidden
100
AcDbLine
 10
11.76473363240526
 20
-91.87211295005439
 30
0.0
 11
13.74089735721356
 21
-92.96998150104389
 31
0.0
  0
LINE
  5
183
330
167
100
AcDbEntity
  8
hidden
100
AcDbLine
 10
13.74089735721356
 20
-92.96998150104389
 30
0.0
 11
14.41647515177773
 21
-91.75394126589876
 31
0.0
  0
LINE
  5
184
330
167
100
AcDbEntity
  8
hidden
100
AcDbLine
 10
10.20325758329981
 20
-94.68277031210201
 30
0.0
 11
11.76473363240526
 21
-91.87211295005439
 31
0.0
  0
LINE
  5
185
330
167
100
AcDbEntity
  8
hidden
100
AcDbLine
 10
10.47211721682831
 20
-91.15399284019742
 30
0.0
 11
8.91064116772286
 21
-93.96465020224502
 31
0.0
  0
LINE
  5
186
330
167
100
AcDbEntity
  8
hidden
100
AcDbLine
 10
8.495953492020005
 20
-90.05612428920793
 30
0.0
 11
10.47211721682831
 21
-91.15399284019742
 31
0.0
  0
ARC
  5
187
330
167
100
AcDbEntity
  8
hidden
100
AcDbCircle
 10
11.46604858998884
 20
-90.88733109200837
 30
0.0
 40
2.999999999999951
100
AcDbArc
 50
255.2129404211538
 51
317.1414740424148
  0
LINE
  5
188
330
167
100
AcDbEntity
  8
hidden
100
AcDbLine
 10
12.44031142696943
 20
-90.65607271490927
 30
0.0
 11
14.02145601225476
 21
-87.8100119817716
 31
0.0
  0
ARC
  5
189
330
167
100
AcDbEntity
  8
hidden
100
AcDbCircle
 10
11.46604858998877
 20
-90.88733109200831
 30
0.0
 40
3.000000000000044
100
AcDbArc
 50
343.9541585901987
 51
46.67785957884493
  0
LINE
  5
18A
330
167
100
AcDbEntity
  8
hidden
100
AcDbLine
 10
12.72883959667781
 20
-87.09189187191463
 30
0.0
 11
11.14769501139248
 21
-89.93795260505229
 31
0.0
  0
ARC
  5
18B
330
167
100
AcDbEntity
  8
hidden
100
AcDbCircle
 10
11.46604858998882
 20
-90.88733109200832
 30
0.0
 40
3.000000000000013
100
AcDbArc
 50
164.7493259575856
 51
226.6778595788452
  0
LINE
  5
18C
330
167
100
AcDbEntity
  8
hidden
100
AcDbLine
 10
9.171531286584173
 20
-88.8400840540628
 30
0.0
 11
8.495953492020005
 21
-90.05612428920793
 31
0.0
  0
LINE
  5
18D
330
167
100
AcDbEntity
  8
hidden
100
AcDbLine
 10
11.14769501139248
 20
-89.93795260505229
 30
0.0
 11
9.171531286584173
 21
-88.8400840540628
 31
0.0
  0
ARC
  5
18E
330
167
100
AcDbEntity
  8
hidden
100
AcDbCircle
 10
11.46604858998884
 20
-90.8873310920084
 30
0.0
 40
3.000000000000076
100
AcDbArc
 50
75.21294042115537
 51
137.9366414098005
  0
CIRCLE
  5
18F
330
167
100
AcDbEntity
  8
hidden
100
AcDbCircle
 10
11.46604858998872
 20
-90.88733109200852
 30
0.0
 40
3.999999999999778
  0
LINE
  5
190
330
167
100
AcDbEntity
  8
center
100
AcDbLine
 10
9.366048589988813
 20
-90.88733109200832
 30
0.0
 11
13.56604858998881
 21
-90.88733109200832
 31
0.0
  0
LINE
  5
191
330
167
100
AcDbEntity
  8
center
100
AcDbLine
 10
11.46604858998881
 20
-92.98733109200832
 30
0.0
 11
11.46604858998881
 21
-88.78733109200833
 31
0.0
  0
ENDBLK
  5
16A
330
167
100
AcDbEntity
  8
0
100
AcDbBlockEnd
  0
BLOCK
  5
194
330
192
100
AcDbEntity
  8
0
100
AcDbBlockBegin
  2
8_30414000_2_0_in_31950_0
 70
     2
 10
0.0
 20
0.0
 30
0.0
  3
8_30414000_2_0_in_31950_0
  1

  0
ATTDEF
  5
196
330
192
100
AcDbEntity
  8
attrib
100
AcDbText
 10
22.39089217664782
 20
-24.57397306312303
 30
0.0
 40
0.5
  1
30414000
100
AcDbAttributeDefinition
  3

  2
NB
 70
     8
280
     0
  0
ATTDEF
  5
197
330
192
100
AcDbEntity
  8
attrib
100
AcDbText
 10
22.39089217664782
 20
-25.07397306312303
 30
0.0
 40
0.5
  1
CUSTO60 Part
100
AcDbAttributeDefinition
  3

  2
NN
 70
     8
280
     0
  0
ATTDEF
  5
198
330
192
100
AcDbEntity
  8
attrib
100
AcDbText
 10
22.39089217664782
 20
-25.57397306312303
 30
0.0
 40
0.5
  1

100
AcDbAttributeDefinition
  3

  2
NT
 70
     8
280
     0
  0
ATTDEF
  5
199
330
192
100
AcDbEntity
  8
attrib
100
AcDbText
 10
22.39089217664782
 20
-26.07397306312303
 30
0.0
 40
0.5
  1
$ARTNR.
100
AcDbAttributeDefinition
  3

  2
NBSYN
 70
     8
280
     0
  0
ATTDEF
  5
19A
330
192
100
AcDbEntity
  8
attrib
100
AcDbText
 10
22.39089217664782
 20
-26.57397306312303
 30
0.0
 40
0.5
  1
30414000
100
AcDbAttributeDefinition
  3

  2
LINA
 70
     8
280
     0
  0
ATTDEF
  5
19B
330
192
100
AcDbEntity
  8
attrib
100
AcDbText
 10
22.39089217664782
 20
-27.07397306312303
 30
0.0
 40
0.5
  1
Wöhner
100
AcDbAttributeDefinition
  3

  2
CATALOG
 70
     8
280
     0
  0
ATTDEF
  5
19C
330
192
100
AcDbEntity
  8
attrib
100
AcDbText
 10
22.39089217664782
 20
-27.57397306312303
 30
0.0
 40
0.5
  1
30414000
100
AcDbAttributeDefinition
  3

  2
ARTNR
 70
     8
280
     0
  0
ATTDEF
  5
19D
330
192
100
AcDbEntity
  8
attrib
100
AcDbText
 10
22.39089217664782
 20
-28.07397306312303
 30
0.0
 40
0.5
  1
CUSTO®60Classic
100
AcDbAttributeDefinition
  3

  2
POF
 70
     8
280
     0
  0
ATTDEF
  5
19E
330
192
100
AcDbEntity
  8
attrib
100
AcDbText
 10
22.39089217664782
 20
-28.57397306312303
 30
0.0
 40
0.5
  1
woehner
100
AcDbAttributeDefinition
  3

  2
COMPANY
 70
     8
280
     0
  0
ATTDEF
  5
19F
330
192
100
AcDbEntity
  8
attrib
100
AcDbText
 10
22.39089217664782
 20
-29.07397306312303
 30
0.0
 40
0.5
  1
{$CADENAS_DATA/23d-libs/woehner/sys_60classic/d_fuse_bases/parts/d_fuse_base_custo_part2.prj},163 {VTYP=3D},{NB=30414000},{LINA=30414000},{NN=CUSTO60 Part},{DATE=26.01.2024 06:39:58},{GEOMDATE=08.12.2022 06:03:00},{VERSION=},{LINEID=380},{WBVAR=},{WBNUMER
100
AcDbAttributeDefinition
  3

  2
PSOL_0
 70
     9
280
     0
  0
ATTDEF
  5
1A0
330
192
100
AcDbEntity
  8
attrib
100
AcDbText
 10
22.39089217664782
 20
-29.57397306312303
 30
0.0
 40
0.5
  1
IC=}  {NB=30414000},{LINA=30414000},{KT=DUMMY},{ARTNR=30414000},{POF=CUSTO®60Classic}
100
AcDbAttributeDefinition
  3

  2
PSOL_1
 70
     9
280
     0
  0
LINE
  5
1A1
330
192
100
AcDbEntity
  8
hidden
100
AcDbLine
 10
13.73273369670659
 20
-32.98467609243279
 30
0.0
 11
11.66030617938895
 21
-36.71504625225425
 31
0.0
  0
LINE
  5
1A2
330
192
100
AcDbEntity
  8
hidden
100
AcDbLine
 10
16.51673486578223
 20
-27.97347314359833
 30
0.0
 11
14.4246388122847
 21
-31.73924667450984
 31
0.0
  0
LINE
  5
1A3
330
192
100
AcDbEntity
  8
hidden
100
AcDbLine
 10
8.487789831513034
 20
-30.07081888059682
 30
0.0
 11
6.415362314195395
 21
-33.80118904041828
 31
0.0
  0
LINE
  5
1A4
330
192
100
AcDbEntity
  8
hidden
100
AcDbLine
 10
11.27179100058867
 20
-25.05961593176236
 30
0.0
 11
9.179694947091143
 21
-28.82538946267388
 31
0.0
  0
LINE
  5
1A5
330
192
100
AcDbEntity
  8
hidden
100
AcDbLine
 10
17.39089217664782
 20
-28.45911601223765
 30
0.0
 11
12.53446349025455
 21
-37.20068912089359
 31
0.0
  0
LINE
  5
1A6
330
192
100
AcDbEntity
  8
hidden
100
AcDbLine
 10
5.541205003329802
 20
-33.31554617177895
 30
0.0
 11
12.53446349025455
 21
-37.20068912089359
 31
0.0
  0
LINE
  5
1A7
330
192
100
AcDbEntity
  8
hidden
100
AcDbLine
 10
10.39763368972308
 20
-24.57397306312303
 30
0.0
 11
17.39089217664782
 21
-28.45911601223765
 31
0.0
  0
LINE
  5
1A8
330
192
100
AcDbEntity
  8
hidden
100
AcDbLine
 10
10.39763368972308
 20
-24.57397306312303
 30
0.0
 11
5.541205003329802
 21
-33.31554617177895
 31
0.0
  0
LINE
  5
1A9
330
192
100
AcDbEntity
  8
hidden
100
AcDbLine
 10
15.64257755491664
 20
-27.487830274959
 30
0.0
 11
10.78614886852336
 21
-36.22940338361492
 31
0.0
  0
LINE
  5
1AA
330
192
100
AcDbEntity
  8
hidden
100
AcDbLine
 10
12.14594831145427
 20
-25.54525880040168
 30
0.0
 11
7.28951962506099
 21
-34.28683190905761
 31
0.0
  0
CIRCLE
  5
1AB
330
192
100
AcDbEntity
  8
hidden
100
AcDbCircle
 10
11.46604858998881
 20
-30.8873310920083
 30
0.0
 40
2.0
  0
LINE
  5
1AC
330
192
100
AcDbEntity
  8
hidden
100
AcDbLine
 10
12.44031142696943
 20
-30.65607271490926
 30
0.0
 11
14.02145601225476
 21
-27.81001198177159
 31
0.0
  0
LINE
  5
1AD
330
192
100
AcDbEntity
  8
hidden
100
AcDbLine
 10
11.76473363240526
 20
-31.87211295005438
 30
0.0
 11
13.74089735721356
 21
-32.96998150104388
 31
0.0
  0
LINE
  5
1AE
330
192
100
AcDbEntity
  8
hidden
100
AcDbLine
 10
10.20325758329981
 20
-34.68277031210199
 30
0.0
 11
11.76473363240526
 21
-31.87211295005438
 31
0.0
  0
LINE
  5
1AF
330
192
100
AcDbEntity
  8
hidden
100
AcDbLine
 10
10.47211721682831
 20
-31.15399284019741
 30
0.0
 11
8.91064116772286
 21
-33.96465020224502
 31
0.0
  0
LINE
  5
1B0
330
192
100
AcDbEntity
  8
hidden
100
AcDbLine
 10
12.72883959667781
 20
-27.09189187191462
 30
0.0
 11
11.14769501139248
 21
-29.93795260505228
 31
0.0
  0
LINE
  5
1B1
330
192
100
AcDbEntity
  8
hidden
100
AcDbLine
 10
11.14769501139248
 20
-29.93795260505228
 30
0.0
 11
9.171531286584173
 21
-28.84008405406279
 31
0.0
  0
ARC
  5
1B2
330
192
100
AcDbEntity
  8
hidden
100
AcDbCircle
 10
11.46604858998897
 20
-30.88733109200826
 30
0.0
 40
2.999999999999865
100
AcDbArc
 50
343.954158590197
 51
46.67785957884707
  0
LINE
  5
1B3
330
192
100
AcDbEntity
  8
hidden
100
AcDbLine
 10
14.41647515177773
 20
-31.75394126589876
 30
0.0
 11
12.44031142696943
 21
-30.65607271490926
 31
0.0
  0
LINE
  5
1B4
330
192
100
AcDbEntity
  8
hidden
100
AcDbLine
 10
13.74089735721356
 20
-32.96998150104388
 30
0.0
 11
14.41647515177773
 21
-31.75394126589876
 31
0.0
  0
ARC
  5
1B5
330
192
100
AcDbEntity
  8
hidden
100
AcDbCircle
 10
11.46604858998882
 20
-30.88733109200832
 30
0.0
 40
2.999999999999982
100
AcDbArc
 50
255.2129404211541
 51
317.1414740424146
  0
ARC
  5
1B6
330
192
100
AcDbEntity
  8
hidden
100
AcDbCircle
 10
11.46604858998879
 20
-30.88733109200831
 30
0.0
 40
2.999999999999984
100
AcDbArc
 50
164.7493259575853
 51
226.6778595788457
  0
LINE
  5
1B7
330
192
100
AcDbEntity
  8
hidden
100
AcDbLine
 10
8.495953492020005
 20
-30.05612428920791
 30
0.0
 11
10.47211721682831
 21
-31.15399284019741
 31
0.0
  0
LINE
  5
1B8
330
192
100
AcDbEntity
  8
hidden
100
AcDbLine
 10
9.171531286584173
 20
-28.84008405406279
 30
0.0
 11
8.495953492020005
 21
-30.05612428920791
 31
0.0
  0
ARC
  5
1B9
330
192
100
AcDbEntity
  8
hidden
100
AcDbCircle
 10
11.46604858998882
 20
-30.88733109200832
 30
0.0
 40
3.000000000000018
100
AcDbArc
 50
75.21294042115477
 51
137.9366414098014
  0
CIRCLE
  5
1BA
330
192
100
AcDbEntity
  8
hidden
100
AcDbCircle
 10
11.46604858998885
 20
-30.88733109200825
 30
0.0
 40
4.000000000000062
  0
LINE
  5
1BB
330
192
100
AcDbEntity
  8
center
100
AcDbLine
 10
9.366048589988813
 20
-30.8873310920083
 30
0.0
 11
13.56604858998881
 21
-30.8873310920083
 31
0.0
  0
LINE
  5
1BC
330
192
100
AcDbEntity
  8
center
100
AcDbLine
 10
11.46604858998881
 20
-32.9873310920083
 30
0.0
 11
11.46604858998881
 21
-28.7873310920083
 31
0.0
  0
ENDBLK
  5
195
330
192
100
AcDbEntity
  8
0
100
AcDbBlockEnd
  0
BLOCK
  5
1BF
330
1BD
100
AcDbEntity
  8
0
100
AcDbBlockBegin
  2
9_30414000_3_0_in_31950_0
 70
     2
 10
0.0
 20
0.0
 30
0.0
  3
9_30414000_3_0_in_31950_0
  1

  0
ATTDEF
  5
1C1
330
1BD
100
AcDbEntity
  8
attrib
100
AcDbText
 10
22.39089217664782
 20
35.42602693687697
 30
0.0
 40
0.5
  1
30414000
100
AcDbAttributeDefinition
  3

  2
NB
 70
     8
280
     0
  0
ATTDEF
  5
1C2
330
1BD
100
AcDbEntity
  8
attrib
100
AcDbText
 10
22.39089217664782
 20
34.92602693687697
 30
0.0
 40
0.5
  1
CUSTO60 Part
100
AcDbAttributeDefinition
  3

  2
NN
 70
     8
280
     0
  0
ATTDEF
  5
1C3
330
1BD
100
AcDbEntity
  8
attrib
100
AcDbText
 10
22.39089217664782
 20
34.42602693687697
 30
0.0
 40
0.5
  1

100
AcDbAttributeDefinition
  3

  2
NT
 70
     8
280
     0
  0
ATTDEF
  5
1C4
330
1BD
100
AcDbEntity
  8
attrib
100
AcDbText
 10
22.39089217664782
 20
33.92602693687697
 30
0.0
 40
0.5
  1
$ARTNR.
100
AcDbAttributeDefinition
  3

  2
NBSYN
 70
     8
280
     0
  0
ATTDEF
  5
1C5
330
1BD
100
AcDbEntity
  8
attrib
100
AcDbText
 10
22.39089217664782
 20
33.42602693687697
 30
0.0
 40
0.5
  1
30414000
100
AcDbAttributeDefinition
  3

  2
LINA
 70
     8
280
     0
  0
ATTDEF
  5
1C6
330
1BD
100
AcDbEntity
  8
attrib
100
AcDbText
 10
22.39089217664782
 20
32.92602693687697
 30
0.0
 40
0.5
  1
Wöhner
100
AcDbAttributeDefinition
  3

  2
CATALOG
 70
     8
280
     0
  0
ATTDEF
  5
1C7
330
1BD
100
AcDbEntity
  8
attrib
100
AcDbText
 10
22.39089217664782
 20
32.42602693687697
 30
0.0
 40
0.5
  1
30414000
100
AcDbAttributeDefinition
  3

  2
ARTNR
 70
     8
280
     0
  0
ATTDEF
  5
1C8
330
1BD
100
AcDbEntity
  8
attrib
100
AcDbText
 10
22.39089217664782
 20
31.92602693687697
 30
0.0
 40
0.5
  1
CUSTO®60Classic
100
AcDbAttributeDefinition
  3

  2
POF
 70
     8
280
     0
  0
ATTDEF
  5
1C9
330
1BD
100
AcDbEntity
  8
attrib
100
AcDbText
 10
22.39089217664782
 20
31.42602693687697
 30
0.0
 40
0.5
  1
woehner
100
AcDbAttributeDefinition
  3

  2
COMPANY
 70
     8
280
     0
  0
ATTDEF
  5
1CA
330
1BD
100
AcDbEntity
  8
attrib
100
AcDbText
 10
22.39089217664782
 20
30.92602693687697
 30
0.0
 40
0.5
  1
{$CADENAS_DATA/23d-libs/woehner/sys_60classic/d_fuse_bases/parts/d_fuse_base_custo_part2.prj},163 {VTYP=3D},{NB=30414000},{LINA=30414000},{NN=CUSTO60 Part},{DATE=26.01.2024 06:39:58},{GEOMDATE=08.12.2022 06:03:00},{VERSION=},{LINEID=380},{WBVAR=},{WBNUMER
100
AcDbAttributeDefinition
  3

  2
PSOL_0
 70
     9
280
     0
  0
ATTDEF
  5
1CB
330
1BD
100
AcDbEntity
  8
attrib
100
AcDbText
 10
22.39089217664782
 20
30.42602693687697
 30
0.0
 40
0.5
  1
IC=}  {NB=30414000},{LINA=30414000},{KT=DUMMY},{ARTNR=30414000},{POF=CUSTO®60Classic}
100
AcDbAttributeDefinition
  3

  2
PSOL_1
 70
     9
280
     0
  0
LINE
  5
1CC
330
1BD
100
AcDbEntity
  8
hidden
100
AcDbLine
 10
13.73273369670659
 20
27.01532390756721
 30
0.0
 11
11.66030617938895
 21
23.28495374774575
 31
0.0
  0
LINE
  5
1CD
330
1BD
100
AcDbEntity
  8
hidden
100
AcDbLine
 10
16.51673486578223
 20
32.02652685640168
 30
0.0
 11
14.4246388122847
 21
28.26075332549016
 31
0.0
  0
LINE
  5
1CE
330
1BD
100
AcDbEntity
  8
hidden
100
AcDbLine
 10
8.487789831513034
 20
29.92918111940318
 30
0.0
 11
6.415362314195395
 21
26.19881095958172
 31
0.0
  0
LINE
  5
1CF
330
1BD
100
AcDbEntity
  8
hidden
100
AcDbLine
 10
11.27179100058867
 20
34.94038406823764
 30
0.0
 11
9.179694947091143
 21
31.17461053732612
 31
0.0
  0
LINE
  5
1D0
330
1BD
100
AcDbEntity
  8
hidden
100
AcDbLine
 10
17.39089217664782
 20
31.54088398776235
 30
0.0
 11
12.53446349025455
 21
22.79931087910642
 31
0.0
  0
LINE
  5
1D1
330
1BD
100
AcDbEntity
  8
hidden
100
AcDbLine
 10
10.39763368972308
 20
35.42602693687697
 30
0.0
 11
17.39089217664782
 21
31.54088398776235
 31
0.0
  0
LINE
  5
1D2
330
1BD
100
AcDbEntity
  8
hidden
100
AcDbLine
 10
5.541205003329802
 20
26.68445382822105
 30
0.0
 11
12.53446349025455
 21
22.79931087910642
 31
0.0
  0
LINE
  5
1D3
330
1BD
100
AcDbEntity
  8
hidden
100
AcDbLine
 10
10.39763368972308
 20
35.42602693687697
 30
0.0
 11
5.541205003329802
 21
26.68445382822105
 31
0.0
  0
LINE
  5
1D4
330
1BD
100
AcDbEntity
  8
hidden
100
AcDbLine
 10
15.64257755491664
 20
32.51216972504101
 30
0.0
 11
10.78614886852336
 21
23.77059661638508
 31
0.0
  0
LINE
  5
1D5
330
1BD
100
AcDbEntity
  8
hidden
100
AcDbLine
 10
12.14594831145427
 20
34.45474119959832
 30
0.0
 11
7.28951962506099
 21
25.71316809094239
 31
0.0
  0
CIRCLE
  5
1D6
330
1BD
100
AcDbEntity
  8
hidden
100
AcDbCircle
 10
11.46604858998881
 20
29.1126689079917
 30
0.0
 40
2.0
  0
LINE
  5
1D7
330
1BD
100
AcDbEntity
  8
hidden
100
AcDbLine
 10
11.14769501139248
 20
30.06204739494772
 30
0.0
 11
9.171531286584173
 21
31.15991594593721
 31
0.0
  0
LINE
  5
1D8
330
1BD
100
AcDbEntity
  8
hidden
100
AcDbLine
 10
12.72883959667781
 20
32.90810812808538
 30
0.0
 11
11.14769501139248
 21
30.06204739494772
 31
0.0
  0
LINE
  5
1D9
330
1BD
100
AcDbEntity
  8
hidden
100
AcDbLine
 10
12.44031142696943
 20
29.34392728509075
 30
0.0
 11
14.02145601225476
 21
32.18998801822841
 31
0.0
  0
LINE
  5
1DA
330
1BD
100
AcDbEntity
  8
hidden
100
AcDbLine
 10
11.76473363240526
 20
28.12788704994562
 30
0.0
 11
13.74089735721356
 21
27.03001849895612
 31
0.0
  0
LINE
  5
1DB
330
1BD
100
AcDbEntity
  8
hidden
100
AcDbLine
 10
10.20325758329981
 20
25.31722968789801
 30
0.0
 11
11.76473363240526
 21
28.12788704994562
 31
0.0
  0
LINE
  5
1DC
330
1BD
100
AcDbEntity
  8
hidden
100
AcDbLine
 10
13.74089735721356
 20
27.03001849895612
 30
0.0
 11
14.41647515177773
 21
28.24605873410125
 31
0.0
  0
LINE
  5
1DD
330
1BD
100
AcDbEntity
  8
hidden
100
AcDbLine
 10
10.47211721682831
 20
28.8460071598026
 30
0.0
 11
8.91064116772286
 21
26.03534979775498
 31
0.0
  0
LINE
  5
1DE
330
1BD
100
AcDbEntity
  8
hidden
100
AcDbLine
 10
14.41647515177773
 20
28.24605873410125
 30
0.0
 11
12.44031142696943
 21
29.34392728509075
 31
0.0
  0
ARC
  5
1DF
330
1BD
100
AcDbEntity
  8
hidden
100
AcDbCircle
 10
11.46604858998895
 20
29.11266890799173
 30
0.0
 40
2.999999999999878
100
AcDbArc
 50
343.9541585901972
 51
46.67785957884698
  0
ARC
  5
1E0
330
1BD
100
AcDbEntity
  8
hidden
100
AcDbCircle
 10
11.4660485899888
 20
29.11266890799173
 30
0.0
 40
3.000000000000034
100
AcDbArc
 50
255.2129404211549
 51
317.141474042414
  0
ARC
  5
1E1
330
1BD
100
AcDbEntity
  8
hidden
100
AcDbCircle
 10
11.46604858998876
 20
29.11266890799168
 30
0.0
 40
2.999999999999954
100
AcDbArc
 50
164.7493259575849
 51
226.677859578846
  0
LINE
  5
1E2
330
1BD
100
AcDbEntity
  8
hidden
100
AcDbLine
 10
8.495953492020005
 20
29.94387571079209
 30
0.0
 11
10.47211721682831
 21
28.8460071598026
 31
0.0
  0
LINE
  5
1E3
330
1BD
100
AcDbEntity
  8
hidden
100
AcDbLine
 10
9.171531286584173
 20
31.15991594593721
 30
0.0
 11
8.495953492020005
 21
29.94387571079209
 31
0.0
  0
ARC
  5
1E4
330
1BD
100
AcDbEntity
  8
hidden
100
AcDbCircle
 10
11.46604858998881
 20
29.11266890799169
 30
0.0
 40
3.000000000000004
100
AcDbArc
 50
75.21294042115449
 51
137.9366414098013
  0
CIRCLE
  5
1E5
330
1BD
100
AcDbEntity
  8
hidden
100
AcDbCircle
 10
11.4660485899889
 20
29.11266890799186
 30
0.0
 40
4.000000000000181
  0
LINE
  5
1E6
330
1BD
100
AcDbEntity
  8
center
100
AcDbLine
 10
9.366048589988813
 20
29.1126689079917
 30
0.0
 11
13.56604858998881
 21
29.1126689079917
 31
0.0
  0
LINE
  5
1E7
330
1BD
100
AcDbEntity
  8
center
100
AcDbLine
 10
11.46604858998881
 20
27.0126689079917
 30
0.0
 11
11.46604858998881
 21
31.2126689079917
 31
0.0
  0
ENDBLK
  5
1C0
330
1BD
100
AcDbEntity
  8
0
100
AcDbBlockEnd
  0
BLOCK
  5
1EA
330
1E8
100
AcDbEntity
  8
0
100
AcDbBlockBegin
  2
10_71437000_1_0_in_31950_0
 70
     2
 10
0.0
 20
0.0
 30
0.0
  3
10_71437000_1_0_in_31950_0
  1

  0
ATTDEF
  5
1EC
330
1E8
100
AcDbEntity
  8
attrib
100
AcDbText
 10
35.921
 20
-62.0
 30
0.0
 40
0.5
  1
71437000
100
AcDbAttributeDefinition
  3

  2
NB
 70
     8
280
     0
  0
ATTDEF
  5
1ED
330
1E8
100
AcDbEntity
  8
attrib
100
AcDbText
 10
35.921
 20
-62.5
 30
0.0
 40
0.5
  1
CUSTO60 Part
100
AcDbAttributeDefinition
  3

  2
NN
 70
     8
280
     0
  0
ATTDEF
  5
1EE
330
1E8
100
AcDbEntity
  8
attrib
100
AcDbText
 10
35.921
 20
-63.0
 30
0.0
 40
0.5
  1

100
AcDbAttributeDefinition
  3

  2
NT
 70
     8
280
     0
  0
ATTDEF
  5
1EF
330
1E8
100
AcDbEntity
  8
attrib
100
AcDbText
 10
35.921
 20
-63.5
 30
0.0
 40
0.5
  1
$ARTNR.
100
AcDbAttributeDefinition
  3

  2
NBSYN
 70
     8
280
     0
  0
ATTDEF
  5
1F0
330
1E8
100
AcDbEntity
  8
attrib
100
AcDbText
 10
35.921
 20
-64.0
 30
0.0
 40
0.5
  1
71437000
100
AcDbAttributeDefinition
  3

  2
LINA
 70
     8
280
     0
  0
ATTDEF
  5
1F1
330
1E8
100
AcDbEntity
  8
attrib
100
AcDbText
 10
35.921
 20
-64.5
 30
0.0
 40
0.5
  1
Wöhner
100
AcDbAttributeDefinition
  3

  2
CATALOG
 70
     8
280
     0
  0
ATTDEF
  5
1F2
330
1E8
100
AcDbEntity
  8
attrib
100
AcDbText
 10
35.921
 20
-65.0
 30
0.0
 40
0.5
  1
71437000
100
AcDbAttributeDefinition
  3

  2
ARTNR
 70
     8
280
     0
  0
ATTDEF
  5
1F3
330
1E8
100
AcDbEntity
  8
attrib
100
AcDbText
 10
35.921
 20
-65.5
 30
0.0
 40
0.5
  1
CUSTO®60Classic
100
AcDbAttributeDefinition
  3

  2
POF
 70
     8
280
     0
  0
ATTDEF
  5
1F4
330
1E8
100
AcDbEntity
  8
attrib
100
AcDbText
 10
35.921
 20
-66.0
 30
0.0
 40
0.5
  1
2
100
AcDbAttributeDefinition
  3

  2
VER
 70
     8
280
     0
  0
ATTDEF
  5
1F5
330
1E8
100
AcDbEntity
  8
attrib
100
AcDbText
 10
35.921
 20
-66.5
 30
0.0
 40
0.5
  1
woehner
100
AcDbAttributeDefinition
  3

  2
COMPANY
 70
     8
280
     0
  0
ATTDEF
  5
1F6
330
1E8
100
AcDbEntity
  8
attrib
100
AcDbText
 10
35.921
 20
-67.0
 30
0.0
 40
0.5
  1
{$CADENAS_DATA/23d-libs/woehner/sys_60classic/d_fuse_bases/parts/d_fuse_base_custo_part1.prj},163 {VTYP=3D},{NB=71437000},{LINA=71437000},{NN=CUSTO60 Part},{DATE=26.01.2024 06:39:58},{GEOMDATE=06.12.2022 12:54:25},{VERSION=},{LINEID=870},{WBVAR=},{WBNUMER
100
AcDbAttributeDefinition
  3

  2
PSOL_0
 70
     9
280
     0
  0
ATTDEF
  5
1F7
330
1E8
100
AcDbEntity
  8
attrib
100
AcDbText
 10
35.921
 20
-67.5
 30
0.0
 40
0.5
  1
IC=}  {NB=71437000},{LINA=71437000},{KT=DUMMY},{ARTNR=71437000},{POF=CUSTO®60Classic},{VER=2}
100
AcDbAttributeDefinition
  3

  2
PSOL_1
 70
     9
280
     0
  0
LINE
  5
1F8
330
1E8
100
AcDbEntity
  8
hidden
100
AcDbLine
 10
14.921
 20
-72.0
 30
0.0
 11
14.921
 21
-62.0
 31
0.0
  0
LINE
  5
1F9
330
1E8
100
AcDbEntity
  8
hidden
100
AcDbLine
 10
26.921
 20
-72.0
 30
0.0
 11
26.921
 21
-62.0
 31
0.0
  0
LINE
  5
1FA
330
1E8
100
AcDbEntity
  8
center
100
AcDbLine
 10
20.921
 20
-68.49625
 30
0.0
 11
20.921
 21
-65.50375
 31
0.0
  0
LINE
  5
1FB
330
1E8
100
AcDbEntity
  8
bold
100
AcDbLine
 10
10.921
 20
-72.0
 30
0.0
 11
10.921
 21
-62.0
 31
0.0
  0
CIRCLE
  5
1FC
330
1E8
100
AcDbEntity
  8
bold
100
AcDbCircle
 10
20.921
 20
-67.0
 30
0.0
 40
1.425
  0
LINE
  5
1FE
330
1E8
100
AcDbEntity
  8
light
100
AcDbLine
 10
12.921
 20
-72.0
 30
0.0
 11
12.921
 21
-62.0
 31
0.0
  0
LINE
  5
1FF
330
1E8
100
AcDbEntity
  8
bold
100
AcDbLine
 10
30.921
 20
-62.0
 30
0.0
 11
10.921
 21
-62.0
 31
0.0
  0
LINE
  5
200
330
1E8
100
AcDbEntity
  8
bold
100
AcDbLine
 10
30.921
 20
-72.0
 30
0.0
 11
10.921
 21
-72.0
 31
0.0
  0
LINE
  5
201
330
1E8
100
AcDbEntity
  8
light
100
AcDbLine
 10
28.921
 20
-72.0
 30
0.0
 11
28.921
 21
-62.0
 31
0.0
  0
LINE
  5
202
330
1E8
100
AcDbEntity
  8
bold
100
AcDbLine
 10
30.921
 20
-72.0
 30
0.0
 11
30.921
 21
-62.0
 31
0.0
  0
ENDBLK
  5
1EB
330
1E8
100
AcDbEntity
  8
0
100
AcDbBlockEnd
  0
BLOCK
  5
205
330
203
100
AcDbEntity
  8
0
100
AcDbBlockBegin
  2
11_71437000_2_0_in_31950_0
 70
     2
 10
0.0
 20
0.0
 30
0.0
  3
11_71437000_2_0_in_31950_0
  1

  0
ATTDEF
  5
207
330
203
100
AcDbEntity
  8
attrib
100
AcDbText
 10
35.921
 20
-2.0
 30
0.0
 40
0.5
  1
71437000
100
AcDbAttributeDefinition
  3

  2
NB
 70
     8
280
     0
  0
ATTDEF
  5
208
330
203
100
AcDbEntity
  8
attrib
100
AcDbText
 10
35.921
 20
-2.5
 30
0.0
 40
0.5
  1
CUSTO60 Part
100
AcDbAttributeDefinition
  3

  2
NN
 70
     8
280
     0
  0
ATTDEF
  5
209
330
203
100
AcDbEntity
  8
attrib
100
AcDbText
 10
35.921
 20
-3.0
 30
0.0
 40
0.5
  1

100
AcDbAttributeDefinition
  3

  2
NT
 70
     8
280
     0
  0
ATTDEF
  5
20A
330
203
100
AcDbEntity
  8
attrib
100
AcDbText
 10
35.921
 20
-3.5
 30
0.0
 40
0.5
  1
$ARTNR.
100
AcDbAttributeDefinition
  3

  2
NBSYN
 70
     8
280
     0
  0
ATTDEF
  5
20B
330
203
100
AcDbEntity
  8
attrib
100
AcDbText
 10
35.921
 20
-4.0
 30
0.0
 40
0.5
  1
71437000
100
AcDbAttributeDefinition
  3

  2
LINA
 70
     8
280
     0
  0
ATTDEF
  5
20C
330
203
100
AcDbEntity
  8
attrib
100
AcDbText
 10
35.921
 20
-4.5
 30
0.0
 40
0.5
  1
Wöhner
100
AcDbAttributeDefinition
  3

  2
CATALOG
 70
     8
280
     0
  0
ATTDEF
  5
20D
330
203
100
AcDbEntity
  8
attrib
100
AcDbText
 10
35.921
 20
-5.0
 30
0.0
 40
0.5
  1
71437000
100
AcDbAttributeDefinition
  3

  2
ARTNR
 70
     8
280
     0
  0
ATTDEF
  5
20E
330
203
100
AcDbEntity
  8
attrib
100
AcDbText
 10
35.921
 20
-5.5
 30
0.0
 40
0.5
  1
CUSTO®60Classic
100
AcDbAttributeDefinition
  3

  2
POF
 70
     8
280
     0
  0
ATTDEF
  5
20F
330
203
100
AcDbEntity
  8
attrib
100
AcDbText
 10
35.921
 20
-6.0
 30
0.0
 40
0.5
  1
2
100
AcDbAttributeDefinition
  3

  2
VER
 70
     8
280
     0
  0
ATTDEF
  5
210
330
203
100
AcDbEntity
  8
attrib
100
AcDbText
 10
35.921
 20
-6.5
 30
0.0
 40
0.5
  1
woehner
100
AcDbAttributeDefinition
  3

  2
COMPANY
 70
     8
280
     0
  0
ATTDEF
  5
211
330
203
100
AcDbEntity
  8
attrib
100
AcDbText
 10
35.921
 20
-7.0
 30
0.0
 40
0.5
  1
{$CADENAS_DATA/23d-libs/woehner/sys_60classic/d_fuse_bases/parts/d_fuse_base_custo_part1.prj},163 {VTYP=3D},{NB=71437000},{LINA=71437000},{NN=CUSTO60 Part},{DATE=26.01.2024 06:39:58},{GEOMDATE=06.12.2022 12:54:25},{VERSION=},{LINEID=870},{WBVAR=},{WBNUMER
100
AcDbAttributeDefinition
  3

  2
PSOL_0
 70
     9
280
     0
  0
ATTDEF
  5
212
330
203
100
AcDbEntity
  8
attrib
100
AcDbText
 10
35.921
 20
-7.5
 30
0.0
 40
0.5
  1
IC=}  {NB=71437000},{LINA=71437000},{KT=DUMMY},{ARTNR=71437000},{POF=CUSTO®60Classic},{VER=2}
100
AcDbAttributeDefinition
  3

  2
PSOL_1
 70
     9
280
     0
  0
LINE
  5
213
330
203
100
AcDbEntity
  8
hidden
100
AcDbLine
 10
14.921
 20
-12.0
 30
0.0
 11
14.921
 21
-2.0
 31
0.0
  0
LINE
  5
214
330
203
100
AcDbEntity
  8
hidden
100
AcDbLine
 10
26.921
 20
-12.0
 30
0.0
 11
26.921
 21
-2.0
 31
0.0
  0
LINE
  5
215
330
203
100
AcDbEntity
  8
center
100
AcDbLine
 10
20.921
 20
-8.49625
 30
0.0
 11
20.921
 21
-5.50375
 31
0.0
  0
LINE
  5
216
330
203
100
AcDbEntity
  8
bold
100
AcDbLine
 10
10.921
 20
-12.0
 30
0.0
 11
10.921
 21
-2.0
 31
0.0
  0
LINE
  5
217
330
203
100
AcDbEntity
  8
bold
100
AcDbLine
 10
30.921
 20
-2.0
 30
0.0
 11
10.921
 21
-2.0
 31
0.0
  0
LINE
  5
218
330
203
100
AcDbEntity
  8
bold
100
AcDbLine
 10
30.921
 20
-12.0
 30
0.0
 11
10.921
 21
-12.0
 31
0.0
  0
LINE
  5
219
330
203
100
AcDbEntity
  8
bold
100
AcDbLine
 10
30.921
 20
-12.0
 30
0.0
 11
30.921
 21
-2.0
 31
0.0
  0
CIRCLE
  5
21A
330
203
100
AcDbEntity
  8
bold
100
AcDbCircle
 10
20.921
 20
-7.0
 30
0.0
 40
1.425
  0
LINE
  5
21B
330
203
100
AcDbEntity
  8
light
100
AcDbLine
 10
12.921
 20
-12.0
 30
0.0
 11
12.921
 21
-2.0
 31
0.0
  0
LINE
  5
21C
330
203
100
AcDbEntity
  8
light
100
AcDbLine
 10
28.921
 20
-12.0
 30
0.0
 11
28.921
 21
-2.0
 31
0.0
  0
ENDBLK
  5
206
330
203
100
AcDbEntity
  8
0
100
AcDbBlockEnd
  0
BLOCK
  5
21F
330
21D
100
AcDbEntity
  8
0
100
AcDbBlockBegin
  2
12_71437000_3_0_in_31950_0
 70
     2
 10
0.0
 20
0.0
 30
0.0
  3
12_71437000_3_0_in_31950_0
  1

  0
ATTDEF
  5
221
330
21D
100
AcDbEntity
  8
attrib
100
AcDbText
 10
35.921
 20
58.0
 30
0.0
 40
0.5
  1
71437000
100
AcDbAttributeDefinition
  3

  2
NB
 70
     8
280
     0
  0
ATTDEF
  5
222
330
21D
100
AcDbEntity
  8
attrib
100
AcDbText
 10
35.921
 20
57.5
 30
0.0
 40
0.5
  1
CUSTO60 Part
100
AcDbAttributeDefinition
  3

  2
NN
 70
     8
280
     0
  0
ATTDEF
  5
223
330
21D
100
AcDbEntity
  8
attrib
100
AcDbText
 10
35.921
 20
57.0
 30
0.0
 40
0.5
  1

100
AcDbAttributeDefinition
  3

  2
NT
 70
     8
280
     0
  0
ATTDEF
  5
224
330
21D
100
AcDbEntity
  8
attrib
100
AcDbText
 10
35.921
 20
56.5
 30
0.0
 40
0.5
  1
$ARTNR.
100
AcDbAttributeDefinition
  3

  2
NBSYN
 70
     8
280
     0
  0
ATTDEF
  5
225
330
21D
100
AcDbEntity
  8
attrib
100
AcDbText
 10
35.921
 20
56.0
 30
0.0
 40
0.5
  1
71437000
100
AcDbAttributeDefinition
  3

  2
LINA
 70
     8
280
     0
  0
ATTDEF
  5
226
330
21D
100
AcDbEntity
  8
attrib
100
AcDbText
 10
35.921
 20
55.5
 30
0.0
 40
0.5
  1
Wöhner
100
AcDbAttributeDefinition
  3

  2
CATALOG
 70
     8
280
     0
  0
ATTDEF
  5
227
330
21D
100
AcDbEntity
  8
attrib
100
AcDbText
 10
35.921
 20
55.0
 30
0.0
 40
0.5
  1
71437000
100
AcDbAttributeDefinition
  3

  2
ARTNR
 70
     8
280
     0
  0
ATTDEF
  5
228
330
21D
100
AcDbEntity
  8
attrib
100
AcDbText
 10
35.921
 20
54.5
 30
0.0
 40
0.5
  1
CUSTO®60Classic
100
AcDbAttributeDefinition
  3

  2
POF
 70
     8
280
     0
  0
ATTDEF
  5
229
330
21D
100
AcDbEntity
  8
attrib
100
AcDbText
 10
35.921
 20
54.0
 30
0.0
 40
0.5
  1
2
100
AcDbAttributeDefinition
  3

  2
VER
 70
     8
280
     0
  0
ATTDEF
  5
22A
330
21D
100
AcDbEntity
  8
attrib
100
AcDbText
 10
35.921
 20
53.5
 30
0.0
 40
0.5
  1
woehner
100
AcDbAttributeDefinition
  3

  2
COMPANY
 70
     8
280
     0
  0
ATTDEF
  5
22B
330
21D
100
AcDbEntity
  8
attrib
100
AcDbText
 10
35.921
 20
53.0
 30
0.0
 40
0.5
  1
{$CADENAS_DATA/23d-libs/woehner/sys_60classic/d_fuse_bases/parts/d_fuse_base_custo_part1.prj},163 {VTYP=3D},{NB=71437000},{LINA=71437000},{NN=CUSTO60 Part},{DATE=26.01.2024 06:39:58},{GEOMDATE=06.12.2022 12:54:25},{VERSION=},{LINEID=870},{WBVAR=},{WBNUMER
100
AcDbAttributeDefinition
  3

  2
PSOL_0
 70
     9
280
     0
  0
ATTDEF
  5
22C
330
21D
100
AcDbEntity
  8
attrib
100
AcDbText
 10
35.921
 20
52.5
 30
0.0
 40
0.5
  1
IC=}  {NB=71437000},{LINA=71437000},{KT=DUMMY},{ARTNR=71437000},{POF=CUSTO®60Classic},{VER=2}
100
AcDbAttributeDefinition
  3

  2
PSOL_1
 70
     9
280
     0
  0
LINE
  5
22D
330
21D
100
AcDbEntity
  8
hidden
100
AcDbLine
 10
14.921
 20
48.0
 30
0.0
 11
14.921
 21
58.0
 31
0.0
  0
LINE
  5
22E
330
21D
100
AcDbEntity
  8
hidden
100
AcDbLine
 10
26.921
 20
48.0
 30
0.0
 11
26.921
 21
58.0
 31
0.0
  0
LINE
  5
22F
330
21D
100
AcDbEntity
  8
center
100
AcDbLine
 10
20.921
 20
51.50375
 30
0.0
 11
20.921
 21
54.49625000000001
 31
0.0
  0
LINE
  5
230
330
21D
100
AcDbEntity
  8
bold
100
AcDbLine
 10
10.921
 20
48.0
 30
0.0
 11
10.921
 21
58.0
 31
0.0
  0
LINE
  5
231
330
21D
100
AcDbEntity
  8
bold
100
AcDbLine
 10
30.921
 20
58.0
 30
0.0
 11
10.921
 21
58.0
 31
0.0
  0
LINE
  5
232
330
21D
100
AcDbEntity
  8
bold
100
AcDbLine
 10
30.921
 20
48.0
 30
0.0
 11
10.921
 21
48.0
 31
0.0
  0
LINE
  5
233
330
21D
100
AcDbEntity
  8
bold
100
AcDbLine
 10
30.921
 20
48.0
 30
0.0
 11
30.921
 21
58.0
 31
0.0
  0
CIRCLE
  5
234
330
21D
100
AcDbEntity
  8
bold
100
AcDbCircle
 10
20.921
 20
53.00000000000001
 30
0.0
 40
1.425
  0
LINE
  5
235
330
21D
100
AcDbEntity
  8
light
100
AcDbLine
 10
12.921
 20
48.0
 30
0.0
 11
12.921
 21
58.0
 31
0.0
  0
LINE
  5
236
330
21D
100
AcDbEntity
  8
light
100
AcDbLine
 10
28.921
 20
48.0
 30
0.0
 11
28.921
 21
58.0
 31
0.0
  0
ENDBLK
  5
220
330
21D
100
AcDbEntity
  8
0
100
AcDbBlockEnd
  0
BLOCK
  5
239
330
237
100
AcDbEntity
  8
0
100
AcDbBlockBegin
  2
13_78546000_0_in_31950_0
 70
     2
 10
0.0
 20
0.0
 30
0.0
  3
13_78546000_0_in_31950_0
  1

  0
ATTDEF
  5
23B
330
237
100
AcDbEntity
  8
attrib
100
AcDbText
 10
47.0
 20
75.0
 30
0.0
 40
0.5
  1
78546000
100
AcDbAttributeDefinition
  3

  2
NB
 70
     8
280
     0
  0
ATTDEF
  5
23C
330
237
100
AcDbEntity
  8
attrib
100
AcDbText
 10
47.0
 20
74.5
 30
0.0
 40
0.5
  1
CUSTO60 Base
100
AcDbAttributeDefinition
  3

  2
NN
 70
     8
280
     0
  0
ATTDEF
  5
23D
330
237
100
AcDbEntity
  8
attrib
100
AcDbText
 10
47.0
 20
74.0
 30
0.0
 40
0.5
  1

100
AcDbAttributeDefinition
  3

  2
NT
 70
     8
280
     0
  0
ATTDEF
  5
23E
330
237
100
AcDbEntity
  8
attrib
100
AcDbText
 10
47.0
 20
73.5
 30
0.0
 40
0.5
  1
$ARTNR.
100
AcDbAttributeDefinition
  3

  2
NBSYN
 70
     8
280
     0
  0
ATTDEF
  5
23F
330
237
100
AcDbEntity
  8
attrib
100
AcDbText
 10
47.0
 20
73.0
 30
0.0
 40
0.5
  1
78546000
100
AcDbAttributeDefinition
  3

  2
LINA
 70
     8
280
     0
  0
ATTDEF
  5
240
330
237
100
AcDbEntity
  8
attrib
100
AcDbText
 10
47.0
 20
72.5
 30
0.0
 40
0.5
  1
Wöhner
100
AcDbAttributeDefinition
  3

  2
CATALOG
 70
     8
280
     0
  0
ATTDEF
  5
241
330
237
100
AcDbEntity
  8
attrib
100
AcDbText
 10
47.0
 20
72.0
 30
0.0
 40
0.5
  1
78546000
100
AcDbAttributeDefinition
  3

  2
ARTNR
 70
     8
280
     0
  0
ATTDEF
  5
242
330
237
100
AcDbEntity
  8
attrib
100
AcDbText
 10
47.0
 20
71.5
 30
0.0
 40
0.5
  1
CUSTO®60Classic
100
AcDbAttributeDefinition
  3

  2
POF
 70
     8
280
     0
  0
ATTDEF
  5
243
330
237
100
AcDbEntity
  8
attrib
100
AcDbText
 10
47.0
 20
71.0
 30
0.0
 40
0.5
  1
E 27 / 3P
100
AcDbAttributeDefinition
  3

  2
TYPE
 70
     8
280
     0
  0
ATTDEF
  5
244
330
237
100
AcDbEntity
  8
attrib
100
AcDbText
 10
47.0
 20
70.5
 30
0.0
 40
0.5
  1
1
100
AcDbAttributeDefinition
  3

  2
VER
 70
     8
280
     0
  0
ATTDEF
  5
245
330
237
100
AcDbEntity
  8
attrib
100
AcDbText
 10
47.0
 20
70.0
 30
0.0
 40
0.5
  1
woehner
100
AcDbAttributeDefinition
  3

  2
COMPANY
 70
     8
280
     0
  0
ATTDEF
  5
246
330
237
100
AcDbEntity
  8
attrib
100
AcDbText
 10
47.0
 20
69.5
 30
0.0
 40
0.5
  1
{$CADENAS_DATA/23d-libs/woehner/sys_60classic/d_fuse_bases/parts/d_fuse_base_custo_base.prj},176 {VTYP=3D},{NB=78546000},{LINA=78546000},{NN=CUSTO60 Base},{DATE=26.01.2024 07:04:31},{GEOMDATE=02.10.2023 07:48:00},{VERSION=v231002115156},{LINEID=380},{WBVA
100
AcDbAttributeDefinition
  3

  2
PSOL_0
 70
     9
280
     0
  0
ATTDEF
  5
247
330
237
100
AcDbEntity
  8
attrib
100
AcDbText
 10
47.0
 20
69.0
 30
0.0
 40
0.5
  1
R=},{WBNUMERIC=}  {NB=78546000},{LINA=78546000},{KT=DUMMY},{ARTNR=78546000},{POF=CUSTO®60Classic},{TYPE=E 27 / 3P},{VER=1}
100
AcDbAttributeDefinition
  3

  2
PSOL_1
 70
     9
280
     0
  0
LINE
  5
248
330
237
100
AcDbEntity
  8
hidden
100
AcDbLine
 10
15.0
 20
-60.0
 30
0.0
 11
15.0
 21
-59.0
 31
0.0
  0
LINE
  5
249
330
237
100
AcDbEntity
  8
hidden
100
AcDbLine
 10
15.0
 20
-69.0
 30
0.0
 11
15.0
 21
-62.0
 31
0.0
  0
LINE
  5
24A
330
237
100
AcDbEntity
  8
hidden
100
AcDbLine
 10
27.0
 20
-60.0
 30
0.0
 11
27.0
 21
-59.0
 31
0.0
  0
LINE
  5
24B
330
237
100
AcDbEntity
  8
hidden
100
AcDbLine
 10
27.0
 20
-69.0
 30
0.0
 11
27.0
 21
-62.0
 31
0.0
  0
LINE
  5
24C
330
237
100
AcDbEntity
  8
hidden
100
AcDbLine
 10
27.0
 20
0.0000000000000004
 30
0.0
 11
27.0
 21
0.9999999999999991
 31
0.0
  0
LINE
  5
24D
330
237
100
AcDbEntity
  8
hidden
100
AcDbLine
 10
27.0
 20
-9.000000000000002
 30
0.0
 11
27.0
 21
-2.0
 31
0.0
  0
LINE
  5
24E
330
237
100
AcDbEntity
  8
hidden
100
AcDbLine
 10
15.0
 20
0.0000000000000004
 30
0.0
 11
15.0
 21
0.9999999999999991
 31
0.0
  0
LINE
  5
24F
330
237
100
AcDbEntity
  8
hidden
100
AcDbLine
 10
15.0
 20
-9.000000000000002
 30
0.0
 11
15.0
 21
-2.0
 31
0.0
  0
LINE
  5
250
330
237
100
AcDbEntity
  8
hidden
100
AcDbLine
 10
27.0
 20
60.0
 30
0.0
 11
27.0
 21
61.0
 31
0.0
  0
LINE
  5
251
330
237
100
AcDbEntity
  8
hidden
100
AcDbLine
 10
27.0
 20
51.0
 30
0.0
 11
27.0
 21
58.0
 31
0.0
  0
LINE
  5
252
330
237
100
AcDbEntity
  8
hidden
100
AcDbLine
 10
15.0
 20
60.0
 30
0.0
 11
15.0
 21
61.0
 31
0.0
  0
LINE
  5
253
330
237
100
AcDbEntity
  8
hidden
100
AcDbLine
 10
15.0
 20
51.0
 30
0.0
 11
15.0
 21
58.0
 31
0.0
  0
LINE
  5
254
330
237
100
AcDbEntity
  8
hidden
100
AcDbLine
 10
28.0
 20
60.0
 30
0.0
 11
28.0
 21
61.0
 31
0.0
  0
LINE
  5
255
330
237
100
AcDbEntity
  8
hidden
100
AcDbLine
 10
14.0
 20
61.0
 30
0.0
 11
28.0
 21
61.0
 31
0.0
  0
LINE
  5
256
330
237
100
AcDbEntity
  8
hidden
100
AcDbLine
 10
14.0
 20
60.0
 30
0.0
 11
14.0
 21
61.0
 31
0.0
  0
LINE
  5
257
330
237
100
AcDbEntity
  8
hidden
100
AcDbLine
 10
31.0
 20
-0.3667504192891979
 30
0.0
 11
31.0
 21
15.0
 31
0.0
  0
LINE
  5
258
330
237
100
AcDbEntity
  8
hidden
100
AcDbLine
 10
14.0
 20
-60.0
 30
0.0
 11
14.0
 21
-59.0
 31
0.0
  0
LINE
  5
259
330
237
100
AcDbEntity
  8
hidden
100
AcDbLine
 10
28.0
 20
-60.0
 30
0.0
 11
28.0
 21
-59.0
 31
0.0
  0
LINE
  5
25A
330
237
100
AcDbEntity
  8
hidden
100
AcDbLine
 10
14.0
 20
-59.0
 30
0.0
 11
28.0
 21
-59.0
 31
0.0
  0
LINE
  5
25B
330
237
100
AcDbEntity
  8
hidden
100
AcDbLine
 10
28.0
 20
0.0
 30
0.0
 11
28.0
 21
0.9999999999999991
 31
0.0
  0
LINE
  5
25C
330
237
100
AcDbEntity
  8
hidden
100
AcDbLine
 10
31.0
 20
-60.3667504192892
 30
0.0
 11
31.0
 21
-45.0
 31
0.0
  0
LINE
  5
25D
330
237
100
AcDbEntity
  8
hidden
100
AcDbLine
 10
14.0
 20
0.9999999999999991
 30
0.0
 11
28.0
 21
0.9999999999999991
 31
0.0
  0
LINE
  5
25E
330
237
100
AcDbEntity
  8
hidden
100
AcDbLine
 10
14.0
 20
-9.000000000000002
 30
0.0
 11
14.0
 21
-2.0
 31
0.0
  0
LINE
  5
25F
330
237
100
AcDbEntity
  8
hidden
100
AcDbLine
 10
11.0
 20
-0.366750419289203
 30
0.0
 11
11.00000000000001
 21
15.0
 31
0.0
  0
LINE
  5
260
330
237
100
AcDbEntity
  8
hidden
100
AcDbLine
 10
11.0
 20
-9.000000000000002
 30
0.0
 11
11.0
 21
-2.0
 31
0.0
  0
LINE
  5
261
330
237
100
AcDbEntity
  8
hidden
100
AcDbLine
 10
28.0
 20
-9.000000000000002
 30
0.0
 11
28.0
 21
-2.0
 31
0.0
  0
LINE
  5
262
330
237
100
AcDbEntity
  8
hidden
100
AcDbLine
 10
11.0
 20
-9.000000000000002
 30
0.0
 11
30.921
 21
-9.000000000000002
 31
0.0
  0
LINE
  5
263
330
237
100
AcDbEntity
  8
hidden
100
AcDbLine
 10
14.0
 20
0.0
 30
0.0
 11
14.0
 21
0.9999999999999991
 31
0.0
  0
LINE
  5
264
330
237
100
AcDbEntity
  8
hidden
100
AcDbLine
 10
11.0
 20
59.6332495807108
 30
0.0
 11
11.00000000000001
 21
75.0
 31
0.0
  0
LINE
  5
265
330
237
100
AcDbEntity
  8
hidden
100
AcDbLine
 10
11.0
 20
51.0
 30
0.0
 11
11.0
 21
58.0
 31
0.0
  0
LINE
  5
266
330
237
100
AcDbEntity
  8
hidden
100
AcDbLine
 10
14.0
 20
51.0
 30
0.0
 11
14.0
 21
57.99999999999999
 31
0.0
  0
LINE
  5
267
330
237
100
AcDbEntity
  8
hidden
100
AcDbLine
 10
31.0
 20
59.6332495807108
 30
0.0
 11
31.0
 21
75.0
 31
0.0
  0
LINE
  5
268
330
237
100
AcDbEntity
  8
hidden
100
AcDbLine
 10
28.0
 20
51.0
 30
0.0
 11
28.0
 21
57.99999999999999
 31
0.0
  0
LINE
  5
269
330
237
100
AcDbEntity
  8
hidden
100
AcDbLine
 10
11.0
 20
51.0
 30
0.0
 11
30.921
 21
51.0
 31
0.0
  0
LINE
  5
26A
330
237
100
AcDbEntity
  8
hidden
100
AcDbLine
 10
28.0
 20
-69.0
 30
0.0
 11
28.0
 21
-62.0
 31
0.0
  0
LINE
  5
26B
330
237
100
AcDbEntity
  8
hidden
100
AcDbLine
 10
11.0
 20
-69.0
 30
0.0
 11
30.921
 21
-69.0
 31
0.0
  0
LINE
  5
26C
330
237
100
AcDbEntity
  8
hidden
100
AcDbLine
 10
11.0
 20
-60.3667504192892
 30
0.0
 11
11.00000000000001
 21
-45.0
 31
0.0
  0
LINE
  5
26D
330
237
100
AcDbEntity
  8
hidden
100
AcDbLine
 10
11.0
 20
-69.0
 30
0.0
 11
11.0
 21
-62.0
 31
0.0
  0
LINE
  5
26E
330
237
100
AcDbEntity
  8
hidden
100
AcDbLine
 10
14.0
 20
-69.0
 30
0.0
 11
14.0
 21
-62.0
 31
0.0
  0
LINE
  5
26F
330
237
100
AcDbEntity
  8
hidden
100
AcDbLine
 10
36.0
 20
-32.7259
 30
0.0
 11
39.0
 21
-32.7259
 31
0.0
  0
LINE
  5
270
330
237
100
AcDbEntity
  8
hidden
100
AcDbLine
 10
36.0
 20
-32.0
 30
0.0
 11
39.0
 21
-32.0
 31
0.0
  0
LINE
  5
271
330
237
100
AcDbEntity
  8
hidden
100
AcDbLine
 10
36.0
 20
-27.35292041005384
 30
0.0
 11
39.0
 21
-27.35292041005384
 31
0.0
  0
LINE
  5
272
330
237
100
AcDbEntity
  8
hidden
100
AcDbLine
 10
36.0
 20
-22.29410034171154
 30
0.0
 11
39.0
 21
-22.29410034171154
 31
0.0
  0
LINE
  5
273
330
237
100
AcDbEntity
  8
hidden
100
AcDbLine
 10
36.0
 20
-27.0
 30
0.0
 11
39.0
 21
-27.0
 31
0.0
  0
LINE
  5
274
330
237
100
AcDbEntity
  8
hidden
100
AcDbLine
 10
36.0
 20
-17.42857142857142
 30
0.0
 11
39.0
 21
-17.42857142857142
 31
0.0
  0
LINE
  5
275
330
237
100
AcDbEntity
  8
hidden
100
AcDbLine
 10
36.0
 20
-22.0
 30
0.0
 11
39.0
 21
-22.0
 31
0.0
  0
LINE
  5
276
330
237
100
AcDbEntity
  8
hidden
100
AcDbLine
 10
36.0
 20
-17.0
 30
0.0
 11
39.0
 21
-17.0
 31
0.0
  0
LINE
  5
277
330
237
100
AcDbEntity
  8
hidden
100
AcDbLine
 10
30.74679434480896
 20
-60.0
 30
0.0
 11
42.0
 21
-60.0
 31
0.0
  0
LINE
  5
278
330
237
100
AcDbEntity
  8
hidden
100
AcDbLine
 10
0.0
 20
-60.0
 30
0.0
 11
11.25320565519104
 21
-60.0
 31
0.0
  0
LINE
  5
279
330
237
100
AcDbEntity
  8
hidden
100
AcDbLine
 10
30.74679434480897
 20
0.0
 30
0.0
 11
42.0
 21
-0.0000000000000069
 31
0.0
  0
LINE
  5
27A
330
237
100
AcDbEntity
  8
hidden
100
AcDbLine
 10
0.0
 20
-0.0000000000000069
 30
0.0
 11
11.25320565519104
 21
0.0
 31
0.0
  0
LINE
  5
27B
330
237
100
AcDbEntity
  8
hidden
100
AcDbLine
 10
30.74679434480897
 20
60.0
 30
0.0
 11
42.0
 21
59.99999999999999
 31
0.0
  0
LINE
  5
27C
330
237
100
AcDbEntity
  8
hidden
100
AcDbLine
 10
0.0
 20
59.99999999999999
 30
0.0
 11
11.25320565519104
 21
60.0
 31
0.0
  0
LINE
  5
27D
330
237
100
AcDbEntity
  8
hidden
100
AcDbLine
 10
42.0
 20
15.0
 30
0.0
 11
0.0
 21
15.0
 31
0.0
  0
LINE
  5
27E
330
237
100
AcDbEntity
  8
hidden
100
AcDbLine
 10
36.0
 20
-14.0
 30
0.0
 11
39.0
 21
-14.0
 31
0.0
  0
LINE
  5
27F
330
237
100
AcDbEntity
  8
hidden
100
AcDbLine
 10
42.0
 20
-45.0
 30
0.0
 11
0.0
 21
-45.0
 31
0.0
  0
LINE
  5
280
330
237
100
AcDbEntity
  8
hidden
100
AcDbLine
 10
39.0
 20
-14.0
 30
0.0
 11
39.0
 21
-43.0
 31
0.0
  0
LINE
  5
281
330
237
100
AcDbEntity
  8
hidden
100
AcDbLine
 10
36.0
 20
-37.0
 30
0.0
 11
39.0
 21
-37.0
 31
0.0
  0
LINE
  5
282
330
237
100
AcDbEntity
  8
hidden
100
AcDbLine
 10
36.0
 20
-14.0
 30
0.0
 11
36.0
 21
-43.0
 31
0.0
  0
LINE
  5
283
330
237
100
AcDbEntity
  8
hidden
100
AcDbLine
 10
36.0
 20
-43.0
 30
0.0
 11
39.0
 21
-43.0
 31
0.0
  0
LINE
  5
284
330
237
100
AcDbEntity
  8
hidden
100
AcDbLine
 10
14.12676043528965
 20
-97.77185365833603
 30
0.0
 11
15.90977910226221
 21
-98.76241941749966
 31
0.0
  0
ARC
  5
285
330
237
100
AcDbEntity
  8
hidden
100
AcDbCircle
 10
20.99999999999883
 20
-6.963600000001179
 30
0.0
 40
16.0269000000011
100
AcDbArc
 50
356.6799106641898
 51
93.86229809174992
  0
ARC
  5
286
330
237
100
AcDbEntity
  8
hidden
100
AcDbCircle
 10
20.99999999999873
 20
53.03639999999872
 30
0.0
 40
16.0269000000012
100
AcDbArc
 50
356.6799106641902
 51
93.86229809174971
  0
ARC
  5
287
330
237
100
AcDbEntity
  8
hidden
100
AcDbCircle
 10
20.99999999999888
 20
-66.96360000000114
 30
0.0
 40
16.02690000000106
100
AcDbArc
 50
356.6799106641897
 51
93.86229809175025
  0
LINE
  5
288
330
237
100
AcDbEntity
  8
hidden
100
AcDbLine
 10
9.235830034031355
 20
-23.5755009925966
 30
0.0
 11
18.99999236493785
 21
-29.00003470672417
 31
0.0
  0
LINE
  5
289
330
237
100
AcDbEntity
  8
hidden
100
AcDbLine
 10
9.235858992982532
 20
-21.06475617697686
 30
0.0
 11
3.296738095244737
 21
-31.75517559447655
 31
0.0
  0
LINE
  5
28A
330
237
100
AcDbEntity
  8
hidden
100
AcDbLine
 10
4.362598104383157
 20
-32.34731994420848
 30
0.0
 11
9.235830034031355
 21
-23.5755009925966
 31
0.0
  0
LINE
  5
28B
330
237
100
AcDbEntity
  8
hidden
100
AcDbLine
 10
15.9097791022622
 20
-38.76241941749969
 30
0.0
 11
21.8489
 21
-28.072
 31
0.0
  0
LINE
  5
28C
330
237
100
AcDbEntity
  8
hidden
100
AcDbLine
 10
21.8489
 20
-28.072
 30
0.0
 11
9.235858992982532
 21
-21.06475617697686
 31
0.0
  0
LINE
  5
28D
330
237
100
AcDbEntity
  8
hidden
100
AcDbLine
 10
18.99999236493785
 20
-29.00003470672417
 30
0.0
 11
14.12676043528965
 21
-37.77185365833604
 31
0.0
  0
LINE
  5
28E
330
237
100
AcDbEntity
  8
hidden
100
AcDbLine
 10
3.296738095244737
 20
-31.75517559447655
 30
0.0
 11
4.362598104383157
 21
-32.34731994420848
 31
0.0
  0
LINE
  5
28F
330
237
100
AcDbEntity
  8
hidden
100
AcDbLine
 10
14.12676043528965
 20
-37.77185365833604
 30
0.0
 11
15.9097791022622
 21
-38.76241941749969
 31
0.0
  0
LINE
  5
290
330
237
100
AcDbEntity
  8
hidden
100
AcDbLine
 10
5.100000000000001
 20
-50.9731
 30
0.0
 11
5.100000000000001
 21
-64.95076031189762
 31
0.0
  0
ARC
  5
291
330
237
100
AcDbEntity
  8
hidden
100
AcDbCircle
 10
21.00000000000001
 20
-66.9636
 30
0.0
 40
16.02690000000001
100
AcDbArc
 50
172.7850943803551
 51
273.6885604705902
  0
LINE
  5
292
330
237
100
AcDbEntity
  8
hidden
100
AcDbLine
 10
22.03105961030385
 20
-82.95730000000002
 30
0.0
 11
37.0
 21
-82.95730000000002
 31
0.0
  0
LINE
  5
293
330
237
100
AcDbEntity
  8
hidden
100
AcDbLine
 10
37.0
 20
-82.95730000000002
 30
0.0
 11
37.0
 21
-66.03541703851015
 31
0.0
  0
LINE
  5
294
330
237
100
AcDbEntity
  8
hidden
100
AcDbLine
 10
19.92044761127579
 20
-50.97310000000001
 30
0.0
 11
5.100000000000001
 21
-50.9731
 31
0.0
  0
LINE
  5
295
330
237
100
AcDbEntity
  8
hidden
100
AcDbLine
 10
22.03105961030386
 20
37.0427
 30
0.0
 11
37.0
 21
37.0427
 31
0.0
  0
LINE
  5
296
330
237
100
AcDbEntity
  8
hidden
100
AcDbLine
 10
37.0
 20
37.0427
 30
0.0
 11
37.0
 21
53.96458296148985
 31
0.0
  0
ARC
  5
297
330
237
100
AcDbEntity
  8
hidden
100
AcDbCircle
 10
21.00000000000001
 20
53.0364
 30
0.0
 40
16.02690000000001
100
AcDbArc
 50
172.7850943803551
 51
273.6885604705902
  0
LINE
  5
298
330
237
100
AcDbEntity
  8
hidden
100
AcDbLine
 10
19.92044761127578
 20
69.0269
 30
0.0
 11
5.100000000000001
 21
69.0269
 31
0.0
  0
LINE
  5
299
330
237
100
AcDbEntity
  8
hidden
100
AcDbLine
 10
5.100000000000001
 20
69.0269
 30
0.0
 11
5.100000000000001
 21
55.04923968810238
 31
0.0
  0
LINE
  5
29A
330
237
100
AcDbEntity
  8
hidden
100
AcDbLine
 10
3.296738095244734
 20
-91.75517559447654
 30
0.0
 11
4.362598104383153
 21
-92.34731994420848
 31
0.0
  0
LINE
  5
29B
330
237
100
AcDbEntity
  8
hidden
100
AcDbLine
 10
9.235858992982537
 20
-81.06475617697689
 30
0.0
 11
3.296738095244734
 21
-91.75517559447654
 31
0.0
  0
LINE
  5
29C
330
237
100
AcDbEntity
  8
hidden
100
AcDbLine
 10
21.8489
 20
-88.07200000000002
 30
0.0
 11
9.235858992982537
 21
-81.06475617697689
 31
0.0
  0
LINE
  5
29D
330
237
100
AcDbEntity
  8
hidden
100
AcDbLine
 10
15.90977910226221
 20
-98.76241941749966
 30
0.0
 11
21.8489
 21
-88.07200000000002
 31
0.0
  0
LINE
  5
29E
330
237
100
AcDbEntity
  8
hidden
100
AcDbLine
 10
21.21979822207205
 20
-89.12201833936737
 30
0.0
 11
21.25476451450666
 21
-89.14144405411295
 31
0.0
  0
LINE
  5
29F
330
237
100
AcDbEntity
  8
hidden
100
AcDbLine
 10
4.362598104383153
 20
-92.34731994420848
 30
0.0
 11
9.235830034031352
 21
-83.57550099259659
 31
0.0
  0
LINE
  5
2A0
330
237
100
AcDbEntity
  8
hidden
100
AcDbLine
 10
9.235830034031352
 20
-83.57550099259659
 30
0.0
 11
18.99999236493785
 21
-89.00003470672415
 31
0.0
  0
LINE
  5
2A1
330
237
100
AcDbEntity
  8
hidden
100
AcDbLine
 10
18.99999236493785
 20
-89.00003470672415
 30
0.0
 11
14.12676043528965
 21
-97.77185365833603
 31
0.0
  0
LINE
  5
2A2
330
237
100
AcDbEntity
  8
hidden
100
AcDbLine
 10
21.21979822207205
 20
-89.12201833936737
 30
0.0
 11
15.87481280982758
 21
-98.74299370275409
 31
0.0
  0
LINE
  5
2A3
330
237
100
AcDbEntity
  8
hidden
100
AcDbLine
 10
22.03105961030391
 20
-22.9573
 30
0.0
 11
37.0
 21
-22.9573
 31
0.0
  0
LINE
  5
2A4
330
237
100
AcDbEntity
  8
hidden
100
AcDbLine
 10
19.92044761127583
 20
9.026899999999998
 30
0.0
 11
5.100000000000001
 21
9.026899999999998
 31
0.0
  0
LINE
  5
2A5
330
237
100
AcDbEntity
  8
hidden
100
AcDbLine
 10
5.100000000000001
 20
9.026899999999998
 30
0.0
 11
5.100000000000001
 21
-4.950760311897633
 31
0.0
  0
ARC
  5
2A6
330
237
100
AcDbEntity
  8
hidden
100
AcDbCircle
 10
20.99999999999999
 20
-6.96360000000001
 30
0.0
 40
16.02689999999999
100
AcDbArc
 50
172.7850943803551
 51
273.6885604705905
  0
LINE
  5
2A7
330
237
100
AcDbEntity
  8
hidden
100
AcDbLine
 10
37.0
 20
-22.9573
 30
0.0
 11
37.0
 21
-6.035417038510155
 31
0.0
  0
LINE
  5
2A8
330
237
100
AcDbEntity
  8
hidden
100
AcDbLine
 10
4.362598104383153
 20
27.65268005579152
 30
0.0
 11
9.235830034031355
 21
36.4244990074034
 31
0.0
  0
LINE
  5
2A9
330
237
100
AcDbEntity
  8
hidden
100
AcDbLine
 10
14.12676043528965
 20
22.22814634166396
 30
0.0
 11
15.9097791022622
 21
21.23758058250032
 31
0.0
  0
LINE
  5
2AA
330
237
100
AcDbEntity
  8
hidden
100
AcDbLine
 10
15.9097791022622
 20
21.23758058250032
 30
0.0
 11
21.8489
 21
31.928
 31
0.0
  0
LINE
  5
2AB
330
237
100
AcDbEntity
  8
hidden
100
AcDbLine
 10
21.8489
 20
31.928
 30
0.0
 11
9.235858992982537
 21
38.93524382302314
 31
0.0
  0
LINE
  5
2AC
330
237
100
AcDbEntity
  8
hidden
100
AcDbLine
 10
9.235858992982537
 20
38.93524382302314
 30
0.0
 11
3.296738095244734
 21
28.24482440552346
 31
0.0
  0
LINE
  5
2AD
330
237
100
AcDbEntity
  8
hidden
100
AcDbLine
 10
3.296738095244734
 20
28.24482440552346
 30
0.0
 11
4.362598104383153
 21
27.65268005579152
 31
0.0
  0
LINE
  5
2AE
330
237
100
AcDbEntity
  8
hidden
100
AcDbLine
 10
9.235830034031355
 20
36.4244990074034
 30
0.0
 11
18.99999236493785
 21
30.99996529327584
 31
0.0
  0
LINE
  5
2AF
330
237
100
AcDbEntity
  8
hidden
100
AcDbLine
 10
18.99999236493785
 20
30.99996529327584
 30
0.0
 11
14.12676043528965
 21
22.22814634166396
 31
0.0
  0
CIRCLE
  5
2B0
330
237
100
AcDbEntity
  8
hidden
100
AcDbCircle
 10
21.00000000000002
 20
-6.999999999999993
 30
0.0
 40
13.00000000000002
  0
CIRCLE
  5
2B1
330
237
100
AcDbEntity
  8
hidden
100
AcDbCircle
 10
20.99999999999955
 20
-67.00000000000011
 30
0.0
 40
12.99999999999954
  0
CIRCLE
  5
2B2
330
237
100
AcDbEntity
  8
hidden
100
AcDbCircle
 10
21.00000000000027
 20
53.00000000000006
 30
0.0
 40
13.00000000000028
  0
CIRCLE
  5
2B3
330
237
100
AcDbEntity
  8
hidden
100
AcDbCircle
 10
20.99999999999998
 20
-67.00000000000006
 30
0.0
 40
13.49999999999996
  0
CIRCLE
  5
2B4
330
237
100
AcDbEntity
  8
hidden
100
AcDbCircle
 10
20.99999999999999
 20
52.99999999999999
 30
0.0
 40
13.49999999999999
  0
CIRCLE
  5
2B5
330
237
100
AcDbEntity
  8
hidden
100
AcDbCircle
 10
21.0
 20
-7.000000000000004
 30
0.0
 40
13.5
  0
LINE
  5
2B6
330
237
100
AcDbEntity
  8
bold
100
AcDbLine
 10
15.0
 20
-62.0
 30
0.0
 11
15.0
 21
-60.0
 31
0.0
  0
LINE
  5
2B7
330
237
100
AcDbEntity
  8
bold
100
AcDbLine
 10
27.0
 20
-62.0
 30
0.0
 11
27.0
 21
-60.0
 31
0.0
  0
LINE
  5
2B8
330
237
100
AcDbEntity
  8
bold
100
AcDbLine
 10
27.0
 20
-2.0
 30
0.0
 11
27.0
 21
0.0000000000000004
 31
0.0
  0
LINE
  5
2B9
330
237
100
AcDbEntity
  8
bold
100
AcDbLine
 10
15.0
 20
-2.0
 30
0.0
 11
15.0
 21
0.0000000000000004
 31
0.0
  0
LINE
  5
2BA
330
237
100
AcDbEntity
  8
bold
100
AcDbLine
 10
27.0
 20
58.0
 30
0.0
 11
27.0
 21
60.0
 31
0.0
  0
LINE
  5
2BB
330
237
100
AcDbEntity
  8
bold
100
AcDbLine
 10
15.0
 20
58.0
 30
0.0
 11
15.0
 21
60.0
 31
0.0
  0
LINE
  5
2BC
330
237
100
AcDbEntity
  8
bold
100
AcDbLine
 10
14.0
 20
-2.0
 30
0.0
 11
14.0
 21
0.0
 31
0.0
  0
LINE
  5
2BD
330
237
100
AcDbEntity
  8
bold
100
AcDbLine
 10
11.0
 20
-2.0
 30
0.0
 11
11.0
 21
-0.366750419289203
 31
0.0
  0
LINE
  5
2BE
330
237
100
AcDbEntity
  8
bold
100
AcDbLine
 10
28.0
 20
-2.0
 30
0.0
 11
28.0
 21
0.0
 31
0.0
  0
LINE
  5
2BF
330
237
100
AcDbEntity
  8
bold
100
AcDbLine
 10
30.921
 20
-9.000000000000002
 30
0.0
 11
31.0
 21
-9.000000000000002
 31
0.0
  0
LINE
  5
2C0
330
237
100
AcDbEntity
  8
bold
100
AcDbLine
 10
31.0
 20
-9.000000000000002
 30
0.0
 11
31.0
 21
-0.3667504192891979
 31
0.0
  0
LINE
  5
2C1
330
237
100
AcDbEntity
  8
bold
100
AcDbLine
 10
11.0
 20
58.0
 30
0.0
 11
11.0
 21
59.6332495807108
 31
0.0
  0
LINE
  5
2C2
330
237
100
AcDbEntity
  8
bold
100
AcDbLine
 10
14.0
 20
57.99999999999999
 30
0.0
 11
14.0
 21
60.0
 31
0.0
  0
LINE
  5
2C3
330
237
100
AcDbEntity
  8
bold
100
AcDbLine
 10
31.0
 20
51.0
 30
0.0
 11
31.0
 21
59.6332495807108
 31
0.0
  0
LINE
  5
2C4
330
237
100
AcDbEntity
  8
bold
100
AcDbLine
 10
28.0
 20
57.99999999999999
 30
0.0
 11
28.0
 21
60.0
 31
0.0
  0
LINE
  5
2C5
330
237
100
AcDbEntity
  8
bold
100
AcDbLine
 10
30.921
 20
51.0
 30
0.0
 11
31.0
 21
51.0
 31
0.0
  0
LINE
  5
2C6
330
237
100
AcDbEntity
  8
bold
100
AcDbLine
 10
31.0
 20
-69.0
 30
0.0
 11
31.0
 21
-60.3667504192892
 31
0.0
  0
LINE
  5
2C7
330
237
100
AcDbEntity
  8
bold
100
AcDbLine
 10
28.0
 20
-62.0
 30
0.0
 11
28.0
 21
-60.0
 31
0.0
  0
LINE
  5
2C8
330
237
100
AcDbEntity
  8
bold
100
AcDbLine
 10
30.921
 20
-69.0
 30
0.0
 11
31.0
 21
-69.0
 31
0.0
  0
LINE
  5
2C9
330
237
100
AcDbEntity
  8
bold
100
AcDbLine
 10
11.0
 20
-62.0
 30
0.0
 11
11.0
 21
-60.3667504192892
 31
0.0
  0
LINE
  5
2CA
330
237
100
AcDbEntity
  8
bold
100
AcDbLine
 10
14.0
 20
-62.0
 30
0.0
 11
14.0
 21
-60.0
 31
0.0
  0
LINE
  5
2CB
330
237
100
AcDbEntity
  8
bold
100
AcDbLine
 10
11.25320565519104
 20
-60.0
 30
0.0
 11
30.74679434480896
 21
-60.0
 31
0.0
  0
LINE
  5
2CC
330
237
100
AcDbEntity
  8
bold
100
AcDbLine
 10
11.25320565519104
 20
0.0
 30
0.0
 11
30.74679434480897
 21
0.0
 31
0.0
  0
LINE
  5
2CD
330
237
100
AcDbEntity
  8
bold
100
AcDbLine
 10
11.25320565519104
 20
60.0
 30
0.0
 11
30.74679434480897
 21
60.0
 31
0.0
  0
ENDBLK
  5
23A
330
237
100
AcDbEntity
  8
0
100
AcDbBlockEnd
  0
BLOCK
  5
2D2
330
2D1
100
AcDbEntity
  8
0
100
AcDbBlockBegin
  2
*D14
 70
     1
 10
0.0
 20
0.0
 30
0.0
  3
*D14
  1

  0
LINE
  5
2D4
330
2D1
100
AcDbEntity
  8
dimension
 62
     0
370
    -2
100
AcDbLine
 10
0.0
 20
-100.0
 30
0.0
 11
0.0
 21
-136.0
 31
0.0
  0
LINE
  5
2D5
330
2D1
100
AcDbEntity
  8
dimension
 62
     0
370
    -2
100
AcDbLine
 10
42.0
 20
-100.0
 30
0.0
 11
42.0
 21
-136.0
 31
0.0
  0
LINE
  5
2D6
330
2D1
100
AcDbEntity
  8
dimension
 62
     0
370
    -2
100
AcDbLine
 10
6.0
 20
-136.0
 30
0.0
 11
36.0
 21
-136.0
 31
0.0
  0
SOLID
  5
2D7
330
2D1
100
AcDbEntity
  8
dimension
 62
     0
100
AcDbTrace
 10
6.0
 20
-135.0
 30
0.0
 11
6.0
 21
-137.0
 31
0.0
 12
0.0
 22
-136.0
 32
0.0
 13
0.0
 23
-136.0
 33
0.0
  0
SOLID
  5
2D8
330
2D1
100
AcDbEntity
  8
dimension
 62
     0
100
AcDbTrace
 10
36.0
 20
-137.0
 30
0.0
 11
36.0
 21
-135.0
 31
0.0
 12
42.0
 22
-136.0
 32
0.0
 13
42.0
 23
-136.0
 33
0.0
  0
MTEXT
  5
2D9
330
2D1
100
AcDbEntity
  8
dimension
 62
     0
100
AcDbMText
 10
21.0
 20
-131.2
 30
0.0
 40
6.0
 41
0.0
 46
0.0
 71
     5
 72
     1
  1
42
 73
     1
 44
1.0
  0
POINT
  5
2DA
330
2D1
100
AcDbEntity
  8
Defpoints
 62
     0
100
AcDbPoint
 10
0.0
 20
-100.0
 30
0.0
  0
POINT
  5
2DB
330
2D1
100
AcDbEntity
  8
Defpoints
 62
     0
100
AcDbPoint
 10
42.0
 20
-100.0
 30
0.0
  0
POINT
  5
2DC
330
2D1
100
AcDbEntity
  8
Defpoints
 62
     0
100
AcDbPoint
 10
42.0
 20
-136.0
 30
0.0
  0
ENDBLK
  5
2D3
330
2D1
100
AcDbEntity
  8
0
100
AcDbBlockEnd
  0
BLOCK
  5
2DF
330
2DE
100
AcDbEntity
  8
0
100
AcDbBlockBegin
  2
*D15
 70
     1
 10
0.0
 20
0.0
 30
0.0
  3
*D15
  1

  0
LINE
  5
2E1
330
2DE
100
AcDbEntity
  8
dimension
 62
     0
370
    -2
100
AcDbLine
 10
42.0
 20
75.0
 30
0.0
 11
72.0
 21
75.0
 31
0.0
  0
LINE
  5
2E2
330
2DE
100
AcDbEntity
  8
dimension
 62
     0
370
    -2
100
AcDbLine
 10
42.0
 20
-100.0
 30
0.0
 11
72.0
 21
-100.0
 31
0.0
  0
LINE
  5
2E3
330
2DE
100
AcDbEntity
  8
dimension
 62
     0
370
    -2
100
AcDbLine
 10
72.0
 20
69.0
 30
0.0
 11
72.0
 21
-3.557142857142864
 31
0.0
  0
LINE
  5
2E4
330
2DE
100
AcDbEntity
  8
dimension
 62
     0
370
    -2
100
AcDbLine
 10
72.0
 20
-94.0
 30
0.0
 11
72.0
 21
-21.44285714285714
 31
0.0
  0
SOLID
  5
2E5
330
2DE
100
AcDbEntity
  8
dimension
 62
     0
100
AcDbTrace
 10
73.0
 20
69.0
 30
0.0
 11
71.0
 21
69.0
 31
0.0
 12
72.0
 22
75.0
 32
0.0
 13
72.0
 23
75.0
 33
0.0
  0
SOLID
  5
2E6
330
2DE
100
AcDbEntity
  8
dimension
 62
     0
100
AcDbTrace
 10
71.0
 20
-94.0
 30
0.0
 11
73.0
 21
-94.0
 31
0.0
 12
72.0
 22
-100.0
 32
0.0
 13
72.0
 23
-100.0
 33
0.0
  0
MTEXT
  5
2E7
330
2DE
100
AcDbEntity
  8
dimension
 62
     0
100
AcDbMText
 10
72.0
 20
-12.5
 30
0.0
 40
6.0
 41
0.0
 46
0.0
 71
     5
 72
     1
  1
169
 11
6.123233995736766E-17
 21
1.0
 31
0.0
 73
     1
 44
1.0
  0
POINT
  5
2E8
330
2DE
100
AcDbEntity
  8
Defpoints
 62
     0
100
AcDbPoint
 10
42.0
 20
75.0
 30
0.0
  0
POINT
  5
2E9
330
2DE
100
AcDbEntity
  8
Defpoints
 62
     0
100
AcDbPoint
 10
42.0
 20
-100.0
 30
0.0
  0
POINT
  5
2EA
330
2DE
100
AcDbEntity
  8
Defpoints
 62
     0
100
AcDbPoint
 10
72.0
 20
-100.0
 30
0.0
  0
ENDBLK
  5
2E0
330
2DE
100
AcDbEntity
  8
0
100
AcDbBlockEnd
  0
BLOCK
  5
2ED
330
2EC
100
AcDbEntity
  8
0
100
AcDbBlockBegin
  2
*D16
 70
     1
 10
0.0
 20
0.0
 30
0.0
  3
*D16
  1

  0
LINE
  5
2EF
330
2EC
100
AcDbEntity
  8
dimension
 62
     0
370
    -2
100
AcDbLine
 10
42.0
 20
-106.0
 30
0.0
 11
99.0
 21
-106.0
 31
0.0
  0
LINE
  5
2F0
330
2EC
100
AcDbEntity
  8
dimension
 62
     0
370
    -2
100
AcDbLine
 10
42.0
 20
94.0
 30
0.0
 11
99.0
 21
94.0
 31
0.0
  0
LINE
  5
2F1
330
2EC
100
AcDbEntity
  8
dimension
 62
     0
370
    -2
100
AcDbLine
 10
99.0
 20
-100.0
 30
0.0
 11
99.0
 21
-15.51428571428571
 31
0.0
  0
LINE
  5
2F2
330
2EC
100
AcDbEntity
  8
dimension
 62
     0
370
    -2
100
AcDbLine
 10
99.0
 20
88.0
 30
0.0
 11
99.0
 21
3.514285714285705
 31
0.0
  0
SOLID
  5
2F3
330
2EC
100
AcDbEntity
  8
dimension
 62
     0
100
AcDbTrace
 10
98.0
 20
-100.0
 30
0.0
 11
100.0
 21
-100.0
 31
0.0
 12
99.0
 22
-106.0
 32
0.0
 13
99.0
 23
-106.0
 33
0.0
  0
SOLID
  5
2F4
330
2EC
100
AcDbEntity
  8
dimension
 62
     0
100
AcDbTrace
 10
100.0
 20
88.0
 30
0.0
 11
98.0
 21
88.0
 31
0.0
 12
99.0
 22
94.0
 32
0.0
 13
99.0
 23
94.0
 33
0.0
  0
MTEXT
  5
2F5
330
2EC
100
AcDbEntity
  8
dimension
 62
     0
100
AcDbMText
 10
99.0
 20
-6.0
 30
0.0
 40
6.0
 41
0.0
 46
0.0
 71
     5
 72
     1
  1
200
 11
6.123233995736766E-17
 21
1.0
 31
0.0
 73
     1
 44
1.0
  0
POINT
  5
2F6
330
2EC
100
AcDbEntity
  8
Defpoints
 62
     0
100
AcDbPoint
 10
42.0
 20
-106.0
 30
0.0
  0
POINT
  5
2F7
330
2EC
100
AcDbEntity
  8
Defpoints
 62
     0
100
AcDbPoint
 10
42.0
 20
94.0
 30
0.0
  0
POINT
  5
2F8
330
2EC
100
AcDbEntity
  8
Defpoints
 62
     0
100
AcDbPoint
 10
99.0
 20
94.0
 30
0.0
  0
ENDBLK
  5
2EE
330
2EC
100
AcDbEntity
  8
0
100
AcDbBlockEnd
  0
ENDSEC
  0
SECTION
  2
ENTITIES
  0
ATTDEF
  5
5F
330
1F
100
AcDbEntity
  8
attrib
100
AcDbText
 10
47.0
 20
94.00000000000001
 30
0.0
 40
0.5
  1
31950
100
AcDbAttributeDefinition
  3

  2
NB
 70
     8
280
     0
  0
ATTDEF
  5
60
330
1F
100
AcDbEntity
  8
attrib
100
AcDbText
 10
47.0
 20
93.50000000000001
 30
0.0
 40
0.5
  1
E27, gauge screw
100
AcDbAttributeDefinition
  3

  2
NN
 70
     8
280
     0
  0
ATTDEF
  5
61
330
1F
100
AcDbEntity
  8
attrib
100
AcDbText
 10
47.0
 20
93.00000000000001
 30
0.0
 40
0.5
  1

100
AcDbAttributeDefinition
  3

  2
NT
 70
     8
280
     0
  0
ATTDEF
  5
62
330
1F
100
AcDbEntity
  8
attrib
100
AcDbText
 10
47.0
 20
92.50000000000001
 30
0.0
 40
0.5
  1
$ARTNR.
100
AcDbAttributeDefinition
  3

  2
NBSYN
 70
     8
280
     0
  0
ATTDEF
  5
63
330
1F
100
AcDbEntity
  8
attrib
100
AcDbText
 10
47.0
 20
92.00000000000001
 30
0.0
 40
0.5
  1
31950000
100
AcDbAttributeDefinition
  3

  2
LINA
 70
     8
280
     0
  0
ATTDEF
  5
64
330
1F
100
AcDbEntity
  8
attrib
100
AcDbText
 10
47.0
 20
91.50000000000001
 30
0.0
 40
0.5
  1
Wöhner
100
AcDbAttributeDefinition
  3

  2
CATALOG
 70
     8
280
     0
  0
ATTDEF
  5
65
330
1F
100
AcDbEntity
  8
attrib
100
AcDbText
 10
47.0
 20
91.00000000000001
 30
0.0
 40
0.5
  1
31950
100
AcDbAttributeDefinition
  3

  2
ARTNR
 70
     8
280
     0
  0
ATTDEF
  5
66
330
1F
100
AcDbEntity
  8
attrib
100
AcDbText
 10
47.0
 20
90.50000000000001
 30
0.0
 40
0.5
  1
12, 15, 20, 25, 30 x 5, 10 and section busbars
100
AcDbAttributeDefinition
  3

  2
BUSB
 70
     8
280
     0
  0
ATTDEF
  5
67
330
1F
100
AcDbEntity
  8
attrib
100
AcDbText
 10
47.0
 20
90.00000000000001
 30
0.0
 40
0.5
  1
CUSTO®60Classic
100
AcDbAttributeDefinition
  3

  2
POF
 70
     8
280
     0
  0
ATTDEF
  5
68
330
1F
100
AcDbEntity
  8
attrib
100
AcDbText
 10
47.0
 20
89.50000000000001
 30
0.0
 40
0.5
  1
8
100
AcDbAttributeDefinition
  3

  2
QNT
 70
     8
280
     0
  0
ATTDEF
  5
69
330
1F
100
AcDbEntity
  8
attrib
100
AcDbText
 10
47.0
 20
89.00000000000001
 30
0.0
 40
0.5
  1
42
100
AcDbAttributeDefinition
  3

  2
W
 70
     8
280
     0
  0
ATTDEF
  5
6A
330
1F
100
AcDbEntity
  8
attrib
100
AcDbText
 10
47.0
 20
88.50000000000001
 30
0.0
 40
0.5
  1
200
100
AcDbAttributeDefinition
  3

  2
H
 70
     8
280
     0
  0
ATTDEF
  5
6B
330
1F
100
AcDbEntity
  8
attrib
100
AcDbText
 10
47.0
 20
88.00000000000001
 30
0.0
 40
0.5
  1
43
100
AcDbAttributeDefinition
  3

  2
D
 70
     8
280
     0
  0
ATTDEF
  5
6C
330
1F
100
AcDbEntity
  8
attrib
100
AcDbText
 10
47.0
 20
87.50000000000001
 30
0.0
 40
0.5
  1
Product link
100
AcDbAttributeDefinition
  3

  2
LINK
 70
     8
280
     0
  0
ATTDEF
  5
6D
330
1F
100
AcDbEntity
  8
attrib
100
AcDbText
 10
47.0
 20
87.00000000000001
 30
0.0
 40
0.5
  1
woehner
100
AcDbAttributeDefinition
  3

  2
COMPANY
 70
     8
280
     0
  0
ATTDEF
  5
6E
330
1F
100
AcDbEntity
  8
attrib
100
AcDbText
 10
47.0
 20
86.50000000000001
 30
0.0
 40
0.5
  1
{$CADENAS_DATA/23d-libs/woehner/sys_60classic/d_fuse_bases/d_fuse_base_custo_e27_passschraube_asmtab.prj},192 {VTYP=3D},{STYP=ASSTAB},{NB=31950},{LINA=31950000},{NN=E27, Passschraube},{DATE=26.01.2024 06:39:58},{GEOMDATE=02.10.2023 12:26:14},{VERSION=v231
100
AcDbAttributeDefinition
  3

  2
PSOL_0
 70
     9
280
     0
  0
ATTDEF
  5
6F
330
1F
100
AcDbEntity
  8
attrib
100
AcDbText
 10
47.0
 20
86.00000000000001
 30
0.0
 40
0.5
  1
002115156},{LINEID=960},{WBVAR=},{WBNUMERIC=}  {NB=31950},{LINA=31950000},{KT=DUMMY},{EAN=4021267319502},{ARTICLEORDER=4},{BOM=31950000},{ARTNR=31950},{BUSB=12, 15, 20, 25, 30 x 5, 10 and section busbars},{BE=D-fuse base, busbar mounted, 42mm},{POF=CUSTO®
100
AcDbAttributeDefinition
  3

  2
PSOL_1
 70
     9
280
     0
  0
ATTDEF
  5
70
330
1F
100
AcDbEntity
  8
attrib
100
AcDbText
 10
47.0
 20
85.50000000000001
 30
0.0
 40
0.5
  1
60Classic},{TYPE=E 27 / 3P},{QNT=8},{W=42},{H=200},{D=43},{CONCA=},{BUSIN=},{IPR=},{IPRF=},{SEARCH=},{EDZ=},{IODD=},{DIST=9.0},{LINK=Product link},{LINKX=https://www.woehner.de/de/produkte/31950.html},{VER1=2},{VER2=2},{PRA=1},{PPATH=parts/d_fuse_base_cus
100
AcDbAttributeDefinition
  3

  2
PSOL_2
 70
     9
280
     0
  0
ATTDEF
  5
71
330
1F
100
AcDbEntity
  8
attrib
100
AcDbText
 10
47.0
 20
85.00000000000001
 30
0.0
 40
0.5
  1
to_asmtpl.prj},{AAO677=Wöhner},{MANUFACTURER_URL=www.woehner.de},{AAQ326=www.woehner.de/de/produkte/31950.html },{AAO676=31950},{TC=},{CTN=85361050},{AAU731=CUSTO®60Classic},{DESCRIPTION_LONG=D-fuse base, busbar mounted, 42mm, touch protected, screw-in ga
100
AcDbAttributeDefinition
  3

  2
PSOL_3
 70
     9
280
     0
  0
ATTDEF
  5
72
330
1F
100
AcDbEntity
  8
attrib
100
AcDbText
 10
47.0
 20
84.50000000000001
 30
0.0
 40
0.5
  1
uge ring, E 27 / 3P},{DESCRIPTION_SHORT=D-fuse base, busbar mounted, 42mm},{AAT080=3},{BAH005=500}
100
AcDbAttributeDefinition
  3

  2
PSOL_4
 70
     9
280
     0
  0
INSERT
  5
74
330
1F
100
AcDbEntity
  8
0
100
AcDbBlockReference
  2
1_31070_0_in_31950_0
 10
0.0
 20
0.0
 30
0.0
  0
INSERT
  5
D3
330
1F
100
AcDbEntity
  8
0
100
AcDbBlockReference
  2
2_79192_0_in_31950_0
 10
0.0
 20
0.0
 30
0.0
  0
INSERT
  5
E9
330
1F
100
AcDbEntity
  8
0
100
AcDbBlockReference
  2
3_79184000_0_in_31950_0
 10
0.0
 20
0.0
 30
0.0
  0
INSERT
  5
FF
330
1F
100
AcDbEntity
  8
0
100
AcDbBlockReference
  2
4_75075000_1_0_in_31950_0
 10
0.0
 20
0.0
 30
0.0
  0
INSERT
  5
122
330
1F
100
AcDbEntity
  8
0
100
AcDbBlockReference
  2
5_75075000_2_0_in_31950_0
 10
0.0
 20
0.0
 30
0.0
  0
INSERT
  5
145
330
1F
100
AcDbEntity
  8
0
100
AcDbBlockReference
  2
6_75075000_3_0_in_31950_0
 10
0.0
 20
0.0
 30
0.0
  0
INSERT
  5
168
330
1F
100
AcDbEntity
  8
0
100
AcDbBlockReference
  2
7_30414000_1_0_in_31950_0
 10
0.0
 20
0.0
 30
0.0
  0
INSERT
  5
193
330
1F
100
AcDbEntity
  8
0
100
AcDbBlockReference
  2
8_30414000_2_0_in_31950_0
 10
0.0
 20
0.0
 30
0.0
  0
INSERT
  5
1BE
330
1F
100
AcDbEntity
  8
0
100
AcDbBlockReference
  2
9_30414000_3_0_in_31950_0
 10
0.0
 20
0.0
 30
0.0
  0
INSERT
  5
1E9
330
1F
100
AcDbEntity
  8
0
100
AcDbBlockReference
  2
10_71437000_1_0_in_31950_0
 10
0.0
 20
0.0
 30
0.0
  0
INSERT
  5
204
330
1F
100
AcDbEntity
  8
0
100
AcDbBlockReference
  2
11_71437000_2_0_in_31950_0
 10
0.0
 20
0.0
 30
0.0
  0
INSERT
  5
21E
330
1F
100
AcDbEntity
  8
0
100
AcDbBlockReference
  2
12_71437000_3_0_in_31950_0
 10
0.0
 20
0.0
 30
0.0
  0
INSERT
  5
238
330
1F
100
AcDbEntity
  8
0
100
AcDbBlockReference
  2
13_78546000_0_in_31950_0
 10
0.0
 20
0.0
 30
0.0
  0
DIMENSION
  5
2CF
330
1F
100
AcDbEntity
  8
dimension
100
AcDbDimension
280
     0
  2
*D14
 10
42.0
 20
-136.0
 30
0.0
 11
21.0
 21
-136.0
 31
0.0
 70
   160
  1
42
 71
     5
 42
42.0
 73
     0
 74
     0
 75
     0
  3
ISO-25
100
AcDbAlignedDimension
 13
0.0
 23
-100.0
 33
0.0
 14
42.0
 24
-100.0
 34
0.0
100
AcDbRotatedDimension
1001
ACAD
1000
DSTYLE
1002
{
1070
   147
1040
1.8
1070
    42
1040
0.0
1070
    44
1040
0.0
1070
    41
1040
6.0
1070
   140
1040
6.0
1002
}
  0
DIMENSION
  5
2DD
330
1F
100
AcDbEntity
  8
dimension
100
AcDbDimension
280
     0
  2
*D15
 10
72.0
 20
-100.0
 30
0.0
 11
72.0
 21
-12.5
 31
0.0
 70
   160
  1
169
 71
     5
 42
175.0
 73
     0
 74
     0
 75
     0
 53
90.0
  3
ISO-25
100
AcDbAlignedDimension
 13
42.0
 23
75.0
 33
0.0
 14
42.0
 24
-100.0
 34
0.0
 50
90.0
100
AcDbRotatedDimension
1001
ACAD
1000
DSTYLE
1002
{
1070
   147
1040
1.8
1070
    42
1040
0.0
1070
    44
1040
0.0
1070
    41
1040
6.0
1070
   140
1040
6.0
1002
}
  0
DIMENSION
  5
2EB
330
1F
100
AcDbEntity
  8
dimension
100
AcDbDimension
280
     0
  2
*D16
 10
99.0
 20
94.0
 30
0.0
 11
99.0
 21
-6.0
 31
0.0
 70
   160
  1
200
 71
     5
 42
200.0
 73
     0
 74
     0
 75
     0
 53
90.0
  3
ISO-25
100
AcDbAlignedDimension
 13
42.0
 23
-106.0
 33
0.0
 14
42.0
 24
94.0
 34
0.0
 50
90.0
100
AcDbRotatedDimension
1001
ACAD
1000
DSTYLE
1002
{
1070
   147
1040
1.8
1070
    42
1040
0.0
1070
    44
1040
0.0
1070
    41
1040
6.0
1070
   140
1040
6.0
1002
}
  0
POINT
  5
2FA
330
1F
100
AcDbEntity
  8
connection
100
AcDbPoint
 10
0.0
 20
-106.0
 30
0.0
  0
POINT
  5
2FB
330
1F
100
AcDbEntity
  8
connection
100
AcDbPoint
 10
42.0
 20
75.0
 30
0.0
  0
POINT
  5
2FC
330
1F
100
AcDbEntity
  8
connection
100
AcDbPoint
 10
21.0
 20
-67.0
 30
0.0
  0
POINT
  5
2FD
330
1F
100
AcDbEntity
  8
connection
100
AcDbPoint
 10
21.0
 20
-7.0
 30
0.0
  0
POINT
  5
2FE
330
1F
100
AcDbEntity
  8
connection
100
AcDbPoint
 10
21.0
 20
53.0
 30
0.0
  0
POINT
  5
2FF
330
1F
100
AcDbEntity
  8
connection
100
AcDbPoint
 10
9.037834246792173
 20
-95.25811764633627
 30
0.0
  0
POINT
  5
300
330
1F
100
AcDbEntity
  8
connection
100
AcDbPoint
 10
9.037834246792173
 20
-35.25811764633627
 30
0.0
  0
POINT
  5
301
330
1F
100
AcDbEntity
  8
connection
100
AcDbPoint
 10
9.037834246792173
 20
24.74188235366373
 30
0.0
  0
POINT
  5
302
330
1F
100
AcDbEntity
  8
connection
100
AcDbPoint
 10
10.921
 20
-67.0
 30
0.0
  0
POINT
  5
303
330
1F
100
AcDbEntity
  8
connection
100
AcDbPoint
 10
10.921
 20
-7.0
 30
0.0
  0
POINT
  5
304
330
1F
100
AcDbEntity
  8
connection
100
AcDbPoint
 10
10.921
 20
53.0
 30
0.0
  0
POINT
  5
305
330
1F
100
AcDbEntity
  8
connection
100
AcDbPoint
 10
21.0
 20
53.04
 30
0.0
  0
POINT
  5
306
330
1F
100
AcDbEntity
  8
connection
100
AcDbPoint
 10
21.0
 20
-6.96
 30
0.0
  0
POINT
  5
307
330
1F
100
AcDbEntity
  8
connection
100
AcDbPoint
 10
21.0
 20
-66.96
 30
0.0
  0
POINT
  5
308
330
1F
100
AcDbEntity
  8
connection
100
AcDbPoint
 10
10.66987298107781
 20
28.48076211353316
 30
0.0
  0
POINT
  5
309
330
1F
100
AcDbEntity
  8
connection
100
AcDbPoint
 10
11.65063509461097
 20
-29.82050807568878
 30
0.0
  0
POINT
  5
30A
330
1F
100
AcDbEntity
  8
connection
100
AcDbPoint
 10
10.13139720814414
 20
-92.4519052838329
 30
0.0
  0
POINT
  5
30B
330
1F
100
AcDbEntity
  8
connection
100
AcDbPoint
 10
0.0
 20
0.0
 30
0.0
  0
POINT
  5
30C
330
1F
100
AcDbEntity
  8
connection
100
AcDbPoint
 10
0.0
 20
0.0
 30
0.0
  0
POINT
  5
30D
330
1F
100
AcDbEntity
  8
connection
100
AcDbPoint
 10
0.0
 20
-100.0
 30
0.0
  0
POINT
  5
30E
330
1F
100
AcDbEntity
  8
connection
100
AcDbPoint
 10
42.0
 20
75.0
 30
0.0
  0
POINT
  5
30F
330
1F
100
AcDbEntity
  8
connection
100
AcDbPoint
 10
0.0
 20
-106.0
 30
0.0
  0
POINT
  5
310
330
1F
100
AcDbEntity
  8
connection
100
AcDbPoint
 10
0.0
 20
-106.0
 30
0.0
  0
POINT
  5
311
330
1F
100
AcDbEntity
  8
connection
100
AcDbPoint
 10
10.921
 20
53.0
 30
0.0
  0
POINT
  5
312
330
1F
100
AcDbEntity
  8
connection
100
AcDbPoint
 10
10.921
 20
-7.0
 30
0.0
  0
POINT
  5
313
330
1F
100
AcDbEntity
  8
connection
100
AcDbPoint
 10
10.921
 20
-67.0
 30
0.0
  0
POINT
  5
314
330
1F
100
AcDbEntity
  8
connection
100
AcDbPoint
 10
9.037834246792173
 20
24.74188235366373
 30
0.0
  0
POINT
  5
315
330
1F
100
AcDbEntity
  8
connection
100
AcDbPoint
 10
9.037834246792173
 20
-35.25811764633627
 30
0.0
  0
POINT
  5
316
330
1F
100
AcDbEntity
  8
connection
100
AcDbPoint
 10
9.037834246792173
 20
-95.25811764633627
 30
0.0
  0
POINT
  5
317
330
1F
100
AcDbEntity
  8
connection
100
AcDbPoint
 10
21.0
 20
53.0
 30
0.0
  0
POINT
  5
318
330
1F
100
AcDbEntity
  8
connection
100
AcDbPoint
 10
21.0
 20
-7.0
 30
0.0
  0
POINT
  5
319
330
1F
100
AcDbEntity
  8
connection
100
AcDbPoint
 10
21.0
 20
-67.0
 30
0.0
  0
POINT
  5
31A
330
1F
100
AcDbEntity
  8
connection
100
AcDbPoint
 10
21.0
 20
53.0
 30
0.0
  0
POINT
  5
31B
330
1F
100
AcDbEntity
  8
connection
100
AcDbPoint
 10
21.0
 20
-7.0
 30
0.0
  0
POINT
  5
31C
330
1F
100
AcDbEntity
  8
connection
100
AcDbPoint
 10
21.0
 20
-67.0
 30
0.0
  0
ENDSEC
  0
SECTION
  2
OBJECTS
  0
DICTIONARY
  5
C
330
0
100
AcDbDictionary
281
     1
  3
ACAD_DETAILVIEWSTYLE
350
324
  3
ACAD_GROUP
350
D
  3
ACAD_LAYOUT
350
1A
  3
ACAD_MATERIAL
350
43
  3
ACAD_MLEADERSTYLE
350
5B
  3
ACAD_MLINESTYLE
350
17
  3
ACAD_PLOTSETTINGS
350
19
  3
ACAD_PLOTSTYLENAME
350
E
  3
ACAD_SCALELIST
350
47
  3
ACAD_SECTIONVIEWSTYLE
350
325
  3
ACAD_TABLESTYLE
350
59
  3
ACAD_VISUALSTYLE
350
2A
  3
ACDB_RECOMPOSE_DATA
350
321
  3
AcDbVariableDictionary
350
31D
  0
SUN
  5
5D
330
29
100
AcDbSun
 90
        1
290
     0
 63
     7
421
 16777215
 40
1.0
291
     1
 91
  2455826
 92
 54000000
292
     0
 70
     2
 71
   256
280
     1
  0
DICTIONARY
  5
324
102
{ACAD_REACTORS
330
C
102
}
330
C
100
AcDbDictionary
281
     1
  0
DICTIONARY
  5
D
102
{ACAD_REACTORS
330
C
102
}
330
C
100
AcDbDictionary
281
     1
  0
DICTIONARY
  5
1A
102
{ACAD_REACTORS
330
C
102
}
330
C
100
AcDbDictionary
281
     1
  3
Layout1
350
1E
  3
Layout2
350
26
  3
Model
350
22
  0
DICTIONARY
  5
43
102
{ACAD_REACTORS
330
C
102
}
330
C
100
AcDbDictionary
281
     1
  3
ByBlock
350
45
  3
ByLayer
350
44
  3
Global
350
46
  0
DICTIONARY
  5
5B
102
{ACAD_REACTORS
330
C
102
}
330
C
100
AcDbDictionary
281
     1
  3
Standard
350
5C
  0
DICTIONARY
  5
17
102
{ACAD_REACTORS
330
C
102
}
330
C
100
AcDbDictionary
281
     1
  3
Standard
350
18
  0
DICTIONARY
  5
19
102
{ACAD_REACTORS
330
C
102
}
330
C
100
AcDbDictionary
281
     1
  0
ACDBDICTIONARYWDFLT
  5
E
102
{ACAD_REACTORS
330
C
102
}
330
C
100
AcDbDictionary
281
     1
  3
Normal
350
F
100
AcDbDictionaryWithDefault
340
F
  0
DICTIONARY
  5
47
102
{ACAD_REACTORS
330
C
102
}
330
C
100
AcDbDictionary
281
     1
  3
A0
350
48
  3
A1
350
49
  3
A2
350
4A
  3
A3
350
4B
  3
A4
350
4C
  3
A5
350
4D
  3
A6
350
4E
  3
A7
350
4F
  3
A8
350
50
  3
A9
350
51
  3
B0
350
52
  3
B1
350
53
  3
B2
350
54
  3
B3
350
55
  3
B4
350
56
  3
B5
350
57
  3
B6
350
58
  0
DICTIONARY
  5
325
102
{ACAD_REACTORS
330
C
102
}
330
C
100
AcDbDictionary
281
     1
  0
DICTIONARY
  5
59
102
{ACAD_REACTORS
330
C
102
}
330
C
100
AcDbDictionary
281
     1
  3
Standard
350
5A
  0
DICTIONARY
  5
2A
102
{ACAD_REACTORS
330
C
102
}
330
C
100
AcDbDictionary
281
     1
  3
2dWireframe
350
2F
  3
Basic
350
32
  3
Brighten
350
36
  3
ColorChange
350
3A
  3
Conceptual
350
34
  3
Dim
350
35
  3
EdgeColorOff
350
3D
  3
Facepattern
350
39
  3
Flat
350
2B
  3
FlatWithEdges
350
2C
  3
Gouraud
350
2D
  3
GouraudWithEdges
350
2E
  3
Hidden
350
31
  3
JitterOff
350
3B
  3
Linepattern
350
38
  3
OverhangOff
350
3C
  3
Realistic
350
33
  3
Shaded
350
42
  3
Shaded with edges
350
41
  3
Shades of Gray
350
3E
  3
Sketchy
350
3F
  3
Thicken
350
37
  3
Wireframe
350
30
  3
X-Ray
350
40
  0
XRECORD
  5
321
102
{ACAD_REACTORS
330
C
102
}
330
C
100
AcDbXrecord
280
     1
 90
        1
330
5A
  0
DICTIONARY
  5
31D
102
{ACAD_REACTORS
330
C
102
}
330
C
100
AcDbDictionary
281
     1
  3
CANNOSCALE
350
31E
  3
CENTEREXE
350
326
  3
CENTERLTYPEFILE
350
327
  3
CMLEADERSTYLE
350
323
  3
CTABLESTYLE
350
322
  0
LAYOUT
  5
1E
102
{ACAD_REACTORS
330
1A
102
}
330
1A
100
AcDbPlotSettings
  1

  2
none_device
  4

  6

 40
0.0
 41
0.0
 42
0.0
 43
0.0
 44
0.0
 45
0.0
 46
0.0
 47
0.0
 48
0.0
 49
0.0
140
0.0
141
0.0
142
1.0
143
1.0
 70
   688
 72
     1
 73
     0
 74
     5
  7

 75
    16
 76
     0
 77
     2
 78
   300
147
1.0
148
0.0
149
0.0
100
AcDbLayout
  1
Layout1
 70
     1
 71
     1
 10
0.0
 20
0.0
 11
420.0
 21
297.0
 12
0.0
 22
0.0
 32
0.0
 14
1.000000000000000E+20
 24
1.000000000000000E+20
 34
1.000000000000000E+20
 15
-1.000000000000000E+20
 25
-1.000000000000000E+20
 35
-1.000000000000000E+20
146
0.0
 13
0.0
 23
0.0
 33
0.0
 16
1.0
 26
0.0
 36
0.0
 17
0.0
 27
1.0
 37
0.0
 76
     0
330
1B
  0
LAYOUT
  5
26
102
{ACAD_REACTORS
330
1A
102
}
330
1A
100
AcDbPlotSettings
  1

  2
none_device
  4

  6

 40
0.0
 41
0.0
 42
0.0
 43
0.0
 44
0.0
 45
0.0
 46
0.0
 47
0.0
 48
0.0
 49
0.0
140
0.0
141
0.0
142
1.0
143
1.0
 70
   688
 72
     1
 73
     0
 74
     5
  7

 75
    16
 76
     0
 77
     2
 78
   300
147
1.0
148
0.0
149
0.0
100
AcDbLayout
  1
Layout2
 70
     1
 71
     2
 10
0.0
 20
0.0
 11
0.0
 21
0.0
 12
0.0
 22
0.0
 32
0.0
 14
0.0
 24
0.0
 34
0.0
 15
0.0
 25
0.0
 35
0.0
146
0.0
 13
0.0
 23
0.0
 33
0.0
 16
1.0
 26
0.0
 36
0.0
 17
0.0
 27
1.0
 37
0.0
 76
     0
330
23
  0
LAYOUT
  5
22
102
{ACAD_REACTORS
330
1A
102
}
330
1A
100
AcDbPlotSettings
  1

  2
none_device
  4
Letter_(8.50_x_11.00_Inches)
  6

 40
6.35
 41
6.35
 42
6.35000508
 43
6.35000508
 44
215.9
 45
279.4
 46
0.0
 47
0.0
 48
0.0
 49
0.0
140
0.0
141
0.0
142
1.0
143
1.0
 70
  1712
 72
     1
 73
     0
 74
     0
  7

 75
     0
 76
     0
 77
     2
 78
   300
147
1.0
148
0.0
149
0.0
100
AcDbLayout
  1
Model
 70
     1
 71
     0
 10
0.0
 20
0.0
 11
420.0
 21
297.0
 12
0.0
 22
0.0
 32
0.0
 14
0.0
 24
-137.0
 34
0.0
 15
102.0
 25
94.50000000000001
 35
0.0
146
0.0
 13
0.0
 23
0.0
 33
0.0
 16
1.0
 26
0.0
 36
0.0
 17
0.0
 27
1.0
 37
0.0
 76
     0
330
1F
331
29
  0
MATERIAL
  5
45
102
{ACAD_REACTORS
330
43
102
}
330
43
100
AcDbMaterial
  1
ByBlock
 72
     1
 94
      127
  0
MATERIAL
  5
44
102
{ACAD_REACTORS
330
43
102
}
330
43
100
AcDbMaterial
  1
ByLayer
 72
     1
 94
      127
  0
MATERIAL
  5
46
102
{ACAD_REACTORS
330
43
102
}
330
43
100
AcDbMaterial
  1
Global
 72
     1
 94
      127
  0
MLEADERSTYLE
  5
5C
102
{ACAD_REACTORS
330
5B
102
}
330
5B
100
AcDbMLeaderStyle
179
     2
170
     2
171
     1
172
     0
 90
        2
 40
0.0
 41
0.0
173
     1
 91
-1056964608
340
14
 92
       -2
290
     1
 42
2.0
291
     1
 43
8.0
  3
Standard
341
0
 44
4.0
300

342
11
174
     1
178
     6
175
     1
176
     0
 93
-1056964608
 45
4.0
292
     0
297
     0
 46
4.0
343
0
 94
-1056964608
 47
1.0
 49
1.0
140
1.0
293
     1
141
0.0
294
     1
177
     0
142
1.0
295
     0
296
     0
143
3.75
271
     0
272
     9
273
     9
298
     0
  0
MLINESTYLE
  5
18
102
{ACAD_REACTORS
330
17
102
}
330
17
100
AcDbMlineStyle
  2
Standard
 70
     0
  3

 62
   256
 51
90.0
 52
90.0
 71
     2
 49
0.5
 62
   256
  6
BYLAYER
 49
-0.5
 62
   256
  6
BYLAYER
  0
ACDBPLACEHOLDER
  5
F
102
{ACAD_REACTORS
330
E
102
}
330
E
  0
SCALE
  5
48
102
{ACAD_REACTORS
330
47
102
}
330
47
100
AcDbScale
 70
     0
300
1:1
140
1.0
141
1.0
290
     1
  0
SCALE
  5
49
102
{ACAD_REACTORS
330
47
102
}
330
47
100
AcDbScale
 70
     0
300
1:2
140
1.0
141
2.0
290
     0
  0
SCALE
  5
4A
102
{ACAD_REACTORS
330
47
102
}
330
47
100
AcDbScale
 70
     0
300
1:4
140
1.0
141
4.0
290
     0
  0
SCALE
  5
4B
102
{ACAD_REACTORS
330
47
102
}
330
47
100
AcDbScale
 70
     0
300
1:5
140
1.0
141
5.0
290
     0
  0
SCALE
  5
4C
102
{ACAD_REACTORS
330
47
102
}
330
47
100
AcDbScale
 70
     0
300
1:8
140
1.0
141
8.0
290
     0
  0
SCALE
  5
4D
102
{ACAD_REACTORS
330
47
102
}
330
47
100
AcDbScale
 70
     0
300
1:10
140
1.0
141
10.0
290
     0
  0
SCALE
  5
4E
102
{ACAD_REACTORS
330
47
102
}
330
47
100
AcDbScale
 70
     0
300
1:16
140
1.0
141
16.0
290
     0
  0
SCALE
  5
4F
102
{ACAD_REACTORS
330
47
102
}
330
47
100
AcDbScale
 70
     0
300
1:20
140
1.0
141
20.0
290
     0
  0
SCALE
  5
50
102
{ACAD_REACTORS
330
47
102
}
330
47
100
AcDbScale
 70
     0
300
1:30
140
1.0
141
30.0
290
     0
  0
SCALE
  5
51
102
{ACAD_REACTORS
330
47
102
}
330
47
100
AcDbScale
 70
     0
300
1:40
140
1.0
141
40.0
290
     0
  0
SCALE
  5
52
102
{ACAD_REACTORS
330
47
102
}
330
47
100
AcDbScale
 70
     0
300
1:50
140
1.0
141
50.0
290
     0
  0
SCALE
  5
53
102
{ACAD_REACTORS
330
47
102
}
330
47
100
AcDbScale
 70
     0
300
1:100
140
1.0
141
100.0
290
     0
  0
SCALE
  5
54
102
{ACAD_REACTORS
330
47
102
}
330
47
100
AcDbScale
 70
     0
300
2:1
140
2.0
141
1.0
290
     0
  0
SCALE
  5
55
102
{ACAD_REACTORS
330
47
102
}
330
47
100
AcDbScale
 70
     0
300
4:1
140
4.0
141
1.0
290
     0
  0
SCALE
  5
56
102
{ACAD_REACTORS
330
47
102
}
330
47
100
AcDbScale
 70
     0
300
8:1
140
8.0
141
1.0
290
     0
  0
SCALE
  5
57
102
{ACAD_REACTORS
330
47
102
}
330
47
100
AcDbScale
 70
     0
300
10:1
140
10.0
141
1.0
290
     0
  0
SCALE
  5
58
102
{ACAD_REACTORS
330
47
102
}
330
47
100
AcDbScale
 70
     0
300
100:1
140
100.0
141
1.0
290
     0
  0
TABLESTYLE
  5
5A
102
{ACAD_REACTORS
330
59
102
}
102
{ACAD_XDICTIONARY
360
31F
102
}
330
59
100
AcDbTableStyle
  3
Standard
 70
     0
 71
     0
 40
0.06
 41
0.06
280
     0
281
     0
  7
Standard
140
4.5
170
     2
 62
     0
 63
   257
283
     0
 90
        4
 91
        0
  1

274
    -2
284
     1
 64
     0
275
    -2
285
     1
 65
     0
276
    -2
286
     1
 66
     0
277
    -2
287
     1
 67
     0
278
    -2
288
     1
 68
     0
279
    -2
289
     1
 69
     0
  7
Standard
140
6.0
170
     5
 62
     0
 63
   257
283
     0
 90
        4
 91
        0
  1

274
    -2
284
     1
 64
     0
275
    -2
285
     1
 65
     0
276
    -2
286
     1
 66
     0
277
    -2
287
     1
 67
     0
278
    -2
288
     1
 68
     0
279
    -2
289
     1
 69
     0
  7
Standard
140
4.5
170
     5
 62
     0
 63
   257
283
     0
 90
        4
 91
        0
  1

274
    -2
284
     1
 64
     0
275
    -2
285
     1
 65
     0
276
    -2
286
     1
 66
     0
277
    -2
287
     1
 67
     0
278
    -2
288
     1
 68
     0
279
    -2
289
     1
 69
     0
  0
VISUALSTYLE
  5
2F
102
{ACAD_REACTORS
330
2A
102
}
330
2A
100
AcDbVisualStyle
  2
2dWireframe
 70
     4
177
     3
291
     0
 70
    58
 90
        0
176
     1
 90
        2
176
     1
 90
        0
176
     1
 90
        0
176
     1
 40
0.6
176
     1
 40
30.0
176
     1
 62
     7
420
 16777215
176
     1
 90
        1
176
     1
 90
        4
176
     1
 62
     7
176
     1
 62
   257
176
     1
 90
        1
176
     1
 90
        1
176
     1
 40
1.0
176
     1
 90
        0
176
     1
 62
   257
176
     1
 40
1.0
176
     1
 90
        1
176
     1
 90
        6
176
     1
 90
        2
176
     1
 62
     7
176
     1
 90
        5
176
     1
 90
        0
176
     1
 90
        0
176
     1
290
     0
176
     1
 90
        1
176
     1
 40
0.0
176
     1
 90
        0
176
     1
290
     1
176
     1
290
     1
176
     1
290
     0
176
     1
290
     0
176
     1
290
     0
176
     1
290
     0
176
     1
290
     0
176
     1
290
     0
176
     1
290
     0
176
     1
 90
       50
176
     1
 40
0.0
176
     1
 40
1.0
176
     1
 90
        0
176
     1
 62
    18
420
        0
176
     1
 90
       50
176
     1
 90
        3
176
     1
 62
     5
420
      255
176
     1
290
     0
176
     1
 90
       50
176
     1
 90
       50
176
     1
 90
       50
176
     1
290
     0
176
     1
 90
       50
176
     1
 62
   256
176
     0
 40
1.0
176
     0
 90
        2
176
     1
  1
strokes_ogs.tif
176
     1
290
     0
176
     1
 40
1.0
176
     1
 40
1.0
176
     1
  0
VISUALSTYLE
  5
32
102
{ACAD_REACTORS
330
2A
102
}
330
2A
100
AcDbVisualStyle
  2
Basic
 70
     7
177
     3
291
     1
 70
    58
 90
        1
176
     1
 90
        0
176
     1
 90
        1
176
     1
 90
        0
176
     1
 40
0.6
176
     1
 40
30.0
176
     1
 62
     7
420
 16777215
176
     1
 90
        0
176
     1
 90
        4
176
     1
 62
     7
176
     1
 62
   257
176
     1
 90
        1
176
     1
 90
        1
176
     1
 40
1.0
176
     1
 90
        8
176
     1
 62
     7
176
     1
 40
1.0
176
     1
 90
        1
176
     1
 90
        6
176
     1
 90
        2
176
     1
 62
     7
176
     1
 90
        5
176
     1
 90
        0
176
     1
 90
        0
176
     1
290
     0
176
     1
 90
        1
176
     1
 40
0.0
176
     1
 90
        0
176
     1
290
     0
176
     1
290
     1
176
     1
290
     1
176
     1
290
     0
176
     1
290
     0
176
     1
290
     0
176
     1
290
     0
176
     1
290
     0
176
     1
290
     0
176
     1
 90
       50
176
     1
 40
0.0
176
     1
 40
1.0
176
     1
 90
        0
176
     1
 62
    18
420
        0
176
     1
 90
       50
176
     1
 90
        3
176
     1
 62
     5
420
      255
176
     1
290
     0
176
     1
 90
       50
176
     1
 90
       50
176
     1
 90
       50
176
     1
290
     0
176
     1
 90
       50
176
     1
 62
   256
176
     0
 40
1.0
176
     0
 90
        2
176
     1
  1
strokes_ogs.tif
176
     1
290
     0
176
     1
 40
1.0
176
     1
 40
1.0
176
     1
  0
VISUALSTYLE
  5
36
102
{ACAD_REACTORS
330
2A
102
}
330
2A
100
AcDbVisualStyle
  2
Brighten
 70
    12
177
     3
291
     1
 70
    58
 90
        2
176
     1
 90
        2
176
     1
 90
        0
176
     1
 90
        0
176
     1
 40
0.6
176
     1
 40
30.0
176
     1
 62
     7
420
 16777215
176
     1
 90
        1
176
     1
 90
        4
176
     1
 62
     7
176
     1
 62
   257
176
     1
 90
        1
176
     1
 90
        1
176
     1
 40
1.0
176
     1
 90
        8
176
     1
 62
     7
176
     1
 40
1.0
176
     1
 90
        1
176
     1
 90
        6
176
     1
 90
        2
176
     1
 62
     7
176
     1
 90
        5
176
     1
 90
        0
176
     1
 90
        0
176
     1
290
     0
176
     1
 90
        1
176
     1
 40
50.0
176
     1
 90
        0
176
     1
290
     0
176
     1
290
     1
176
     1
290
     1
176
     1
290
     0
176
     1
290
     0
176
     1
290
     0
176
     1
290
     0
176
     1
290
     0
176
     1
290
     0
176
     1
 90
       50
176
     1
 40
0.0
176
     1
 40
1.0
176
     1
 90
        0
176
     1
 62
    18
420
        0
176
     1
 90
       50
176
     1
 90
        3
176
     1
 62
     5
420
      255
176
     1
290
     0
176
     1
 90
       50
176
     1
 90
       50
176
     1
 90
       50
176
     1
290
     0
176
     1
 90
       50
176
     1
 62
   256
176
     0
 40
1.0
176
     0
 90
        2
176
     1
  1
strokes_ogs.tif
176
     1
290
     0
176
     1
 40
1.0
176
     1
 40
1.0
176
     1
  0
VISUALSTYLE
  5
3A
102
{ACAD_REACTORS
330
2A
102
}
330
2A
100
AcDbVisualStyle
  2
ColorChange
 70
    16
177
     3
291
     1
 70
    58
 90
        2
176
     1
 90
        2
176
     1
 90
        3
176
     1
 90
        0
176
     1
 40
0.6
176
     1
 40
30.0
176
     1
 62
     8
420
  8421504
176
     1
 90
        1
176
     1
 90
        4
176
     1
 62
     7
176
     1
 62
   257
176
     1
 90
        1
176
     1
 90
        1
176
     1
 40
1.0
176
     1
 90
        8
176
     1
 62
     8
420
  8421504
176
     1
 40
1.0
176
     1
 90
        1
176
     1
 90
        6
176
     1
 90
        2
176
     1
 62
     7
176
     1
 90
        5
176
     1
 90
        0
176
     1
 90
        0
176
     1
290
     0
176
     1
 90
        1
176
     1
 40
0.0
176
     1
 90
        0
176
     1
290
     0
176
     1
290
     1
176
     1
290
     1
176
     1
290
     0
176
     1
290
     0
176
     1
290
     0
176
     1
290
     0
176
     1
290
     0
176
     1
290
     0
176
     1
 90
       50
176
     1
 40
0.0
176
     1
 40
1.0
176
     1
 90
        0
176
     1
 62
    18
420
        0
176
     1
 90
       50
176
     1
 90
        3
176
     1
 62
     5
420
      255
176
     1
290
     0
176
     1
 90
       50
176
     1
 90
       50
176
     1
 90
       50
176
     1
290
     0
176
     1
 90
       50
176
     1
 62
   256
176
     0
 40
1.0
176
     0
 90
        2
176
     1
  1
strokes_ogs.tif
176
     1
290
     0
176
     1
 40
1.0
176
     1
 40
1.0
176
     1
  0
VISUALSTYLE
  5
34
102
{ACAD_REACTORS
330
2A
102
}
330
2A
100
AcDbVisualStyle
  2
Conceptual
 70
     9
177
     3
291
     0
 70
    58
 90
        3
176
     1
 90
        2
176
     1
 90
        0
176
     1
 90
        0
176
     1
 40
0.6
176
     1
 40
30.0
176
     1
 62
     7
420
 16777215
176
     1
 90
        2
176
     1
 90
        2
176
     1
 62
     7
176
     1
 62
   257
176
     1
 90
        1
176
     1
 90
        1
176
     1
 40
179.0
176
     1
 90
        8
176
     1
 62
     7
176
     1
 40
1.0
176
     1
 90
        1
176
     1
 90
        6
176
     1
 90
        2
176
     1
 62
     7
176
     1
 90
        3
176
     1
 90
        0
176
     1
 90
        0
176
     1
290
     0
176
     1
 90
        1
176
     1
 40
0.0
176
     1
 90
        0
176
     1
290
     0
176
     1
290
     1
176
     1
290
     1
176
     1
290
     0
176
     1
290
     0
176
     1
290
     0
176
     1
290
     0
176
     1
290
     0
176
     1
290
     0
176
     1
 90
       50
176
     1
 40
0.0
176
     1
 40
1.0
176
     1
 90
        0
176
     1
 62
    18
420
        0
176
     1
 90
       50
176
     1
 90
        3
176
     1
 62
     5
420
      255
176
     1
290
     0
176
     1
 90
       50
176
     1
 90
       50
176
     1
 90
       50
176
     1
290
     0
176
     1
 90
       50
176
     1
 62
   256
176
     0
 40
1.0
176
     0
 90
        2
176
     1
  1
strokes_ogs.tif
176
     1
290
     0
176
     1
 40
1.0
176
     1
 40
1.0
176
     1
  0
VISUALSTYLE
  5
35
102
{ACAD_REACTORS
330
2A
102
}
330
2A
100
AcDbVisualStyle
  2
Dim
 70
    11
177
     3
291
     1
 70
    58
 90
        2
176
     1
 90
        2
176
     1
 90
        0
176
     1
 90
        0
176
     1
 40
0.6
176
     1
 40
30.0
176
     1
 62
     7
420
 16777215
176
     1
 90
        1
176
     1
 90
        4
176
     1
 62
     7
176
     1
 62
   257
176
     1
 90
        1
176
     1
 90
        1
176
     1
 40
1.0
176
     1
 90
        8
176
     1
 62
     7
176
     1
 40
1.0
176
     1
 90
        1
176
     1
 90
        6
176
     1
 90
        2
176
     1
 62
     7
176
     1
 90
        5
176
     1
 90
        0
176
     1
 90
        0
176
     1
290
     0
176
     1
 90
        1
176
     1
 40
-50.0
176
     1
 90
        0
176
     1
290
     0
176
     1
290
     1
176
     1
290
     1
176
     1
290
     0
176
     1
290
     0
176
     1
290
     0
176
     1
290
     0
176
     1
290
     0
176
     1
290
     0
176
     1
 90
       50
176
     1
 40
0.0
176
     1
 40
1.0
176
     1
 90
        0
176
     1
 62
    18
420
        0
176
     1
 90
       50
176
     1
 90
        3
176
     1
 62
     5
420
      255
176
     1
290
     0
176
     1
 90
       50
176
     1
 90
       50
176
     1
 90
       50
176
     1
290
     0
176
     1
 90
       50
176
     1
 62
   256
176
     0
 40
1.0
176
     0
 90
        2
176
     1
  1
strokes_ogs.tif
176
     1
290
     0
176
     1
 40
1.0
176
     1
 40
1.0
176
     1
  0
VISUALSTYLE
  5
3D
102
{ACAD_REACTORS
330
2A
102
}
330
2A
100
AcDbVisualStyle
  2
EdgeColorOff
 70
    22
177
     3
291
     1
 70
    58
 90
        2
176
     0
 90
        2
176
     0
 90
        0
176
     0
 90
        0
176
     0
 40
0.6
176
     0
 40
30.0
176
     0
 62
     7
420
 16777215
176
     0
 90
        1
176
     0
 90
        4
176
     0
 62
     7
176
     0
 62
   257
176
     0
 90
        1
176
     0
 90
        1
176
     0
 40
1.0
176
     0
 90
        8
176
     2
 62
     7
176
     0
 40
1.0
176
     0
 90
        1
176
     0
 90
        6
176
     0
 90
        2
176
     0
 62
     7
176
     0
 90
        5
176
     0
 90
        0
176
     0
 90
        0
176
     0
290
     0
176
     0
 90
        1
176
     0
 40
0.0
176
     0
 90
        0
176
     0
290
     0
176
     0
290
     1
176
     0
290
     1
176
     0
290
     0
176
     0
290
     0
176
     0
290
     0
176
     0
290
     0
176
     0
290
     0
176
     0
290
     0
176
     0
 90
       50
176
     0
 40
0.0
176
     0
 40
1.0
176
     0
 90
        0
176
     0
 62
    18
420
        0
176
     0
 90
       50
176
     0
 90
        3
176
     0
 62
     5
420
      255
176
     0
290
     0
176
     0
 90
       50
176
     0
 90
       50
176
     0
 90
       50
176
     0
290
     0
176
     0
 90
       50
176
     0
 62
   256
176
     0
 40
1.0
176
     0
 90
        2
176
     0
  1
strokes_ogs.tif
176
     0
290
     0
176
     0
 40
1.0
176
     0
 40
1.0
176
     0
  0
VISUALSTYLE
  5
39
102
{ACAD_REACTORS
330
2A
102
}
330
2A
100
AcDbVisualStyle
  2
Facepattern
 70
    15
177
     3
291
     1
 70
    58
 90
        2
176
     1
 90
        2
176
     1
 90
        0
176
     1
 90
        0
176
     1
 40
0.6
176
     1
 40
30.0
176
     1
 62
     7
420
 16777215
176
     1
 90
        1
176
     1
 90
        4
176
     1
 62
     7
176
     1
 62
   257
176
     1
 90
        1
176
     1
 90
        1
176
     1
 40
1.0
176
     1
 90
        8
176
     1
 62
     7
176
     1
 40
1.0
176
     1
 90
        1
176
     1
 90
        6
176
     1
 90
        2
176
     1
 62
     7
176
     1
 90
        5
176
     1
 90
        0
176
     1
 90
        0
176
     1
290
     0
176
     1
 90
        1
176
     1
 40
0.0
176
     1
 90
        0
176
     1
290
     0
176
     1
290
     1
176
     1
290
     1
176
     1
290
     0
176
     1
290
     0
176
     1
290
     0
176
     1
290
     0
176
     1
290
     0
176
     1
290
     0
176
     1
 90
       50
176
     1
 40
0.0
176
     1
 40
1.0
176
     1
 90
        0
176
     1
 62
    18
420
        0
176
     1
 90
       50
176
     1
 90
        3
176
     1
 62
     5
420
      255
176
     1
290
     0
176
     1
 90
       50
176
     1
 90
       50
176
     1
 90
       50
176
     1
290
     0
176
     1
 90
       50
176
     1
 62
   256
176
     0
 40
1.0
176
     0
 90
        2
176
     1
  1
strokes_ogs.tif
176
     1
290
     0
176
     1
 40
1.0
176
     1
 40
1.0
176
     1
  0
VISUALSTYLE
  5
2B
102
{ACAD_REACTORS
330
2A
102
}
330
2A
100
AcDbVisualStyle
  2
Flat
 70
     0
177
     3
291
     1
 70
    58
 90
        2
176
     1
 90
        1
176
     1
 90
        1
176
     1
 90
        2
176
     1
 40
0.6
176
     1
 40
30.0
176
     1
 62
     7
420
 16777215
176
     1
 90
        0
176
     1
 90
        0
176
     1
 62
     7
176
     1
 62
   257
176
     1
 90
        1
176
     1
 90
        1
176
     1
 40
1.0
176
     1
 90
        8
176
     1
 62
     7
176
     1
 40
1.0
176
     1
 90
        1
176
     1
 90
        6
176
     1
 90
        2
176
     1
 62
     7
176
     1
 90
        5
176
     1
 90
        0
176
     1
 90
        0
176
     1
290
     0
176
     1
 90
       13
176
     1
 40
0.0
176
     1
 90
        0
176
     1
290
     0
176
     1
290
     1
176
     1
290
     1
176
     1
290
     0
176
     1
290
     0
176
     1
290
     0
176
     1
290
     0
176
     1
290
     0
176
     1
290
     0
176
     1
 90
       50
176
     1
 40
0.0
176
     1
 40
1.0
176
     1
 90
        0
176
     1
 62
    18
420
        0
176
     1
 90
       50
176
     1
 90
        3
176
     1
 62
     5
420
      255
176
     1
290
     0
176
     1
 90
       50
176
     1
 90
       50
176
     1
 90
       50
176
     1
290
     0
176
     1
 90
       50
176
     1
 62
   256
176
     0
 40
1.0
176
     0
 90
        2
176
     1
  1
strokes_ogs.tif
176
     1
290
     0
176
     1
 40
1.0
176
     1
 40
1.0
176
     1
  0
VISUALSTYLE
  5
2C
102
{ACAD_REACTORS
330
2A
102
}
330
2A
100
AcDbVisualStyle
  2
FlatWithEdges
 70
     1
177
     3
291
     1
 70
    58
 90
        2
176
     1
 90
        1
176
     1
 90
        1
176
     1
 90
        2
176
     1
 40
0.6
176
     1
 40
30.0
176
     1
 62
     7
420
 16777215
176
     1
 90
        1
176
     1
 90
        0
176
     1
 62
     7
176
     1
 62
   257
176
     1
 90
        1
176
     1
 90
        1
176
     1
 40
1.0
176
     1
 90
        0
176
     1
 62
   257
176
     1
 40
1.0
176
     1
 90
        1
176
     1
 90
        6
176
     1
 90
        2
176
     1
 62
     7
176
     1
 90
        5
176
     1
 90
        0
176
     1
 90
        0
176
     1
290
     0
176
     1
 90
       13
176
     1
 40
0.0
176
     1
 90
        0
176
     1
290
     0
176
     1
290
     1
176
     1
290
     1
176
     1
290
     0
176
     1
290
     0
176
     1
290
     0
176
     1
290
     0
176
     1
290
     0
176
     1
290
     0
176
     1
 90
       50
176
     1
 40
0.0
176
     1
 40
1.0
176
     1
 90
        0
176
     1
 62
    18
420
        0
176
     1
 90
       50
176
     1
 90
        3
176
     1
 62
     5
420
      255
176
     1
290
     0
176
     1
 90
       50
176
     1
 90
       50
176
     1
 90
       50
176
     1
290
     0
176
     1
 90
       50
176
     1
 62
   256
176
     0
 40
1.0
176
     0
 90
        2
176
     1
  1
strokes_ogs.tif
176
     1
290
     0
176
     1
 40
1.0
176
     1
 40
1.0
176
     1
  0
VISUALSTYLE
  5
2D
102
{ACAD_REACTORS
330
2A
102
}
330
2A
100
AcDbVisualStyle
  2
Gouraud
 70
     2
177
     3
291
     1
 70
    58
 90
        2
176
     1
 90
        2
176
     1
 90
        1
176
     1
 90
        2
176
     1
 40
0.6
176
     1
 40
30.0
176
     1
 62
     7
420
 16777215
176
     1
 90
        0
176
     1
 90
        0
176
     1
 62
     7
176
     1
 62
   257
176
     1
 90
        1
176
     1
 90
        1
176
     1
 40
1.0
176
     1
 90
        0
176
     1
 62
     7
176
     1
 40
1.0
176
     1
 90
        1
176
     1
 90
        6
176
     1
 90
        2
176
     1
 62
     7
176
     1
 90
        5
176
     1
 90
        0
176
     1
 90
        0
176
     1
290
     0
176
     1
 90
       13
176
     1
 40
0.0
176
     1
 90
        0
176
     1
290
     0
176
     1
290
     1
176
     1
290
     1
176
     1
290
     0
176
     1
290
     0
176
     1
290
     0
176
     1
290
     0
176
     1
290
     0
176
     1
290
     0
176
     1
 90
       50
176
     1
 40
0.0
176
     1
 40
1.0
176
     1
 90
        0
176
     1
 62
    18
420
        0
176
     1
 90
       50
176
     1
 90
        3
176
     1
 62
     5
420
      255
176
     1
290
     0
176
     1
 90
       50
176
     1
 90
       50
176
     1
 90
       50
176
     1
290
     0
176
     1
 90
       50
176
     1
 62
   256
176
     0
 40
1.0
176
     0
 90
        2
176
     1
  1
strokes_ogs.tif
176
     1
290
     0
176
     1
 40
1.0
176
     1
 40
1.0
176
     1
  0
VISUALSTYLE
  5
2E
102
{ACAD_REACTORS
330
2A
102
}
330
2A
100
AcDbVisualStyle
  2
GouraudWithEdges
 70
     3
177
     3
291
     1
 70
    58
 90
        2
176
     1
 90
        2
176
     1
 90
        1
176
     1
 90
        2
176
     1
 40
0.6
176
     1
 40
30.0
176
     1
 62
     7
420
 16777215
176
     1
 90
        1
176
     1
 90
        0
176
     1
 62
     7
176
     1
 62
   257
176
     1
 90
        1
176
     1
 90
        1
176
     1
 40
1.0
176
     1
 90
        0
176
     1
 62
   257
176
     1
 40
1.0
176
     1
 90
        1
176
     1
 90
        6
176
     1
 90
        2
176
     1
 62
     7
176
     1
 90
        5
176
     1
 90
        0
176
     1
 90
        0
176
     1
290
     0
176
     1
 90
       13
176
     1
 40
0.0
176
     1
 90
        0
176
     1
290
     0
176
     1
290
     1
176
     1
290
     1
176
     1
290
     0
176
     1
290
     0
176
     1
290
     0
176
     1
290
     0
176
     1
290
     0
176
     1
290
     0
176
     1
 90
       50
176
     1
 40
0.0
176
     1
 40
1.0
176
     1
 90
        0
176
     1
 62
    18
420
        0
176
     1
 90
       50
176
     1
 90
        3
176
     1
 62
     5
420
      255
176
     1
290
     0
176
     1
 90
       50
176
     1
 90
       50
176
     1
 90
       50
176
     1
290
     0
176
     1
 90
       50
176
     1
 62
   256
176
     0
 40
1.0
176
     0
 90
        2
176
     1
  1
strokes_ogs.tif
176
     1
290
     0
176
     1
 40
1.0
176
     1
 40
1.0
176
     1
  0
VISUALSTYLE
  5
31
102
{ACAD_REACTORS
330
2A
102
}
330
2A
100
AcDbVisualStyle
  2
Hidden
 70
     6
177
     3
291
     0
 70
    58
 90
        1
176
     1
 90
        2
176
     1
 90
        2
176
     1
 90
        0
176
     1
 40
0.6
176
     1
 40
30.0
176
     1
 62
     7
420
 16777215
176
     1
 90
        2
176
     1
 90
        2
176
     1
 62
     7
176
     1
 62
   257
176
     1
 90
        2
176
     1
 90
        1
176
     1
 40
40.0
176
     1
 90
        0
176
     1
 62
   257
176
     1
 40
1.0
176
     1
 90
        1
176
     1
 90
        6
176
     1
 90
        2
176
     1
 62
     7
176
     1
 90
        3
176
     1
 90
        0
176
     1
 90
        0
176
     1
290
     0
176
     1
 90
        1
176
     1
 40
0.0
176
     1
 90
        0
176
     1
290
     0
176
     1
290
     1
176
     1
290
     1
176
     1
290
     0
176
     1
290
     0
176
     1
290
     0
176
     1
290
     0
176
     1
290
     0
176
     1
290
     0
176
     1
 90
       50
176
     1
 40
0.0
176
     1
 40
1.0
176
     1
 90
        0
176
     1
 62
    18
420
        0
176
     1
 90
       50
176
     1
 90
        3
176
     1
 62
     5
420
      255
176
     1
290
     0
176
     1
 90
       50
176
     1
 90
       50
176
     1
 90
       50
176
     1
290
     0
176
     1
 90
       50
176
     1
 62
   256
176
     0
 40
1.0
176
     0
 90
        2
176
     1
  1
strokes_ogs.tif
176
     1
290
     0
176
     1
 40
1.0
176
     1
 40
1.0
176
     1
  0
VISUALSTYLE
  5
3B
102
{ACAD_REACTORS
330
2A
102
}
330
2A
100
AcDbVisualStyle
  2
JitterOff
 70
    20
177
     3
291
     1
 70
    58
 90
        2
176
     0
 90
        2
176
     0
 90
        0
176
     0
 90
        0
176
     0
 40
0.6
176
     0
 40
30.0
176
     0
 62
     7
420
 16777215
176
     0
 90
        1
176
     0
 90
        4
176
     0
 62
     7
176
     0
 62
   257
176
     0
 90
        1
176
     0
 90
        1
176
     0
 40
1.0
176
     0
 90
       10
176
     2
 62
     7
176
     0
 40
1.0
176
     0
 90
        1
176
     0
 90
        6
176
     0
 90
        2
176
     0
 62
     7
176
     0
 90
        5
176
     0
 90
        0
176
     0
 90
        0
176
     0
290
     0
176
     0
 90
        1
176
     0
 40
0.0
176
     0
 90
        0
176
     0
290
     0
176
     0
290
     1
176
     0
290
     1
176
     0
290
     0
176
     0
290
     0
176
     0
290
     0
176
     0
290
     0
176
     0
290
     0
176
     0
290
     0
176
     0
 90
       50
176
     0
 40
0.0
176
     0
 40
1.0
176
     0
 90
        0
176
     0
 62
    18
420
        0
176
     0
 90
       50
176
     0
 90
        3
176
     0
 62
     5
420
      255
176
     0
290
     0
176
     0
 90
       50
176
     0
 90
       50
176
     0
 90
       50
176
     0
290
     0
176
     0
 90
       50
176
     0
 62
   256
176
     0
 40
1.0
176
     0
 90
        2
176
     0
  1
strokes_ogs.tif
176
     0
290
     0
176
     0
 40
1.0
176
     0
 40
1.0
176
     0
  0
VISUALSTYLE
  5
38
102
{ACAD_REACTORS
330
2A
102
}
330
2A
100
AcDbVisualStyle
  2
Linepattern
 70
    14
177
     3
291
     1
 70
    58
 90
        2
176
     1
 90
        2
176
     1
 90
        0
176
     1
 90
        0
176
     1
 40
0.6
176
     1
 40
30.0
176
     1
 62
     7
420
 16777215
176
     1
 90
        1
176
     1
 90
        4
176
     1
 62
     7
176
     1
 62
   257
176
     1
 90
        7
176
     1
 90
        7
176
     1
 40
1.0
176
     1
 90
        8
176
     1
 62
     7
176
     1
 40
1.0
176
     1
 90
        1
176
     1
 90
        6
176
     1
 90
        2
176
     1
 62
     7
176
     1
 90
        5
176
     1
 90
        0
176
     1
 90
        0
176
     1
290
     0
176
     1
 90
        1
176
     1
 40
0.0
176
     1
 90
        0
176
     1
290
     0
176
     1
290
     1
176
     1
290
     1
176
     1
290
     0
176
     1
290
     0
176
     1
290
     0
176
     1
290
     0
176
     1
290
     0
176
     1
290
     0
176
     1
 90
       50
176
     1
 40
0.0
176
     1
 40
1.0
176
     1
 90
        0
176
     1
 62
    18
420
        0
176
     1
 90
       50
176
     1
 90
        3
176
     1
 62
     5
420
      255
176
     1
290
     0
176
     1
 90
       50
176
     1
 90
       50
176
     1
 90
       50
176
     1
290
     0
176
     1
 90
       50
176
     1
 62
   256
176
     0
 40
1.0
176
     0
 90
        2
176
     1
  1
strokes_ogs.tif
176
     1
290
     0
176
     1
 40
1.0
176
     1
 40
1.0
176
     1
  0
VISUALSTYLE
  5
3C
102
{ACAD_REACTORS
330
2A
102
}
330
2A
100
AcDbVisualStyle
  2
OverhangOff
 70
    21
177
     3
291
     1
 70
    58
 90
        2
176
     0
 90
        2
176
     0
 90
        0
176
     0
 90
        0
176
     0
 40
0.6
176
     0
 40
30.0
176
     0
 62
     7
420
 16777215
176
     0
 90
        1
176
     0
 90
        4
176
     0
 62
     7
176
     0
 62
   257
176
     0
 90
        1
176
     0
 90
        1
176
     0
 40
1.0
176
     0
 90
        9
176
     2
 62
     7
176
     0
 40
1.0
176
     0
 90
        1
176
     0
 90
        6
176
     0
 90
        2
176
     0
 62
     7
176
     0
 90
        5
176
     0
 90
        0
176
     0
 90
        0
176
     0
290
     0
176
     0
 90
        1
176
     0
 40
0.0
176
     0
 90
        0
176
     0
290
     0
176
     0
290
     1
176
     0
290
     1
176
     0
290
     0
176
     0
290
     0
176
     0
290
     0
176
     0
290
     0
176
     0
290
     0
176
     0
290
     0
176
     0
 90
       50
176
     0
 40
0.0
176
     0
 40
1.0
176
     0
 90
        0
176
     0
 62
    18
420
        0
176
     0
 90
       50
176
     0
 90
        3
176
     0
 62
     5
420
      255
176
     0
290
     0
176
     0
 90
       50
176
     0
 90
       50
176
     0
 90
       50
176
     0
290
     0
176
     0
 90
       50
176
     0
 62
   256
176
     0
 40
1.0
176
     0
 90
        2
176
     0
  1
strokes_ogs.tif
176
     0
290
     0
176
     0
 40
1.0
176
     0
 40
1.0
176
     0
  0
VISUALSTYLE
  5
33
102
{ACAD_REACTORS
330
2A
102
}
330
2A
100
AcDbVisualStyle
  2
Realistic
 70
     8
177
     3
291
     0
 70
    58
 90
        2
176
     1
 90
        3
176
     1
 90
        0
176
     1
 90
        2
176
     1
 40
0.6
176
     1
 40
30.0
176
     1
 62
     7
420
 16777215
176
     1
 90
        0
176
     1
 90
        0
176
     1
 62
     7
176
     1
 62
   257
176
     1
 90
        1
176
     1
 90
        1
176
     1
 40
1.0
176
     1
 90
        8
176
     1
 62
   257
176
     1
 40
1.0
176
     1
 90
        1
176
     1
 90
        6
176
     1
 90
        2
176
     1
 62
     7
176
     1
 90
        3
176
     1
 90
        0
176
     1
 90
        0
176
     1
290
     0
176
     1
 90
       13
176
     1
 40
0.0
176
     1
 90
        0
176
     1
290
     0
176
     1
290
     1
176
     1
290
     1
176
     1
290
     0
176
     1
290
     0
176
     1
290
     0
176
     1
290
     0
176
     1
290
     0
176
     1
290
     0
176
     1
 90
       50
176
     1
 40
0.0
176
     1
 40
1.0
176
     1
 90
        0
176
     1
 62
    18
420
        0
176
     1
 90
       50
176
     1
 90
        3
176
     1
 62
     5
420
      255
176
     1
290
     0
176
     1
 90
       50
176
     1
 90
       50
176
     1
 90
       50
176
     1
290
     0
176
     1
 90
       50
176
     1
 62
   256
176
     0
 40
1.0
176
     0
 90
        2
176
     1
  1
strokes_ogs.tif
176
     1
290
     0
176
     1
 40
1.0
176
     1
 40
1.0
176
     1
  0
VISUALSTYLE
  5
42
102
{ACAD_REACTORS
330
2A
102
}
330
2A
100
AcDbVisualStyle
  2
Shaded
 70
    27
177
     3
291
     0
 70
    58
 90
        2
176
     1
 90
        2
176
     1
 90
        1
176
     1
 90
        2
176
     1
 40
0.6
176
     1
 40
30.0
176
     1
 62
     7
420
 16777215
176
     1
 90
        0
176
     1
 90
        4
176
     1
 62
     7
176
     1
 62
   257
176
     1
 90
        1
176
     1
 90
        1
176
     1
 40
1.0
176
     1
 90
        8
176
     1
 62
   257
176
     1
 40
1.0
176
     1
 90
        1
176
     1
 90
        6
176
     1
 90
        2
176
     1
 62
     8
420
  7895160
176
     1
 90
        3
176
     1
 90
        0
176
     1
 90
        0
176
     1
290
     0
176
     1
 90
        5
176
     1
 40
0.0
176
     1
 90
        0
176
     1
290
     0
176
     1
290
     1
176
     1
290
     1
176
     1
290
     0
176
     1
290
     0
176
     1
290
     0
176
     1
290
     0
176
     1
290
     0
176
     1
290
     0
176
     1
 90
       50
176
     1
 40
0.0
176
     1
 40
1.0
176
     1
 90
        0
176
     1
 62
    18
420
        0
176
     1
 90
       50
176
     1
 90
        3
176
     1
 62
     5
420
      255
176
     1
290
     0
176
     1
 90
       50
176
     1
 90
       50
176
     1
 90
       50
176
     1
290
     0
176
     1
 90
       50
176
     1
 62
   256
176
     0
 40
1.0
176
     0
 90
        2
176
     1
  1
strokes_ogs.tif
176
     1
290
     0
176
     1
 40
1.0
176
     1
 40
1.0
176
     1
  0
VISUALSTYLE
  5
41
102
{ACAD_REACTORS
330
2A
102
}
330
2A
100
AcDbVisualStyle
  2
Shaded with edges
 70
    26
177
     3
291
     0
 70
    58
 90
        2
176
     1
 90
        2
176
     1
 90
        1
176
     1
 90
        2
176
     1
 40
0.6
176
     1
 40
30.0
176
     1
 62
     7
420
 16777215
176
     1
 90
        1
176
     1
 90
       10
176
     1
 62
     7
176
     1
 62
   257
176
     1
 90
        2
176
     1
 90
        1
176
     1
 40
1.0
176
     1
 90
        8
176
     1
 62
   257
176
     1
 40
1.0
176
     1
 90
        1
176
     1
 90
        6
176
     1
 90
        2
176
     1
 62
     7
176
     1
 90
        3
176
     1
 90
        0
176
     1
 90
        0
176
     1
290
     0
176
     1
 90
        5
176
     1
 40
0.0
176
     1
 90
        0
176
     1
290
     0
176
     1
290
     1
176
     1
290
     1
176
     1
290
     0
176
     1
290
     0
176
     1
290
     0
176
     1
290
     0
176
     1
290
     0
176
     1
290
     0
176
     1
 90
       50
176
     1
 40
0.0
176
     1
 40
1.0
176
     1
 90
        0
176
     1
 62
    18
420
        0
176
     1
 90
       50
176
     1
 90
        3
176
     1
 62
     5
420
      255
176
     1
290
     0
176
     1
 90
       50
176
     1
 90
       50
176
     1
 90
       50
176
     1
290
     0
176
     1
 90
       50
176
     1
 62
   256
176
     0
 40
1.0
176
     0
 90
        2
176
     1
  1
strokes_ogs.tif
176
     1
290
     0
176
     1
 40
1.0
176
     1
 40
1.0
176
     1
  0
VISUALSTYLE
  5
3E
102
{ACAD_REACTORS
330
2A
102
}
330
2A
100
AcDbVisualStyle
  2
Shades of Gray
 70
    23
177
     3
291
     0
 70
    58
 90
        2
176
     1
 90
        2
176
     1
 90
        3
176
     1
 90
        0
176
     1
 40
0.6
176
     1
 40
30.0
176
     1
 62
     7
420
 16777215
176
     1
 90
        2
176
     1
 90
        2
176
     1
 62
     7
176
     1
 62
     7
176
     1
 90
        1
176
     1
 90
        1
176
     1
 40
40.0
176
     1
 90
        8
176
     1
 62
     7
176
     1
 40
1.0
176
     1
 90
        1
176
     1
 90
        6
176
     1
 90
        2
176
     1
 62
     7
176
     1
 90
        3
176
     1
 90
        0
176
     1
 90
        0
176
     1
290
     0
176
     1
 90
        1
176
     1
 40
0.0
176
     1
 90
        0
176
     1
290
     0
176
     1
290
     1
176
     1
290
     1
176
     1
290
     0
176
     1
290
     0
176
     1
290
     0
176
     1
290
     0
176
     1
290
     0
176
     1
290
     0
176
     1
 90
       50
176
     1
 40
0.0
176
     1
 40
1.0
176
     1
 90
        0
176
     1
 62
    18
420
        0
176
     1
 90
       50
176
     1
 90
        3
176
     1
 62
     5
420
      255
176
     1
290
     0
176
     1
 90
       50
176
     1
 90
       50
176
     1
 90
       50
176
     1
290
     0
176
     1
 90
       50
176
     1
 62
   256
176
     0
 40
1.0
176
     0
 90
        2
176
     1
  1
strokes_ogs.tif
176
     1
290
     0
176
     1
 40
1.0
176
     1
 40
1.0
176
     1
  0
VISUALSTYLE
  5
3F
102
{ACAD_REACTORS
330
2A
102
}
330
2A
100
AcDbVisualStyle
  2
Sketchy
 70
    24
177
     3
291
     0
 70
    58
 90
        1
176
     1
 90
        2
176
     1
 90
        2
176
     1
 90
        0
176
     1
 40
0.6
176
     1
 40
30.0
176
     1
 62
     7
420
 16777215
176
     1
 90
        2
176
     1
 90
        2
176
     1
 62
     7
176
     1
 62
     7
176
     1
 90
        1
176
     1
 90
        1
176
     1
 40
40.0
176
     1
 90
       11
176
     1
 62
     7
176
     1
 40
1.0
176
     1
 90
        1
176
     1
 90
        6
176
     1
 90
        2
176
     1
 62
     7
176
     1
 90
        6
176
     1
 90
        0
176
     1
 90
        0
176
     1
290
     0
176
     1
 90
        1
176
     1
 40
0.0
176
     1
 90
        0
176
     1
290
     0
176
     1
290
     1
176
     1
290
     1
176
     1
290
     0
176
     1
290
     0
176
     1
290
     0
176
     1
290
     0
176
     1
290
     0
176
     1
290
     0
176
     1
 90
       50
176
     1
 40
0.0
176
     1
 40
1.0
176
     1
 90
        0
176
     1
 62
    18
420
        0
176
     1
 90
       50
176
     1
 90
        3
176
     1
 62
     5
420
      255
176
     1
290
     0
176
     1
 90
       50
176
     1
 90
       50
176
     1
 90
       50
176
     1
290
     0
176
     1
 90
       50
176
     1
 62
   256
176
     0
 40
1.0
176
     0
 90
        2
176
     1
  1
strokes_ogs.tif
176
     1
290
     0
176
     1
 40
1.0
176
     1
 40
1.0
176
     1
  0
VISUALSTYLE
  5
37
102
{ACAD_REACTORS
330
2A
102
}
330
2A
100
AcDbVisualStyle
  2
Thicken
 70
    13
177
     3
291
     1
 70
    58
 90
        2
176
     1
 90
        2
176
     1
 90
        0
176
     1
 90
        0
176
     1
 40
0.6
176
     1
 40
30.0
176
     1
 62
     7
420
 16777215
176
     1
 90
        1
176
     1
 90
        4
176
     1
 62
     7
176
     1
 62
   257
176
     1
 90
        1
176
     1
 90
        1
176
     1
 40
1.0
176
     1
 90
       12
176
     1
 62
     7
176
     1
 40
1.0
176
     1
 90
        1
176
     1
 90
        6
176
     1
 90
        2
176
     1
 62
     7
176
     1
 90
        5
176
     1
 90
        0
176
     1
 90
        0
176
     1
290
     0
176
     1
 90
        1
176
     1
 40
0.0
176
     1
 90
        0
176
     1
290
     0
176
     1
290
     1
176
     1
290
     1
176
     1
290
     0
176
     1
290
     0
176
     1
290
     0
176
     1
290
     0
176
     1
290
     0
176
     1
290
     0
176
     1
 90
       50
176
     1
 40
0.0
176
     1
 40
1.0
176
     1
 90
        0
176
     1
 62
    18
420
        0
176
     1
 90
       50
176
     1
 90
        3
176
     1
 62
     5
420
      255
176
     1
290
     0
176
     1
 90
       50
176
     1
 90
       50
176
     1
 90
       50
176
     1
290
     0
176
     1
 90
       50
176
     1
 62
   256
176
     0
 40
1.0
176
     0
 90
        2
176
     1
  1
strokes_ogs.tif
176
     1
290
     0
176
     1
 40
1.0
176
     1
 40
1.0
176
     1
  0
VISUALSTYLE
  5
30
102
{ACAD_REACTORS
330
2A
102
}
330
2A
100
AcDbVisualStyle
  2
Wireframe
 70
     5
177
     3
291
     0
 70
    58
 90
        0
176
     1
 90
        2
176
     1
 90
        0
176
     1
 90
        0
176
     1
 40
0.6
176
     1
 40
30.0
176
     1
 62
     7
420
 16777215
176
     1
 90
        1
176
     1
 90
        4
176
     1
 62
     7
176
     1
 62
   257
176
     1
 90
        1
176
     1
 90
        1
176
     1
 40
1.0
176
     1
 90
        0
176
     1
 62
   257
176
     1
 40
1.0
176
     1
 90
        1
176
     1
 90
        6
176
     1
 90
        2
176
     1
 62
     7
176
     1
 90
        3
176
     1
 90
        0
176
     1
 90
        0
176
     1
290
     0
176
     1
 90
        1
176
     1
 40
0.0
176
     1
 90
        0
176
     1
290
     0
176
     1
290
     1
176
     1
290
     1
176
     1
290
     0
176
     1
290
     0
176
     1
290
     0
176
     1
290
     0
176
     1
290
     0
176
     1
290
     0
176
     1
 90
       50
176
     1
 40
0.0
176
     1
 40
1.0
176
     1
 90
        0
176
     1
 62
    18
420
        0
176
     1
 90
       50
176
     1
 90
        3
176
     1
 62
     5
420
      255
176
     1
290
     0
176
     1
 90
       50
176
     1
 90
       50
176
     1
 90
       50
176
     1
290
     0
176
     1
 90
       50
176
     1
 62
   256
176
     0
 40
1.0
176
     0
 90
        2
176
     1
  1
strokes_ogs.tif
176
     1
290
     0
176
     1
 40
1.0
176
     1
 40
1.0
176
     1
  0
VISUALSTYLE
  5
40
102
{ACAD_REACTORS
330
2A
102
}
330
2A
100
AcDbVisualStyle
  2
X-Ray
 70
    25
177
     3
291
     0
 70
    58
 90
        2
176
     1
 90
        2
176
     1
 90
        1
176
     1
 90
        1
176
     1
 40
0.5
176
     1
 40
30.0
176
     1
 62
     7
420
 16777215
176
     1
 90
        1
176
     1
 90
        0
176
     1
 62
     7
176
     1
 62
   257
176
     1
 90
        1
176
     1
 90
        1
176
     1
 40
1.0
176
     1
 90
        8
176
     1
 62
     7
176
     1
 40
1.0
176
     1
 90
        1
176
     1
 90
        6
176
     1
 90
        2
176
     1
 62
     7
176
     1
 90
        3
176
     1
 90
        0
176
     1
 90
        0
176
     1
290
     0
176
     1
 90
       13
176
     1
 40
0.0
176
     1
 90
        0
176
     1
290
     0
176
     1
290
     1
176
     1
290
     1
176
     1
290
     0
176
     1
290
     0
176
     1
290
     0
176
     1
290
     0
176
     1
290
     0
176
     1
290
     0
176
     1
 90
       50
176
     1
 40
0.0
176
     1
 40
1.0
176
     1
 90
        0
176
     1
 62
    18
420
        0
176
     1
 90
       50
176
     1
 90
        3
176
     1
 62
     5
420
      255
176
     1
290
     0
176
     1
 90
       50
176
     1
 90
       50
176
     1
 90
       50
176
     1
290
     0
176
     1
 90
       50
176
     1
 62
   256
176
     0
 40
1.0
176
     0
 90
        2
176
     1
  1
strokes_ogs.tif
176
     1
290
     0
176
     1
 40
1.0
176
     1
 40
1.0
176
     1
  0
DICTIONARYVAR
  5
31E
102
{ACAD_REACTORS
330
31D
102
}
330
31D
100
DictionaryVariables
280
     0
  1
1:1
  0
DICTIONARYVAR
  5
326
102
{ACAD_REACTORS
330
31D
102
}
330
31D
100
DictionaryVariables
280
     0
  1
3.500000
  0
DICTIONARYVAR
  5
327
102
{ACAD_REACTORS
330
31D
102
}
330
31D
100
DictionaryVariables
280
     0
  1
acadiso.lin
  0
DICTIONARYVAR
  5
323
102
{ACAD_REACTORS
330
31D
102
}
330
31D
100
DictionaryVariables
280
     0
  1
Standard
  0
DICTIONARYVAR
  5
322
102
{ACAD_REACTORS
330
31D
102
}
330
31D
100
DictionaryVariables
280
     0
  1
Standard
  0
DICTIONARY
  5
31F
330
5A
100
AcDbDictionary
280
     1
281
     1
  3
ACAD_ROUNDTRIP_2008_TABLESTYLE_CELLSTYLEMAP
360
320
  0
CELLSTYLEMAP
  5
320
102
{ACAD_REACTORS
330
31F
102
}
330
31F
100
AcDbCellStyleMap
 90
        3
300
CELLSTYLE
  1
TABLEFORMAT_BEGIN
 90
        5
170
     1
 91
        0
 92
    32768
 62
   257
 93
        1
300
CONTENTFORMAT
  1
CONTENTFORMAT_BEGIN
 90
        0
 91
        0
 92
        4
 93
        0
300

 40
0.0
140
1.0
 94
        5
 62
     0
340
11
144
6.0
309
CONTENTFORMAT_END
171
     1
301
MARGIN
  1
CELLMARGIN_BEGIN
 40
1.5
 40
1.5
 40
1.5
 40
1.5
 40
1.5
 40
1.5
309
CELLMARGIN_END
 94
        6
 95
        1
302
GRIDFORMAT
  1
GRIDFORMAT_BEGIN
 90
        0
 91
        1
 62
     0
 92
       -2
340
14
 93
        0
 40
0.045
309
GRIDFORMAT_END
 95
        2
302
GRIDFORMAT
  1
GRIDFORMAT_BEGIN
 90
        0
 91
        1
 62
     0
 92
       -2
340
14
 93
        0
 40
0.045
309
GRIDFORMAT_END
 95
        4
302
GRIDFORMAT
  1
GRIDFORMAT_BEGIN
 90
        0
 91
        1
 62
     0
 92
       -2
340
14
 93
        0
 40
0.045
309
GRIDFORMAT_END
 95
        8
302
GRIDFORMAT
  1
GRIDFORMAT_BEGIN
 90
        0
 91
        1
 62
     0
 92
       -2
340
14
 93
        0
 40
0.045
309
GRIDFORMAT_END
 95
       16
302
GRIDFORMAT
  1
GRIDFORMAT_BEGIN
 90
        0
 91
        1
 62
     0
 92
       -2
340
14
 93
        0
 40
0.045
309
GRIDFORMAT_END
 95
       32
302
GRIDFORMAT
  1
GRIDFORMAT_BEGIN
 90
        0
 91
        1
 62
     0
 92
       -2
340
14
 93
        0
 40
0.045
309
GRIDFORMAT_END
309
TABLEFORMAT_END
  1
CELLSTYLE_BEGIN
 90
        1
 91
        1
300
_TITLE
309
CELLSTYLE_END
300
CELLSTYLE
  1
TABLEFORMAT_BEGIN
 90
        5
170
     1
 91
        0
 92
        0
 62
   257
 93
        1
300
CONTENTFORMAT
  1
CONTENTFORMAT_BEGIN
 90
        0
 91
        0
 92
        4
 93
        0
300

 40
0.0
140
1.0
 94
        5
 62
     0
340
11
144
4.5
309
CONTENTFORMAT_END
171
     1
301
MARGIN
  1
CELLMARGIN_BEGIN
 40
1.5
 40
1.5
 40
1.5
 40
1.5
 40
1.5
 40
1.5
309
CELLMARGIN_END
 94
        6
 95
        1
302
GRIDFORMAT
  1
GRIDFORMAT_BEGIN
 90
        0
 91
        1
 62
     0
 92
       -2
340
14
 93
        0
 40
0.045
309
GRIDFORMAT_END
 95
        2
302
GRIDFORMAT
  1
GRIDFORMAT_BEGIN
 90
        0
 91
        1
 62
     0
 92
       -2
340
14
 93
        0
 40
0.045
309
GRIDFORMAT_END
 95
        4
302
GRIDFORMAT
  1
GRIDFORMAT_BEGIN
 90
        0
 91
        1
 62
     0
 92
       -2
340
14
 93
        0
 40
0.045
309
GRIDFORMAT_END
 95
        8
302
GRIDFORMAT
  1
GRIDFORMAT_BEGIN
 90
        0
 91
        1
 62
     0
 92
       -2
340
14
 93
        0
 40
0.045
309
GRIDFORMAT_END
 95
       16
302
GRIDFORMAT
  1
GRIDFORMAT_BEGIN
 90
        0
 91
        1
 62
     0
 92
       -2
340
14
 93
        0
 40
0.045
309
GRIDFORMAT_END
 95
       32
302
GRIDFORMAT
  1
GRIDFORMAT_BEGIN
 90
        0
 91
        1
 62
     0
 92
       -2
340
14
 93
        0
 40
0.045
309
GRIDFORMAT_END
309
TABLEFORMAT_END
  1
CELLSTYLE_BEGIN
 90
        2
 91
        1
300
_HEADER
309
CELLSTYLE_END
300
CELLSTYLE
  1
TABLEFORMAT_BEGIN
 90
        5
170
     1
 91
        0
 92
        0
 62
   257
 93
        1
300
CONTENTFORMAT
  1
CONTENTFORMAT_BEGIN
 90
        0
 91
        0
 92
        4
 93
        0
300

 40
0.0
140
1.0
 94
        2
 62
     0
340
11
144
4.5
309
CONTENTFORMAT_END
171
     1
301
MARGIN
  1
CELLMARGIN_BEGIN
 40
1.5
 40
1.5
 40
1.5
 40
1.5
 40
1.5
 40
1.5
309
CELLMARGIN_END
 94
        6
 95
        1
302
GRIDFORMAT
  1
GRIDFORMAT_BEGIN
 90
        0
 91
        1
 62
     0
 92
       -2
340
14
 93
        0
 40
0.045
309
GRIDFORMAT_END
 95
        2
302
GRIDFORMAT
  1
GRIDFORMAT_BEGIN
 90
        0
 91
        1
 62
     0
 92
       -2
340
14
 93
        0
 40
0.045
309
GRIDFORMAT_END
 95
        4
302
GRIDFORMAT
  1
GRIDFORMAT_BEGIN
 90
        0
 91
        1
 62
     0
 92
       -2
340
14
 93
        0
 40
0.045
309
GRIDFORMAT_END
 95
        8
302
GRIDFORMAT
  1
GRIDFORMAT_BEGIN
 90
        0
 91
        1
 62
     0
 92
       -2
340
14
 93
        0
 40
0.045
309
GRIDFORMAT_END
 95
       16
302
GRIDFORMAT
  1
GRIDFORMAT_BEGIN
 90
        0
 91
        1
 62
     0
 92
       -2
340
14
 93
        0
 40
0.045
309
GRIDFORMAT_END
 95
       32
302
GRIDFORMAT
  1
GRIDFORMAT_BEGIN
 90
        0
 91
        1
 62
     0
 92
       -2
340
14
 93
        0
 40
0.045
309
GRIDFORMAT_END
309
TABLEFORMAT_END
  1
CELLSTYLE_BEGIN
 90
        3
 91
        2
300
_DATA
309
CELLSTYLE_END
  0
ENDSEC
  0
EOF
