  0
SECTION
  2
HEADER
  9
$ACADVER
  1
AC1027
  9
$ACADMAINTVER
 70
   105
  9
$DWGCODEPAGE
  3
ANSI_1252
  9
$COMMENTS
  1
File was created by Cadenas
  9
$LASTSAVEDBY
  1
psAdmin
  9
$CUSTOMPROPERTYTAG
  1
NB
  9
$CUSTOMPROPERTY
  1
31955
  9
$CUSTOMPROPERTYTAG
  1
NN
  9
$CUSTOMPROPERTY
  1
Fuse holders for cylindrical fuses 10x38 acc. to IEC
  9
$CUSTOMPROPERTYTAG
  1
NT
  9
$CUSTOMPROPERTY
  1

  9
$CUSTOMPROPERTYTAG
  1
NBSYN
  9
$CUSTOMPROPERTY
  1
$ARTNR.
  9
$CUSTOMPROPERTYTAG
  1
LINA
  9
$CUSTOMPROPERTY
  1
31955000
  9
$CUSTOMPROPERTYTAG
  1
CATALOG
  9
$CUSTOMPROPERTY
  1
Wöhner
  9
$CUSTOMPROPERTYTAG
  1
ARTNR
  9
$CUSTOMPROPERTY
  1
31955
  9
$CUSTOMPROPERTYTAG
  1
BUSB
  9
$CUSTOMPROPERTY
  1
12, 15, 20, 25, 30 x 5, 10 and section busbars
  9
$CUSTOMPROPERTYTAG
  1
POF
  9
$CUSTOMPROPERTY
  1
AMBUS®60Classic
  9
$CUSTOMPROPERTYTAG
  1
TYPE
  9
$CUSTOMPROPERTY
  1
AEL10x38
  9
$CUSTOMPROPERTYTAG
  1
QNT
  9
$CUSTOMPROPERTY
  1
4
  9
$CUSTOMPROPERTYTAG
  1
W
  9
$CUSTOMPROPERTY
  1
27.0
  9
$CUSTOMPROPERTYTAG
  1
H
  9
$CUSTOMPROPERTY
  1
200
  9
$CUSTOMPROPERTYTAG
  1
D
  9
$CUSTOMPROPERTY
  1
100
  9
$CUSTOMPROPERTYTAG
  1
LINK
  9
$CUSTOMPROPERTY
  1
Product link
  9
$CUSTOMPROPERTYTAG
  1
COMPANY
  9
$CUSTOMPROPERTY
  1
woehner
  9
$REQUIREDVERSIONS
160
                 0
  9
$INSBASE
 10
0.0
 20
0.0
 30
0.0
  9
$EXTMIN
 10
0.0
 20
-166.0
 30
0.0
  9
$EXTMAX
 10
36.40238095238095
 20
67.6
 30
0.0
  9
$LIMMIN
 10
0.0
 20
0.0
  9
$LIMMAX
 10
420.0
 20
297.0
  9
$ORTHOMODE
 70
     0
  9
$REGENMODE
 70
     1
  9
$FILLMODE
 70
     1
  9
$QTEXTMODE
 70
     0
  9
$MIRRTEXT
 70
     1
  9
$LTSCALE
 40
1.0
  9
$ATTMODE
 70
     1
  9
$TEXTSIZE
 40
2.5
  9
$TRACEWID
 40
1.0
  9
$TEXTSTYLE
  7
Standard
  9
$CLAYER
  8
0
  9
$CELTYPE
  6
ByLayer
  9
$CECOLOR
 62
   256
  9
$CELTSCALE
 40
1.0
  9
$DISPSILH
 70
     0
  9
$DIMSCALE
 40
1.0
  9
$DIMASZ
 40
2.5
  9
$DIMEXO
 40
0.625
  9
$DIMDLI
 40
3.75
  9
$DIMRND
 40
0.0
  9
$DIMDLE
 40
0.0
  9
$DIMEXE
 40
1.25
  9
$DIMTP
 40
0.0
  9
$DIMTM
 40
0.0
  9
$DIMTXT
 40
2.5
  9
$DIMCEN
 40
2.5
  9
$DIMTSZ
 40
0.0
  9
$DIMTOL
 70
     0
  9
$DIMLIM
 70
     0
  9
$DIMTIH
 70
     0
  9
$DIMTOH
 70
     0
  9
$DIMSE1
 70
     0
  9
$DIMSE2
 70
     0
  9
$DIMTAD
 70
     1
  9
$DIMZIN
 70
     8
  9
$DIMBLK
  1

  9
$DIMASO
 70
     1
  9
$DIMSHO
 70
     1
  9
$DIMPOST
  1

  9
$DIMAPOST
  1

  9
$DIMALT
 70
     0
  9
$DIMALTD
 70
     3
  9
$DIMALTF
 40
0.03937007874016
  9
$DIMLFAC
 40
1.0
  9
$DIMTOFL
 70
     1
  9
$DIMTVP
 40
0.0
  9
$DIMTIX
 70
     0
  9
$DIMSOXD
 70
     0
  9
$DIMSAH
 70
     0
  9
$DIMBLK1
  1

  9
$DIMBLK2
  1

  9
$DIMSTYLE
  2
ISO-25
  9
$DIMCLRD
 70
     0
  9
$DIMCLRE
 70
     0
  9
$DIMCLRT
 70
     0
  9
$DIMTFAC
 40
1.0
  9
$DIMGAP
 40
0.625
  9
$DIMJUST
 70
     0
  9
$DIMSD1
 70
     0
  9
$DIMSD2
 70
     0
  9
$DIMTOLJ
 70
     0
  9
$DIMTZIN
 70
     8
  9
$DIMALTZ
 70
     0
  9
$DIMALTTZ
 70
     0
  9
$DIMUPT
 70
     0
  9
$DIMDEC
 70
     2
  9
$DIMTDEC
 70
     2
  9
$DIMALTU
 70
     2
  9
$DIMALTTD
 70
     3
  9
$DIMTXSTY
  7
Standard
  9
$DIMAUNIT
 70
     0
  9
$DIMADEC
 70
     0
  9
$DIMALTRND
 40
0.0
  9
$DIMAZIN
 70
     0
  9
$DIMDSEP
 70
    44
  9
$DIMATFIT
 70
     3
  9
$DIMFRAC
 70
     0
  9
$DIMLDRBLK
  1

  9
$DIMLUNIT
 70
     2
  9
$DIMLWD
 70
    -2
  9
$DIMLWE
 70
    -2
  9
$DIMTMOVE
 70
     0
  9
$DIMFXL
 40
1.0
  9
$DIMFXLON
 70
     0
  9
$DIMJOGANG
 40
0.7853981633974483
  9
$DIMTFILL
 70
     0
  9
$DIMTFILLCLR
 70
     0
  9
$DIMARCSYM
 70
     0
  9
$DIMLTYPE
  6

  9
$DIMLTEX1
  6

  9
$DIMLTEX2
  6

  9
$DIMTXTDIRECTION
 70
     0
  9
$LUNITS
 70
     2
  9
$LUPREC
 70
     4
  9
$SKETCHINC
 40
1.0
  9
$FILLETRAD
 40
0.0
  9
$AUNITS
 70
     0
  9
$AUPREC
 70
     0
  9
$MENU
  1
.
  9
$ELEVATION
 40
0.0
  9
$PELEVATION
 40
0.0
  9
$THICKNESS
 40
0.0
  9
$LIMCHECK
 70
     0
  9
$CHAMFERA
 40
0.0
  9
$CHAMFERB
 40
0.0
  9
$CHAMFERC
 40
0.0
  9
$CHAMFERD
 40
0.0
  9
$SKPOLY
 70
     0
  9
$TDCREATE
 40
2460341.641511123
  9
$TDUCREATE
 40
2460341.599844456
  9
$TDUPDATE
 40
2460341.641511667
  9
$TDUUPDATE
 40
2460341.599845
  9
$TDINDWG
 40
0.0000000116
  9
$TDUSRTIMER
 40
0.0000000116
  9
$USRTIMER
 70
     1
  9
$ANGBASE
 50
0.0
  9
$ANGDIR
 70
     0
  9
$PDMODE
 70
     0
  9
$PDSIZE
 40
0.0
  9
$PLINEWID
 40
0.0
  9
$SPLFRAME
 70
     0
  9
$SPLINETYPE
 70
     6
  9
$SPLINESEGS
 70
     8
  9
$HANDSEED
  5
40F
  9
$SURFTAB1
 70
     6
  9
$SURFTAB2
 70
     6
  9
$SURFTYPE
 70
     6
  9
$SURFU
 70
     6
  9
$SURFV
 70
     6
  9
$UCSBASE
  2

  9
$UCSNAME
  2

  9
$UCSORG
 10
0.0
 20
0.0
 30
0.0
  9
$UCSXDIR
 10
1.0
 20
0.0
 30
0.0
  9
$UCSYDIR
 10
0.0
 20
1.0
 30
0.0
  9
$UCSORTHOREF
  2

  9
$UCSORTHOVIEW
 70
     0
  9
$UCSORGTOP
 10
0.0
 20
0.0
 30
0.0
  9
$UCSORGBOTTOM
 10
0.0
 20
0.0
 30
0.0
  9
$UCSORGLEFT
 10
0.0
 20
0.0
 30
0.0
  9
$UCSORGRIGHT
 10
0.0
 20
0.0
 30
0.0
  9
$UCSORGFRONT
 10
0.0
 20
0.0
 30
0.0
  9
$UCSORGBACK
 10
0.0
 20
0.0
 30
0.0
  9
$PUCSBASE
  2

  9
$PUCSNAME
  2

  9
$PUCSORG
 10
0.0
 20
0.0
 30
0.0
  9
$PUCSXDIR
 10
1.0
 20
0.0
 30
0.0
  9
$PUCSYDIR
 10
0.0
 20
1.0
 30
0.0
  9
$PUCSORTHOREF
  2

  9
$PUCSORTHOVIEW
 70
     0
  9
$PUCSORGTOP
 10
0.0
 20
0.0
 30
0.0
  9
$PUCSORGBOTTOM
 10
0.0
 20
0.0
 30
0.0
  9
$PUCSORGLEFT
 10
0.0
 20
0.0
 30
0.0
  9
$PUCSORGRIGHT
 10
0.0
 20
0.0
 30
0.0
  9
$PUCSORGFRONT
 10
0.0
 20
0.0
 30
0.0
  9
$PUCSORGBACK
 10
0.0
 20
0.0
 30
0.0
  9
$USERI1
 70
     0
  9
$USERI2
 70
     0
  9
$USERI3
 70
     0
  9
$USERI4
 70
     0
  9
$USERI5
 70
     0
  9
$USERR1
 40
0.0
  9
$USERR2
 40
0.0
  9
$USERR3
 40
0.0
  9
$USERR4
 40
0.0
  9
$USERR5
 40
0.0
  9
$WORLDVIEW
 70
     1
  9
$SHADEDGE
 70
     3
  9
$SHADEDIF
 70
    70
  9
$TILEMODE
 70
     1
  9
$MAXACTVP
 70
    64
  9
$PINSBASE
 10
0.0
 20
0.0
 30
0.0
  9
$PLIMCHECK
 70
     0
  9
$PEXTMIN
 10
1.000000000000000E+20
 20
1.000000000000000E+20
 30
1.000000000000000E+20
  9
$PEXTMAX
 10
-1.000000000000000E+20
 20
-1.000000000000000E+20
 30
-1.000000000000000E+20
  9
$PLIMMIN
 10
0.0
 20
0.0
  9
$PLIMMAX
 10
420.0
 20
297.0
  9
$UNITMODE
 70
     0
  9
$VISRETAIN
 70
     1
  9
$PLINEGEN
 70
     0
  9
$PSLTSCALE
 70
     1
  9
$TREEDEPTH
 70
  3020
  9
$CMLSTYLE
  2
Standard
  9
$CMLJUST
 70
     0
  9
$CMLSCALE
 40
20.0
  9
$PROXYGRAPHICS
 70
     1
  9
$MEASUREMENT
 70
     1
  9
$CELWEIGHT
370
    -1
  9
$ENDCAPS
280
     0
  9
$JOINSTYLE
280
     0
  9
$LWDISPLAY
290
     0
  9
$INSUNITS
 70
     4
  9
$HYPERLINKBASE
  1

  9
$STYLESHEET
  1

  9
$XEDIT
290
     1
  9
$CEPSNTYPE
380
     0
  9
$PSTYLEMODE
290
     1
  9
$FINGERPRINTGUID
  2
{41855263-a323-47cc-9a44-44ff235d2819}
  9
$VERSIONGUID
  2
{FAEB1C32-E019-11D5-929B-00C0DF256EC4}
  9
$EXTNAMES
290
     1
  9
$PSVPSCALE
 40
0.0
  9
$OLESTARTUP
290
     0
  9
$SORTENTS
280
   127
  9
$INDEXCTL
280
     0
  9
$HIDETEXT
280
     1
  9
$XCLIPFRAME
280
     2
  9
$HALOGAP
280
     0
  9
$OBSCOLOR
 70
   257
  9
$OBSLTYPE
280
     0
  9
$INTERSECTIONDISPLAY
280
     0
  9
$INTERSECTIONCOLOR
 70
   257
  9
$DIMASSOC
280
     2
  9
$PROJECTNAME
  1

  9
$CAMERADISPLAY
290
     0
  9
$LENSLENGTH
 40
50.0
  9
$CAMERAHEIGHT
 40
0.0
  9
$STEPSPERSEC
 40
2.0
  9
$STEPSIZE
 40
6.0
  9
$3DDWFPREC
 40
2.0
  9
$PSOLWIDTH
 40
5.0
  9
$PSOLHEIGHT
 40
80.0
  9
$LOFTANG1
 40
1.570796326794897
  9
$LOFTANG2
 40
1.570796326794897
  9
$LOFTMAG1
 40
0.0
  9
$LOFTMAG2
 40
0.0
  9
$LOFTPARAM
 70
     7
  9
$LOFTNORMALS
280
     1
  9
$LATITUDE
 40
37.795
  9
$LONGITUDE
 40
-122.394
  9
$NORTHDIRECTION
 40
0.0
  9
$TIMEZONE
 70
 -8000
  9
$LIGHTGLYPHDISPLAY
280
     1
  9
$TILEMODELIGHTSYNCH
280
     1
  9
$CMATERIAL
347
44
  9
$SOLIDHIST
280
     0
  9
$SHOWHIST
280
     1
  9
$DWFFRAME
280
     2
  9
$DGNFRAME
280
     2
  9
$REALWORLDSCALE
290
     1
  9
$INTERFERECOLOR
 62
   256
  9
$CSHADOW
280
     0
  9
$SHADOWPLANELOCATION
 40
0.0
  0
ENDSEC
  0
SECTION
  2
CLASSES
  0
CLASS
  1
ACDBDICTIONARYWDFLT
  2
AcDbDictionaryWithDefault
  3
ObjectDBX Classes
 90
        0
 91
        3
280
     0
281
     0
  0
CLASS
  1
VISUALSTYLE
  2
AcDbVisualStyle
  3
ObjectDBX Classes
 90
     4095
 91
        3
280
     0
281
     0
  0
CLASS
  1
MATERIAL
  2
AcDbMaterial
  3
ObjectDBX Classes
 90
     1153
 91
        3
280
     0
281
     0
  0
CLASS
  1
SCALE
  2
AcDbScale
  3
ObjectDBX Classes
 90
     1153
 91
        3
280
     0
281
     0
  0
CLASS
  1
TABLESTYLE
  2
AcDbTableStyle
  3
ObjectDBX Classes
 90
     4095
 91
        3
280
     0
281
     0
  0
CLASS
  1
MLEADERSTYLE
  2
AcDbMLeaderStyle
  3
ACDB_MLEADERSTYLE_CLASS
 90
     4095
 91
        3
280
     0
281
     0
  0
CLASS
  1
SUN
  2
AcDbSun
  3
SCENEOE
 90
     1153
 91
        3
280
     0
281
     0
  0
CLASS
  1
DICTIONARYVAR
  2
AcDbDictionaryVar
  3
ObjectDBX Classes
 90
        0
 91
        3
280
     0
281
     0
  0
CLASS
  1
CELLSTYLEMAP
  2
AcDbCellStyleMap
  3
ObjectDBX Classes
 90
     1152
 91
        3
280
     0
281
     0
  0
ENDSEC
  0
SECTION
  2
TABLES
  0
TABLE
  2
VPORT
  5
8
330
0
100
AcDbSymbolTable
 70
     1
  0
VPORT
  5
29
330
8
100
AcDbSymbolTableRecord
100
AcDbViewportTableRecord
  2
*Active
 70
     0
 10
0.0
 20
0.0
 11
1.0
 21
1.0
 12
18.20119047619045
 22
-49.19999999999999
 13
0.0
 23
0.0
 14
10.0
 24
10.0
 15
10.0
 25
10.0
 16
0.0
 26
0.0
 36
1.0
 17
0.0
 27
0.0
 37
0.0
 40
238.272
 41
0.155832110241357
 42
50.0
 43
0.0
 44
0.0
 50
0.0
 51
0.0
 71
     0
 72
   100
 73
     1
 74
     3
 75
     0
 76
     0
 77
     0
 78
     0
281
     0
 65
     1
110
0.0
120
0.0
130
0.0
111
1.0
121
0.0
131
0.0
112
0.0
122
1.0
132
0.0
 79
     0
146
0.0
348
2F
 60
     3
 61
     5
292
     1
282
     1
141
0.0
142
0.0
 63
   250
361
5D
  0
ENDTAB
  0
TABLE
  2
LTYPE
  5
5
330
0
100
AcDbSymbolTable
 70
     3
  0
LTYPE
  5
14
330
5
100
AcDbSymbolTableRecord
100
AcDbLinetypeTableRecord
  2
ByBlock
 70
     0
  3

 72
    65
 73
     0
 40
0.0
  0
LTYPE
  5
15
330
5
100
AcDbSymbolTableRecord
100
AcDbLinetypeTableRecord
  2
ByLayer
 70
     0
  3

 72
    65
 73
     0
 40
0.0
  0
LTYPE
  5
16
330
5
100
AcDbSymbolTableRecord
100
AcDbLinetypeTableRecord
  2
Continuous
 70
     0
  3
Solid line
 72
    65
 73
     0
 40
0.0
  0
LTYPE
  5
84
330
5
100
AcDbSymbolTableRecord
100
AcDbLinetypeTableRecord
  2
Dashed
 70
     0
  3

 72
    65
 73
     2
 40
2.0
 49
1.0
 74
     0
 49
-1.0
 74
     0
  0
LTYPE
  5
C5
330
5
100
AcDbSymbolTableRecord
100
AcDbLinetypeTableRecord
  2
Center
 70
     0
  3

 72
    65
 73
     4
 40
1.5
 49
0.45
 74
     0
 49
-0.5
 74
     0
 49
0.05
 74
     0
 49
-0.5
 74
     0
  0
ENDTAB
  0
TABLE
  2
LAYER
  5
2
330
0
100
AcDbSymbolTable
 70
     9
  0
LAYER
  5
10
330
2
100
AcDbSymbolTableRecord
100
AcDbLayerTableRecord
  2
0
 70
     0
 62
     7
  6
Continuous
370
    -3
390
F
347
46
348
0
  0
LAYER
  5
5E
330
2
100
AcDbSymbolTableRecord
100
AcDbLayerTableRecord
  2
attrib
 70
     0
 62
    -2
  6
Continuous
370
    35
390
F
347
46
348
0
  0
LAYER
  5
85
330
2
100
AcDbSymbolTableRecord
100
AcDbLayerTableRecord
  2
hidden
 70
     0
 62
    -6
  6
Dashed
370
    25
390
F
347
46
348
0
  0
LAYER
  5
C6
330
2
100
AcDbSymbolTableRecord
100
AcDbLayerTableRecord
  2
center
 70
     0
 62
    -7
  6
Center
370
    25
390
F
347
46
348
0
  0
LAYER
  5
CC
330
2
100
AcDbSymbolTableRecord
100
AcDbLayerTableRecord
  2
bold
 70
     0
 62
     7
  6
Continuous
370
    50
390
F
347
46
348
0
  0
LAYER
  5
D2
330
2
100
AcDbSymbolTableRecord
100
AcDbLayerTableRecord
  2
light
 70
     0
 62
    -3
  6
Continuous
370
    25
390
F
347
46
348
0
  0
LAYER
  5
3E1
330
2
100
AcDbSymbolTableRecord
100
AcDbLayerTableRecord
  2
dimension
 70
     0
 62
    -5
  6
Continuous
370
    25
390
F
347
46
348
0
  0
LAYER
  5
3E3
330
2
100
AcDbSymbolTableRecord
100
AcDbLayerTableRecord
  2
Defpoints
 70
     0
 62
     7
  6
Continuous
290
     0
370
    -3
390
F
347
46
348
0
  0
LAYER
  5
3F0
330
2
100
AcDbSymbolTableRecord
100
AcDbLayerTableRecord
  2
connection
 70
     0
 62
    -7
  6
Continuous
370
    50
390
F
347
46
348
0
  0
ENDTAB
  0
TABLE
  2
STYLE
  5
3
330
0
100
AcDbSymbolTable
 70
     1
  0
STYLE
  5
11
330
3
100
AcDbSymbolTableRecord
100
AcDbTextStyleTableRecord
  2
Standard
 70
     0
 40
0.0
 41
1.0
 50
0.0
 71
     0
 42
2.5
  3
txt
  4

  0
ENDTAB
  0
TABLE
  2
VIEW
  5
6
330
0
100
AcDbSymbolTable
 70
     0
  0
ENDTAB
  0
TABLE
  2
UCS
  5
7
330
0
100
AcDbSymbolTable
 70
     0
  0
ENDTAB
  0
TABLE
  2
APPID
  5
9
330
0
100
AcDbSymbolTable
 70
     1
  0
APPID
  5
12
330
9
100
AcDbSymbolTableRecord
100
AcDbRegAppTableRecord
  2
ACAD
 70
     0
  0
ENDTAB
  0
TABLE
  2
DIMSTYLE
  5
A
330
0
100
AcDbSymbolTable
 70
     1
100
AcDbDimStyleTable
  0
DIMSTYLE
105
27
102
{ACAD_REACTORS
330
3E2
102
}
330
A
100
AcDbSymbolTableRecord
100
AcDbDimStyleTableRecord
  2
ISO-25
 70
     0
 41
2.5
 42
0.625
 43
3.75
 44
1.25
 73
     0
 74
     0
 77
     1
 78
     8
140
2.5
141
2.5
143
0.03937007874016
147
0.625
171
     3
172
     1
178
     0
271
     2
272
     2
274
     3
278
    44
283
     0
284
     8
340
11
  0
ENDTAB
  0
TABLE
  2
BLOCK_RECORD
  5
1
330
0
100
AcDbSymbolTable
 70
     8
  0
BLOCK_RECORD
  5
1F
330
1
100
AcDbSymbolTableRecord
100
AcDbBlockTableRecord
  2
*Model_Space
340
22
 70
     0
280
     1
281
     0
  0
BLOCK_RECORD
  5
1B
330
1
100
AcDbSymbolTableRecord
100
AcDbBlockTableRecord
  2
*Paper_Space
340
1E
 70
     0
280
     1
281
     0
  0
BLOCK_RECORD
  5
23
330
1
100
AcDbSymbolTableRecord
100
AcDbBlockTableRecord
  2
*Paper_Space0
340
26
 70
     0
280
     1
281
     0
  0
BLOCK_RECORD
  5
74
330
1
100
AcDbSymbolTableRecord
100
AcDbBlockTableRecord
  2
1_79602LED_1_0_in_31955_0
340
0
102
{BLKREFS
331
75
102
}
 70
     0
280
     1
281
     0
  0
BLOCK_RECORD
  5
100
330
1
100
AcDbSymbolTableRecord
100
AcDbBlockTableRecord
  2
2_79172000_0_in_31955_0
340
0
102
{BLKREFS
331
101
102
}
 70
     0
280
     1
281
     0
  0
BLOCK_RECORD
  5
134
330
1
100
AcDbSymbolTableRecord
100
AcDbBlockTableRecord
  2
3_79169000_0_in_31955_0
340
0
102
{BLKREFS
331
135
102
}
 70
     0
280
     1
281
     0
  0
BLOCK_RECORD
  5
188
330
1
100
AcDbSymbolTableRecord
100
AcDbBlockTableRecord
  2
4_79602LED_2_0_in_31955_0
340
0
102
{BLKREFS
331
189
102
}
 70
     0
280
     1
281
     0
  0
BLOCK_RECORD
  5
20E
330
1
100
AcDbSymbolTableRecord
100
AcDbBlockTableRecord
  2
5_79602LED_3_0_in_31955_0
340
0
102
{BLKREFS
331
20F
102
}
 70
     0
280
     1
281
     0
  0
BLOCK_RECORD
  5
294
330
1
100
AcDbSymbolTableRecord
100
AcDbBlockTableRecord
  2
6_79615000_0_in_31955_0
340
0
102
{BLKREFS
331
295
102
}
 70
     0
280
     1
281
     0
  0
BLOCK_RECORD
  5
3E4
330
1
100
AcDbSymbolTableRecord
100
AcDbBlockTableRecord
  2
*D7
340
0
 70
     0
280
     1
281
     0
  0
ENDTAB
  0
ENDSEC
  0
SECTION
  2
BLOCKS
  0
BLOCK
  5
20
330
1F
100
AcDbEntity
  8
0
100
AcDbBlockBegin
  2
*Model_Space
 70
     2
 10
0.0
 20
0.0
 30
0.0
  3
*Model_Space
  1

  0
ENDBLK
  5
21
330
1F
100
AcDbEntity
  8
0
100
AcDbBlockEnd
  0
BLOCK
  5
1C
330
1B
100
AcDbEntity
 67
     1
  8
0
100
AcDbBlockBegin
  2
*Paper_Space
 70
     0
 10
0.0
 20
0.0
 30
0.0
  3
*Paper_Space
  1

  0
ENDBLK
  5
1D
330
1B
100
AcDbEntity
 67
     1
  8
0
100
AcDbBlockEnd
  0
BLOCK
  5
24
330
23
100
AcDbEntity
  8
0
100
AcDbBlockBegin
  2
*Paper_Space0
 70
     0
 10
0.0
 20
0.0
 30
0.0
  3
*Paper_Space0
  1

  0
ENDBLK
  5
25
330
23
100
AcDbEntity
  8
0
100
AcDbBlockEnd
  0
BLOCK
  5
76
330
74
100
AcDbEntity
  8
0
100
AcDbBlockBegin
  2
1_79602LED_1_0_in_31955_0
 70
     2
 10
0.0
 20
0.0
 30
0.0
  3
1_79602LED_1_0_in_31955_0
  1

  0
ATTDEF
  5
78
330
74
100
AcDbEntity
  8
attrib
100
AcDbText
 10
31.85
 20
-95.10504998036501
 30
0.0
 40
0.5
  1
79602LED
100
AcDbAttributeDefinition
  3

  2
NB
 70
     8
280
     0
  0
ATTDEF
  5
79
330
74
100
AcDbEntity
  8
attrib
100
AcDbText
 10
31.85
 20
-95.60504998036501
 30
0.0
 40
0.5
  1
AMBUS60 Holder for cylindrical fuse part
100
AcDbAttributeDefinition
  3

  2
NN
 70
     8
280
     0
  0
ATTDEF
  5
7A
330
74
100
AcDbEntity
  8
attrib
100
AcDbText
 10
31.85
 20
-96.10504998036501
 30
0.0
 40
0.5
  1

100
AcDbAttributeDefinition
  3

  2
NT
 70
     8
280
     0
  0
ATTDEF
  5
7B
330
74
100
AcDbEntity
  8
attrib
100
AcDbText
 10
31.85
 20
-96.60504998036501
 30
0.0
 40
0.5
  1
$ARTNR.
100
AcDbAttributeDefinition
  3

  2
NBSYN
 70
     8
280
     0
  0
ATTDEF
  5
7C
330
74
100
AcDbEntity
  8
attrib
100
AcDbText
 10
31.85
 20
-97.10504998036501
 30
0.0
 40
0.5
  1
79602LED
100
AcDbAttributeDefinition
  3

  2
LINA
 70
     8
280
     0
  0
ATTDEF
  5
7D
330
74
100
AcDbEntity
  8
attrib
100
AcDbText
 10
31.85
 20
-97.60504998036501
 30
0.0
 40
0.5
  1
Wöhner
100
AcDbAttributeDefinition
  3

  2
CATALOG
 70
     8
280
     0
  0
ATTDEF
  5
7E
330
74
100
AcDbEntity
  8
attrib
100
AcDbText
 10
31.85
 20
-98.10504998036501
 30
0.0
 40
0.5
  1
79602LED
100
AcDbAttributeDefinition
  3

  2
ARTNR
 70
     8
280
     0
  0
ATTDEF
  5
7F
330
74
100
AcDbEntity
  8
attrib
100
AcDbText
 10
31.85
 20
-98.60504998036501
 30
0.0
 40
0.5
  1
AMBUS®60Classic
100
AcDbAttributeDefinition
  3

  2
POF
 70
     8
280
     0
  0
ATTDEF
  5
80
330
74
100
AcDbEntity
  8
attrib
100
AcDbText
 10
31.85
 20
-99.10504998036501
 30
0.0
 40
0.5
  1
2
100
AcDbAttributeDefinition
  3

  2
VER
 70
     8
280
     0
  0
ATTDEF
  5
81
330
74
100
AcDbEntity
  8
attrib
100
AcDbText
 10
31.85
 20
-99.60504998036501
 30
0.0
 40
0.5
  1
woehner
100
AcDbAttributeDefinition
  3

  2
COMPANY
 70
     8
280
     0
  0
ATTDEF
  5
82
330
74
100
AcDbEntity
  8
attrib
100
AcDbText
 10
31.85
 20
-100.105049980365
 30
0.0
 40
0.5
  1
{$CADENAS_DATA/23d-libs/woehner/sys_60classic/fuse_holders_iec_en/parts/holder_fuse_ambus_iec_v1_part4__v2_part2.prj},191 {VTYP=3D},{NB=79602LED},{LINA=79602LED},{NN=AMBUS60 Holder for cylindrical fuse part},{DATE=26.01.2024 06:39:58},{GEOMDATE=29.12.2022
100
AcDbAttributeDefinition
  3

  2
PSOL_0
 70
     9
280
     0
  0
ATTDEF
  5
83
330
74
100
AcDbEntity
  8
attrib
100
AcDbText
 10
31.85
 20
-100.605049980365
 30
0.0
 40
0.5
  1
 11:29:00},{VERSION=},{LINEID=920},{WBVAR=},{WBNUMERIC=}  {NB=79602LED},{LINA=79602LED},{KT=DUMMY},{ARTNR=79602LED},{POF=AMBUS®60Classic},{VER=2}
100
AcDbAttributeDefinition
  3

  2
PSOL_1
 70
     9
280
     0
  0
LINE
  5
86
330
74
100
AcDbEntity
  8
hidden
100
AcDbLine
 10
24.5
 20
-131.6766629500451
 30
0.0
 11
10.5
 21
-131.6766629500451
 31
0.0
  0
LINE
  5
87
330
74
100
AcDbEntity
  8
hidden
100
AcDbLine
 10
24.5
 20
-110.726822293773
 30
0.0
 11
10.5
 21
-110.726822293773
 31
0.0
  0
LINE
  5
88
330
74
100
AcDbEntity
  8
hidden
100
AcDbLine
 10
24.5
 20
-110.7183260565291
 30
0.0
 11
10.5
 21
-110.7183260565291
 31
0.0
  0
LINE
  5
89
330
74
100
AcDbEntity
  8
hidden
100
AcDbLine
 10
24.5
 20
-101.2494654154739
 30
0.0
 11
10.5
 21
-101.2494654154739
 31
0.0
  0
LWPOLYLINE
  5
8A
330
74
100
AcDbEntity
  8
hidden
100
AcDbPolyline
 90
       13
 70
     0
 43
0.0
 10
20.317742159919
 20
-131.685159187289
 10
20.66700919853876
 20
-131.7316884533332
 10
20.99217338486521
 20
-131.7834611769605
 10
21.29076002310088
 20
-131.8400833364831
 10
21.56049668863728
 20
-131.9011240030775
 10
21.79933052257821
 20
-131.9661186204135
 10
22.00544385523557
 20
-132.0345725402084
 10
22.17726803969321
 20
-132.1059647867989
 10
22.31349539015713
 20
-132.1797520220808
 10
22.41308913423396
 20
-132.2553726806395
 10
22.47529130339495
 20
-132.3322512436024
 10
22.49962850157408
 20
-132.4098026186849
 10
22.5
 20
-132.4206558085671
  0
LWPOLYLINE
  5
8B
330
74
100
AcDbEntity
  8
hidden
100
AcDbPolyline
 90
       12
 70
     0
 43
0.0
 10
14.3220906245932
 20
-110.5021984185559
 10
13.99774777632637
 20
-110.4123647322638
 10
13.70005918219941
 20
-110.3141660720664
 10
13.43129043216291
 20
-110.2083497890618
 10
13.19348701869166
 20
-110.0957212090571
 10
12.9884587693518
 20
-109.9771375035533
 10
12.81776607292024
 20
-109.853501166152
 10
12.68270800388391
 20
-109.7257531440345
 10
12.58431243569846
 20
-109.5948656767855
 10
12.52332821805064
 20
-109.4618348970628
 10
12.50021947766004
 20
-109.3276732494262
 10
12.5
 20
-109.3132438074299
  0
LINE
  5
8C
330
74
100
AcDbEntity
  8
hidden
100
AcDbLine
 10
14.33817107458432
 20
-110.5062586577904
 30
0.0
 11
14.3220906245932
 21
-110.5021984185559
 31
0.0
  0
LWPOLYLINE
  5
8D
330
74
100
AcDbEntity
  8
hidden
100
AcDbPolyline
 90
        5
 70
     0
 43
0.0
 10
15.51582891013989
 20
-110.726822293773
 10
15.1233822257422
 20
-110.6681791407602
 10
14.74902303764766
 20
-110.5992241117284
 10
14.39560044532193
 20
-110.5204819960848
 10
14.33817107458432
 20
-110.5062586577904
  0
LINE
  5
8E
330
74
100
AcDbEntity
  8
hidden
100
AcDbLine
 10
10.5
 20
-131.6851591872889
 30
0.0
 11
24.5
 21
-131.6851591872889
 31
0.0
  0
LINE
  5
8F
330
74
100
AcDbEntity
  8
hidden
100
AcDbLine
 10
22.5
 20
-132.4206558085671
 30
0.0
 11
22.5
 21
-109.3132438074299
 31
0.0
  0
LINE
  5
90
330
74
100
AcDbEntity
  8
hidden
100
AcDbLine
 10
12.5
 20
-109.3132438074299
 30
0.0
 11
12.5
 21
-132.4206558085671
 31
0.0
  0
LWPOLYLINE
  5
91
330
74
100
AcDbEntity
  8
hidden
100
AcDbPolyline
 90
       37
 70
     0
 43
0.0
 10
12.5
 20
-109.3132438074299
 10
12.51902650954127
 20
-109.1790213596444
 10
12.57596123493896
 20
-109.0458204257323
 10
12.67037086855466
 20
-108.9146547452295
 10
12.80153689607046
 20
-108.7865225681648
 10
12.96846106481675
 20
-108.6623990577738
 10
13.16987298107781
 20
-108.5432288689186
 10
13.40423977855504
 20
-108.4299189586931
 10
13.66977778440511
 20
-108.3233316839326
 10
13.96446609406726
 20
-108.2242782381573
 10
14.2860619515673
 20
-108.1335124778995
 10
14.63211781824477
 20
-108.0517251854007
 10
14.99999999999999
 20
-107.9795388113412
 10
15.3869086912965
 20
-107.9175027376152
 10
15.78989928337165
 20
-107.8660890962019
 10
16.20590477448739
 20
-107.8256891759569
 10
16.63175911166534
 20
-107.7966104446675
 10
17.0642212862617
 20
-107.779074209037
 10
17.49999999999999
 20
-107.7732139304072
 10
17.93577871373828
 20
-107.779074209037
 10
18.36824088833464
 20
-107.7966104446675
 10
18.7940952255126
 20
-107.8256891759569
 10
19.21010071662833
 20
-107.8660890962019
 10
19.61309130870349
 20
-107.9175027376152
 10
19.99999999999999
 20
-107.9795388113412
 10
20.36788218175522
 20
-108.0517251854007
 10
20.71393804843269
 20
-108.1335124778995
 10
21.03553390593273
 20
-108.2242782381573
 10
21.33022221559489
 20
-108.3233316839326
 10
21.59576022144496
 20
-108.4299189586931
 10
21.83012701892219
 20
-108.5432288689186
 10
22.03153893518325
 20
-108.6623990577738
 10
22.19846310392954
 20
-108.7865225681648
 10
22.32962913144534
 20
-108.9146547452295
 10
22.42403876506104
 20
-109.0458204257323
 10
22.48097349045873
 20
-109.1790213596444
 10
22.5
 20
-109.3132438074299
  0
LINE
  5
92
330
74
100
AcDbEntity
  8
hidden
100
AcDbLine
 10
19.73304738359282
 20
-110.6911531922667
 30
0.0
 11
19.48417108986011
 21
-110.726822293773
 31
0.0
  0
LWPOLYLINE
  5
93
330
74
100
AcDbEntity
  8
hidden
100
AcDbPolyline
 90
        4
 70
     0
 43
0.0
 10
20.66182892541569
 20
-110.5062586577904
 10
20.31221254233331
 20
-110.5865965596734
 10
19.94119352374341
 20
-110.6572434782404
 10
19.73304738359282
 20
-110.6911531922667
  0
LWPOLYLINE
  5
94
330
74
100
AcDbEntity
  8
hidden
100
AcDbPolyline
 90
       12
 70
     0
 43
0.0
 10
22.5
 20
-109.3132438074299
 10
22.48097349045873
 20
-109.4474662552154
 10
22.42403876506104
 20
-109.5806671891275
 10
22.32962913144534
 20
-109.7118328696303
 10
22.19846310392955
 20
-109.839965046695
 10
22.03153893518325
 20
-109.964088557086
 10
21.8301270189222
 20
-110.0832587459412
 10
21.59576022144497
 20
-110.1965686561667
 10
21.33022221559489
 20
-110.3031559309272
 10
21.03553390593274
 20
-110.4022093767025
 10
20.7139380484327
 20
-110.4929751369603
 10
20.66182892541569
 20
-110.5062586577904
  0
LWPOLYLINE
  5
95
330
74
100
AcDbEntity
  8
hidden
100
AcDbPolyline
 90
       37
 70
     0
 43
0.0
 10
22.5
 20
-132.4206558085671
 10
22.48097349045873
 20
-132.4982542488534
 10
22.42403876506104
 20
-132.5752621181539
 10
22.32962913144534
 20
-132.6510933400845
 10
22.19846310392955
 20
-132.7251707932584
 10
22.03153893518325
 20
-132.7969307035276
 10
21.8301270189222
 20
-132.8658269346451
 10
21.59576022144497
 20
-132.9313351446916
 10
21.33022221559489
 20
-132.9929567766334
 10
21.03553390593274
 20
-133.0502228526436
 10
20.7139380484327
 20
-133.1026975433053
 10
20.36788218175523
 20
-133.1499814845376
 10
20.00000000000001
 20
-133.1917148169969
 10
19.61309130870351
 20
-133.2275799248239
 10
19.21010071662835
 20
-133.2573038528921
 10
18.79409522551261
 20
-133.280660384161
 10
18.36824088833466
 20
-133.2974717613247
 10
17.9357787137383
 20
-133.307610039652
 10
17.50000000000001
 20
-133.3109980607232
 10
17.06422128626172
 20
-133.307610039652
 10
16.63175911166536
 20
-133.2974717613247
 10
16.20590477448741
 20
-133.280660384161
 10
15.78989928337167
 20
-133.2573038528921
 10
15.38690869129652
 20
-133.2275799248239
 10
15.00000000000001
 20
-133.1917148169969
 10
14.63211781824478
 20
-133.1499814845376
 10
14.28606195156731
 20
-133.1026975433053
 10
13.96446609406727
 20
-133.0502228526436
 10
13.66977778440512
 20
-132.9929567766334
 10
13.40423977855505
 20
-132.9313351446916
 10
13.16987298107782
 20
-132.8658269346451
 10
12.96846106481676
 20
-132.7969307035276
 10
12.80153689607046
 20
-132.7251707932584
 10
12.67037086855466
 20
-132.6510933400845
 10
12.57596123493896
 20
-132.5752621181539
 10
12.51902650954128
 20
-132.4982542488534
 10
12.5
 20
-132.4206558085671
  0
LWPOLYLINE
  5
96
330
74
100
AcDbEntity
  8
hidden
100
AcDbPolyline
 90
       13
 70
     0
 43
0.0
 10
12.5
 20
-132.4206558085671
 10
12.51902650954127
 20
-132.3430573682808
 10
12.57596123493896
 20
-132.2660494989803
 10
12.67037086855466
 20
-132.1902182770496
 10
12.80153689607046
 20
-132.1161408238757
 10
12.96846106481675
 20
-132.0443809136066
 10
13.16987298107781
 20
-131.975484682489
 10
13.40423977855504
 20
-131.9099764724426
 10
13.66977778440511
 20
-131.8483548405007
 10
13.96446609406726
 20
-131.7910887644906
 10
14.2860619515673
 20
-131.7386140738288
 10
14.63211781824477
 20
-131.6913301325965
 10
14.682257840081
 20
-131.685159187289
  0
LINE
  5
97
330
74
100
AcDbEntity
  8
hidden
100
AcDbLine
 10
24.5
 20
-103.2356129946947
 30
0.0
 11
10.5
 21
-103.2356129946947
 31
0.0
  0
LINE
  5
98
330
74
100
AcDbEntity
  8
hidden
100
AcDbLine
 10
24.5
 20
-103.1181206613749
 30
0.0
 11
10.5
 21
-103.1181206613749
 31
0.0
  0
LINE
  5
99
330
74
100
AcDbEntity
  8
hidden
100
AcDbLine
 10
24.5
 20
-101.9754179132932
 30
0.0
 11
10.5
 21
-101.9754179132932
 31
0.0
  0
LINE
  5
9A
330
74
100
AcDbEntity
  8
hidden
100
AcDbLine
 10
24.5
 20
-102.1250468717646
 30
0.0
 11
10.5
 21
-102.1250468717646
 31
0.0
  0
LINE
  5
9B
330
74
100
AcDbEntity
  8
hidden
100
AcDbLine
 10
24.5
 20
-106.1951025465553
 30
0.0
 11
10.5
 21
-106.1951025465553
 31
0.0
  0
LINE
  5
9C
330
74
100
AcDbEntity
  8
hidden
100
AcDbLine
 10
10.5
 20
-100.9078292503354
 30
0.0
 11
10.5
 21
-118.19970723449
 31
0.0
  0
LINE
  5
9D
330
74
100
AcDbEntity
  8
hidden
100
AcDbLine
 10
24.5
 20
-100.9078292503354
 30
0.0
 11
24.5
 21
-118.19970723449
 31
0.0
  0
LINE
  5
9E
330
74
100
AcDbEntity
  8
hidden
100
AcDbLine
 10
24.5
 20
-106.0655159420152
 30
0.0
 11
10.5
 21
-106.0655159420152
 31
0.0
  0
LINE
  5
9F
330
74
100
AcDbEntity
  8
hidden
100
AcDbLine
 10
24.5
 20
-100.9078292503354
 30
0.0
 11
10.5
 21
-100.9078292503354
 31
0.0
  0
LINE
  5
A0
330
74
100
AcDbEntity
  8
hidden
100
AcDbLine
 10
26.0
 20
-123.25
 30
0.0
 11
9.000000000000002
 21
-123.25
 31
0.0
  0
LINE
  5
A1
330
74
100
AcDbEntity
  8
hidden
100
AcDbLine
 10
9.000000000000002
 20
-127.75
 30
0.0
 11
26.0
 21
-127.75
 31
0.0
  0
LINE
  5
A2
330
74
100
AcDbEntity
  8
hidden
100
AcDbLine
 10
9.499999999999998
 20
-122.0
 30
0.0
 11
9.000000000000002
 21
-122.0
 31
0.0
  0
LINE
  5
A3
330
74
100
AcDbEntity
  8
hidden
100
AcDbLine
 10
9.000000000000002
 20
-129.0
 30
0.0
 11
9.499999999999998
 21
-129.0
 31
0.0
  0
LINE
  5
A4
330
74
100
AcDbEntity
  8
hidden
100
AcDbLine
 10
9.000000000000002
 20
-122.0
 30
0.0
 11
9.000000000000002
 21
-129.0
 31
0.0
  0
LINE
  5
A5
330
74
100
AcDbEntity
  8
hidden
100
AcDbLine
 10
24.5
 20
-104.5969165663932
 30
0.0
 11
10.5
 21
-104.5969165663932
 31
0.0
  0
LINE
  5
A6
330
74
100
AcDbEntity
  8
hidden
100
AcDbLine
 10
24.5
 20
-125.9454870990082
 30
0.0
 11
10.5
 21
-125.9454870990082
 31
0.0
  0
LINE
  5
A7
330
74
100
AcDbEntity
  8
hidden
100
AcDbLine
 10
24.5
 20
-125.9452306406962
 30
0.0
 11
10.5
 21
-125.9452306406962
 31
0.0
  0
ELLIPSE
  5
A8
330
74
100
AcDbEntity
  8
hidden
100
AcDbEllipse
 10
15.22
 20
-120.4202591346499
 30
0.0
 11
-1.4
 21
2.814907077243458E-14
 31
0.0
210
0.0
220
0.0
230
1.0
 40
0.9996580555840798
 41
0.0000000000000201
 42
3.141592653589814
  0
ELLIPSE
  5
A9
330
74
100
AcDbEntity
  8
hidden
100
AcDbEllipse
 10
19.78999999999999
 20
-120.4202591346499
 30
0.0
 11
-1.400000000000006
 21
2.814907077243469E-14
 31
0.0
210
0.0
220
0.0
230
1.0
 40
0.9996580555840757
 41
0.0000000000000201
 42
3.141592653589814
  0
ELLIPSE
  5
AA
330
74
100
AcDbEntity
  8
hidden
100
AcDbEllipse
 10
19.79000000000012
 20
-120.4202591346498
 30
0.0
 11
-1.399999999999867
 21
-1.505646242207569E-12
 31
0.0
210
0.0
220
0.0
230
1.0
 40
0.9996580555840836
 41
3.376372081672965
 42
3.959907874230652
  0
ELLIPSE
  5
AB
330
74
100
AcDbEntity
  8
hidden
100
AcDbEllipse
 10
19.70000000000001
 20
-120.4202591346499
 30
0.0
 11
-1.499999999999986
 21
2.413241379684538E-13
 31
0.0
210
0.0
220
0.0
230
1.0
 40
0.9996580555840827
 41
2.334707417103999
 42
2.887704010241368
  0
ELLIPSE
  5
AC
330
74
100
AcDbEntity
  8
hidden
100
AcDbEllipse
 10
19.70000000007578
 20
-120.4202591346484
 30
0.0
 11
-1.500000000075783
 21
-7.913454720136993E-10
 31
0.0
210
0.0
220
0.0
230
1.0
 40
0.9996580555840834
 41
3.124153117056844
 42
6.300624842503741
  0
LINE
  5
AD
330
74
100
AcDbEntity
  8
hidden
100
AcDbLine
 10
18.2
 20
-120.4202591346499
 30
0.0
 11
18.2
 21
-120.4725571998477
 31
0.0
  0
LINE
  5
AE
330
74
100
AcDbEntity
  8
hidden
100
AcDbLine
 10
21.2
 20
-120.4725571998477
 30
0.0
 11
21.2
 21
-120.4202591346499
 31
0.0
  0
ELLIPSE
  5
AF
330
74
100
AcDbEntity
  8
hidden
100
AcDbEllipse
 10
15.29999999998781
 20
-120.4202591346526
 30
0.0
 11
-1.499999999987812
 21
3.902442552917725E-9
 31
0.0
210
0.0
220
0.0
230
1.0
 40
0.9996580555840671
 41
3.124153121062124
 42
6.300624845005847
  0
LINE
  5
B0
330
74
100
AcDbEntity
  8
hidden
100
AcDbLine
 10
13.8
 20
-120.4202591346499
 30
0.0
 11
13.8
 21
-120.4725571998477
 31
0.0
  0
LINE
  5
B1
330
74
100
AcDbEntity
  8
hidden
100
AcDbLine
 10
16.8
 20
-120.4725571998477
 30
0.0
 11
16.8
 21
-120.4202591346499
 31
0.0
  0
LINE
  5
B2
330
74
100
AcDbEntity
  8
hidden
100
AcDbLine
 10
15.15
 20
-118.4732410886796
 30
0.0
 11
19.85
 21
-118.4732410886796
 31
0.0
  0
LINE
  5
B3
330
74
100
AcDbEntity
  8
hidden
100
AcDbLine
 10
26.0
 20
-107.9371240074684
 30
0.0
 11
9.000000000000002
 21
-107.9371240074684
 31
0.0
  0
LINE
  5
B4
330
74
100
AcDbEntity
  8
hidden
100
AcDbLine
 10
9.000000000000002
 20
-110.9371240074684
 30
0.0
 11
26.0
 21
-110.9371240074684
 31
0.0
  0
LINE
  5
B5
330
74
100
AcDbEntity
  8
hidden
100
AcDbLine
 10
15.15
 20
-118.487634015612
 30
0.0
 11
15.15
 21
-118.4732410886796
 31
0.0
  0
LINE
  5
B6
330
74
100
AcDbEntity
  8
hidden
100
AcDbLine
 10
13.15
 20
-120.4725571998477
 30
0.0
 11
13.15
 21
-120.4859323472223
 31
0.0
  0
ELLIPSE
  5
B7
330
74
100
AcDbEntity
  8
hidden
100
AcDbEllipse
 10
15.15000000000001
 20
-120.4725571998477
 30
0.0
 11
2.000000000000004
 21
1.278976924368180E-13
 31
0.0
210
0.0
220
0.0
230
1.0
 40
0.9996580555840763
 41
1.570796326794836
 42
3.14159265358973
  0
LINE
  5
B8
330
74
100
AcDbEntity
  8
hidden
100
AcDbLine
 10
19.85
 20
-118.487634015612
 30
0.0
 11
19.85
 21
-118.4732410886796
 31
0.0
  0
ELLIPSE
  5
B9
330
74
100
AcDbEntity
  8
hidden
100
AcDbEllipse
 10
19.84999999999999
 20
-120.4725571998477
 30
0.0
 11
2.000000000000004
 21
-1.266111943170770E-13
 31
0.0
210
0.0
220
0.0
230
1.0
 40
0.9996580555840763
 41
0.0000000000000633
 42
1.570796326794956
  0
LINE
  5
BA
330
74
100
AcDbEntity
  8
hidden
100
AcDbLine
 10
21.85
 20
-120.4859323472223
 30
0.0
 11
21.85
 21
-120.4725571998477
 31
0.0
  0
LINE
  5
BB
330
74
100
AcDbEntity
  8
hidden
100
AcDbLine
 10
10.5
 20
-118.1790340686087
 30
0.0
 11
9.000000000000002
 21
-118.1790340686087
 31
0.0
  0
LINE
  5
BC
330
74
100
AcDbEntity
  8
hidden
100
AcDbLine
 10
26.0
 20
-118.1790340686087
 30
0.0
 11
24.5
 21
-118.1790340686087
 31
0.0
  0
LINE
  5
BD
330
74
100
AcDbEntity
  8
hidden
100
AcDbLine
 10
26.0
 20
-118.1735532505742
 30
0.0
 11
9.000000000000002
 21
-118.1735532505742
 31
0.0
  0
LINE
  5
BE
330
74
100
AcDbEntity
  8
hidden
100
AcDbLine
 10
26.0
 20
-118.1878410836452
 30
0.0
 11
24.5
 21
-118.1878410836452
 31
0.0
  0
LINE
  5
BF
330
74
100
AcDbEntity
  8
hidden
100
AcDbLine
 10
10.5
 20
-118.1878410836452
 30
0.0
 11
9.000000000000002
 21
-118.1878410836452
 31
0.0
  0
LINE
  5
C0
330
74
100
AcDbEntity
  8
hidden
100
AcDbLine
 10
10.5
 20
-109.5797612808162
 30
0.0
 11
9.000000000000002
 21
-109.5797612808162
 31
0.0
  0
LINE
  5
C1
330
74
100
AcDbEntity
  8
hidden
100
AcDbLine
 10
26.0
 20
-109.5797612808162
 30
0.0
 11
24.5
 21
-109.5797612808162
 31
0.0
  0
LINE
  5
C2
330
74
100
AcDbEntity
  8
hidden
100
AcDbLine
 10
26.0
 20
-110.4801046738746
 30
0.0
 11
9.000000000000002
 21
-110.4801046738746
 31
0.0
  0
ELLIPSE
  5
C3
330
74
100
AcDbEntity
  8
hidden
100
AcDbEllipse
 10
15.22000000000001
 20
-120.4725571998477
 30
0.0
 11
-1.39999999999999
 21
4.244874332960628E-14
 31
0.0
210
0.0
220
0.0
230
1.0
 40
0.9996580555840772
 41
0.0000000000000303
 42
3.141592653589823
  0
ELLIPSE
  5
C4
330
74
100
AcDbEntity
  8
hidden
100
AcDbEllipse
 10
19.79000000000001
 20
-120.4725571998477
 30
0.0
 11
-1.399999999999988
 21
4.244874332960622E-14
 31
0.0
210
0.0
220
0.0
230
1.0
 40
0.9996580555840785
 41
0.0000000000000303
 42
3.141592653589823
  0
LINE
  5
C7
330
74
100
AcDbEntity
  8
center
100
AcDbLine
 10
8.150000000000002
 20
-109.4371240074684
 30
0.0
 11
26.85
 21
-109.4371240074684
 31
0.0
  0
LINE
  5
C8
330
74
100
AcDbEntity
  8
center
100
AcDbLine
 10
13.75000000000004
 20
-120.4725571998478
 30
0.0
 11
16.68999999999999
 21
-120.4725571998478
 31
0.0
  0
LINE
  5
C9
330
74
100
AcDbEntity
  8
center
100
AcDbLine
 10
15.22000000000002
 20
-121.9425571998477
 30
0.0
 11
15.22000000000002
 21
-119.0025571998478
 31
0.0
  0
LINE
  5
CA
330
74
100
AcDbEntity
  8
center
100
AcDbLine
 10
18.32000000000003
 20
-120.4725571998477
 30
0.0
 11
21.26
 21
-120.4725571998477
 31
0.0
  0
LINE
  5
CB
330
74
100
AcDbEntity
  8
center
100
AcDbLine
 10
19.79000000000001
 20
-121.9425571998477
 30
0.0
 11
19.79000000000001
 21
-119.0025571998478
 31
0.0
  0
LINE
  5
CD
330
74
100
AcDbEntity
  8
bold
100
AcDbLine
 10
26.0
 20
-122.0
 30
0.0
 11
24.5
 21
-122.0
 31
0.0
  0
LINE
  5
CE
330
74
100
AcDbEntity
  8
bold
100
AcDbLine
 10
24.5
 20
-129.0
 30
0.0
 11
26.0
 21
-129.0
 31
0.0
  0
LINE
  5
CF
330
74
100
AcDbEntity
  8
bold
100
AcDbLine
 10
10.5
 20
-122.0
 30
0.0
 11
9.499999999999998
 21
-122.0
 31
0.0
  0
LINE
  5
D0
330
74
100
AcDbEntity
  8
bold
100
AcDbLine
 10
9.499999999999998
 20
-129.0
 30
0.0
 11
10.5
 21
-129.0
 31
0.0
  0
LINE
  5
D1
330
74
100
AcDbEntity
  8
bold
100
AcDbLine
 10
24.5
 20
-136.0703822864245
 30
0.0
 11
10.5
 21
-136.0703822864245
 31
0.0
  0
LINE
  5
D3
330
74
100
AcDbEntity
  8
light
100
AcDbLine
 10
24.5
 20
-127.4449741823843
 30
0.0
 11
10.5
 21
-127.4449741823843
 31
0.0
  0
LINE
  5
D4
330
74
100
AcDbEntity
  8
bold
100
AcDbLine
 10
24.5
 20
-130.2367526569838
 30
0.0
 11
10.5
 21
-130.2367526569838
 31
0.0
  0
LINE
  5
D5
330
74
100
AcDbEntity
  8
bold
100
AcDbLine
 10
24.5
 20
-127.4645859568335
 30
0.0
 11
10.5
 21
-127.4645859568335
 31
0.0
  0
LINE
  5
D6
330
74
100
AcDbEntity
  8
bold
100
AcDbLine
 10
13.82
 20
-120.4202591346499
 30
0.0
 11
13.82
 21
-120.4725571998477
 31
0.0
  0
LINE
  5
D7
330
74
100
AcDbEntity
  8
bold
100
AcDbLine
 10
16.62
 20
-120.4725571998477
 30
0.0
 11
16.62
 21
-120.4202591346499
 31
0.0
  0
ELLIPSE
  5
D8
330
74
100
AcDbEntity
  8
bold
100
AcDbEllipse
 10
15.22
 20
-120.4202591346498
 30
0.0
 11
-1.399999999999988
 21
1.714505518806280E-16
 31
0.0
210
0.0
220
0.0
230
1.0
 40
0.9996580555840785
 41
3.141592653589773
 42
6.283185307179607
  0
LINE
  5
D9
330
74
100
AcDbEntity
  8
bold
100
AcDbLine
 10
18.39
 20
-120.4202591346499
 30
0.0
 11
18.39
 21
-120.4725571998477
 31
0.0
  0
LINE
  5
DA
330
74
100
AcDbEntity
  8
bold
100
AcDbLine
 10
21.19
 20
-120.4725571998477
 30
0.0
 11
21.19
 21
-120.4202591346499
 31
0.0
  0
ELLIPSE
  5
DB
330
74
100
AcDbEntity
  8
bold
100
AcDbEllipse
 10
19.79
 20
-120.4202591346499
 30
0.0
 11
-1.400000000000016
 21
1.139471061154680E-13
 31
0.0
210
0.0
220
0.0
230
1.0
 40
0.9996580555840785
 41
3.95990787423179
 42
6.283185307179657
  0
ELLIPSE
  5
DC
330
74
100
AcDbEntity
  8
bold
100
AcDbEllipse
 10
19.78999999999984
 20
-120.4202591346499
 30
0.0
 11
-1.400000000000158
 21
-1.217817576900974E-11
 31
0.0
210
0.0
220
0.0
230
1.0
 40
0.9996580555840785
 41
3.141592653581102
 42
3.376372081665353
  0
ELLIPSE
  5
DD
330
74
100
AcDbEntity
  8
bold
100
AcDbEllipse
 10
19.69999999999999
 20
-120.4202591346499
 30
0.0
 11
-1.500000000000014
 21
-2.366088940379169E-11
 31
0.0
210
0.0
220
0.0
230
1.0
 40
0.9996580555840827
 41
2.887704010225423
 42
3.124153117570667
  0
ELLIPSE
  5
DE
330
74
100
AcDbEntity
  8
bold
100
AcDbEllipse
 10
19.70000000000001
 20
-120.4202591346499
 30
0.0
 11
-1.500000000000004
 21
-8.441529745656503E-14
 31
0.0
210
0.0
220
0.0
230
1.0
 40
0.9996580555840803
 41
0.0174395358517563
 42
2.334707417103766
  0
ELLIPSE
  5
DF
330
74
100
AcDbEntity
  8
bold
100
AcDbEllipse
 10
15.3
 20
-120.4202591346499
 30
0.0
 11
-1.500000000000009
 21
2.816131724042621E-14
 31
0.0
210
0.0
220
0.0
230
1.0
 40
0.9996580555840767
 41
0.017439535225467
 42
3.124153118457632
  0
LINE
  5
E0
330
74
100
AcDbEntity
  8
bold
100
AcDbLine
 10
19.85
 20
-122.4718733110159
 30
0.0
 11
15.15
 21
-122.4718733110159
 31
0.0
  0
LINE
  5
E1
330
74
100
AcDbEntity
  8
bold
100
AcDbLine
 10
19.85
 20
-122.4795573039009
 30
0.0
 11
15.15
 21
-122.4795573039009
 31
0.0
  0
LINE
  5
E2
330
74
100
AcDbEntity
  8
bold
100
AcDbLine
 10
24.5
 20
-125.9650988734574
 30
0.0
 11
10.5
 21
-125.9650988734574
 31
0.0
  0
LWPOLYLINE
  5
E3
330
74
100
AcDbEntity
  8
bold
100
AcDbPolyline
 90
       16
 70
     0
 43
0.0
 10
15.15
 20
-122.4795573039009
 10
14.97568851450469
 20
-122.4719782323466
 10
14.80270364466614
 20
-122.4492986989947
 10
14.63236190979496
 20
-122.4116913087883
 10
14.46595971334867
 20
-122.3594422766747
 10
14.3047634765186
 20
-122.2929492493373
 10
14.15
 20
-122.2127182788636
 10
14.00284712729791
 20
-122.1193599713837
 10
13.86442478062692
 20
-122.0135848399888
 10
13.73578643762691
 20
-121.8961978972977
 10
13.61791111376204
 20
-121.7680925288243
 10
13.51169591142202
 20
-121.6302436937749
 10
13.41794919243113
 20
-121.4837005050196
 10
13.3373844259267
 20
-121.32957824471
 10
13.27061475842818
 20
-121.1690498763087
 10
13.23611118170007
 20
-121.065980899127
  0
LINE
  5
E4
330
74
100
AcDbEntity
  8
light
100
AcDbLine
 10
15.15
 20
-122.4795573039009
 30
0.0
 11
15.15
 21
-122.4718733110159
 31
0.0
  0
ELLIPSE
  5
E5
330
74
100
AcDbEntity
  8
bold
100
AcDbEllipse
 10
15.14999999999999
 20
-120.4725571998477
 30
0.0
 11
1.999999999999988
 21
-1.141766964412743E-13
 31
0.0
210
0.0
220
0.0
230
1.0
 40
0.9996580555840772
 41
3.14159265358985
 42
4.712388980384755
  0
LWPOLYLINE
  5
E6
330
74
100
AcDbEntity
  8
bold
100
AcDbPolyline
 90
       19
 70
     0
 43
0.0
 10
13.15
 20
-120.4859323472223
 10
13.15761060381651
 20
-120.3117691718994
 10
13.18038449397559
 20
-120.1389314835033
 10
13.21814834742186
 20
-119.9687346812049
 10
13.27061475842818
 20
-119.8024740654375
 10
13.3373844259267
 20
-119.6414149798778
 10
13.41794919243112
 20
-119.4867831814171
 10
13.51169591142202
 20
-119.339755511411
 10
13.61791111376204
 20
-119.2014509392059
 10
13.7357864376269
 20
-119.0729220461069
 10
13.86442478062692
 20
-118.9551470145983
 10
14.00284712729791
 20
-118.8490221837844
 10
14.15
 20
-118.7553552277077
 10
14.3047634765186
 20
-118.6748590084615
 10
14.46595971334866
 20
-118.6081461508793
 10
14.63236190979496
 20
-118.5557243800895
 10
14.80270364466614
 20
-118.5179926574211
 10
14.97568851450468
 20
-118.4952381440665
 10
15.14999987355946
 20
-118.487634015612
  0
LINE
  5
E7
330
74
100
AcDbEntity
  8
light
100
AcDbLine
 10
19.85
 20
-122.4795573039009
 30
0.0
 11
19.85
 21
-122.4718733110159
 31
0.0
  0
LWPOLYLINE
  5
E8
330
74
100
AcDbEntity
  8
bold
100
AcDbPolyline
 90
       16
 70
     0
 43
0.0
 10
21.76388881829993
 20
-121.065980899127
 10
21.70600828097757
 20
-121.2298962015894
 10
21.63400239994852
 20
-121.3881640364979
 10
21.54841918344577
 20
-121.539579890064
 10
21.44990997142346
 20
-121.6829913962147
 10
21.33922447846655
 20
-121.8173071067941
 10
21.21720508801019
 20
-121.9415047981426
 10
21.08478044129307
 20
-122.0546392508363
 10
20.94295836983689
 20
-122.1558494433779
 10
20.79281822523995
 20
-122.2443651050897
 10
20.63550266465973
 20
-122.3195125783388
 10
20.47220895450196
 20
-122.3807199454786
 10
20.3041798585004
 20
-122.4275213814871
 10
20.13269417953435
 20
-122.4595606991767
 10
19.95905702716663
 20
-122.4765940599941
 10
19.85
 20
-122.4795573039009
  0
ELLIPSE
  5
E9
330
74
100
AcDbEntity
  8
bold
100
AcDbEllipse
 10
19.85000000000002
 20
-120.4725571998477
 30
0.0
 11
1.999999999999986
 21
1.136868377216160E-13
 31
0.0
210
0.0
220
0.0
230
1.0
 40
0.999658055584078
 41
4.712388980384625
 42
6.283185307179529
  0
LWPOLYLINE
  5
EA
330
74
100
AcDbEntity
  8
bold
100
AcDbPolyline
 90
        5
 70
     0
 43
0.0
 10
21.85
 20
-120.4859323472223
 10
21.84238939618349
 20
-120.6600955225451
 10
21.81961550602442
 20
-120.8329332109412
 10
21.78185165257814
 20
-121.0031300132396
 10
21.76388881829993
 20
-121.065980899127
  0
LINE
  5
EB
330
74
100
AcDbEntity
  8
bold
100
AcDbLine
 10
10.5
 20
-118.19970723449
 30
0.0
 11
10.5
 21
-136.0703822864245
 31
0.0
  0
LINE
  5
EC
330
74
100
AcDbEntity
  8
bold
100
AcDbLine
 10
24.5
 20
-118.19970723449
 30
0.0
 11
24.5
 21
-136.0703822864245
 31
0.0
  0
LINE
  5
ED
330
74
100
AcDbEntity
  8
bold
100
AcDbLine
 10
13.23611118170008
 20
-121.065980899127
 30
0.0
 11
10.5
 21
-121.065980899127
 31
0.0
  0
LWPOLYLINE
  5
EE
330
74
100
AcDbEntity
  8
bold
100
AcDbPolyline
 90
        5
 70
     0
 43
0.0
 10
13.23611118170007
 20
-121.065980899127
 10
13.19279649392263
 20
-120.8971091623606
 10
13.16437730661823
 20
-120.7251081217555
 10
13.15106990696223
 20
-120.551286809088
 10
13.15
 20
-120.4859323472223
  0
LINE
  5
EF
330
74
100
AcDbEntity
  8
bold
100
AcDbLine
 10
15.15
 20
-118.487634015612
 30
0.0
 11
19.85
 21
-118.487634015612
 31
0.0
  0
LWPOLYLINE
  5
F0
330
74
100
AcDbEntity
  8
bold
100
AcDbPolyline
 90
       19
 70
     0
 43
0.0
 10
19.85000012644054
 20
-118.487634015612
 10
20.02431161145472
 20
-118.4952381550771
 10
20.19729647985349
 20
-118.5179926793586
 10
20.36763821233723
 20
-118.5557244127869
 10
20.53404040546658
 20
-118.6081461940877
 10
20.69523663807545
 20
-118.6748590618521
 10
20.85000010950072
 20
-118.7553552908742
 10
20.99715297627612
 20
-118.849022256246
 10
21.13557531623215
 20
-118.9551470958035
 10
21.26421365178006
 20
-119.0729221354377
 10
21.38208896751237
 20
-119.2014510359825
 10
21.48830416110129
 20
-119.3397556148969
 10
21.58205087078914
 20
-119.4867832908247
 10
21.66261562750938
 20
-119.6414150943743
 10
21.72938528481702
 20
-119.8024741841516
 10
21.78185168530336
 20
-119.9687348032332
 10
21.81961552798058
 20
-120.1389316079169
 10
21.84238940720351
 20
-120.3117692977516
 10
21.85
 20
-120.4859323472223
  0
LINE
  5
F1
330
74
100
AcDbEntity
  8
bold
100
AcDbLine
 10
24.5
 20
-121.065980899127
 30
0.0
 11
21.76388881829993
 21
-121.065980899127
 31
0.0
  0
ARC
  5
F2
330
74
100
AcDbEntity
  8
bold
100
AcDbCircle
 10
15.22
 20
-120.4725571998477
 30
0.0
 40
1.400000000000002
100
AcDbArc
 50
180.0
 51
0.0
  0
ELLIPSE
  5
F3
330
74
100
AcDbEntity
  8
light
100
AcDbEllipse
 10
15.22
 20
-120.4725571998477
 30
0.0
 11
-1.400000000000002
 21
1.714505518806297E-16
 31
0.0
210
0.0
220
0.0
230
1.0
 40
0.9996580555840785
 41
3.141592653589793
 42
6.283185307179586
  0
ARC
  5
F4
330
74
100
AcDbEntity
  8
bold
100
AcDbCircle
 10
19.79
 20
-120.4725571998477
 30
0.0
 40
1.399999999999999
100
AcDbArc
 50
180.0
 51
0.0
  0
ELLIPSE
  5
F5
330
74
100
AcDbEntity
  8
light
100
AcDbEllipse
 10
19.79
 20
-120.4725571998477
 30
0.0
 11
-1.400000000000002
 21
1.714505518806297E-16
 31
0.0
210
0.0
220
0.0
230
1.0
 40
0.9996580555840785
 41
3.141592653589793
 42
6.283185307179586
  0
LINE
  5
F6
330
74
100
AcDbEntity
  8
bold
100
AcDbLine
 10
26.0
 20
-116.8746593350275
 30
0.0
 11
9.000000000000002
 21
-116.8746593350275
 31
0.0
  0
LINE
  5
F7
330
74
100
AcDbEntity
  8
bold
100
AcDbLine
 10
26.0
 20
-118.19970723449
 30
0.0
 11
9.000000000000002
 21
-118.19970723449
 31
0.0
  0
LINE
  5
F8
330
74
100
AcDbEntity
  8
bold
100
AcDbLine
 10
26.0
 20
-116.9008133189433
 30
0.0
 11
9.000000000000002
 21
-116.9008133189433
 31
0.0
  0
LINE
  5
F9
330
74
100
AcDbEntity
  8
bold
100
AcDbLine
 10
26.0
 20
-95.10504998036501
 30
0.0
 11
26.0
 21
-99.36009778239038
 31
0.0
  0
LINE
  5
FA
330
74
100
AcDbEntity
  8
bold
100
AcDbLine
 10
26.0
 20
-110.5062586577904
 30
0.0
 11
9.000000000000002
 21
-110.5062586577904
 31
0.0
  0
LINE
  5
FB
330
74
100
AcDbEntity
  8
bold
100
AcDbLine
 10
9.000000000000002
 20
-95.10504998036501
 30
0.0
 11
9.000000000000002
 21
-118.19970723449
 31
0.0
  0
LINE
  5
FC
330
74
100
AcDbEntity
  8
bold
100
AcDbLine
 10
26.0
 20
-95.4417998064051
 30
0.0
 11
9.000000000000002
 21
-95.4417998064051
 31
0.0
  0
LINE
  5
FD
330
74
100
AcDbEntity
  8
bold
100
AcDbLine
 10
26.0
 20
-95.10504998036501
 30
0.0
 11
9.000000000000002
 21
-95.10504998036501
 31
0.0
  0
ELLIPSE
  5
FE
330
74
100
AcDbEntity
  8
bold
100
AcDbEllipse
 10
19.7
 20
-120.4725571998477
 30
0.0
 11
-1.499999999999993
 21
1.836970198721021E-16
 31
0.0
210
0.0
220
0.0
230
1.0
 40
0.999658055584078
 41
0.0
 42
6.283185307179586
  0
ELLIPSE
  5
FF
330
74
100
AcDbEntity
  8
bold
100
AcDbEllipse
 10
15.3
 20
-120.4725571998477
 30
0.0
 11
-1.499999999999993
 21
1.836970198721021E-16
 31
0.0
210
0.0
220
0.0
230
1.0
 40
0.999658055584078
 41
0.0
 42
6.283185307179586
  0
ENDBLK
  5
77
330
74
100
AcDbEntity
  8
0
100
AcDbBlockEnd
  0
BLOCK
  5
102
330
100
100
AcDbEntity
  8
0
100
AcDbBlockBegin
  2
2_79172000_0_in_31955_0
 70
     2
 10
0.0
 20
0.0
 30
0.0
  3
2_79172000_0_in_31955_0
  1

  0
ATTDEF
  5
104
330
100
100
AcDbEntity
  8
attrib
100
AcDbText
 10
16.0
 20
34.0
 30
0.0
 40
0.5
  1
79172000
100
AcDbAttributeDefinition
  3

  2
NB
 70
     8
280
     0
  0
ATTDEF
  5
105
330
100
100
AcDbEntity
  8
attrib
100
AcDbText
 10
16.0
 20
33.5
 30
0.0
 40
0.5
  1
AMBUS60 Holder for cylindrical fuse part
100
AcDbAttributeDefinition
  3

  2
NN
 70
     8
280
     0
  0
ATTDEF
  5
106
330
100
100
AcDbEntity
  8
attrib
100
AcDbText
 10
16.0
 20
33.0
 30
0.0
 40
0.5
  1

100
AcDbAttributeDefinition
  3

  2
NT
 70
     8
280
     0
  0
ATTDEF
  5
107
330
100
100
AcDbEntity
  8
attrib
100
AcDbText
 10
16.0
 20
32.5
 30
0.0
 40
0.5
  1
$ARTNR.
100
AcDbAttributeDefinition
  3

  2
NBSYN
 70
     8
280
     0
  0
ATTDEF
  5
108
330
100
100
AcDbEntity
  8
attrib
100
AcDbText
 10
16.0
 20
32.0
 30
0.0
 40
0.5
  1
79172000
100
AcDbAttributeDefinition
  3

  2
LINA
 70
     8
280
     0
  0
ATTDEF
  5
109
330
100
100
AcDbEntity
  8
attrib
100
AcDbText
 10
16.0
 20
31.5
 30
0.0
 40
0.5
  1
Wöhner
100
AcDbAttributeDefinition
  3

  2
CATALOG
 70
     8
280
     0
  0
ATTDEF
  5
10A
330
100
100
AcDbEntity
  8
attrib
100
AcDbText
 10
16.0
 20
31.0
 30
0.0
 40
0.5
  1
79172000
100
AcDbAttributeDefinition
  3

  2
ARTNR
 70
     8
280
     0
  0
ATTDEF
  5
10B
330
100
100
AcDbEntity
  8
attrib
100
AcDbText
 10
16.0
 20
30.5
 30
0.0
 40
0.5
  1
AMBUS®60Classic
100
AcDbAttributeDefinition
  3

  2
POF
 70
     8
280
     0
  0
ATTDEF
  5
10C
330
100
100
AcDbEntity
  8
attrib
100
AcDbText
 10
16.0
 20
30.0
 30
0.0
 40
0.5
  1
2
100
AcDbAttributeDefinition
  3

  2
VER
 70
     8
280
     0
  0
ATTDEF
  5
10D
330
100
100
AcDbEntity
  8
attrib
100
AcDbText
 10
16.0
 20
29.5
 30
0.0
 40
0.5
  1
woehner
100
AcDbAttributeDefinition
  3

  2
COMPANY
 70
     8
280
     0
  0
ATTDEF
  5
10E
330
100
100
AcDbEntity
  8
attrib
100
AcDbText
 10
16.0
 20
29.0
 30
0.0
 40
0.5
  1
{$CADENAS_DATA/23d-libs/woehner/sys_60classic/fuse_holders_iec_en/parts/holder_cylindrical_fuse_ambus_iec_v2_part3.prj},191 {VTYP=3D},{NB=79172000},{LINA=79172000},{NN=AMBUS60 Holder for cylindrical fuse part},{DATE=26.01.2024 06:39:58},{GEOMDATE=28.12.20
100
AcDbAttributeDefinition
  3

  2
PSOL_0
 70
     9
280
     0
  0
ATTDEF
  5
10F
330
100
100
AcDbEntity
  8
attrib
100
AcDbText
 10
16.0
 20
28.5
 30
0.0
 40
0.5
  1
22 12:33:00},{VERSION=},{LINEID=920},{WBVAR=},{WBNUMERIC=}  {NB=79172000},{LINA=79172000},{KT=DUMMY},{ARTNR=79172000},{POF=AMBUS®60Classic},{VER=2}
100
AcDbAttributeDefinition
  3

  2
PSOL_1
 70
     9
280
     0
  0
LINE
  5
110
330
100
100
AcDbEntity
  8
hidden
100
AcDbLine
 10
1.0
 20
30.05000000000002
 30
0.0
 11
11.0
 21
30.05
 31
0.0
  0
LINE
  5
111
330
100
100
AcDbEntity
  8
hidden
100
AcDbLine
 10
11.0
 20
29.5
 30
0.0
 11
11.0
 21
30.05
 31
0.0
  0
LINE
  5
112
330
100
100
AcDbEntity
  8
hidden
100
AcDbLine
 10
8.0
 20
-161.5
 30
0.0
 11
0.0
 21
-161.5
 31
0.0
  0
LINE
  5
113
330
100
100
AcDbEntity
  8
hidden
100
AcDbLine
 10
11.0
 20
29.5
 30
0.0
 11
0.0
 21
29.5
 31
0.0
  0
LINE
  5
114
330
100
100
AcDbEntity
  8
hidden
100
AcDbLine
 10
9.999999999999998
 20
-88.85000000000001
 30
0.0
 11
11.0
 21
-88.85000000000001
 31
0.0
  0
LINE
  5
115
330
100
100
AcDbEntity
  8
hidden
100
AcDbLine
 10
9.999999999999998
 20
-85.45
 30
0.0
 11
11.0
 21
-85.45
 31
0.0
  0
LINE
  5
116
330
100
100
AcDbEntity
  8
hidden
100
AcDbLine
 10
9.999999999999998
 20
-143.85
 30
0.0
 11
11.0
 21
-143.85
 31
0.0
  0
LINE
  5
117
330
100
100
AcDbEntity
  8
hidden
100
AcDbLine
 10
9.999999999999998
 20
-142.45
 30
0.0
 11
11.0
 21
-142.45
 31
0.0
  0
LINE
  5
118
330
100
100
AcDbEntity
  8
hidden
100
AcDbLine
 10
9.999999999999998
 20
-25.45
 30
0.0
 11
11.0
 21
-25.45
 31
0.0
  0
LINE
  5
119
330
100
100
AcDbEntity
  8
hidden
100
AcDbLine
 10
9.999999999999998
 20
-28.85
 30
0.0
 11
11.0
 21
-28.85
 31
0.0
  0
LINE
  5
11A
330
100
100
AcDbEntity
  8
hidden
100
AcDbLine
 10
9.999999999999998
 20
-145.85
 30
0.0
 11
9.999999999999998
 21
-140.45
 31
0.0
  0
LINE
  5
11B
330
100
100
AcDbEntity
  8
hidden
100
AcDbLine
 10
9.999999999999998
 20
-30.85
 30
0.0
 11
9.999999999999998
 21
-23.45
 31
0.0
  0
LINE
  5
11C
330
100
100
AcDbEntity
  8
hidden
100
AcDbLine
 10
9.999999999999998
 20
-90.85000000000001
 30
0.0
 11
9.999999999999998
 21
-83.45
 31
0.0
  0
LINE
  5
11D
330
100
100
AcDbEntity
  8
hidden
100
AcDbLine
 10
1.0
 20
-160.95
 30
0.0
 11
8.0
 21
-160.95
 31
0.0
  0
LINE
  5
11E
330
100
100
AcDbEntity
  8
hidden
100
AcDbLine
 10
1.0
 20
-160.95
 30
0.0
 11
1.0
 21
30.05000000000002
 31
0.0
  0
LINE
  5
11F
330
100
100
AcDbEntity
  8
bold
100
AcDbLine
 10
8.0
 20
34.0
 30
0.0
 11
0.0
 21
34.0
 31
0.0
  0
LINE
  5
120
330
100
100
AcDbEntity
  8
bold
100
AcDbLine
 10
0.0
 20
-166.0
 30
0.0
 11
0.0
 21
34.0
 31
0.0
  0
LINE
  5
121
330
100
100
AcDbEntity
  8
bold
100
AcDbLine
 10
8.0
 20
-166.0
 30
0.0
 11
0.0
 21
-166.0
 31
0.0
  0
LINE
  5
122
330
100
100
AcDbEntity
  8
bold
100
AcDbLine
 10
8.0
 20
30.99999999999997
 30
0.0
 11
0.0
 21
30.99999999999997
 31
0.0
  0
LINE
  5
123
330
100
100
AcDbEntity
  8
bold
100
AcDbLine
 10
8.0
 20
-145.85
 30
0.0
 11
11.0
 21
-145.85
 31
0.0
  0
LINE
  5
124
330
100
100
AcDbEntity
  8
bold
100
AcDbLine
 10
11.0
 20
-145.85
 30
0.0
 11
11.0
 21
-140.45
 31
0.0
  0
LINE
  5
125
330
100
100
AcDbEntity
  8
bold
100
AcDbLine
 10
11.0
 20
-140.45
 30
0.0
 11
8.0
 21
-140.45
 31
0.0
  0
LINE
  5
126
330
100
100
AcDbEntity
  8
bold
100
AcDbLine
 10
8.0
 20
-93.6885
 30
0.0
 11
8.0
 21
-90.85000000000004
 31
0.0
  0
LINE
  5
127
330
100
100
AcDbEntity
  8
bold
100
AcDbLine
 10
8.0
 20
-140.45
 30
0.0
 11
8.0
 21
-135.1957977168863
 31
0.0
  0
LINE
  5
128
330
100
100
AcDbEntity
  8
bold
100
AcDbLine
 10
8.0
 20
-90.85000000000004
 30
0.0
 11
11.0
 21
-90.85000000000001
 31
0.0
  0
LINE
  5
129
330
100
100
AcDbEntity
  8
bold
100
AcDbLine
 10
11.0
 20
-90.85000000000001
 30
0.0
 11
11.0
 21
-83.45
 31
0.0
  0
LINE
  5
12A
330
100
100
AcDbEntity
  8
bold
100
AcDbLine
 10
11.0
 20
-83.45
 30
0.0
 11
8.0
 21
-83.45000000000002
 31
0.0
  0
LINE
  5
12B
330
100
100
AcDbEntity
  8
bold
100
AcDbLine
 10
8.0
 20
-33.8
 30
0.0
 11
8.0
 21
-30.85000000000004
 31
0.0
  0
LINE
  5
12C
330
100
100
AcDbEntity
  8
bold
100
AcDbLine
 10
8.0
 20
-83.45000000000002
 30
0.0
 11
8.0
 21
-75.30729771688632
 31
0.0
  0
LINE
  5
12D
330
100
100
AcDbEntity
  8
bold
100
AcDbLine
 10
8.0
 20
-30.85000000000004
 30
0.0
 11
11.0
 21
-30.85
 31
0.0
  0
LINE
  5
12E
330
100
100
AcDbEntity
  8
bold
100
AcDbLine
 10
11.0
 20
-30.85
 30
0.0
 11
11.0
 21
-23.45
 31
0.0
  0
LINE
  5
12F
330
100
100
AcDbEntity
  8
bold
100
AcDbLine
 10
11.0
 20
-23.45
 30
0.0
 11
8.0
 21
-23.45000000000005
 31
0.0
  0
LINE
  5
130
330
100
100
AcDbEntity
  8
bold
100
AcDbLine
 10
8.0
 20
25.70000000000001
 30
0.0
 11
8.0
 21
34.0
 31
0.0
  0
LINE
  5
131
330
100
100
AcDbEntity
  8
bold
100
AcDbLine
 10
8.0
 20
-23.45000000000005
 30
0.0
 11
8.0
 21
-15.80729771688633
 31
0.0
  0
LINE
  5
132
330
100
100
AcDbEntity
  8
bold
100
AcDbLine
 10
8.0
 20
-163.0
 30
0.0
 11
0.0
 21
-163.0
 31
0.0
  0
LINE
  5
133
330
100
100
AcDbEntity
  8
bold
100
AcDbLine
 10
8.0
 20
-166.0
 30
0.0
 11
8.0
 21
-145.85
 31
0.0
  0
ENDBLK
  5
103
330
100
100
AcDbEntity
  8
0
100
AcDbBlockEnd
  0
BLOCK
  5
136
330
134
100
AcDbEntity
  8
0
100
AcDbBlockBegin
  2
3_79169000_0_in_31955_0
 70
     2
 10
0.0
 20
0.0
 30
0.0
  3
3_79169000_0_in_31955_0
  1

  0
ATTDEF
  5
138
330
134
100
AcDbEntity
  8
attrib
100
AcDbText
 10
32.0
 20
27.255
 30
0.0
 40
0.5
  1
79169000
100
AcDbAttributeDefinition
  3

  2
NB
 70
     8
280
     0
  0
ATTDEF
  5
139
330
134
100
AcDbEntity
  8
attrib
100
AcDbText
 10
32.0
 20
26.755
 30
0.0
 40
0.5
  1
AMBUS60 Holder for cylindrical fuse part
100
AcDbAttributeDefinition
  3

  2
NN
 70
     8
280
     0
  0
ATTDEF
  5
13A
330
134
100
AcDbEntity
  8
attrib
100
AcDbText
 10
32.0
 20
26.255
 30
0.0
 40
0.5
  1

100
AcDbAttributeDefinition
  3

  2
NT
 70
     8
280
     0
  0
ATTDEF
  5
13B
330
134
100
AcDbEntity
  8
attrib
100
AcDbText
 10
32.0
 20
25.755
 30
0.0
 40
0.5
  1
$ARTNR.
100
AcDbAttributeDefinition
  3

  2
NBSYN
 70
     8
280
     0
  0
ATTDEF
  5
13C
330
134
100
AcDbEntity
  8
attrib
100
AcDbText
 10
32.0
 20
25.255
 30
0.0
 40
0.5
  1
79169000
100
AcDbAttributeDefinition
  3

  2
LINA
 70
     8
280
     0
  0
ATTDEF
  5
13D
330
134
100
AcDbEntity
  8
attrib
100
AcDbText
 10
32.0
 20
24.755
 30
0.0
 40
0.5
  1
Wöhner
100
AcDbAttributeDefinition
  3

  2
CATALOG
 70
     8
280
     0
  0
ATTDEF
  5
13E
330
134
100
AcDbEntity
  8
attrib
100
AcDbText
 10
32.0
 20
24.255
 30
0.0
 40
0.5
  1
79169000
100
AcDbAttributeDefinition
  3

  2
ARTNR
 70
     8
280
     0
  0
ATTDEF
  5
13F
330
134
100
AcDbEntity
  8
attrib
100
AcDbText
 10
32.0
 20
23.755
 30
0.0
 40
0.5
  1
AMBUS®60Classic
100
AcDbAttributeDefinition
  3

  2
POF
 70
     8
280
     0
  0
ATTDEF
  5
140
330
134
100
AcDbEntity
  8
attrib
100
AcDbText
 10
32.0
 20
23.255
 30
0.0
 40
0.5
  1
1
100
AcDbAttributeDefinition
  3

  2
VER
 70
     8
280
     0
  0
ATTDEF
  5
141
330
134
100
AcDbEntity
  8
attrib
100
AcDbText
 10
32.0
 20
22.755
 30
0.0
 40
0.5
  1
woehner
100
AcDbAttributeDefinition
  3

  2
COMPANY
 70
     8
280
     0
  0
ATTDEF
  5
142
330
134
100
AcDbEntity
  8
attrib
100
AcDbText
 10
32.0
 20
22.255
 30
0.0
 40
0.5
  1
{$CADENAS_DATA/23d-libs/woehner/sys_60classic/fuse_holders_iec_en/parts/holder_cylindrical_fuse_ambus_iec_v2_part3.prj},191 {VTYP=3D},{NB=79169000},{LINA=79169000},{NN=AMBUS60 Holder for cylindrical fuse part},{DATE=26.01.2024 06:39:58},{GEOMDATE=28.12.20
100
AcDbAttributeDefinition
  3

  2
PSOL_0
 70
     9
280
     0
  0
ATTDEF
  5
143
330
134
100
AcDbEntity
  8
attrib
100
AcDbText
 10
32.0
 20
21.755
 30
0.0
 40
0.5
  1
22 12:33:00},{VERSION=},{LINEID=380},{WBVAR=},{WBNUMERIC=}  {NB=79169000},{LINA=79169000},{KT=DUMMY},{ARTNR=79169000},{POF=AMBUS®60Classic},{VER=1}
100
AcDbAttributeDefinition
  3

  2
PSOL_1
 70
     9
280
     0
  0
LINE
  5
144
330
134
100
AcDbEntity
  8
hidden
100
AcDbLine
 10
26.0
 20
24.255
 30
0.0
 11
27.0
 21
24.255
 31
0.0
  0
LINE
  5
145
330
134
100
AcDbEntity
  8
hidden
100
AcDbLine
 10
26.0
 20
-33.745
 30
0.0
 11
27.0
 21
-33.745
 31
0.0
  0
LINE
  5
146
330
134
100
AcDbEntity
  8
hidden
100
AcDbLine
 10
26.0
 20
-71.745
 30
0.0
 11
27.0
 21
-71.745
 31
0.0
  0
LINE
  5
147
330
134
100
AcDbEntity
  8
hidden
100
AcDbLine
 10
26.0
 20
-91.745
 30
0.0
 11
27.0
 21
-91.745
 31
0.0
  0
LINE
  5
148
330
134
100
AcDbEntity
  8
hidden
100
AcDbLine
 10
26.0
 20
-13.745
 30
0.0
 11
27.0
 21
-13.745
 31
0.0
  0
LINE
  5
149
330
134
100
AcDbEntity
  8
hidden
100
AcDbLine
 10
26.0
 20
-108.332559647329
 30
0.0
 11
27.0
 21
-108.332559647329
 31
0.0
  0
LINE
  5
14A
330
134
100
AcDbEntity
  8
hidden
100
AcDbLine
 10
26.0
 20
-36.745
 30
0.0
 11
27.0
 21
-36.745
 31
0.0
  0
LINE
  5
14B
330
134
100
AcDbEntity
  8
hidden
100
AcDbLine
 10
26.0
 20
-35.745
 30
0.0
 11
27.0
 21
-35.745
 31
0.0
  0
LINE
  5
14C
330
134
100
AcDbEntity
  8
hidden
100
AcDbLine
 10
26.0
 20
21.255
 30
0.0
 11
27.0
 21
21.255
 31
0.0
  0
LINE
  5
14D
330
134
100
AcDbEntity
  8
hidden
100
AcDbLine
 10
26.0
 20
22.255
 30
0.0
 11
27.0
 21
22.255
 31
0.0
  0
LINE
  5
14E
330
134
100
AcDbEntity
  8
hidden
100
AcDbLine
 10
26.0
 20
7.66744035267098
 30
0.0
 11
27.0
 21
7.66744035267098
 31
0.0
  0
LINE
  5
14F
330
134
100
AcDbEntity
  8
hidden
100
AcDbLine
 10
26.0
 20
-94.74499999999999
 30
0.0
 11
27.0
 21
-94.74499999999999
 31
0.0
  0
LINE
  5
150
330
134
100
AcDbEntity
  8
hidden
100
AcDbLine
 10
26.0
 20
-93.74499999999999
 30
0.0
 11
27.0
 21
-93.74499999999999
 31
0.0
  0
LINE
  5
151
330
134
100
AcDbEntity
  8
hidden
100
AcDbLine
 10
26.0
 20
-50.33255964732902
 30
0.0
 11
27.0
 21
-50.33255964732902
 31
0.0
  0
LINE
  5
152
330
134
100
AcDbEntity
  8
hidden
100
AcDbLine
 10
26.0
 20
-112.7860543596074
 30
0.0
 11
27.0
 21
-112.7860543596074
 31
0.0
  0
LINE
  5
153
330
134
100
AcDbEntity
  8
hidden
100
AcDbLine
 10
26.0
 20
-54.78605435960741
 30
0.0
 11
27.0
 21
-54.78605435960741
 31
0.0
  0
LINE
  5
154
330
134
100
AcDbEntity
  8
hidden
100
AcDbLine
 10
26.0
 20
3.213945640392596
 30
0.0
 11
27.0
 21
3.213945640392596
 31
0.0
  0
LINE
  5
155
330
134
100
AcDbEntity
  8
hidden
100
AcDbLine
 10
26.0
 20
-11.745
 30
0.0
 11
27.0
 21
-11.745
 31
0.0
  0
LINE
  5
156
330
134
100
AcDbEntity
  8
hidden
100
AcDbLine
 10
26.0
 20
-6.745000000000005
 30
0.0
 11
27.0
 21
-6.745000000000005
 31
0.0
  0
LINE
  5
157
330
134
100
AcDbEntity
  8
hidden
100
AcDbLine
 10
26.0
 20
-64.74499999999999
 30
0.0
 11
27.0
 21
-64.74499999999999
 31
0.0
  0
LINE
  5
158
330
134
100
AcDbEntity
  8
hidden
100
AcDbLine
 10
26.0
 20
-122.745
 30
0.0
 11
27.0
 21
-122.745
 31
0.0
  0
LINE
  5
159
330
134
100
AcDbEntity
  8
hidden
100
AcDbLine
 10
26.0
 20
-127.0826192301988
 30
0.0
 11
27.0
 21
-127.0826192301988
 31
0.0
  0
LINE
  5
15A
330
134
100
AcDbEntity
  8
hidden
100
AcDbLine
 10
26.0
 20
26.0
 30
0.0
 11
26.0
 21
27.255
 31
0.0
  0
LINE
  5
15B
330
134
100
AcDbEntity
  8
hidden
100
AcDbLine
 10
26.0
 20
27.255
 30
0.0
 11
27.0
 21
27.255
 31
0.0
  0
LINE
  5
15C
330
134
100
AcDbEntity
  8
hidden
100
AcDbLine
 10
26.0
 20
26.255
 30
0.0
 11
27.0
 21
26.255
 31
0.0
  0
LINE
  5
15D
330
134
100
AcDbEntity
  8
hidden
100
AcDbLine
 10
26.0
 20
-134.6823858147529
 30
0.0
 11
27.0
 21
-134.6823858147529
 31
0.0
  0
LINE
  5
15E
330
134
100
AcDbEntity
  8
hidden
100
AcDbLine
 10
26.5
 20
-136.182385814753
 30
0.0
 11
27.0
 21
-136.182385814753
 31
0.0
  0
LINE
  5
15F
330
134
100
AcDbEntity
  8
hidden
100
AcDbLine
 10
11.5
 20
9.59635115763034
 30
0.0
 11
26.0
 21
9.090000000000002
 31
0.0
  0
LINE
  5
160
330
134
100
AcDbEntity
  8
hidden
100
AcDbLine
 10
26.0
 20
12.02
 30
0.0
 11
11.5
 21
11.51364884236966
 31
0.0
  0
LINE
  5
161
330
134
100
AcDbEntity
  8
hidden
100
AcDbLine
 10
11.5
 20
11.51364884236966
 30
0.0
 11
11.5
 21
9.59635115763034
 31
0.0
  0
LINE
  5
162
330
134
100
AcDbEntity
  8
hidden
100
AcDbLine
 10
11.5
 20
-110.4036488423697
 30
0.0
 11
26.0
 21
-110.91
 31
0.0
  0
LINE
  5
163
330
134
100
AcDbEntity
  8
hidden
100
AcDbLine
 10
26.0
 20
-107.98
 30
0.0
 11
11.5
 21
-108.4863511576303
 31
0.0
  0
LINE
  5
164
330
134
100
AcDbEntity
  8
hidden
100
AcDbLine
 10
11.5
 20
-108.4863511576303
 30
0.0
 11
11.5
 21
-110.4036488423697
 31
0.0
  0
LINE
  5
165
330
134
100
AcDbEntity
  8
hidden
100
AcDbLine
 10
11.5
 20
-50.40364884236966
 30
0.0
 11
26.0
 21
-50.91000000000001
 31
0.0
  0
LINE
  5
166
330
134
100
AcDbEntity
  8
hidden
100
AcDbLine
 10
26.0
 20
-47.98
 30
0.0
 11
11.5
 21
-48.48635115763035
 31
0.0
  0
LINE
  5
167
330
134
100
AcDbEntity
  8
hidden
100
AcDbLine
 10
11.5
 20
-48.48635115763035
 30
0.0
 11
11.5
 21
-50.40364884236966
 31
0.0
  0
LINE
  5
168
330
134
100
AcDbEntity
  8
hidden
100
AcDbLine
 10
26.0
 20
-94.133
 30
0.0
 11
27.0
 21
-94.133
 31
0.0
  0
LINE
  5
169
330
134
100
AcDbEntity
  8
hidden
100
AcDbLine
 10
27.0
 20
-94.13283067462791
 30
0.0
 11
26.5
 21
-94.13283067462791
 31
0.0
  0
LINE
  5
16A
330
134
100
AcDbEntity
  8
hidden
100
AcDbLine
 10
26.0
 20
-34.245
 30
0.0
 11
27.0
 21
-34.245
 31
0.0
  0
LINE
  5
16B
330
134
100
AcDbEntity
  8
hidden
100
AcDbLine
 10
27.0
 20
-34.24483067462793
 30
0.0
 11
26.5
 21
-34.24483067462793
 31
0.0
  0
LINE
  5
16C
330
134
100
AcDbEntity
  8
hidden
100
AcDbLine
 10
26.0
 20
25.255
 30
0.0
 11
27.0
 21
25.255
 31
0.0
  0
LINE
  5
16D
330
134
100
AcDbEntity
  8
hidden
100
AcDbLine
 10
27.0
 20
25.25516932537208
 30
0.0
 11
26.5
 21
25.25516932537208
 31
0.0
  0
LINE
  5
16E
330
134
100
AcDbEntity
  8
center
100
AcDbLine
 10
10.775
 20
10.555
 30
0.0
 11
26.725
 21
10.555
 31
0.0
  0
LINE
  5
16F
330
134
100
AcDbEntity
  8
center
100
AcDbLine
 10
10.775
 20
-49.445
 30
0.0
 11
26.725
 21
-49.445
 31
0.0
  0
LINE
  5
170
330
134
100
AcDbEntity
  8
center
100
AcDbLine
 10
10.775
 20
-109.445
 30
0.0
 11
26.725
 21
-109.445
 31
0.0
  0
LINE
  5
171
330
134
100
AcDbEntity
  8
bold
100
AcDbLine
 10
26.0
 20
26.0
 30
0.0
 11
26.0
 21
24.89495001963499
 31
0.0
  0
LINE
  5
172
330
134
100
AcDbEntity
  8
bold
100
AcDbLine
 10
26.0
 20
-136.182385814753
 30
0.0
 11
26.5
 21
-136.182385814753
 31
0.0
  0
LINE
  5
173
330
134
100
AcDbEntity
  8
bold
100
AcDbLine
 10
26.0
 20
-75.74499999999999
 30
0.0
 11
27.0
 21
-75.74499999999999
 31
0.0
  0
LINE
  5
174
330
134
100
AcDbEntity
  8
bold
100
AcDbLine
 10
26.0
 20
-16.245
 30
0.0
 11
27.0
 21
-16.245
 31
0.0
  0
LINE
  5
175
330
134
100
AcDbEntity
  8
light
100
AcDbLine
 10
26.0
 20
-136.0579856575069
 30
0.0
 11
27.0
 21
-136.0579856575069
 31
0.0
  0
LINE
  5
176
330
134
100
AcDbEntity
  8
bold
100
AcDbLine
 10
26.5
 20
-94.13283067462791
 30
0.0
 11
26.0
 21
-94.13283067462791
 31
0.0
  0
LINE
  5
177
330
134
100
AcDbEntity
  8
bold
100
AcDbLine
 10
26.5
 20
-34.24483067462793
 30
0.0
 11
26.0
 21
-34.24483067462793
 31
0.0
  0
LINE
  5
178
330
134
100
AcDbEntity
  8
bold
100
AcDbLine
 10
27.0
 20
-136.0710942074691
 30
0.0
 11
27.0
 21
-95.19736428790516
 31
0.0
  0
LINE
  5
179
330
134
100
AcDbEntity
  8
bold
100
AcDbLine
 10
26.0
 20
-129.633
 30
0.0
 11
27.0
 21
-129.633
 31
0.0
  0
LINE
  5
17A
330
134
100
AcDbEntity
  8
bold
100
AcDbLine
 10
27.0
 20
-93.71706622506521
 30
0.0
 11
27.0
 21
-35.31158657459246
 31
0.0
  0
LINE
  5
17B
330
134
100
AcDbEntity
  8
bold
100
AcDbLine
 10
26.0
 20
-69.745
 30
0.0
 11
27.0
 21
-69.745
 31
0.0
  0
LINE
  5
17C
330
134
100
AcDbEntity
  8
bold
100
AcDbLine
 10
26.0
 20
-10.24499999999999
 30
0.0
 11
27.0
 21
-10.24499999999999
 31
0.0
  0
LINE
  5
17D
330
134
100
AcDbEntity
  8
bold
100
AcDbLine
 10
27.0
 20
-33.82856622506519
 30
0.0
 11
27.0
 21
24.18841342540752
 31
0.0
  0
LINE
  5
17E
330
134
100
AcDbEntity
  8
bold
100
AcDbLine
 10
26.5
 20
25.25516932537208
 30
0.0
 11
26.0
 21
25.25516932537208
 31
0.0
  0
LINE
  5
17F
330
134
100
AcDbEntity
  8
bold
100
AcDbLine
 10
26.0
 20
-95.10504998036501
 30
0.0
 11
26.0
 21
-39.45942827966257
 31
0.0
  0
LINE
  5
180
330
134
100
AcDbEntity
  8
bold
100
AcDbLine
 10
26.0
 20
-37.74500000000001
 30
0.0
 11
27.0
 21
-37.74500000000001
 31
0.0
  0
LINE
  5
181
330
134
100
AcDbEntity
  8
bold
100
AcDbLine
 10
26.0
 20
-60.54499999999999
 30
0.0
 11
27.0
 21
-60.54499999999999
 31
0.0
  0
LINE
  5
182
330
134
100
AcDbEntity
  8
bold
100
AcDbLine
 10
26.0
 20
-136.182385814753
 30
0.0
 11
26.0
 21
-99.36009778239038
 31
0.0
  0
LINE
  5
183
330
134
100
AcDbEntity
  8
bold
100
AcDbLine
 10
26.0
 20
-97.63299999999998
 30
0.0
 11
27.0
 21
-97.63299999999998
 31
0.0
  0
LINE
  5
184
330
134
100
AcDbEntity
  8
bold
100
AcDbLine
 10
26.0
 20
-120.433
 30
0.0
 11
27.0
 21
-120.433
 31
0.0
  0
LINE
  5
185
330
134
100
AcDbEntity
  8
bold
100
AcDbLine
 10
26.0
 20
21.75499999999997
 30
0.0
 11
27.0
 21
21.75499999999997
 31
0.0
  0
LINE
  5
186
330
134
100
AcDbEntity
  8
bold
100
AcDbLine
 10
26.0
 20
-35.10504998036501
 30
0.0
 11
26.0
 21
20.09693077828998
 31
0.0
  0
LINE
  5
187
330
134
100
AcDbEntity
  8
bold
100
AcDbLine
 10
26.0
 20
-1.04499999999999
 30
0.0
 11
27.0
 21
-1.04499999999999
 31
0.0
  0
ENDBLK
  5
137
330
134
100
AcDbEntity
  8
0
100
AcDbBlockEnd
  0
BLOCK
  5
18A
330
188
100
AcDbEntity
  8
0
100
AcDbBlockBegin
  2
4_79602LED_2_0_in_31955_0
 70
     2
 10
0.0
 20
0.0
 30
0.0
  3
4_79602LED_2_0_in_31955_0
  1

  0
ATTDEF
  5
18C
330
188
100
AcDbEntity
  8
attrib
100
AcDbText
 10
31.85
 20
-35.10504998036501
 30
0.0
 40
0.5
  1
79602LED
100
AcDbAttributeDefinition
  3

  2
NB
 70
     8
280
     0
  0
ATTDEF
  5
18D
330
188
100
AcDbEntity
  8
attrib
100
AcDbText
 10
31.85
 20
-35.60504998036501
 30
0.0
 40
0.5
  1
AMBUS60 Holder for cylindrical fuse part
100
AcDbAttributeDefinition
  3

  2
NN
 70
     8
280
     0
  0
ATTDEF
  5
18E
330
188
100
AcDbEntity
  8
attrib
100
AcDbText
 10
31.85
 20
-36.10504998036501
 30
0.0
 40
0.5
  1

100
AcDbAttributeDefinition
  3

  2
NT
 70
     8
280
     0
  0
ATTDEF
  5
18F
330
188
100
AcDbEntity
  8
attrib
100
AcDbText
 10
31.85
 20
-36.60504998036501
 30
0.0
 40
0.5
  1
$ARTNR.
100
AcDbAttributeDefinition
  3

  2
NBSYN
 70
     8
280
     0
  0
ATTDEF
  5
190
330
188
100
AcDbEntity
  8
attrib
100
AcDbText
 10
31.85
 20
-37.10504998036501
 30
0.0
 40
0.5
  1
79602LED
100
AcDbAttributeDefinition
  3

  2
LINA
 70
     8
280
     0
  0
ATTDEF
  5
191
330
188
100
AcDbEntity
  8
attrib
100
AcDbText
 10
31.85
 20
-37.60504998036501
 30
0.0
 40
0.5
  1
Wöhner
100
AcDbAttributeDefinition
  3

  2
CATALOG
 70
     8
280
     0
  0
ATTDEF
  5
192
330
188
100
AcDbEntity
  8
attrib
100
AcDbText
 10
31.85
 20
-38.10504998036501
 30
0.0
 40
0.5
  1
79602LED
100
AcDbAttributeDefinition
  3

  2
ARTNR
 70
     8
280
     0
  0
ATTDEF
  5
193
330
188
100
AcDbEntity
  8
attrib
100
AcDbText
 10
31.85
 20
-38.60504998036501
 30
0.0
 40
0.5
  1
AMBUS®60Classic
100
AcDbAttributeDefinition
  3

  2
POF
 70
     8
280
     0
  0
ATTDEF
  5
194
330
188
100
AcDbEntity
  8
attrib
100
AcDbText
 10
31.85
 20
-39.10504998036501
 30
0.0
 40
0.5
  1
2
100
AcDbAttributeDefinition
  3

  2
VER
 70
     8
280
     0
  0
ATTDEF
  5
195
330
188
100
AcDbEntity
  8
attrib
100
AcDbText
 10
31.85
 20
-39.60504998036501
 30
0.0
 40
0.5
  1
woehner
100
AcDbAttributeDefinition
  3

  2
COMPANY
 70
     8
280
     0
  0
ATTDEF
  5
196
330
188
100
AcDbEntity
  8
attrib
100
AcDbText
 10
31.85
 20
-40.10504998036501
 30
0.0
 40
0.5
  1
{$CADENAS_DATA/23d-libs/woehner/sys_60classic/fuse_holders_iec_en/parts/holder_fuse_ambus_iec_v1_part4__v2_part2.prj},191 {VTYP=3D},{NB=79602LED},{LINA=79602LED},{NN=AMBUS60 Holder for cylindrical fuse part},{DATE=26.01.2024 06:39:58},{GEOMDATE=29.12.2022
100
AcDbAttributeDefinition
  3

  2
PSOL_0
 70
     9
280
     0
  0
ATTDEF
  5
197
330
188
100
AcDbEntity
  8
attrib
100
AcDbText
 10
31.85
 20
-40.60504998036501
 30
0.0
 40
0.5
  1
 11:29:00},{VERSION=},{LINEID=920},{WBVAR=},{WBNUMERIC=}  {NB=79602LED},{LINA=79602LED},{KT=DUMMY},{ARTNR=79602LED},{POF=AMBUS®60Classic},{VER=2}
100
AcDbAttributeDefinition
  3

  2
PSOL_1
 70
     9
280
     0
  0
LINE
  5
198
330
188
100
AcDbEntity
  8
hidden
100
AcDbLine
 10
24.5
 20
-71.67666295004504
 30
0.0
 11
10.5
 21
-71.67666295004504
 31
0.0
  0
LINE
  5
199
330
188
100
AcDbEntity
  8
hidden
100
AcDbLine
 10
24.5
 20
-50.726822293773
 30
0.0
 11
10.5
 21
-50.726822293773
 31
0.0
  0
LINE
  5
19A
330
188
100
AcDbEntity
  8
hidden
100
AcDbLine
 10
24.5
 20
-50.71832605652907
 30
0.0
 11
10.5
 21
-50.71832605652907
 31
0.0
  0
LINE
  5
19B
330
188
100
AcDbEntity
  8
hidden
100
AcDbLine
 10
24.5
 20
-41.24946541547396
 30
0.0
 11
10.5
 21
-41.24946541547396
 31
0.0
  0
LWPOLYLINE
  5
19C
330
188
100
AcDbEntity
  8
hidden
100
AcDbPolyline
 90
       13
 70
     0
 43
0.0
 10
20.31774215991901
 20
-71.68515918728897
 10
20.66700919853877
 20
-71.73168845333316
 10
20.99217338486521
 20
-71.78346117696054
 10
21.29076002310089
 20
-71.84008333648309
 10
21.56049668863728
 20
-71.90112400307744
 10
21.79933052257821
 20
-71.96611862041345
 10
22.00544385523557
 20
-72.03457254020836
 10
22.17726803969321
 20
-72.10596478679894
 10
22.31349539015713
 20
-72.17975202208079
 10
22.41308913423396
 20
-72.25537268063951
 10
22.47529130339495
 20
-72.33225124360243
 10
22.49962850157408
 20
-72.40980261868486
 10
22.5
 20
-72.42065580856706
  0
LWPOLYLINE
  5
19D
330
188
100
AcDbEntity
  8
hidden
100
AcDbPolyline
 90
       12
 70
     0
 43
0.0
 10
14.32209062459314
 20
-50.5021984185559
 10
13.99774777632632
 20
-50.41236473226383
 10
13.70005918219936
 20
-50.31416607206643
 10
13.43129043216287
 20
-50.20834978906174
 10
13.19348701869162
 20
-50.09572120905708
 10
12.98845876935176
 20
-49.97713750355326
 10
12.81776607292022
 20
-49.85350116615196
 10
12.68270800388389
 20
-49.72575314403448
 10
12.58431243569844
 20
-49.59486567678549
 10
12.52332821805063
 20
-49.46183489706277
 10
12.50021947766004
 20
-49.32767324942619
 10
12.5
 20
-49.31324380742991
  0
LINE
  5
19E
330
188
100
AcDbEntity
  8
hidden
100
AcDbLine
 10
14.33817107458429
 20
-50.50625865779038
 30
0.0
 11
14.32209062459314
 21
-50.5021984185559
 31
0.0
  0
LWPOLYLINE
  5
19F
330
188
100
AcDbEntity
  8
hidden
100
AcDbPolyline
 90
        5
 70
     0
 43
0.0
 10
15.51582891013989
 20
-50.726822293773
 10
15.1233822257422
 20
-50.6681791407602
 10
14.74902303764766
 20
-50.59922411172845
 10
14.39560044532193
 20
-50.52048199608483
 10
14.33817107458429
 20
-50.50625865779038
  0
LINE
  5
1A0
330
188
100
AcDbEntity
  8
hidden
100
AcDbLine
 10
10.5
 20
-71.68515918728897
 30
0.0
 11
24.5
 21
-71.68515918728897
 31
0.0
  0
LINE
  5
1A1
330
188
100
AcDbEntity
  8
hidden
100
AcDbLine
 10
22.5
 20
-72.42065580856706
 30
0.0
 11
22.5
 21
-49.31324380742991
 31
0.0
  0
LINE
  5
1A2
330
188
100
AcDbEntity
  8
hidden
100
AcDbLine
 10
12.5
 20
-49.31324380742991
 30
0.0
 11
12.5
 21
-72.42065580856706
 31
0.0
  0
LWPOLYLINE
  5
1A3
330
188
100
AcDbEntity
  8
hidden
100
AcDbPolyline
 90
       37
 70
     0
 43
0.0
 10
12.5
 20
-49.31324380742991
 10
12.51902650954127
 20
-49.17902135964442
 10
12.57596123493896
 20
-49.0458204257323
 10
12.67037086855466
 20
-48.91465474522956
 10
12.80153689607046
 20
-48.78652256816481
 10
12.96846106481675
 20
-48.66239905777385
 10
13.16987298107781
 20
-48.54322886891858
 10
13.40423977855504
 20
-48.42991895869311
 10
13.66977778440511
 20
-48.32333168393265
 10
13.96446609406726
 20
-48.2242782381573
 10
14.2860619515673
 20
-48.13351247789949
 10
14.63211781824477
 20
-48.05172518540066
 10
14.99999999999999
 20
-47.97953881134125
 10
15.3869086912965
 20
-47.91750273761517
 10
15.78989928337165
 20
-47.86608909620188
 10
16.20590477448739
 20
-47.82568917595693
 10
16.63175911166534
 20
-47.79661044466754
 10
17.0642212862617
 20
-47.77907420903703
 10
17.49999999999999
 20
-47.77321393040723
 10
17.93577871373828
 20
-47.77907420903703
 10
18.36824088833464
 20
-47.79661044466754
 10
18.7940952255126
 20
-47.82568917595692
 10
19.21010071662833
 20
-47.86608909620188
 10
19.61309130870349
 20
-47.91750273761517
 10
19.99999999999999
 20
-47.97953881134124
 10
20.36788218175522
 20
-48.05172518540066
 10
20.71393804843269
 20
-48.13351247789949
 10
21.03553390593273
 20
-48.22427823815729
 10
21.33022221559489
 20
-48.32333168393264
 10
21.59576022144496
 20
-48.4299189586931
 10
21.83012701892219
 20
-48.54322886891857
 10
22.03153893518325
 20
-48.66239905777385
 10
22.19846310392954
 20
-48.7865225681648
 10
22.32962913144534
 20
-48.91465474522955
 10
22.42403876506104
 20
-49.04582042573229
 10
22.48097349045873
 20
-49.17902135964442
 10
22.5
 20
-49.31324380742991
  0
LINE
  5
1A4
330
188
100
AcDbEntity
  8
hidden
100
AcDbLine
 10
19.7330473835928
 20
-50.69115319226675
 30
0.0
 11
19.48417108986012
 21
-50.726822293773
 31
0.0
  0
LWPOLYLINE
  5
1A5
330
188
100
AcDbEntity
  8
hidden
100
AcDbPolyline
 90
        4
 70
     0
 43
0.0
 10
20.66182892541572
 20
-50.50625865779038
 10
20.31221254233334
 20
-50.58659655967338
 10
19.94119352374344
 20
-50.6572434782404
 10
19.7330473835928
 20
-50.69115319226675
  0
LWPOLYLINE
  5
1A6
330
188
100
AcDbEntity
  8
hidden
100
AcDbPolyline
 90
       12
 70
     0
 43
0.0
 10
22.5
 20
-49.31324380742991
 10
22.48097349045873
 20
-49.44746625521542
 10
22.42403876506104
 20
-49.58066718912753
 10
22.32962913144534
 20
-49.71183286963028
 10
22.19846310392955
 20
-49.83996504669502
 10
22.03153893518325
 20
-49.96408855708598
 10
21.8301270189222
 20
-50.08325874594125
 10
21.59576022144497
 20
-50.19656865616673
 10
21.33022221559489
 20
-50.30315593092718
 10
21.03553390593274
 20
-50.40220937670254
 10
20.7139380484327
 20
-50.49297513696034
 10
20.66182892541572
 20
-50.50625865779038
  0
LWPOLYLINE
  5
1A7
330
188
100
AcDbEntity
  8
hidden
100
AcDbPolyline
 90
       37
 70
     0
 43
0.0
 10
22.5
 20
-72.42065580856706
 10
22.48097349045873
 20
-72.49825424885336
 10
22.42403876506104
 20
-72.57526211815383
 10
22.32962913144534
 20
-72.65109334008453
 10
22.19846310392955
 20
-72.7251707932584
 10
22.03153893518325
 20
-72.79693070352758
 10
21.8301270189222
 20
-72.86582693464511
 10
21.59576022144497
 20
-72.93133514469152
 10
21.33022221559489
 20
-72.99295677663342
 10
21.03553390593274
 20
-73.05022285264356
 10
20.7139380484327
 20
-73.10269754330528
 10
20.36788218175523
 20
-73.1499814845376
 10
20.00000000000001
 20
-73.1917148169969
 10
19.61309130870351
 20
-73.22757992482389
 10
19.21010071662835
 20
-73.25730385289206
 10
18.79409522551261
 20
-73.28066038416102
 10
18.36824088833466
 20
-73.29747176132474
 10
17.9357787137383
 20
-73.30761003965205
 10
17.50000000000001
 20
-73.31099806072316
 10
17.06422128626172
 20
-73.30761003965205
 10
16.63175911166536
 20
-73.29747176132476
 10
16.20590477448741
 20
-73.28066038416102
 10
15.78989928337167
 20
-73.25730385289206
 10
15.38690869129652
 20
-73.2275799248239
 10
15.00000000000001
 20
-73.1917148169969
 10
14.63211781824478
 20
-73.1499814845376
 10
14.28606195156731
 20
-73.10269754330528
 10
13.96446609406727
 20
-73.05022285264356
 10
13.66977778440512
 20
-72.99295677663342
 10
13.40423977855505
 20
-72.93133514469153
 10
13.16987298107782
 20
-72.86582693464511
 10
12.96846106481676
 20
-72.79693070352758
 10
12.80153689607046
 20
-72.7251707932584
 10
12.67037086855466
 20
-72.65109334008453
 10
12.57596123493896
 20
-72.57526211815384
 10
12.51902650954128
 20
-72.49825424885336
 10
12.5
 20
-72.42065580856706
  0
LWPOLYLINE
  5
1A8
330
188
100
AcDbEntity
  8
hidden
100
AcDbPolyline
 90
       13
 70
     0
 43
0.0
 10
12.5
 20
-72.42065580856706
 10
12.51902650954127
 20
-72.34305736828077
 10
12.57596123493896
 20
-72.26604949898028
 10
12.67037086855466
 20
-72.1902182770496
 10
12.80153689607046
 20
-72.11614082387572
 10
12.96846106481675
 20
-72.04438091360655
 10
13.16987298107781
 20
-71.975484682489
 10
13.40423977855504
 20
-71.9099764724426
 10
13.66977778440511
 20
-71.8483548405007
 10
13.96446609406726
 20
-71.79108876449057
 10
14.2860619515673
 20
-71.73861407382884
 10
14.63211781824477
 20
-71.69133013259652
 10
14.68225784008099
 20
-71.68515918728897
  0
LINE
  5
1A9
330
188
100
AcDbEntity
  8
hidden
100
AcDbLine
 10
24.5
 20
-43.23561299469468
 30
0.0
 11
10.5
 21
-43.23561299469468
 31
0.0
  0
LINE
  5
1AA
330
188
100
AcDbEntity
  8
hidden
100
AcDbLine
 10
24.5
 20
-43.11812066137495
 30
0.0
 11
10.5
 21
-43.11812066137495
 31
0.0
  0
LINE
  5
1AB
330
188
100
AcDbEntity
  8
hidden
100
AcDbLine
 10
24.5
 20
-41.97541791329322
 30
0.0
 11
10.5
 21
-41.97541791329322
 31
0.0
  0
LINE
  5
1AC
330
188
100
AcDbEntity
  8
hidden
100
AcDbLine
 10
24.5
 20
-42.12504687176458
 30
0.0
 11
10.5
 21
-42.12504687176458
 31
0.0
  0
LINE
  5
1AD
330
188
100
AcDbEntity
  8
hidden
100
AcDbLine
 10
24.5
 20
-46.19510254655526
 30
0.0
 11
10.5
 21
-46.19510254655526
 31
0.0
  0
LINE
  5
1AE
330
188
100
AcDbEntity
  8
hidden
100
AcDbLine
 10
10.5
 20
-40.90782925033537
 30
0.0
 11
10.5
 21
-58.19970723449001
 31
0.0
  0
LINE
  5
1AF
330
188
100
AcDbEntity
  8
hidden
100
AcDbLine
 10
24.5
 20
-40.90782925033537
 30
0.0
 11
24.5
 21
-58.19970723449001
 31
0.0
  0
LINE
  5
1B0
330
188
100
AcDbEntity
  8
hidden
100
AcDbLine
 10
24.5
 20
-46.06551594201517
 30
0.0
 11
10.5
 21
-46.06551594201517
 31
0.0
  0
LINE
  5
1B1
330
188
100
AcDbEntity
  8
hidden
100
AcDbLine
 10
24.5
 20
-40.90782925033537
 30
0.0
 11
10.5
 21
-40.90782925033537
 31
0.0
  0
LINE
  5
1B2
330
188
100
AcDbEntity
  8
hidden
100
AcDbLine
 10
26.0
 20
-63.25
 30
0.0
 11
9.000000000000002
 21
-63.25
 31
0.0
  0
LINE
  5
1B3
330
188
100
AcDbEntity
  8
hidden
100
AcDbLine
 10
9.000000000000002
 20
-67.75
 30
0.0
 11
26.0
 21
-67.75
 31
0.0
  0
LINE
  5
1B4
330
188
100
AcDbEntity
  8
hidden
100
AcDbLine
 10
9.499999999999998
 20
-62.0
 30
0.0
 11
9.000000000000002
 21
-62.0
 31
0.0
  0
LINE
  5
1B5
330
188
100
AcDbEntity
  8
hidden
100
AcDbLine
 10
9.000000000000002
 20
-69.0
 30
0.0
 11
9.499999999999998
 21
-69.0
 31
0.0
  0
LINE
  5
1B6
330
188
100
AcDbEntity
  8
hidden
100
AcDbLine
 10
9.000000000000002
 20
-62.0
 30
0.0
 11
9.000000000000002
 21
-69.0
 31
0.0
  0
LINE
  5
1B7
330
188
100
AcDbEntity
  8
hidden
100
AcDbLine
 10
24.5
 20
-44.59691656639318
 30
0.0
 11
10.5
 21
-44.59691656639318
 31
0.0
  0
LINE
  5
1B8
330
188
100
AcDbEntity
  8
hidden
100
AcDbLine
 10
24.5
 20
-65.94548709900815
 30
0.0
 11
10.5
 21
-65.94548709900815
 31
0.0
  0
LINE
  5
1B9
330
188
100
AcDbEntity
  8
hidden
100
AcDbLine
 10
24.5
 20
-65.94523064069621
 30
0.0
 11
10.5
 21
-65.94523064069621
 31
0.0
  0
ELLIPSE
  5
1BA
330
188
100
AcDbEntity
  8
hidden
100
AcDbEllipse
 10
19.79
 20
-60.42025913464987
 30
0.0
 11
-1.400000000000002
 21
4.244874332960666E-14
 31
0.0
210
0.0
220
0.0
230
1.0
 40
0.9996580555840785
 41
0.0000000000000303
 42
3.141592653589823
  0
ELLIPSE
  5
1BB
330
188
100
AcDbEntity
  8
hidden
100
AcDbEllipse
 10
19.78999999999992
 20
-60.4202591346499
 30
0.0
 11
-1.400000000000091
 21
-6.532614128215439E-13
 31
0.0
210
0.0
220
0.0
230
1.0
 40
0.999658055584076
 41
3.37637218325095
 42
3.959907777011326
  0
ELLIPSE
  5
1BC
330
188
100
AcDbEntity
  8
hidden
100
AcDbEllipse
 10
15.22
 20
-60.42025913464985
 30
0.0
 11
-1.400000000000016
 21
4.244874332960709E-14
 31
0.0
210
0.0
220
0.0
230
1.0
 40
0.9996580555840785
 41
0.0000000000000405
 42
3.141592653589814
  0
ELLIPSE
  5
1BD
330
188
100
AcDbEntity
  8
hidden
100
AcDbEllipse
 10
15.29999999997045
 20
-60.42025913465042
 30
0.0
 11
-1.499999999970447
 21
5.168993738040507E-10
 31
0.0
210
0.0
220
0.0
230
1.0
 40
0.9996580555840772
 41
3.124153118948076
 42
6.30062484265713
  0
LINE
  5
1BE
330
188
100
AcDbEntity
  8
hidden
100
AcDbLine
 10
13.8
 20
-60.42025913464987
 30
0.0
 11
13.8
 21
-60.47255719984773
 31
0.0
  0
LINE
  5
1BF
330
188
100
AcDbEntity
  8
hidden
100
AcDbLine
 10
16.8
 20
-60.47255719984773
 30
0.0
 11
16.8
 21
-60.42025913464987
 31
0.0
  0
ELLIPSE
  5
1C0
330
188
100
AcDbEntity
  8
hidden
100
AcDbEllipse
 10
19.69999999999998
 20
-60.42025913464985
 30
0.0
 11
-1.500000000000028
 21
-1.938931837790463E-12
 31
0.0
210
0.0
220
0.0
230
1.0
 40
0.999658055584078
 41
2.334715553000061
 42
2.887695855129951
  0
ELLIPSE
  5
1C1
330
188
100
AcDbEntity
  8
hidden
100
AcDbEllipse
 10
19.70000000003015
 20
-60.42025913465008
 30
0.0
 11
-1.500000000030148
 21
1.077487616328945E-9
 31
0.0
210
0.0
220
0.0
230
1.0
 40
0.9996580555840705
 41
3.124153119644417
 42
6.300624842763703
  0
LINE
  5
1C2
330
188
100
AcDbEntity
  8
hidden
100
AcDbLine
 10
18.2
 20
-60.42025913464987
 30
0.0
 11
18.2
 21
-60.47255719984773
 31
0.0
  0
LINE
  5
1C3
330
188
100
AcDbEntity
  8
hidden
100
AcDbLine
 10
21.2
 20
-60.47255719984773
 30
0.0
 11
21.2
 21
-60.42025913464987
 31
0.0
  0
LINE
  5
1C4
330
188
100
AcDbEntity
  8
hidden
100
AcDbLine
 10
15.15
 20
-58.47324108867956
 30
0.0
 11
19.85
 21
-58.47324108867956
 31
0.0
  0
LINE
  5
1C5
330
188
100
AcDbEntity
  8
hidden
100
AcDbLine
 10
26.0
 20
-47.93712400746838
 30
0.0
 11
9.000000000000002
 21
-47.93712400746838
 31
0.0
  0
LINE
  5
1C6
330
188
100
AcDbEntity
  8
hidden
100
AcDbLine
 10
9.000000000000002
 20
-50.93712400746838
 30
0.0
 11
26.0
 21
-50.93712400746838
 31
0.0
  0
LINE
  5
1C7
330
188
100
AcDbEntity
  8
hidden
100
AcDbLine
 10
19.85
 20
-58.48763401561196
 30
0.0
 11
19.85
 21
-58.47324108867956
 31
0.0
  0
ELLIPSE
  5
1C8
330
188
100
AcDbEntity
  8
hidden
100
AcDbEllipse
 10
19.85
 20
-60.47255719984772
 30
0.0
 11
1.999999999999996
 21
-1.266111943170765E-13
 31
0.0
210
0.0
220
0.0
230
1.0
 40
0.9996580555840798
 41
0.0000000000000598
 42
1.57079632679496
  0
LINE
  5
1C9
330
188
100
AcDbEntity
  8
hidden
100
AcDbLine
 10
21.85
 20
-60.48593234722226
 30
0.0
 11
21.85
 21
-60.47255719984773
 31
0.0
  0
LINE
  5
1CA
330
188
100
AcDbEntity
  8
hidden
100
AcDbLine
 10
15.15
 20
-58.48763401561196
 30
0.0
 11
15.15
 21
-58.47324108867956
 31
0.0
  0
LINE
  5
1CB
330
188
100
AcDbEntity
  8
hidden
100
AcDbLine
 10
13.15
 20
-60.47255719984773
 30
0.0
 11
13.15
 21
-60.48593234722226
 31
0.0
  0
ELLIPSE
  5
1CC
330
188
100
AcDbEntity
  8
hidden
100
AcDbEllipse
 10
15.15
 20
-60.47255719984771
 30
0.0
 11
1.999999999999991
 21
1.278976924368180E-13
 31
0.0
210
0.0
220
0.0
230
1.0
 40
0.9996580555840789
 41
1.570796326794832
 42
3.141592653589736
  0
LINE
  5
1CD
330
188
100
AcDbEntity
  8
hidden
100
AcDbLine
 10
10.5
 20
-58.17903406860875
 30
0.0
 11
9.000000000000002
 21
-58.17903406860875
 31
0.0
  0
LINE
  5
1CE
330
188
100
AcDbEntity
  8
hidden
100
AcDbLine
 10
26.0
 20
-58.17903406860875
 30
0.0
 11
24.5
 21
-58.17903406860875
 31
0.0
  0
LINE
  5
1CF
330
188
100
AcDbEntity
  8
hidden
100
AcDbLine
 10
26.0
 20
-58.17355325057423
 30
0.0
 11
9.000000000000002
 21
-58.17355325057423
 31
0.0
  0
LINE
  5
1D0
330
188
100
AcDbEntity
  8
hidden
100
AcDbLine
 10
26.0
 20
-58.18784108364524
 30
0.0
 11
24.5
 21
-58.18784108364523
 31
0.0
  0
LINE
  5
1D1
330
188
100
AcDbEntity
  8
hidden
100
AcDbLine
 10
10.5
 20
-58.18784108364523
 30
0.0
 11
9.000000000000002
 21
-58.18784108364524
 31
0.0
  0
LINE
  5
1D2
330
188
100
AcDbEntity
  8
hidden
100
AcDbLine
 10
10.5
 20
-49.57976128081621
 30
0.0
 11
9.000000000000002
 21
-49.57976128081621
 31
0.0
  0
LINE
  5
1D3
330
188
100
AcDbEntity
  8
hidden
100
AcDbLine
 10
26.0
 20
-49.57976128081621
 30
0.0
 11
24.5
 21
-49.57976128081621
 31
0.0
  0
LINE
  5
1D4
330
188
100
AcDbEntity
  8
hidden
100
AcDbLine
 10
26.0
 20
-50.48010467387459
 30
0.0
 11
9.000000000000002
 21
-50.48010467387459
 31
0.0
  0
ELLIPSE
  5
1D5
330
188
100
AcDbEntity
  8
hidden
100
AcDbEllipse
 10
19.79000000000001
 20
-60.47255719984773
 30
0.0
 11
-1.399999999999995
 21
4.928771716129738E-14
 31
0.0
210
0.0
220
0.0
230
1.0
 40
0.9996580555840785
 41
0.0000000000000352
 42
3.141592653589829
  0
ELLIPSE
  5
1D6
330
188
100
AcDbEntity
  8
hidden
100
AcDbEllipse
 10
15.22000000000001
 20
-60.47255719984772
 30
0.0
 11
-1.400000000000004
 21
4.928771716129769E-14
 31
0.0
210
0.0
220
0.0
230
1.0
 40
0.9996580555840772
 41
0.0000000000000403
 42
3.141592653589823
  0
LINE
  5
1D7
330
188
100
AcDbEntity
  8
center
100
AcDbLine
 10
8.150000000000002
 20
-49.43712400746838
 30
0.0
 11
26.85
 21
-49.43712400746838
 31
0.0
  0
LINE
  5
1D8
330
188
100
AcDbEntity
  8
center
100
AcDbLine
 10
18.31999999999999
 20
-60.47255719984772
 30
0.0
 11
21.26000000000001
 21
-60.47255719984772
 31
0.0
  0
LINE
  5
1D9
330
188
100
AcDbEntity
  8
center
100
AcDbLine
 10
19.79
 20
-61.94255719984773
 30
0.0
 11
19.79
 21
-59.00255719984771
 31
0.0
  0
LINE
  5
1DA
330
188
100
AcDbEntity
  8
center
100
AcDbLine
 10
13.74999999999999
 20
-60.47255719984772
 30
0.0
 11
16.69000000000001
 21
-60.47255719984772
 31
0.0
  0
LINE
  5
1DB
330
188
100
AcDbEntity
  8
center
100
AcDbLine
 10
15.22
 20
-61.94255719984773
 30
0.0
 11
15.22
 21
-59.00255719984771
 31
0.0
  0
LINE
  5
1DC
330
188
100
AcDbEntity
  8
bold
100
AcDbLine
 10
10.5
 20
-62.0
 30
0.0
 11
9.499999999999998
 21
-62.0
 31
0.0
  0
LINE
  5
1DD
330
188
100
AcDbEntity
  8
bold
100
AcDbLine
 10
9.499999999999998
 20
-69.0
 30
0.0
 11
10.5
 21
-69.0
 31
0.0
  0
LINE
  5
1DE
330
188
100
AcDbEntity
  8
bold
100
AcDbLine
 10
26.0
 20
-62.0
 30
0.0
 11
24.5
 21
-62.0
 31
0.0
  0
LINE
  5
1DF
330
188
100
AcDbEntity
  8
bold
100
AcDbLine
 10
24.5
 20
-69.0
 30
0.0
 11
26.0
 21
-69.0
 31
0.0
  0
LINE
  5
1E0
330
188
100
AcDbEntity
  8
bold
100
AcDbLine
 10
24.5
 20
-76.0703822864245
 30
0.0
 11
10.5
 21
-76.0703822864245
 31
0.0
  0
LINE
  5
1E1
330
188
100
AcDbEntity
  8
light
100
AcDbLine
 10
24.5
 20
-67.44497418238427
 30
0.0
 11
10.5
 21
-67.44497418238427
 31
0.0
  0
LINE
  5
1E2
330
188
100
AcDbEntity
  8
bold
100
AcDbLine
 10
24.5
 20
-70.23675265698385
 30
0.0
 11
10.5
 21
-70.23675265698385
 31
0.0
  0
LINE
  5
1E3
330
188
100
AcDbEntity
  8
bold
100
AcDbLine
 10
24.5
 20
-67.46458595683347
 30
0.0
 11
10.5
 21
-67.46458595683347
 31
0.0
  0
LINE
  5
1E4
330
188
100
AcDbEntity
  8
bold
100
AcDbLine
 10
18.39
 20
-60.42025913464987
 30
0.0
 11
18.39
 21
-60.47255719984773
 31
0.0
  0
LINE
  5
1E5
330
188
100
AcDbEntity
  8
bold
100
AcDbLine
 10
21.19
 20
-60.47255719984773
 30
0.0
 11
21.19
 21
-60.42025913464987
 31
0.0
  0
ELLIPSE
  5
1E6
330
188
100
AcDbEntity
  8
bold
100
AcDbEllipse
 10
19.79
 20
-60.42025913464986
 30
0.0
 11
-1.399999999999999
 21
-9.184383372905225E-14
 31
0.0
210
0.0
220
0.0
230
1.0
 40
0.9996580555840759
 41
3.959907777011752
 42
6.283185307179526
  0
ELLIPSE
  5
1E7
330
188
100
AcDbEntity
  8
bold
100
AcDbEllipse
 10
19.79000000000003
 20
-60.42025913464986
 30
0.0
 11
-1.39999999999997
 21
-1.071525709392005E-11
 31
0.0
210
0.0
220
0.0
230
1.0
 40
0.9996580555840809
 41
3.141592653582132
 42
3.37637218324375
  0
LINE
  5
1E8
330
188
100
AcDbEntity
  8
bold
100
AcDbLine
 10
13.82
 20
-60.42025913464987
 30
0.0
 11
13.82
 21
-60.47255719984773
 31
0.0
  0
LINE
  5
1E9
330
188
100
AcDbEntity
  8
bold
100
AcDbLine
 10
16.62
 20
-60.47255719984773
 30
0.0
 11
16.62
 21
-60.42025913464987
 31
0.0
  0
ELLIPSE
  5
1EA
330
188
100
AcDbEntity
  8
bold
100
AcDbEllipse
 10
15.22
 20
-60.42025913464987
 30
0.0
 11
-1.400000000000002
 21
1.714505518806297E-16
 31
0.0
210
0.0
220
0.0
230
1.0
 40
0.9996580555840785
 41
3.141592653589793
 42
6.283185307179586
  0
ELLIPSE
  5
1EB
330
188
100
AcDbEntity
  8
bold
100
AcDbEllipse
 10
15.3
 20
-60.42025913464987
 30
0.0
 11
-1.499999999999993
 21
-2.846005701545680E-14
 31
0.0
210
0.0
220
0.0
230
1.0
 40
0.999658055584078
 41
0.0174395351328283
 42
3.124153118602631
  0
ELLIPSE
  5
1EC
330
188
100
AcDbEntity
  8
bold
100
AcDbEllipse
 10
19.69999999999946
 20
-60.42025913464978
 30
0.0
 11
-1.500000000000544
 21
2.215446210881797E-11
 31
0.0
210
0.0
220
0.0
230
1.0
 40
0.9996580555840804
 41
2.887695855146055
 42
3.124153118940775
  0
ELLIPSE
  5
1ED
330
188
100
AcDbEntity
  8
bold
100
AcDbEllipse
 10
19.7
 20
-60.42025913464987
 30
0.0
 11
-1.5
 21
3.052729841868651E-13
 31
0.0
210
0.0
220
0.0
230
1.0
 40
0.999658055584078
 41
0.0174395348662433
 42
2.334715553001552
  0
LINE
  5
1EE
330
188
100
AcDbEntity
  8
bold
100
AcDbLine
 10
19.85
 20
-62.47187331101588
 30
0.0
 11
15.15
 21
-62.47187331101588
 31
0.0
  0
LINE
  5
1EF
330
188
100
AcDbEntity
  8
bold
100
AcDbLine
 10
19.85
 20
-62.47955730390086
 30
0.0
 11
15.15
 21
-62.47955730390086
 31
0.0
  0
LINE
  5
1F0
330
188
100
AcDbEntity
  8
bold
100
AcDbLine
 10
24.5
 20
-65.96509887345735
 30
0.0
 11
10.5
 21
-65.96509887345735
 31
0.0
  0
LINE
  5
1F1
330
188
100
AcDbEntity
  8
light
100
AcDbLine
 10
19.85
 20
-62.47955730390086
 30
0.0
 11
19.85
 21
-62.47187331101588
 31
0.0
  0
LWPOLYLINE
  5
1F2
330
188
100
AcDbEntity
  8
bold
100
AcDbPolyline
 90
       16
 70
     0
 43
0.0
 10
21.76388881829993
 20
-61.06598089912704
 10
21.70600828097757
 20
-61.22989620158941
 10
21.63400239994852
 20
-61.38816403649785
 10
21.54841918344577
 20
-61.53957989006398
 10
21.44990997142346
 20
-61.68299139621475
 10
21.33922447846655
 20
-61.81730710679415
 10
21.21720508801019
 20
-61.9415047981426
 10
21.08478044129307
 20
-62.05463925083633
 10
20.94295836983689
 20
-62.1558494433779
 10
20.79281822523995
 20
-62.24436510508967
 10
20.63550266465973
 20
-62.3195125783388
 10
20.47220895450196
 20
-62.38071994547859
 10
20.3041798585004
 20
-62.42752138148706
 10
20.13269417953435
 20
-62.45956069917673
 10
19.95905702716663
 20
-62.47659405999412
 10
19.84999987712187
 20
-62.47955730390086
  0
ELLIPSE
  5
1F3
330
188
100
AcDbEntity
  8
bold
100
AcDbEllipse
 10
19.84999999999999
 20
-60.47255719984771
 30
0.0
 11
2.000000000000014
 21
1.350031197944191E-13
 31
0.0
210
0.0
220
0.0
230
1.0
 40
0.999658055584078
 41
4.712388980384625
 42
6.283185307179512
  0
LWPOLYLINE
  5
1F4
330
188
100
AcDbEntity
  8
bold
100
AcDbPolyline
 90
        5
 70
     0
 43
0.0
 10
21.85
 20
-60.48593234722226
 10
21.84238939618349
 20
-60.66009552254516
 10
21.81961550602442
 20
-60.83293321094125
 10
21.78185165257814
 20
-61.00313001323959
 10
21.76388881829993
 20
-61.06598089912704
  0
LWPOLYLINE
  5
1F5
330
188
100
AcDbEntity
  8
bold
100
AcDbPolyline
 90
       16
 70
     0
 43
0.0
 10
15.14999987712188
 20
-62.47955730390086
 10
14.97568839209415
 20
-62.47197822168143
 10
14.80270352365481
 20
-62.44929867774555
 10
14.63236179110381
 20
-62.41169127711685
 10
14.465959597881
 20
-62.35944223482207
 10
14.3047633651532
 20
-62.29294919762192
 10
14.14999989358443
 20
-62.21271821767908
 10
14.00284702664205
 20
-62.11935990119571
 10
13.86442468649682
 20
-62.01358476133154
 10
13.73578635073896
 20
-61.89619781076971
 10
13.61791103477751
 20
-61.76809243508417
 10
13.51169584094202
 20
-61.63024359353605
 10
13.41794913099207
 20
-61.48370039904491
 10
13.33738437399617
 20
-61.32957813380605
 10
13.2706147164014
 20
-61.16904976131949
 10
13.23611118170007
 20
-61.06598089912704
  0
LINE
  5
1F6
330
188
100
AcDbEntity
  8
light
100
AcDbLine
 10
15.15
 20
-62.47955730390086
 30
0.0
 11
15.15
 21
-62.47187331101588
 31
0.0
  0
ELLIPSE
  5
1F7
330
188
100
AcDbEntity
  8
bold
100
AcDbEllipse
 10
15.15000000000001
 20
-60.47255719984771
 30
0.0
 11
2.000000000000012
 21
-1.372693353534791E-13
 31
0.0
210
0.0
220
0.0
230
1.0
 40
0.9996580555840789
 41
3.141592653589869
 42
4.712388980384755
  0
LWPOLYLINE
  5
1F8
330
188
100
AcDbEntity
  8
bold
100
AcDbPolyline
 90
       19
 70
     0
 43
0.0
 10
13.15
 20
-60.48593234722226
 10
13.15761060381651
 20
-60.31176917189936
 10
13.18038449397559
 20
-60.13893148350326
 10
13.21814834742186
 20
-59.96873468120492
 10
13.27061475842818
 20
-59.80247406543747
 10
13.3373844259267
 20
-59.64141497987777
 10
13.41794919243112
 20
-59.48678318141711
 10
13.51169591142202
 20
-59.33975551141098
 10
13.61791111376204
 20
-59.20145093920588
 10
13.7357864376269
 20
-59.07292204610685
 10
13.86442478062692
 20
-58.95514701459827
 10
14.00284712729791
 20
-58.84902218378441
 10
14.15
 20
-58.75535522770768
 10
14.3047634765186
 20
-58.6748590084615
 10
14.46595971334866
 20
-58.60814615087927
 10
14.63236190979496
 20
-58.55572438008952
 10
14.80270364466614
 20
-58.51799265742108
 10
14.97568851450468
 20
-58.4952381440665
 10
15.15
 20
-58.48763401561196
  0
LINE
  5
1F9
330
188
100
AcDbEntity
  8
bold
100
AcDbLine
 10
10.5
 20
-58.19970723449001
 30
0.0
 11
10.5
 21
-76.0703822864245
 31
0.0
  0
LINE
  5
1FA
330
188
100
AcDbEntity
  8
bold
100
AcDbLine
 10
24.5
 20
-58.19970723449001
 30
0.0
 11
24.5
 21
-76.0703822864245
 31
0.0
  0
LINE
  5
1FB
330
188
100
AcDbEntity
  8
bold
100
AcDbLine
 10
13.23611118170008
 20
-61.06598089912704
 30
0.0
 11
10.5
 21
-61.06598089912704
 31
0.0
  0
LWPOLYLINE
  5
1FC
330
188
100
AcDbEntity
  8
bold
100
AcDbPolyline
 90
        5
 70
     0
 43
0.0
 10
13.23611118170007
 20
-61.06598089912704
 10
13.19279649392263
 20
-60.89710916236054
 10
13.16437730661823
 20
-60.7251081217555
 10
13.15106990696223
 20
-60.55128680908797
 10
13.15
 20
-60.48593234722226
  0
LINE
  5
1FD
330
188
100
AcDbEntity
  8
bold
100
AcDbLine
 10
15.15
 20
-58.48763401561196
 30
0.0
 11
19.85
 21
-58.48763401561196
 31
0.0
  0
LWPOLYLINE
  5
1FE
330
188
100
AcDbEntity
  8
bold
100
AcDbPolyline
 90
       19
 70
     0
 43
0.0
 10
19.85
 20
-58.48763401561196
 10
20.02431148549532
 20
-58.4952381440665
 10
20.19729635533386
 20
-58.51799265742108
 10
20.36763809020504
 20
-58.55572438008952
 10
20.53404028665133
 20
-58.60814615087927
 10
20.69523652348139
 20
-58.6748590084615
 10
20.85
 20
-58.75535522770768
 10
20.99715287270209
 20
-58.84902218378441
 10
21.13557521937307
 20
-58.95514701459827
 10
21.26421356237309
 20
-59.07292204610685
 10
21.38208888623796
 20
-59.20145093920588
 10
21.48830408857798
 20
-59.33975551141098
 10
21.58205080756888
 20
-59.4867831814171
 10
21.6626155740733
 20
-59.64141497987777
 10
21.72938524157182
 20
-59.80247406543746
 10
21.78185165257814
 20
-59.96873468120491
 10
21.81961550602442
 20
-60.13893148350326
 10
21.84238939618349
 20
-60.31176917189935
 10
21.85
 20
-60.48593234722225
  0
LINE
  5
1FF
330
188
100
AcDbEntity
  8
bold
100
AcDbLine
 10
24.5
 20
-61.06598089912704
 30
0.0
 11
21.76388881829993
 21
-61.06598089912704
 31
0.0
  0
ARC
  5
200
330
188
100
AcDbEntity
  8
bold
100
AcDbCircle
 10
19.79
 20
-60.47255719984773
 30
0.0
 40
1.399999999999999
100
AcDbArc
 50
180.0
 51
0.0
  0
ELLIPSE
  5
201
330
188
100
AcDbEntity
  8
light
100
AcDbEllipse
 10
19.79
 20
-60.47255719984772
 30
0.0
 11
-1.399999999999995
 21
1.714505518806288E-16
 31
0.0
210
0.0
220
0.0
230
1.0
 40
0.9996580555840785
 41
3.141592653589788
 42
6.283185307179592
  0
ARC
  5
202
330
188
100
AcDbEntity
  8
bold
100
AcDbCircle
 10
15.22
 20
-60.47255719984773
 30
0.0
 40
1.400000000000002
100
AcDbArc
 50
180.0
 51
0.0
  0
ELLIPSE
  5
203
330
188
100
AcDbEntity
  8
light
100
AcDbEllipse
 10
15.22
 20
-60.47255719984773
 30
0.0
 11
-1.400000000000002
 21
1.714505518806297E-16
 31
0.0
210
0.0
220
0.0
230
1.0
 40
0.9996580555840785
 41
3.141592653589793
 42
6.283185307179586
  0
LINE
  5
204
330
188
100
AcDbEntity
  8
bold
100
AcDbLine
 10
26.0
 20
-56.87465933502754
 30
0.0
 11
9.000000000000002
 21
-56.87465933502754
 31
0.0
  0
LINE
  5
205
330
188
100
AcDbEntity
  8
bold
100
AcDbLine
 10
26.0
 20
-58.19970723449001
 30
0.0
 11
9.000000000000002
 21
-58.19970723449001
 31
0.0
  0
LINE
  5
206
330
188
100
AcDbEntity
  8
bold
100
AcDbLine
 10
26.0
 20
-56.90081331894332
 30
0.0
 11
9.000000000000002
 21
-56.90081331894332
 31
0.0
  0
LINE
  5
207
330
188
100
AcDbEntity
  8
bold
100
AcDbLine
 10
26.0
 20
-35.10504998036501
 30
0.0
 11
26.0
 21
-39.45942827966257
 31
0.0
  0
LINE
  5
208
330
188
100
AcDbEntity
  8
bold
100
AcDbLine
 10
26.0
 20
-50.50625865779038
 30
0.0
 11
9.000000000000002
 21
-50.50625865779038
 31
0.0
  0
LINE
  5
209
330
188
100
AcDbEntity
  8
bold
100
AcDbLine
 10
9.000000000000002
 20
-35.10504998036501
 30
0.0
 11
9.000000000000002
 21
-58.19970723449001
 31
0.0
  0
LINE
  5
20A
330
188
100
AcDbEntity
  8
bold
100
AcDbLine
 10
26.0
 20
-35.44179980640511
 30
0.0
 11
9.000000000000002
 21
-35.44179980640511
 31
0.0
  0
LINE
  5
20B
330
188
100
AcDbEntity
  8
bold
100
AcDbLine
 10
26.0
 20
-35.10504998036501
 30
0.0
 11
9.000000000000002
 21
-35.10504998036501
 31
0.0
  0
ELLIPSE
  5
20C
330
188
100
AcDbEntity
  8
bold
100
AcDbEllipse
 10
15.3
 20
-60.47255719984772
 30
0.0
 11
-1.5
 21
1.836970198721030E-16
 31
0.0
210
0.0
220
0.0
230
1.0
 40
0.999658055584078
 41
0.0
 42
6.283185307179586
  0
ELLIPSE
  5
20D
330
188
100
AcDbEntity
  8
bold
100
AcDbEllipse
 10
19.7
 20
-60.47255719984772
 30
0.0
 11
-1.5
 21
1.836970198721030E-16
 31
0.0
210
0.0
220
0.0
230
1.0
 40
0.999658055584078
 41
0.0
 42
6.283185307179586
  0
ENDBLK
  5
18B
330
188
100
AcDbEntity
  8
0
100
AcDbBlockEnd
  0
BLOCK
  5
210
330
20E
100
AcDbEntity
  8
0
100
AcDbBlockBegin
  2
5_79602LED_3_0_in_31955_0
 70
     2
 10
0.0
 20
0.0
 30
0.0
  3
5_79602LED_3_0_in_31955_0
  1

  0
ATTDEF
  5
212
330
20E
100
AcDbEntity
  8
attrib
100
AcDbText
 10
31.85
 20
24.89495001963499
 30
0.0
 40
0.5
  1
79602LED
100
AcDbAttributeDefinition
  3

  2
NB
 70
     8
280
     0
  0
ATTDEF
  5
213
330
20E
100
AcDbEntity
  8
attrib
100
AcDbText
 10
31.85
 20
24.39495001963499
 30
0.0
 40
0.5
  1
AMBUS60 Holder for cylindrical fuse part
100
AcDbAttributeDefinition
  3

  2
NN
 70
     8
280
     0
  0
ATTDEF
  5
214
330
20E
100
AcDbEntity
  8
attrib
100
AcDbText
 10
31.85
 20
23.89495001963499
 30
0.0
 40
0.5
  1

100
AcDbAttributeDefinition
  3

  2
NT
 70
     8
280
     0
  0
ATTDEF
  5
215
330
20E
100
AcDbEntity
  8
attrib
100
AcDbText
 10
31.85
 20
23.39495001963499
 30
0.0
 40
0.5
  1
$ARTNR.
100
AcDbAttributeDefinition
  3

  2
NBSYN
 70
     8
280
     0
  0
ATTDEF
  5
216
330
20E
100
AcDbEntity
  8
attrib
100
AcDbText
 10
31.85
 20
22.89495001963499
 30
0.0
 40
0.5
  1
79602LED
100
AcDbAttributeDefinition
  3

  2
LINA
 70
     8
280
     0
  0
ATTDEF
  5
217
330
20E
100
AcDbEntity
  8
attrib
100
AcDbText
 10
31.85
 20
22.39495001963499
 30
0.0
 40
0.5
  1
Wöhner
100
AcDbAttributeDefinition
  3

  2
CATALOG
 70
     8
280
     0
  0
ATTDEF
  5
218
330
20E
100
AcDbEntity
  8
attrib
100
AcDbText
 10
31.85
 20
21.89495001963499
 30
0.0
 40
0.5
  1
79602LED
100
AcDbAttributeDefinition
  3

  2
ARTNR
 70
     8
280
     0
  0
ATTDEF
  5
219
330
20E
100
AcDbEntity
  8
attrib
100
AcDbText
 10
31.85
 20
21.39495001963499
 30
0.0
 40
0.5
  1
AMBUS®60Classic
100
AcDbAttributeDefinition
  3

  2
POF
 70
     8
280
     0
  0
ATTDEF
  5
21A
330
20E
100
AcDbEntity
  8
attrib
100
AcDbText
 10
31.85
 20
20.89495001963499
 30
0.0
 40
0.5
  1
2
100
AcDbAttributeDefinition
  3

  2
VER
 70
     8
280
     0
  0
ATTDEF
  5
21B
330
20E
100
AcDbEntity
  8
attrib
100
AcDbText
 10
31.85
 20
20.39495001963499
 30
0.0
 40
0.5
  1
woehner
100
AcDbAttributeDefinition
  3

  2
COMPANY
 70
     8
280
     0
  0
ATTDEF
  5
21C
330
20E
100
AcDbEntity
  8
attrib
100
AcDbText
 10
31.85
 20
19.89495001963499
 30
0.0
 40
0.5
  1
{$CADENAS_DATA/23d-libs/woehner/sys_60classic/fuse_holders_iec_en/parts/holder_fuse_ambus_iec_v1_part4__v2_part2.prj},191 {VTYP=3D},{NB=79602LED},{LINA=79602LED},{NN=AMBUS60 Holder for cylindrical fuse part},{DATE=26.01.2024 06:39:58},{GEOMDATE=29.12.2022
100
AcDbAttributeDefinition
  3

  2
PSOL_0
 70
     9
280
     0
  0
ATTDEF
  5
21D
330
20E
100
AcDbEntity
  8
attrib
100
AcDbText
 10
31.85
 20
19.39495001963499
 30
0.0
 40
0.5
  1
 11:29:00},{VERSION=},{LINEID=920},{WBVAR=},{WBNUMERIC=}  {NB=79602LED},{LINA=79602LED},{KT=DUMMY},{ARTNR=79602LED},{POF=AMBUS®60Classic},{VER=2}
100
AcDbAttributeDefinition
  3

  2
PSOL_1
 70
     9
280
     0
  0
LINE
  5
21E
330
20E
100
AcDbEntity
  8
hidden
100
AcDbLine
 10
24.5
 20
-11.67666295004504
 30
0.0
 11
10.5
 21
-11.67666295004504
 31
0.0
  0
LINE
  5
21F
330
20E
100
AcDbEntity
  8
hidden
100
AcDbLine
 10
24.5
 20
9.273177706227006
 30
0.0
 11
10.5
 21
9.273177706227006
 31
0.0
  0
LINE
  5
220
330
20E
100
AcDbEntity
  8
hidden
100
AcDbLine
 10
24.5
 20
9.281673943470933
 30
0.0
 11
10.5
 21
9.281673943470933
 31
0.0
  0
LINE
  5
221
330
20E
100
AcDbEntity
  8
hidden
100
AcDbLine
 10
24.5
 20
18.75053458452605
 30
0.0
 11
10.5
 21
18.75053458452605
 31
0.0
  0
LWPOLYLINE
  5
222
330
20E
100
AcDbEntity
  8
hidden
100
AcDbPolyline
 90
       13
 70
     0
 43
0.0
 10
20.31774215991901
 20
-11.68515918728897
 10
20.66700919853877
 20
-11.73168845333316
 10
20.99217338486521
 20
-11.78346117696054
 10
21.29076002310089
 20
-11.84008333648309
 10
21.56049668863728
 20
-11.90112400307744
 10
21.79933052257821
 20
-11.96611862041345
 10
22.00544385523557
 20
-12.03457254020836
 10
22.17726803969321
 20
-12.10596478679894
 10
22.31349539015713
 20
-12.1797520220808
 10
22.41308913423396
 20
-12.25537268063951
 10
22.47529130339495
 20
-12.33225124360243
 10
22.49962850157408
 20
-12.40980261868486
 10
22.5
 20
-12.42065580856706
  0
LWPOLYLINE
  5
223
330
20E
100
AcDbEntity
  8
hidden
100
AcDbPolyline
 90
       12
 70
     0
 43
0.0
 10
14.32209062459317
 20
9.497801581444097
 10
13.99774777632634
 20
9.587635267736161
 10
13.70005918219938
 20
9.685833927933569
 10
13.43129043216288
 20
9.791650210938249
 10
13.19348701869164
 20
9.904278790942914
 10
12.98845876935178
 20
10.02286249644674
 10
12.81776607292023
 20
10.14649883384803
 10
12.6827080038839
 20
10.27424685596552
 10
12.58431243569845
 20
10.40513432321451
 10
12.52332821805064
 20
10.53816510293723
 10
12.50021947766004
 20
10.67232675057381
 10
12.5
 20
10.68675619257009
  0
LINE
  5
224
330
20E
100
AcDbEntity
  8
hidden
100
AcDbLine
 10
14.3381710745843
 20
9.493741342209624
 30
0.0
 11
14.32209062459317
 21
9.497801581444097
 31
0.0
  0
LWPOLYLINE
  5
225
330
20E
100
AcDbEntity
  8
hidden
100
AcDbPolyline
 90
        5
 70
     0
 43
0.0
 10
15.51582891013989
 20
9.273177706227003
 10
15.1233822257422
 20
9.331820859239798
 10
14.74902303764766
 20
9.400775888271562
 10
14.39560044532193
 20
9.479518003915175
 10
14.3381710745843
 20
9.493741342209624
  0
LINE
  5
226
330
20E
100
AcDbEntity
  8
hidden
100
AcDbLine
 10
10.5
 20
-11.68515918728897
 30
0.0
 11
24.5
 21
-11.68515918728897
 31
0.0
  0
LINE
  5
227
330
20E
100
AcDbEntity
  8
hidden
100
AcDbLine
 10
22.5
 20
-12.42065580856706
 30
0.0
 11
22.5
 21
10.68675619257009
 31
0.0
  0
LINE
  5
228
330
20E
100
AcDbEntity
  8
hidden
100
AcDbLine
 10
12.5
 20
10.68675619257009
 30
0.0
 11
12.5
 21
-12.42065580856706
 31
0.0
  0
LWPOLYLINE
  5
229
330
20E
100
AcDbEntity
  8
hidden
100
AcDbPolyline
 90
       37
 70
     0
 43
0.0
 10
12.5
 20
10.68675619257009
 10
12.51902650954127
 20
10.82097864035558
 10
12.57596123493896
 20
10.9541795742677
 10
12.67037086855466
 20
11.08534525477045
 10
12.80153689607046
 20
11.2134774318352
 10
12.96846106481675
 20
11.33760094222616
 10
13.16987298107781
 20
11.45677113108143
 10
13.40423977855504
 20
11.5700810413069
 10
13.66977778440511
 20
11.67666831606735
 10
13.96446609406726
 20
11.77572176184271
 10
14.2860619515673
 20
11.86648752210051
 10
14.63211781824477
 20
11.94827481459934
 10
14.99999999999999
 20
12.02046118865875
 10
15.3869086912965
 20
12.08249726238484
 10
15.78989928337165
 20
12.13391090379813
 10
16.20590477448739
 20
12.17431082404307
 10
16.63175911166534
 20
12.20338955533246
 10
17.0642212862617
 20
12.22092579096296
 10
17.49999999999999
 20
12.22678606959277
 10
17.93577871373828
 20
12.22092579096297
 10
18.36824088833464
 20
12.20338955533246
 10
18.7940952255126
 20
12.17431082404307
 10
19.21010071662833
 20
12.13391090379813
 10
19.61309130870349
 20
12.08249726238484
 10
19.99999999999999
 20
12.02046118865876
 10
20.36788218175522
 20
11.94827481459934
 10
20.71393804843269
 20
11.86648752210052
 10
21.03553390593273
 20
11.77572176184271
 10
21.33022221559489
 20
11.67666831606736
 10
21.59576022144496
 20
11.5700810413069
 10
21.83012701892219
 20
11.45677113108143
 10
22.03153893518325
 20
11.33760094222616
 10
22.19846310392954
 20
11.2134774318352
 10
22.32962913144534
 20
11.08534525477046
 10
22.42403876506104
 20
10.95417957426771
 10
22.48097349045873
 20
10.82097864035559
 10
22.5
 20
10.68675619257009
  0
LINE
  5
22A
330
20E
100
AcDbEntity
  8
hidden
100
AcDbLine
 10
19.73304738359281
 20
9.308846807733257
 30
0.0
 11
19.48417108986012
 21
9.273177706227003
 31
0.0
  0
LWPOLYLINE
  5
22B
330
20E
100
AcDbEntity
  8
hidden
100
AcDbPolyline
 90
        4
 70
     0
 43
0.0
 10
20.66182892541571
 20
9.493741342209624
 10
20.31221254233333
 20
9.41340344032662
 10
19.94119352374343
 20
9.342756521759604
 10
19.73304738359281
 20
9.308846807733257
  0
LWPOLYLINE
  5
22C
330
20E
100
AcDbEntity
  8
hidden
100
AcDbPolyline
 90
       12
 70
     0
 43
0.0
 10
22.5
 20
10.68675619257009
 10
22.48097349045873
 20
10.55253374478459
 10
22.42403876506104
 20
10.41933281087247
 10
22.32962913144534
 20
10.28816713036973
 10
22.19846310392955
 20
10.16003495330498
 10
22.03153893518325
 20
10.03591144291402
 10
21.8301270189222
 20
9.91674125405875
 10
21.59576022144497
 20
9.803431343833282
 10
21.33022221559489
 20
9.696844069072826
 10
21.03553390593274
 20
9.597790623297467
 10
20.7139380484327
 20
9.507024863039664
 10
20.66182892541571
 20
9.493741342209624
  0
LWPOLYLINE
  5
22D
330
20E
100
AcDbEntity
  8
hidden
100
AcDbPolyline
 90
       37
 70
     0
 43
0.0
 10
22.5
 20
-12.42065580856706
 10
22.48097349045873
 20
-12.49825424885335
 10
22.42403876506104
 20
-12.57526211815384
 10
22.32962913144534
 20
-12.65109334008454
 10
22.19846310392955
 20
-12.72517079325839
 10
22.03153893518325
 20
-12.79693070352758
 10
21.8301270189222
 20
-12.86582693464512
 10
21.59576022144497
 20
-12.93133514469153
 10
21.33022221559489
 20
-12.99295677663342
 10
21.03553390593274
 20
-13.05022285264355
 10
20.7139380484327
 20
-13.10269754330529
 10
20.36788218175523
 20
-13.14998148453761
 10
20.00000000000001
 20
-13.1917148169969
 10
19.61309130870351
 20
-13.22757992482389
 10
19.21010071662835
 20
-13.25730385289207
 10
18.79409522551261
 20
-13.28066038416102
 10
18.36824088833466
 20
-13.29747176132475
 10
17.9357787137383
 20
-13.30761003965205
 10
17.50000000000001
 20
-13.31099806072317
 10
17.06422128626172
 20
-13.30761003965205
 10
16.63175911166536
 20
-13.29747176132475
 10
16.20590477448741
 20
-13.28066038416103
 10
15.78989928337167
 20
-13.25730385289207
 10
15.38690869129652
 20
-13.2275799248239
 10
15.00000000000001
 20
-13.19171481699691
 10
14.63211781824478
 20
-13.14998148453761
 10
14.28606195156731
 20
-13.10269754330529
 10
13.96446609406727
 20
-13.05022285264355
 10
13.66977778440512
 20
-12.99295677663342
 10
13.40423977855505
 20
-12.93133514469153
 10
13.16987298107782
 20
-12.86582693464512
 10
12.96846106481676
 20
-12.79693070352758
 10
12.80153689607046
 20
-12.7251707932584
 10
12.67037086855466
 20
-12.65109334008454
 10
12.57596123493896
 20
-12.57526211815385
 10
12.51902650954128
 20
-12.49825424885336
 10
12.5
 20
-12.42065580856707
  0
LWPOLYLINE
  5
22E
330
20E
100
AcDbEntity
  8
hidden
100
AcDbPolyline
 90
       13
 70
     0
 43
0.0
 10
12.5
 20
-12.42065580856706
 10
12.51902650954127
 20
-12.34305736828077
 10
12.57596123493896
 20
-12.26604949898028
 10
12.67037086855466
 20
-12.19021827704959
 10
12.80153689607046
 20
-12.11614082387573
 10
12.96846106481675
 20
-12.04438091360655
 10
13.16987298107781
 20
-11.97548468248901
 10
13.40423977855504
 20
-11.9099764724426
 10
13.66977778440511
 20
-11.84835484050071
 10
13.96446609406726
 20
-11.79108876449057
 10
14.2860619515673
 20
-11.73861407382884
 10
14.63211781824477
 20
-11.69133013259652
 10
14.68225784008099
 20
-11.68515918728897
  0
LINE
  5
22F
330
20E
100
AcDbEntity
  8
hidden
100
AcDbLine
 10
24.5
 20
16.76438700530532
 30
0.0
 11
10.5
 21
16.76438700530532
 31
0.0
  0
LINE
  5
230
330
20E
100
AcDbEntity
  8
hidden
100
AcDbLine
 10
24.5
 20
16.88187933862505
 30
0.0
 11
10.5
 21
16.88187933862505
 31
0.0
  0
LINE
  5
231
330
20E
100
AcDbEntity
  8
hidden
100
AcDbLine
 10
24.5
 20
18.02458208670679
 30
0.0
 11
10.5
 21
18.02458208670679
 31
0.0
  0
LINE
  5
232
330
20E
100
AcDbEntity
  8
hidden
100
AcDbLine
 10
24.5
 20
17.87495312823542
 30
0.0
 11
10.5
 21
17.87495312823542
 31
0.0
  0
LINE
  5
233
330
20E
100
AcDbEntity
  8
hidden
100
AcDbLine
 10
24.5
 20
13.80489745344474
 30
0.0
 11
10.5
 21
13.80489745344474
 31
0.0
  0
LINE
  5
234
330
20E
100
AcDbEntity
  8
hidden
100
AcDbLine
 10
24.5
 20
19.09217074966463
 30
0.0
 11
24.5
 21
1.800292765509993
 31
0.0
  0
LINE
  5
235
330
20E
100
AcDbEntity
  8
hidden
100
AcDbLine
 10
10.5
 20
19.09217074966463
 30
0.0
 11
10.5
 21
1.800292765509993
 31
0.0
  0
LINE
  5
236
330
20E
100
AcDbEntity
  8
hidden
100
AcDbLine
 10
24.5
 20
13.93448405798482
 30
0.0
 11
10.5
 21
13.93448405798482
 31
0.0
  0
LINE
  5
237
330
20E
100
AcDbEntity
  8
hidden
100
AcDbLine
 10
24.5
 20
19.09217074966463
 30
0.0
 11
10.5
 21
19.09217074966463
 31
0.0
  0
LINE
  5
238
330
20E
100
AcDbEntity
  8
hidden
100
AcDbLine
 10
26.0
 20
-3.25
 30
0.0
 11
9.000000000000002
 21
-3.25
 31
0.0
  0
LINE
  5
239
330
20E
100
AcDbEntity
  8
hidden
100
AcDbLine
 10
9.000000000000002
 20
-7.75
 30
0.0
 11
26.0
 21
-7.75
 31
0.0
  0
LINE
  5
23A
330
20E
100
AcDbEntity
  8
hidden
100
AcDbLine
 10
9.499999999999998
 20
-2.0
 30
0.0
 11
9.000000000000002
 21
-2.0
 31
0.0
  0
LINE
  5
23B
330
20E
100
AcDbEntity
  8
hidden
100
AcDbLine
 10
9.000000000000002
 20
-9.0
 30
0.0
 11
9.499999999999998
 21
-9.0
 31
0.0
  0
LINE
  5
23C
330
20E
100
AcDbEntity
  8
hidden
100
AcDbLine
 10
9.000000000000002
 20
-2.0
 30
0.0
 11
9.000000000000002
 21
-9.0
 31
0.0
  0
LINE
  5
23D
330
20E
100
AcDbEntity
  8
hidden
100
AcDbLine
 10
24.5
 20
15.40308343360682
 30
0.0
 11
10.5
 21
15.40308343360682
 31
0.0
  0
LINE
  5
23E
330
20E
100
AcDbEntity
  8
hidden
100
AcDbLine
 10
24.5
 20
-5.945487099008149
 30
0.0
 11
10.5
 21
-5.945487099008149
 31
0.0
  0
LINE
  5
23F
330
20E
100
AcDbEntity
  8
hidden
100
AcDbLine
 10
24.5
 20
-5.945230640696208
 30
0.0
 11
10.5
 21
-5.945230640696208
 31
0.0
  0
ELLIPSE
  5
240
330
20E
100
AcDbEntity
  8
hidden
100
AcDbEllipse
 10
19.79
 20
-0.4202591346498654
 30
0.0
 11
-1.400000000000002
 21
4.431391801097692E-14
 31
0.0
210
0.0
220
0.0
230
1.0
 40
0.9996580555840776
 41
0.0000000000000282
 42
3.141592653589827
  0
ELLIPSE
  5
241
330
20E
100
AcDbEntity
  8
hidden
100
AcDbEllipse
 10
19.79000000000002
 20
-0.4202591346498478
 30
0.0
 11
-1.399999999999981
 21
1.409621784773990E-12
 31
0.0
210
0.0
220
0.0
230
1.0
 40
0.9996580555840765
 41
3.37637190581839
 42
3.959908048020242
  0
ELLIPSE
  5
242
330
20E
100
AcDbEntity
  8
hidden
100
AcDbEllipse
 10
15.22
 20
-0.4202591346498605
 30
0.0
 11
-1.400000000000002
 21
4.431391801097692E-14
 31
0.0
210
0.0
220
0.0
230
1.0
 40
0.9996580555840779
 41
0.000000000000032
 42
3.141592653589823
  0
ELLIPSE
  5
243
330
20E
100
AcDbEntity
  8
hidden
100
AcDbEllipse
 10
19.69999999999999
 20
-0.4202591346498495
 30
0.0
 11
-1.500000000000021
 21
1.104633561916994E-12
 31
0.0
210
0.0
220
0.0
230
1.0
 40
0.999658055584078
 41
2.33470972552419
 42
2.887701696370893
  0
ELLIPSE
  5
244
330
20E
100
AcDbEntity
  8
hidden
100
AcDbEllipse
 10
19.70000000010661
 20
-0.4202591346510726
 30
0.0
 11
-1.500000000106613
 21
3.387734943323613E-9
 31
0.0
210
0.0
220
0.0
230
1.0
 40
0.9996580555840635
 41
3.124153120434332
 42
6.300624844857168
  0
LINE
  5
245
330
20E
100
AcDbEntity
  8
hidden
100
AcDbLine
 10
18.2
 20
-0.4202591346498608
 30
0.0
 11
18.2
 21
-0.472557199847721
 31
0.0
  0
LINE
  5
246
330
20E
100
AcDbEntity
  8
hidden
100
AcDbLine
 10
21.2
 20
-0.472557199847721
 30
0.0
 11
21.2
 21
-0.4202591346498608
 31
0.0
  0
ELLIPSE
  5
247
330
20E
100
AcDbEntity
  8
hidden
100
AcDbEllipse
 10
15.29999999998694
 20
-0.4202591346498932
 30
0.0
 11
-1.49999999998694
 21
-1.212421657953246E-10
 31
0.0
210
0.0
220
0.0
230
1.0
 40
0.9996580555840754
 41
3.124153118138703
 42
6.300624842491096
  0
LINE
  5
248
330
20E
100
AcDbEntity
  8
hidden
100
AcDbLine
 10
13.8
 20
-0.4202591346498608
 30
0.0
 11
13.8
 21
-0.472557199847721
 31
0.0
  0
LINE
  5
249
330
20E
100
AcDbEntity
  8
hidden
100
AcDbLine
 10
16.8
 20
-0.472557199847721
 30
0.0
 11
16.8
 21
-0.4202591346498608
 31
0.0
  0
LINE
  5
24A
330
20E
100
AcDbEntity
  8
hidden
100
AcDbLine
 10
15.15
 20
1.526758911320435
 30
0.0
 11
19.85
 21
1.526758911320435
 31
0.0
  0
LINE
  5
24B
330
20E
100
AcDbEntity
  8
hidden
100
AcDbLine
 10
26.0
 20
12.06287599253162
 30
0.0
 11
9.000000000000002
 21
12.06287599253162
 31
0.0
  0
LINE
  5
24C
330
20E
100
AcDbEntity
  8
hidden
100
AcDbLine
 10
9.000000000000002
 20
9.06287599253162
 30
0.0
 11
26.0
 21
9.06287599253162
 31
0.0
  0
LINE
  5
24D
330
20E
100
AcDbEntity
  8
hidden
100
AcDbLine
 10
15.15
 20
1.512365984388043
 30
0.0
 11
15.15
 21
1.526758911320435
 31
0.0
  0
LINE
  5
24E
330
20E
100
AcDbEntity
  8
hidden
100
AcDbLine
 10
13.15
 20
-0.4725571998477219
 30
0.0
 11
13.15
 21
-0.4859323472222524
 31
0.0
  0
ELLIPSE
  5
24F
330
20E
100
AcDbEntity
  8
hidden
100
AcDbEllipse
 10
15.15
 20
-0.4725571998477196
 30
0.0
 11
1.999999999999998
 21
1.255107129338739E-13
 31
0.0
210
0.0
220
0.0
230
1.0
 40
0.999658055584078
 41
1.570796326794833
 42
3.14159265358973
  0
LINE
  5
250
330
20E
100
AcDbEntity
  8
hidden
100
AcDbLine
 10
19.85
 20
1.512365984388043
 30
0.0
 11
19.85
 21
1.526758911320435
 31
0.0
  0
ELLIPSE
  5
251
330
20E
100
AcDbEntity
  8
hidden
100
AcDbEllipse
 10
19.84999999999999
 20
-0.4725571998477244
 30
0.0
 11
2.000000000000007
 21
-1.283875511564774E-13
 31
0.0
210
0.0
220
0.0
230
1.0
 40
0.9996580555840783
 41
0.0000000000000655
 42
1.570796326794957
  0
LINE
  5
252
330
20E
100
AcDbEntity
  8
hidden
100
AcDbLine
 10
21.85
 20
-0.4859323472222524
 30
0.0
 11
21.85
 21
-0.4725571998477219
 31
0.0
  0
LINE
  5
253
330
20E
100
AcDbEntity
  8
hidden
100
AcDbLine
 10
10.5
 20
1.820965931391258
 30
0.0
 11
9.000000000000002
 21
1.820965931391258
 31
0.0
  0
LINE
  5
254
330
20E
100
AcDbEntity
  8
hidden
100
AcDbLine
 10
26.0
 20
1.820965931391258
 30
0.0
 11
24.5
 21
1.820965931391258
 31
0.0
  0
LINE
  5
255
330
20E
100
AcDbEntity
  8
hidden
100
AcDbLine
 10
26.0
 20
1.826446749425774
 30
0.0
 11
9.000000000000002
 21
1.826446749425774
 31
0.0
  0
LINE
  5
256
330
20E
100
AcDbEntity
  8
hidden
100
AcDbLine
 10
26.0
 20
1.812158916354764
 30
0.0
 11
24.5
 21
1.812158916354766
 31
0.0
  0
LINE
  5
257
330
20E
100
AcDbEntity
  8
hidden
100
AcDbLine
 10
10.5
 20
1.812158916354766
 30
0.0
 11
9.000000000000002
 21
1.812158916354764
 31
0.0
  0
LINE
  5
258
330
20E
100
AcDbEntity
  8
hidden
100
AcDbLine
 10
26.0
 20
10.42023871918379
 30
0.0
 11
24.5
 21
10.42023871918379
 31
0.0
  0
LINE
  5
259
330
20E
100
AcDbEntity
  8
hidden
100
AcDbLine
 10
10.5
 20
10.42023871918379
 30
0.0
 11
9.000000000000002
 21
10.42023871918379
 31
0.0
  0
LINE
  5
25A
330
20E
100
AcDbEntity
  8
hidden
100
AcDbLine
 10
26.0
 20
9.519895326125413
 30
0.0
 11
9.000000000000002
 21
9.519895326125413
 31
0.0
  0
ELLIPSE
  5
25B
330
20E
100
AcDbEntity
  8
hidden
100
AcDbEllipse
 10
15.22
 20
-0.4725571998477209
 30
0.0
 11
-1.4
 21
4.431391801097686E-14
 31
0.0
210
0.0
220
0.0
230
1.0
 40
0.9996580555840785
 41
0.0000000000000331
 42
3.141592653589823
  0
ELLIPSE
  5
25C
330
20E
100
AcDbEntity
  8
hidden
100
AcDbEllipse
 10
19.79000000000001
 20
-0.4725571998477281
 30
0.0
 11
-1.399999999999995
 21
4.493564290476678E-14
 31
0.0
210
0.0
220
0.0
230
1.0
 40
0.9996580555840778
 41
0.0000000000000281
 42
3.14159265358983
  0
LINE
  5
25D
330
20E
100
AcDbEntity
  8
center
100
AcDbLine
 10
8.150000000000002
 20
10.56287599253162
 30
0.0
 11
26.85
 21
10.56287599253162
 31
0.0
  0
LINE
  5
25E
330
20E
100
AcDbEntity
  8
center
100
AcDbLine
 10
18.32
 20
-0.4725571998477198
 30
0.0
 11
21.26
 21
-0.4725571998477198
 31
0.0
  0
LINE
  5
25F
330
20E
100
AcDbEntity
  8
center
100
AcDbLine
 10
19.79
 20
-1.942557199847722
 30
0.0
 11
19.79
 21
0.9974428001522828
 31
0.0
  0
LINE
  5
260
330
20E
100
AcDbEntity
  8
center
100
AcDbLine
 10
13.75
 20
-0.4725571998477204
 30
0.0
 11
16.69
 21
-0.4725571998477204
 31
0.0
  0
LINE
  5
261
330
20E
100
AcDbEntity
  8
center
100
AcDbLine
 10
15.22
 20
-1.942557199847721
 30
0.0
 11
15.22
 21
0.9974428001522805
 31
0.0
  0
LINE
  5
262
330
20E
100
AcDbEntity
  8
bold
100
AcDbLine
 10
26.0
 20
-2.0
 30
0.0
 11
24.5
 21
-2.0
 31
0.0
  0
LINE
  5
263
330
20E
100
AcDbEntity
  8
bold
100
AcDbLine
 10
24.5
 20
-9.0
 30
0.0
 11
26.0
 21
-9.0
 31
0.0
  0
LINE
  5
264
330
20E
100
AcDbEntity
  8
bold
100
AcDbLine
 10
10.5
 20
-2.0
 30
0.0
 11
9.499999999999998
 21
-2.0
 31
0.0
  0
LINE
  5
265
330
20E
100
AcDbEntity
  8
bold
100
AcDbLine
 10
9.499999999999998
 20
-9.0
 30
0.0
 11
10.5
 21
-9.0
 31
0.0
  0
LINE
  5
266
330
20E
100
AcDbEntity
  8
bold
100
AcDbLine
 10
24.5
 20
-16.0703822864245
 30
0.0
 11
10.5
 21
-16.0703822864245
 31
0.0
  0
LINE
  5
267
330
20E
100
AcDbEntity
  8
light
100
AcDbLine
 10
24.5
 20
-7.444974182384268
 30
0.0
 11
10.5
 21
-7.444974182384268
 31
0.0
  0
LINE
  5
268
330
20E
100
AcDbEntity
  8
bold
100
AcDbLine
 10
24.5
 20
-10.23675265698385
 30
0.0
 11
10.5
 21
-10.23675265698385
 31
0.0
  0
LINE
  5
269
330
20E
100
AcDbEntity
  8
bold
100
AcDbLine
 10
24.5
 20
-7.464585956833464
 30
0.0
 11
10.5
 21
-7.464585956833464
 31
0.0
  0
LINE
  5
26A
330
20E
100
AcDbEntity
  8
bold
100
AcDbLine
 10
18.39
 20
-0.4202591346498616
 30
0.0
 11
18.39
 21
-0.4725571998477219
 31
0.0
  0
LINE
  5
26B
330
20E
100
AcDbEntity
  8
bold
100
AcDbLine
 10
21.19
 20
-0.4725571998477219
 30
0.0
 11
21.19
 21
-0.4202591346498616
 31
0.0
  0
ELLIPSE
  5
26C
330
20E
100
AcDbEntity
  8
bold
100
AcDbEllipse
 10
19.79
 20
-0.4202591346498616
 30
0.0
 11
-1.399999999999999
 21
7.353498801911090E-14
 31
0.0
210
0.0
220
0.0
230
1.0
 40
0.9996580555840783
 41
3.959908048019281
 42
6.28318530717964
  0
ELLIPSE
  5
26D
330
20E
100
AcDbEntity
  8
bold
100
AcDbEllipse
 10
19.79000000000038
 20
-0.420259134649806
 30
0.0
 11
-1.399999999999618
 21
9.870054139466832E-12
 31
0.0
210
0.0
220
0.0
230
1.0
 40
0.999658055584078
 41
3.141592653596804
 42
3.376371905824465
  0
LINE
  5
26E
330
20E
100
AcDbEntity
  8
bold
100
AcDbLine
 10
13.82
 20
-0.4202591346498616
 30
0.0
 11
13.82
 21
-0.4725571998477219
 31
0.0
  0
LINE
  5
26F
330
20E
100
AcDbEntity
  8
bold
100
AcDbLine
 10
16.62
 20
-0.4725571998477219
 30
0.0
 11
16.62
 21
-0.4202591346498616
 31
0.0
  0
ELLIPSE
  5
270
330
20E
100
AcDbEntity
  8
bold
100
AcDbEllipse
 10
15.22
 20
-0.4202591346498623
 30
0.0
 11
-1.4
 21
1.714505518806295E-16
 31
0.0
210
0.0
220
0.0
230
1.0
 40
0.9996580555840789
 41
3.141592653589794
 42
6.283185307179586
  0
ELLIPSE
  5
271
330
20E
100
AcDbEntity
  8
bold
100
AcDbEllipse
 10
19.69999999999966
 20
-0.420259134649798
 30
0.0
 11
-1.500000000000348
 21
1.454454940882265E-11
 31
0.0
210
0.0
220
0.0
230
1.0
 40
0.999658055584078
 41
2.887701696379878
 42
3.124153118185163
  0
ELLIPSE
  5
272
330
20E
100
AcDbEntity
  8
bold
100
AcDbEllipse
 10
19.7
 20
-0.4202591346498608
 30
0.0
 11
-1.5
 21
2.479854761162070E-13
 31
0.0
210
0.0
220
0.0
230
1.0
 40
0.9996580555840792
 41
0.0174395354205323
 42
2.334709725523616
  0
ELLIPSE
  5
273
330
20E
100
AcDbEntity
  8
bold
100
AcDbEllipse
 10
15.3
 20
-0.4202591346498612
 30
0.0
 11
-1.5
 21
7.212614901558225E-14
 31
0.0
210
0.0
220
0.0
230
1.0
 40
0.9996580555840778
 41
0.0174395353922829
 42
3.124153118219434
  0
LINE
  5
274
330
20E
100
AcDbEntity
  8
bold
100
AcDbLine
 10
19.85
 20
-2.471873311015878
 30
0.0
 11
15.15
 21
-2.471873311015878
 31
0.0
  0
LINE
  5
275
330
20E
100
AcDbEntity
  8
bold
100
AcDbLine
 10
19.85
 20
-2.47955730390086
 30
0.0
 11
15.15
 21
-2.47955730390086
 31
0.0
  0
LINE
  5
276
330
20E
100
AcDbEntity
  8
bold
100
AcDbLine
 10
24.5
 20
-5.965098873457346
 30
0.0
 11
10.5
 21
-5.965098873457346
 31
0.0
  0
LWPOLYLINE
  5
277
330
20E
100
AcDbEntity
  8
bold
100
AcDbPolyline
 90
       16
 70
     0
 43
0.0
 10
15.15
 20
-2.479557303900861
 10
14.97568851450469
 20
-2.471978232346598
 10
14.80270364466614
 20
-2.449298698994709
 10
14.63236190979496
 20
-2.411691308788275
 10
14.46595971334867
 20
-2.359442276674732
 10
14.3047634765186
 20
-2.292949249337291
 10
14.15
 20
-2.21271827886358
 10
14.00284712729791
 20
-2.119359971383686
 10
13.86442478062692
 20
-2.013584839988819
 10
13.73578643762691
 20
-1.896197897297665
 10
13.61791111376204
 20
-1.768092528824277
 10
13.51169591142202
 20
-1.630243693774874
 10
13.41794919243113
 20
-1.483700505019585
 10
13.3373844259267
 20
-1.329578244710033
 10
13.27061475842818
 20
-1.16904987630874
 10
13.23611118170007
 20
-1.06598089912704
  0
LINE
  5
278
330
20E
100
AcDbEntity
  8
light
100
AcDbLine
 10
15.15
 20
-2.47955730390086
 30
0.0
 11
15.15
 21
-2.471873311015878
 31
0.0
  0
ELLIPSE
  5
279
330
20E
100
AcDbEntity
  8
bold
100
AcDbEllipse
 10
15.15
 20
-0.4725571998477244
 30
0.0
 11
1.999999999999998
 21
-1.266111943170766E-13
 31
0.0
210
0.0
220
0.0
230
1.0
 40
0.999658055584078
 41
3.141592653589854
 42
4.712388980384755
  0
LWPOLYLINE
  5
27A
330
20E
100
AcDbEntity
  8
bold
100
AcDbPolyline
 90
       19
 70
     0
 43
0.0
 10
13.15
 20
-0.4859323472222525
 10
13.15761060381651
 20
-0.3117691718993513
 10
13.18038449397559
 20
-0.138931483503258
 10
13.21814834742186
 20
0.0312653187950838
 10
13.27061475842818
 20
0.1975259345625444
 10
13.3373844259267
 20
0.3585850201222291
 10
13.41794919243112
 20
0.5132168185828937
 10
13.51169591142202
 20
0.6602444885890203
 10
13.61791111376204
 20
0.7985490607941272
 10
13.7357864376269
 20
0.9270779538931497
 10
13.86442478062692
 20
1.044852985401737
 10
14.00284712729791
 20
1.150977816215601
 10
14.15
 20
1.244644772292322
 10
14.3047634765186
 20
1.325140991538502
 10
14.46595971334866
 20
1.391853849120732
 10
14.63236190979496
 20
1.444275619910487
 10
14.80270364466614
 20
1.482007342578926
 10
14.97568851450468
 20
1.504761855933504
 10
15.15
 20
1.512365984388042
  0
LINE
  5
27B
330
20E
100
AcDbEntity
  8
light
100
AcDbLine
 10
19.85
 20
-2.47955730390086
 30
0.0
 11
19.85
 21
-2.471873311015878
 31
0.0
  0
LWPOLYLINE
  5
27C
330
20E
100
AcDbEntity
  8
bold
100
AcDbPolyline
 90
       16
 70
     0
 43
0.0
 10
21.76388881829993
 20
-1.065980899127039
 10
21.70600828097757
 20
-1.229896201589408
 10
21.63400239994852
 20
-1.388164036497847
 10
21.54841918344577
 20
-1.539579890063971
 10
21.44990997142345
 20
-1.682991396214751
 10
21.33922447846655
 20
-1.817307106794142
 10
21.21720508801019
 20
-1.941504798142594
 10
21.08478044129307
 20
-2.054639250836327
 10
20.94295836983689
 20
-2.155849443377892
 10
20.79281822523995
 20
-2.244365105089662
 10
20.63550266465972
 20
-2.319512578338795
 10
20.47220895450196
 20
-2.380719945478577
 10
20.30417985850039
 20
-2.427521381487058
 10
20.13269417953435
 20
-2.459560699176732
 10
19.95905702716663
 20
-2.476594059994112
 10
19.85
 20
-2.479557303900861
  0
ELLIPSE
  5
27D
330
20E
100
AcDbEntity
  8
bold
100
AcDbEllipse
 10
19.85
 20
-0.4725571998477245
 30
0.0
 11
1.999999999999996
 21
1.234568003383174E-13
 31
0.0
210
0.0
220
0.0
230
1.0
 40
0.9996580555840783
 41
4.712388980384625
 42
6.283185307179526
  0
LWPOLYLINE
  5
27E
330
20E
100
AcDbEntity
  8
bold
100
AcDbPolyline
 90
        5
 70
     0
 43
0.0
 10
21.85
 20
-0.485932347222252
 10
21.84238939618349
 20
-0.6600955225451531
 10
21.81961550602442
 20
-0.8329332109412466
 10
21.78185165257814
 20
-1.003130013239588
 10
21.76388881829993
 20
-1.065980899127039
  0
LINE
  5
27F
330
20E
100
AcDbEntity
  8
bold
100
AcDbLine
 10
24.5
 20
1.800292765509993
 30
0.0
 11
24.5
 21
-16.0703822864245
 31
0.0
  0
LINE
  5
280
330
20E
100
AcDbEntity
  8
bold
100
AcDbLine
 10
10.5
 20
1.800292765509993
 30
0.0
 11
10.5
 21
-16.0703822864245
 31
0.0
  0
LINE
  5
281
330
20E
100
AcDbEntity
  8
bold
100
AcDbLine
 10
13.23611118170008
 20
-1.06598089912704
 30
0.0
 11
10.5
 21
-1.06598089912704
 31
0.0
  0
LWPOLYLINE
  5
282
330
20E
100
AcDbEntity
  8
bold
100
AcDbPolyline
 90
        5
 70
     0
 43
0.0
 10
13.23611118170007
 20
-1.06598089912704
 10
13.19279649392263
 20
-0.8971091623605407
 10
13.16437730661823
 20
-0.7251081217554901
 10
13.15106990696223
 20
-0.5512868090879605
 10
13.15
 20
-0.4859323472222525
  0
LINE
  5
283
330
20E
100
AcDbEntity
  8
bold
100
AcDbLine
 10
15.15
 20
1.512365984388043
 30
0.0
 11
19.85
 21
1.512365984388043
 31
0.0
  0
LWPOLYLINE
  5
284
330
20E
100
AcDbEntity
  8
bold
100
AcDbPolyline
 90
       19
 70
     0
 43
0.0
 10
19.85
 20
1.512365984388042
 10
20.02431148549532
 20
1.504761855933504
 10
20.19729635533386
 20
1.482007342578926
 10
20.36763809020504
 20
1.444275619910488
 10
20.53404028665133
 20
1.391853849120734
 10
20.69523652348139
 20
1.325140991538504
 10
20.85
 20
1.244644772292324
 10
20.99715287270209
 20
1.150977816215603
 10
21.13557521937307
 20
1.04485298540174
 10
21.26421356237309
 20
0.9270779538931527
 10
21.38208888623796
 20
0.7985490607941303
 10
21.48830408857798
 20
0.6602444885890235
 10
21.58205080756888
 20
0.5132168185828971
 10
21.6626155740733
 20
0.3585850201222328
 10
21.72938524157182
 20
0.1975259345625483
 10
21.78185165257814
 20
0.0312653187950876
 10
21.81961550602442
 20
-0.138931483503254
 10
21.84238939618349
 20
-0.3117691718993473
 10
21.85
 20
-0.4859323472222485
  0
LINE
  5
285
330
20E
100
AcDbEntity
  8
bold
100
AcDbLine
 10
24.5
 20
-1.06598089912704
 30
0.0
 11
21.76388881829993
 21
-1.06598089912704
 31
0.0
  0
ARC
  5
286
330
20E
100
AcDbEntity
  8
bold
100
AcDbCircle
 10
15.22
 20
-0.4725571998477187
 30
0.0
 40
1.400000000000002
100
AcDbArc
 50
180.0000000000002
 51
359.9999999999998
  0
ELLIPSE
  5
287
330
20E
100
AcDbEntity
  8
light
100
AcDbEllipse
 10
15.22
 20
-0.4725571998477237
 30
0.0
 11
-1.400000000000002
 21
1.714505518806297E-16
 31
0.0
210
0.0
220
0.0
230
1.0
 40
0.9996580555840779
 41
3.141592653589794
 42
6.283185307179585
  0
ARC
  5
288
330
20E
100
AcDbEntity
  8
bold
100
AcDbCircle
 10
19.79
 20
-0.472557199847721
 30
0.0
 40
1.400000000000002
100
AcDbArc
 50
180.0
 51
359.9999999999999
  0
ELLIPSE
  5
289
330
20E
100
AcDbEntity
  8
light
100
AcDbEllipse
 10
19.79
 20
-0.4725571998477207
 30
0.0
 11
-1.399999999999999
 21
1.714505518806293E-16
 31
0.0
210
0.0
220
0.0
230
1.0
 40
0.9996580555840787
 41
3.141592653589793
 42
6.283185307179588
  0
LINE
  5
28A
330
20E
100
AcDbEntity
  8
bold
100
AcDbLine
 10
26.0
 20
3.12534066497247
 30
0.0
 11
9.000000000000002
 21
3.12534066497247
 31
0.0
  0
LINE
  5
28B
330
20E
100
AcDbEntity
  8
bold
100
AcDbLine
 10
26.0
 20
1.800292765509993
 30
0.0
 11
9.000000000000002
 21
1.800292765509993
 31
0.0
  0
LINE
  5
28C
330
20E
100
AcDbEntity
  8
bold
100
AcDbLine
 10
26.0
 20
3.099186681056685
 30
0.0
 11
9.000000000000002
 21
3.099186681056685
 31
0.0
  0
LINE
  5
28D
330
20E
100
AcDbEntity
  8
bold
100
AcDbLine
 10
26.0
 20
24.89495001963499
 30
0.0
 11
26.0
 21
20.09693077828998
 31
0.0
  0
LINE
  5
28E
330
20E
100
AcDbEntity
  8
bold
100
AcDbLine
 10
26.0
 20
9.493741342209626
 30
0.0
 11
9.000000000000002
 21
9.493741342209626
 31
0.0
  0
LINE
  5
28F
330
20E
100
AcDbEntity
  8
bold
100
AcDbLine
 10
9.000000000000002
 20
24.89495001963499
 30
0.0
 11
9.000000000000002
 21
1.800292765509993
 31
0.0
  0
LINE
  5
290
330
20E
100
AcDbEntity
  8
bold
100
AcDbLine
 10
26.0
 20
24.55820019359489
 30
0.0
 11
9.000000000000002
 21
24.55820019359489
 31
0.0
  0
LINE
  5
291
330
20E
100
AcDbEntity
  8
bold
100
AcDbLine
 10
26.0
 20
24.89495001963499
 30
0.0
 11
9.000000000000002
 21
24.89495001963499
 31
0.0
  0
ELLIPSE
  5
292
330
20E
100
AcDbEntity
  8
bold
100
AcDbEllipse
 10
19.7
 20
-0.4725571998477236
 30
0.0
 11
-1.5
 21
-1.148570609678085E-15
 31
0.0
210
0.0
220
0.0
230
1.0
 40
0.9996580555840794
 41
0.0
 42
6.283185307179586
  0
ELLIPSE
  5
293
330
20E
100
AcDbEntity
  8
bold
100
AcDbEllipse
 10
15.3
 20
-0.4725571998477222
 30
0.0
 11
-1.5
 21
-1.148570609678085E-15
 31
0.0
210
0.0
220
0.0
230
1.0
 40
0.9996580555840785
 41
0.0
 42
6.283185307179586
  0
ENDBLK
  5
211
330
20E
100
AcDbEntity
  8
0
100
AcDbBlockEnd
  0
BLOCK
  5
296
330
294
100
AcDbEntity
  8
0
100
AcDbBlockBegin
  2
6_79615000_0_in_31955_0
 70
     2
 10
0.0
 20
0.0
 30
0.0
  3
6_79615000_0_in_31955_0
  1

  0
ATTDEF
  5
298
330
294
100
AcDbEntity
  8
attrib
100
AcDbText
 10
32.95
 20
34.0
 30
0.0
 40
0.5
  1
79615000
100
AcDbAttributeDefinition
  3

  2
NB
 70
     8
280
     0
  0
ATTDEF
  5
299
330
294
100
AcDbEntity
  8
attrib
100
AcDbText
 10
32.95
 20
33.5
 30
0.0
 40
0.5
  1
AMBUS60 Holder for cylindrical fuse part
100
AcDbAttributeDefinition
  3

  2
NN
 70
     8
280
     0
  0
ATTDEF
  5
29A
330
294
100
AcDbEntity
  8
attrib
100
AcDbText
 10
32.95
 20
33.0
 30
0.0
 40
0.5
  1

100
AcDbAttributeDefinition
  3

  2
NT
 70
     8
280
     0
  0
ATTDEF
  5
29B
330
294
100
AcDbEntity
  8
attrib
100
AcDbText
 10
32.95
 20
32.5
 30
0.0
 40
0.5
  1
$ARTNR.
100
AcDbAttributeDefinition
  3

  2
NBSYN
 70
     8
280
     0
  0
ATTDEF
  5
29C
330
294
100
AcDbEntity
  8
attrib
100
AcDbText
 10
32.95
 20
32.0
 30
0.0
 40
0.5
  1
79615000
100
AcDbAttributeDefinition
  3

  2
LINA
 70
     8
280
     0
  0
ATTDEF
  5
29D
330
294
100
AcDbEntity
  8
attrib
100
AcDbText
 10
32.95
 20
31.5
 30
0.0
 40
0.5
  1
Wöhner
100
AcDbAttributeDefinition
  3

  2
CATALOG
 70
     8
280
     0
  0
ATTDEF
  5
29E
330
294
100
AcDbEntity
  8
attrib
100
AcDbText
 10
32.95
 20
31.0
 30
0.0
 40
0.5
  1
79615000
100
AcDbAttributeDefinition
  3

  2
ARTNR
 70
     8
280
     0
  0
ATTDEF
  5
29F
330
294
100
AcDbEntity
  8
attrib
100
AcDbText
 10
32.95
 20
30.5
 30
0.0
 40
0.5
  1
AMBUS®60Classic
100
AcDbAttributeDefinition
  3

  2
POF
 70
     8
280
     0
  0
ATTDEF
  5
2A0
330
294
100
AcDbEntity
  8
attrib
100
AcDbText
 10
32.95
 20
30.0
 30
0.0
 40
0.5
  1
1
100
AcDbAttributeDefinition
  3

  2
VER
 70
     8
280
     0
  0
ATTDEF
  5
2A1
330
294
100
AcDbEntity
  8
attrib
100
AcDbText
 10
32.95
 20
29.5
 30
0.0
 40
0.5
  1
woehner
100
AcDbAttributeDefinition
  3

  2
COMPANY
 70
     8
280
     0
  0
ATTDEF
  5
2A2
330
294
100
AcDbEntity
  8
attrib
100
AcDbText
 10
32.95
 20
29.0
 30
0.0
 40
0.5
  1
{$CADENAS_DATA/23d-libs/woehner/sys_60classic/fuse_holders_iec_en/parts/holder_cylindrical_fuse_ambus_iec_v2_part1.prj},204 {VTYP=3D},{NB=79615000},{LINA=79615000},{NN=AMBUS60 Holder for cylindrical fuse part},{DATE=26.01.2024 07:04:31},{GEOMDATE=02.10.20
100
AcDbAttributeDefinition
  3

  2
PSOL_0
 70
     9
280
     0
  0
ATTDEF
  5
2A3
330
294
100
AcDbEntity
  8
attrib
100
AcDbText
 10
32.95
 20
28.5
 30
0.0
 40
0.5
  1
23 08:38:00},{VERSION=v231002115156},{LINEID=930},{WBVAR=},{WBNUMERIC=}  {NB=79615000},{LINA=79615000},{KT=DUMMY},{ARTNR=79615000},{POF=AMBUS®60Classic},{VER=1}
100
AcDbAttributeDefinition
  3

  2
PSOL_1
 70
     9
280
     0
  0
LINE
  5
2A4
330
294
100
AcDbEntity
  8
hidden
100
AcDbLine
 10
27.0
 20
-10.49999999999999
 30
0.0
 11
0.0
 21
-10.49999999999999
 31
0.0
  0
LINE
  5
2A5
330
294
100
AcDbEntity
  8
hidden
100
AcDbLine
 10
22.1
 20
-129.5
 30
0.0
 11
22.1
 21
-117.5
 31
0.0
  0
LINE
  5
2A6
330
294
100
AcDbEntity
  8
hidden
100
AcDbLine
 10
4.9
 20
-129.5
 30
0.0
 11
4.9
 21
-117.5
 31
0.0
  0
LINE
  5
2A7
330
294
100
AcDbEntity
  8
hidden
100
AcDbLine
 10
6.500000000000001
 20
-129.5
 30
0.0
 11
6.500000000000001
 21
-117.5
 31
0.0
  0
LINE
  5
2A8
330
294
100
AcDbEntity
  8
hidden
100
AcDbLine
 10
1.6
 20
-129.5
 30
0.0
 11
1.600000000000001
 21
-117.5
 31
0.0
  0
LINE
  5
2A9
330
294
100
AcDbEntity
  8
hidden
100
AcDbLine
 10
25.4
 20
-129.5
 30
0.0
 11
22.1
 21
-129.5
 31
0.0
  0
LINE
  5
2AA
330
294
100
AcDbEntity
  8
hidden
100
AcDbLine
 10
20.5
 20
-129.5
 30
0.0
 11
6.500000000000001
 21
-129.5
 31
0.0
  0
LINE
  5
2AB
330
294
100
AcDbEntity
  8
hidden
100
AcDbLine
 10
27.0
 20
-130.5
 30
0.0
 11
0.0
 21
-130.5
 31
0.0
  0
LINE
  5
2AC
330
294
100
AcDbEntity
  8
hidden
100
AcDbLine
 10
4.9
 20
-129.5
 30
0.0
 11
1.6
 21
-129.5
 31
0.0
  0
LINE
  5
2AD
330
294
100
AcDbEntity
  8
hidden
100
AcDbLine
 10
4.9
 20
-69.5
 30
0.0
 11
4.9
 21
-57.49999999999999
 31
0.0
  0
LINE
  5
2AE
330
294
100
AcDbEntity
  8
hidden
100
AcDbLine
 10
6.500000000000001
 20
-69.5
 30
0.0
 11
6.500000000000001
 21
-57.49999999999999
 31
0.0
  0
LINE
  5
2AF
330
294
100
AcDbEntity
  8
hidden
100
AcDbLine
 10
1.6
 20
-69.5
 30
0.0
 11
1.600000000000001
 21
-57.49999999999999
 31
0.0
  0
LINE
  5
2B0
330
294
100
AcDbEntity
  8
hidden
100
AcDbLine
 10
25.4
 20
-69.5
 30
0.0
 11
22.1
 21
-69.5
 31
0.0
  0
LINE
  5
2B1
330
294
100
AcDbEntity
  8
hidden
100
AcDbLine
 10
4.9
 20
-69.5
 30
0.0
 11
1.6
 21
-69.5
 31
0.0
  0
LINE
  5
2B2
330
294
100
AcDbEntity
  8
hidden
100
AcDbLine
 10
27.0
 20
-70.5
 30
0.0
 11
0.0
 21
-70.5
 31
0.0
  0
LINE
  5
2B3
330
294
100
AcDbEntity
  8
hidden
100
AcDbLine
 10
20.5
 20
-69.5
 30
0.0
 11
6.500000000000001
 21
-69.5
 31
0.0
  0
LINE
  5
2B4
330
294
100
AcDbEntity
  8
hidden
100
AcDbLine
 10
20.5
 20
-57.49999999999999
 30
0.0
 11
6.500000000000001
 21
-57.49999999999999
 31
0.0
  0
LINE
  5
2B5
330
294
100
AcDbEntity
  8
hidden
100
AcDbLine
 10
20.5
 20
2.500000000000002
 30
0.0
 11
6.500000000000001
 21
2.500000000000002
 31
0.0
  0
LINE
  5
2B6
330
294
100
AcDbEntity
  8
hidden
100
AcDbLine
 10
25.4
 20
2.500000000000002
 30
0.0
 11
22.1
 21
2.500000000000002
 31
0.0
  0
LINE
  5
2B7
330
294
100
AcDbEntity
  8
hidden
100
AcDbLine
 10
25.4
 20
-57.49999999999999
 30
0.0
 11
22.1
 21
-57.49999999999999
 31
0.0
  0
LINE
  5
2B8
330
294
100
AcDbEntity
  8
hidden
100
AcDbLine
 10
20.5
 20
-69.5
 30
0.0
 11
20.5
 21
-57.49999999999999
 31
0.0
  0
LINE
  5
2B9
330
294
100
AcDbEntity
  8
hidden
100
AcDbLine
 10
4.9
 20
2.500000000000002
 30
0.0
 11
1.600000000000001
 21
2.500000000000002
 31
0.0
  0
LINE
  5
2BA
330
294
100
AcDbEntity
  8
hidden
100
AcDbLine
 10
20.5
 20
-129.5
 30
0.0
 11
20.5
 21
-117.5
 31
0.0
  0
LINE
  5
2BB
330
294
100
AcDbEntity
  8
hidden
100
AcDbLine
 10
20.5
 20
-117.5
 30
0.0
 11
6.500000000000001
 21
-117.5
 31
0.0
  0
LINE
  5
2BC
330
294
100
AcDbEntity
  8
hidden
100
AcDbLine
 10
4.9
 20
-117.5
 30
0.0
 11
1.600000000000001
 21
-117.5
 31
0.0
  0
LINE
  5
2BD
330
294
100
AcDbEntity
  8
hidden
100
AcDbLine
 10
25.4
 20
-117.5
 30
0.0
 11
22.1
 21
-117.5
 31
0.0
  0
LINE
  5
2BE
330
294
100
AcDbEntity
  8
hidden
100
AcDbLine
 10
20.5
 20
-9.000000000000002
 30
0.0
 11
20.5
 21
2.500000000000002
 31
0.0
  0
LINE
  5
2BF
330
294
100
AcDbEntity
  8
hidden
100
AcDbLine
 10
4.9
 20
-57.49999999999999
 30
0.0
 11
1.600000000000001
 21
-57.49999999999999
 31
0.0
  0
LINE
  5
2C0
330
294
100
AcDbEntity
  8
hidden
100
AcDbLine
 10
1.6
 20
-129.0
 30
0.0
 11
0.0
 21
-129.0
 31
0.0
  0
LINE
  5
2C1
330
294
100
AcDbEntity
  8
hidden
100
AcDbLine
 10
27.0
 20
-129.0
 30
0.0
 11
26.0
 21
-129.0
 31
0.0
  0
LINE
  5
2C2
330
294
100
AcDbEntity
  8
hidden
100
AcDbLine
 10
1.6
 20
-9.000000000000002
 30
0.0
 11
1.600000000000001
 21
2.500000000000002
 31
0.0
  0
LINE
  5
2C3
330
294
100
AcDbEntity
  8
hidden
100
AcDbLine
 10
9.499999999999998
 20
-9.000000000000002
 30
0.0
 11
0.0
 21
-9.000000000000002
 31
0.0
  0
LINE
  5
2C4
330
294
100
AcDbEntity
  8
hidden
100
AcDbLine
 10
27.0
 20
-69.0
 30
0.0
 11
26.0
 21
-69.0
 31
0.0
  0
LINE
  5
2C5
330
294
100
AcDbEntity
  8
hidden
100
AcDbLine
 10
27.0
 20
-9.000000000000002
 30
0.0
 11
26.0
 21
-9.000000000000002
 31
0.0
  0
LINE
  5
2C6
330
294
100
AcDbEntity
  8
hidden
100
AcDbLine
 10
1.6
 20
-69.0
 30
0.0
 11
0.0
 21
-69.0
 31
0.0
  0
LINE
  5
2C7
330
294
100
AcDbEntity
  8
hidden
100
AcDbLine
 10
25.4
 20
-117.5
 30
0.0
 11
25.4
 21
-129.5
 31
0.0
  0
LINE
  5
2C8
330
294
100
AcDbEntity
  8
hidden
100
AcDbLine
 10
27.0
 20
-121.85
 30
0.0
 11
25.4
 21
-121.85
 31
0.0
  0
LINE
  5
2C9
330
294
100
AcDbEntity
  8
hidden
100
AcDbLine
 10
27.0
 20
-126.5
 30
0.0
 11
25.4
 21
-126.5
 31
0.0
  0
LINE
  5
2CA
330
294
100
AcDbEntity
  8
hidden
100
AcDbLine
 10
25.4
 20
-57.49999999999999
 30
0.0
 11
25.4
 21
-69.5
 31
0.0
  0
LINE
  5
2CB
330
294
100
AcDbEntity
  8
hidden
100
AcDbLine
 10
27.0
 20
-61.84999999999999
 30
0.0
 11
25.4
 21
-61.84999999999999
 31
0.0
  0
LINE
  5
2CC
330
294
100
AcDbEntity
  8
hidden
100
AcDbLine
 10
27.0
 20
-66.5
 30
0.0
 11
25.4
 21
-66.5
 31
0.0
  0
LINE
  5
2CD
330
294
100
AcDbEntity
  8
hidden
100
AcDbLine
 10
1.600000000000001
 20
-1.849999999999997
 30
0.0
 11
0.0
 21
-1.849999999999997
 31
0.0
  0
LINE
  5
2CE
330
294
100
AcDbEntity
  8
hidden
100
AcDbLine
 10
1.600000000000001
 20
-6.499999999999999
 30
0.0
 11
0.0
 21
-6.499999999999999
 31
0.0
  0
LINE
  5
2CF
330
294
100
AcDbEntity
  8
hidden
100
AcDbLine
 10
1.600000000000001
 20
-61.84999999999999
 30
0.0
 11
0.0
 21
-61.84999999999999
 31
0.0
  0
LINE
  5
2D0
330
294
100
AcDbEntity
  8
hidden
100
AcDbLine
 10
1.600000000000001
 20
-66.5
 30
0.0
 11
0.0
 21
-66.5
 31
0.0
  0
LINE
  5
2D1
330
294
100
AcDbEntity
  8
hidden
100
AcDbLine
 10
1.600000000000001
 20
-126.5
 30
0.0
 11
0.0
 21
-126.5
 31
0.0
  0
LINE
  5
2D2
330
294
100
AcDbEntity
  8
hidden
100
AcDbLine
 10
1.600000000000001
 20
-121.85
 30
0.0
 11
0.0
 21
-121.85
 31
0.0
  0
LINE
  5
2D3
330
294
100
AcDbEntity
  8
hidden
100
AcDbLine
 10
27.0
 20
-1.849999999999997
 30
0.0
 11
25.4
 21
-1.849999999999997
 31
0.0
  0
LINE
  5
2D4
330
294
100
AcDbEntity
  8
hidden
100
AcDbLine
 10
25.4
 20
2.500000000000002
 30
0.0
 11
25.4
 21
-9.000000000000002
 31
0.0
  0
LINE
  5
2D5
330
294
100
AcDbEntity
  8
hidden
100
AcDbLine
 10
27.0
 20
-6.499999999999999
 30
0.0
 11
25.4
 21
-6.499999999999999
 31
0.0
  0
LINE
  5
2D6
330
294
100
AcDbEntity
  8
hidden
100
AcDbLine
 10
26.0
 20
-30.0
 30
0.0
 11
24.0
 21
-30.0
 31
0.0
  0
LINE
  5
2D7
330
294
100
AcDbEntity
  8
hidden
100
AcDbLine
 10
26.0
 20
-25.0
 30
0.0
 11
24.0
 21
-25.0
 31
0.0
  0
LINE
  5
2D8
330
294
100
AcDbEntity
  8
hidden
100
AcDbLine
 10
6.500000000000001
 20
-69.0
 30
0.0
 11
4.9
 21
-68.99999999999999
 31
0.0
  0
LINE
  5
2D9
330
294
100
AcDbEntity
  8
hidden
100
AcDbLine
 10
22.1
 20
-121.85
 30
0.0
 11
20.5
 21
-121.85
 31
0.0
  0
LINE
  5
2DA
330
294
100
AcDbEntity
  8
hidden
100
AcDbLine
 10
22.1
 20
-68.99999999999999
 30
0.0
 11
20.5
 21
-68.99999999999997
 31
0.0
  0
LINE
  5
2DB
330
294
100
AcDbEntity
  8
hidden
100
AcDbLine
 10
22.1
 20
-61.84999999999999
 30
0.0
 11
20.5
 21
-61.84999999999999
 31
0.0
  0
LINE
  5
2DC
330
294
100
AcDbEntity
  8
hidden
100
AcDbLine
 10
22.1
 20
-69.5
 30
0.0
 11
22.1
 21
-57.49999999999999
 31
0.0
  0
LINE
  5
2DD
330
294
100
AcDbEntity
  8
hidden
100
AcDbLine
 10
22.1
 20
-66.49999999999999
 30
0.0
 11
20.5
 21
-66.49999999999999
 31
0.0
  0
LINE
  5
2DE
330
294
100
AcDbEntity
  8
hidden
100
AcDbLine
 10
6.500000000000001
 20
-61.84999999999999
 30
0.0
 11
4.9
 21
-61.84999999999999
 31
0.0
  0
LINE
  5
2DF
330
294
100
AcDbEntity
  8
hidden
100
AcDbLine
 10
6.500000000000001
 20
-66.49999999999999
 30
0.0
 11
4.9
 21
-66.49999999999999
 31
0.0
  0
LINE
  5
2E0
330
294
100
AcDbEntity
  8
hidden
100
AcDbLine
 10
6.500000000000001
 20
-1.849999999999997
 30
0.0
 11
4.9
 21
-1.849999999999997
 31
0.0
  0
LINE
  5
2E1
330
294
100
AcDbEntity
  8
hidden
100
AcDbLine
 10
22.1
 20
-1.849999999999997
 30
0.0
 11
20.5
 21
-1.849999999999997
 31
0.0
  0
LINE
  5
2E2
330
294
100
AcDbEntity
  8
hidden
100
AcDbLine
 10
6.500000000000001
 20
-129.0
 30
0.0
 11
4.9
 21
-129.0
 31
0.0
  0
LINE
  5
2E3
330
294
100
AcDbEntity
  8
hidden
100
AcDbLine
 10
22.1
 20
-6.499999999999999
 30
0.0
 11
20.5
 21
-6.499999999999999
 31
0.0
  0
LINE
  5
2E4
330
294
100
AcDbEntity
  8
hidden
100
AcDbLine
 10
24.5
 20
-9.000000000000002
 30
0.0
 11
10.5
 21
-9.000000000000002
 31
0.0
  0
LINE
  5
2E5
330
294
100
AcDbEntity
  8
hidden
100
AcDbLine
 10
22.1
 20
-9.000000000000002
 30
0.0
 11
22.1
 21
2.500000000000002
 31
0.0
  0
LINE
  5
2E6
330
294
100
AcDbEntity
  8
hidden
100
AcDbLine
 10
4.9
 20
-9.000000000000002
 30
0.0
 11
4.9
 21
2.500000000000002
 31
0.0
  0
LINE
  5
2E7
330
294
100
AcDbEntity
  8
hidden
100
AcDbLine
 10
6.500000000000001
 20
-9.000000000000002
 30
0.0
 11
6.500000000000001
 21
2.500000000000002
 31
0.0
  0
LINE
  5
2E8
330
294
100
AcDbEntity
  8
hidden
100
AcDbLine
 10
6.500000000000001
 20
-6.499999999999999
 30
0.0
 11
4.9
 21
-6.499999999999999
 31
0.0
  0
LINE
  5
2E9
330
294
100
AcDbEntity
  8
hidden
100
AcDbLine
 10
6.500000000000001
 20
-126.5
 30
0.0
 11
4.9
 21
-126.5
 31
0.0
  0
LINE
  5
2EA
330
294
100
AcDbEntity
  8
hidden
100
AcDbLine
 10
6.500000000000001
 20
-121.85
 30
0.0
 11
4.9
 21
-121.85
 31
0.0
  0
LINE
  5
2EB
330
294
100
AcDbEntity
  8
hidden
100
AcDbLine
 10
22.1
 20
-126.5
 30
0.0
 11
20.5
 21
-126.5
 31
0.0
  0
LINE
  5
2EC
330
294
100
AcDbEntity
  8
hidden
100
AcDbLine
 10
22.1
 20
-129.0
 30
0.0
 11
20.5
 21
-129.0
 31
0.0
  0
LINE
  5
2ED
330
294
100
AcDbEntity
  8
hidden
100
AcDbLine
 10
26.0
 20
-20.0
 30
0.0
 11
24.0
 21
-20.0
 31
0.0
  0
LINE
  5
2EE
330
294
100
AcDbEntity
  8
hidden
100
AcDbLine
 10
26.0
 20
-15.0
 30
0.0
 11
24.0
 21
-15.0
 31
0.0
  0
LINE
  5
2EF
330
294
100
AcDbEntity
  8
hidden
100
AcDbLine
 10
27.0
 20
-164.7
 30
0.0
 11
1.5
 21
-164.7
 31
0.0
  0
LINE
  5
2F0
330
294
100
AcDbEntity
  8
hidden
100
AcDbLine
 10
1.5
 20
-162.0
 30
0.0
 11
1.5
 21
-164.7
 31
0.0
  0
LINE
  5
2F1
330
294
100
AcDbEntity
  8
hidden
100
AcDbLine
 10
27.0
 20
-163.2
 30
0.0
 11
8.0
 21
-163.2
 31
0.0
  0
LINE
  5
2F2
330
294
100
AcDbEntity
  8
hidden
100
AcDbLine
 10
12.0
 20
-121.0
 30
0.0
 11
22.0
 21
-121.0
 31
0.0
  0
LINE
  5
2F3
330
294
100
AcDbEntity
  8
hidden
100
AcDbLine
 10
12.0
 20
-72.0
 30
0.0
 11
12.0
 21
-61.0
 31
0.0
  0
LINE
  5
2F4
330
294
100
AcDbEntity
  8
hidden
100
AcDbLine
 10
22.0
 20
-132.0
 30
0.0
 11
22.0
 21
-121.0
 31
0.0
  0
LINE
  5
2F5
330
294
100
AcDbEntity
  8
hidden
100
AcDbLine
 10
22.0
 20
-12.0
 30
0.0
 11
22.0
 21
-1.000000000000001
 31
0.0
  0
LINE
  5
2F6
330
294
100
AcDbEntity
  8
hidden
100
AcDbLine
 10
12.0
 20
-12.0
 30
0.0
 11
12.0
 21
-1.000000000000001
 31
0.0
  0
LINE
  5
2F7
330
294
100
AcDbEntity
  8
hidden
100
AcDbLine
 10
12.0
 20
-132.0
 30
0.0
 11
22.0
 21
-132.0
 31
0.0
  0
LINE
  5
2F8
330
294
100
AcDbEntity
  8
hidden
100
AcDbLine
 10
27.0
 20
-102.0
 30
0.0
 11
0.0
 21
-102.0
 31
0.0
  0
LINE
  5
2F9
330
294
100
AcDbEntity
  8
hidden
100
AcDbLine
 10
27.0
 20
-60.0
 30
0.0
 11
0.0
 21
-60.0
 31
0.0
  0
LINE
  5
2FA
330
294
100
AcDbEntity
  8
hidden
100
AcDbLine
 10
12.0
 20
-61.0
 30
0.0
 11
22.0
 21
-61.0
 31
0.0
  0
LINE
  5
2FB
330
294
100
AcDbEntity
  8
hidden
100
AcDbLine
 10
12.0
 20
-72.0
 30
0.0
 11
22.0
 21
-72.0
 31
0.0
  0
LINE
  5
2FC
330
294
100
AcDbEntity
  8
hidden
100
AcDbLine
 10
27.0
 20
0.0
 30
0.0
 11
0.0
 21
0.0
 31
0.0
  0
LINE
  5
2FD
330
294
100
AcDbEntity
  8
hidden
100
AcDbLine
 10
12.0
 20
-132.0
 30
0.0
 11
12.0
 21
-121.0
 31
0.0
  0
LINE
  5
2FE
330
294
100
AcDbEntity
  8
hidden
100
AcDbLine
 10
26.0
 20
-12.0
 30
0.0
 11
24.0
 21
-12.0
 31
0.0
  0
LINE
  5
2FF
330
294
100
AcDbEntity
  8
hidden
100
AcDbLine
 10
8.0
 20
-101.9507925382567
 30
0.0
 11
0.0
 21
-101.9507925382567
 31
0.0
  0
LINE
  5
300
330
294
100
AcDbEntity
  8
hidden
100
AcDbLine
 10
22.0
 20
-72.0
 30
0.0
 11
22.0
 21
-61.0
 31
0.0
  0
LINE
  5
301
330
294
100
AcDbEntity
  8
hidden
100
AcDbLine
 10
27.0
 20
-41.99999999999999
 30
0.0
 11
0.0
 21
-41.99999999999999
 31
0.0
  0
LINE
  5
302
330
294
100
AcDbEntity
  8
hidden
100
AcDbLine
 10
27.0
 20
-162.0
 30
0.0
 11
0.0
 21
-162.0
 31
0.0
  0
LINE
  5
303
330
294
100
AcDbEntity
  8
hidden
100
AcDbLine
 10
27.0
 20
-120.0
 30
0.0
 11
0.0
 21
-120.0
 31
0.0
  0
LINE
  5
304
330
294
100
AcDbEntity
  8
hidden
100
AcDbLine
 10
12.0
 20
-12.0
 30
0.0
 11
22.0
 21
-12.0
 31
0.0
  0
LINE
  5
305
330
294
100
AcDbEntity
  8
hidden
100
AcDbLine
 10
24.0
 20
-35.0
 30
0.0
 11
24.0
 21
-12.0
 31
0.0
  0
LINE
  5
306
330
294
100
AcDbEntity
  8
hidden
100
AcDbLine
 10
26.0
 20
-35.0
 30
0.0
 11
24.0
 21
-35.0
 31
0.0
  0
LINE
  5
307
330
294
100
AcDbEntity
  8
hidden
100
AcDbLine
 10
12.0
 20
-1.000000000000001
 30
0.0
 11
22.0
 21
-1.000000000000001
 31
0.0
  0
LINE
  5
308
330
294
100
AcDbEntity
  8
hidden
100
AcDbLine
 10
8.0
 20
-41.94049253825678
 30
0.0
 11
0.0
 21
-41.94049253825678
 31
0.0
  0
LINE
  5
309
330
294
100
AcDbEntity
  8
hidden
100
AcDbLine
 10
8.0
 20
-99.98117703223234
 30
0.0
 11
0.0
 21
-99.98117703223234
 31
0.0
  0
LINE
  5
30A
330
294
100
AcDbEntity
  8
hidden
100
AcDbLine
 10
8.0
 20
-39.97087703223237
 30
0.0
 11
0.0
 21
-39.97087703223237
 31
0.0
  0
LINE
  5
30B
330
294
100
AcDbEntity
  8
hidden
100
AcDbLine
 10
8.0
 20
-154.2
 30
0.0
 11
0.0
 21
-154.2
 31
0.0
  0
LINE
  5
30C
330
294
100
AcDbEntity
  8
hidden
100
AcDbLine
 10
8.0
 20
-94.13969999999999
 30
0.0
 11
0.0
 21
-94.13969999999999
 31
0.0
  0
LINE
  5
30D
330
294
100
AcDbEntity
  8
hidden
100
AcDbLine
 10
8.0
 20
-31.0
 30
0.0
 11
0.0
 21
-31.0
 31
0.0
  0
LINE
  5
30E
330
294
100
AcDbEntity
  8
hidden
100
AcDbLine
 10
8.0
 20
-29.75
 30
0.0
 11
0.0
 21
-29.75
 31
0.0
  0
LINE
  5
30F
330
294
100
AcDbEntity
  8
hidden
100
AcDbLine
 10
8.0
 20
-92.88969999999999
 30
0.0
 11
0.0
 21
-92.88969999999999
 31
0.0
  0
LINE
  5
310
330
294
100
AcDbEntity
  8
hidden
100
AcDbLine
 10
8.0
 20
-152.95
 30
0.0
 11
0.0
 21
-152.95
 31
0.0
  0
LINE
  5
311
330
294
100
AcDbEntity
  8
hidden
100
AcDbLine
 10
8.0
 20
-70.3064608846255
 30
0.0
 11
0.0
 21
-70.3064608846255
 31
0.0
  0
LINE
  5
312
330
294
100
AcDbEntity
  8
hidden
100
AcDbLine
 10
8.0
 20
-7.166760884625485
 30
0.0
 11
0.0
 21
-7.166760884625485
 31
0.0
  0
LINE
  5
313
330
294
100
AcDbEntity
  8
hidden
100
AcDbLine
 10
0.5000000000000013
 20
20.0
 30
0.0
 11
0.5
 21
17.0
 31
0.0
  0
LINE
  5
314
330
294
100
AcDbEntity
  8
hidden
100
AcDbLine
 10
7.499999999999998
 20
17.0
 30
0.0
 11
7.5
 21
20.0
 31
0.0
  0
CIRCLE
  5
315
330
294
100
AcDbEntity
  8
hidden
100
AcDbCircle
 10
4.0
 20
12.5
 30
0.0
 40
3.5
  0
LINE
  5
316
330
294
100
AcDbEntity
  8
hidden
100
AcDbLine
 10
0.5
 20
17.0
 30
0.0
 11
7.499999999999998
 21
17.0
 31
0.0
  0
LINE
  5
317
330
294
100
AcDbEntity
  8
hidden
100
AcDbLine
 10
7.5
 20
20.0
 30
0.0
 11
0.5000000000000013
 21
20.0
 31
0.0
  0
LINE
  5
318
330
294
100
AcDbEntity
  8
hidden
100
AcDbLine
 10
8.0
 20
-4.66676088462549
 30
0.0
 11
0.0
 21
-4.66676088462549
 31
0.0
  0
CIRCLE
  5
319
330
294
100
AcDbEntity
  8
hidden
100
AcDbCircle
 10
4.0
 20
-47.5
 30
0.0
 40
3.5
  0
LINE
  5
31A
330
294
100
AcDbEntity
  8
hidden
100
AcDbLine
 10
0.5000000000000013
 20
-39.99999999999999
 30
0.0
 11
0.5
 21
-43.0
 31
0.0
  0
LINE
  5
31B
330
294
100
AcDbEntity
  8
hidden
100
AcDbLine
 10
7.5
 20
-39.99999999999999
 30
0.0
 11
0.5000000000000013
 21
-39.99999999999999
 31
0.0
  0
LINE
  5
31C
330
294
100
AcDbEntity
  8
hidden
100
AcDbLine
 10
7.499999999999998
 20
-43.0
 30
0.0
 11
7.5
 21
-39.99999999999999
 31
0.0
  0
LINE
  5
31D
330
294
100
AcDbEntity
  8
hidden
100
AcDbLine
 10
0.5
 20
-43.0
 30
0.0
 11
7.499999999999998
 21
-43.0
 31
0.0
  0
LINE
  5
31E
330
294
100
AcDbEntity
  8
hidden
100
AcDbLine
 10
8.0
 20
-67.8064608846255
 30
0.0
 11
0.0
 21
-67.8064608846255
 31
0.0
  0
LINE
  5
31F
330
294
100
AcDbEntity
  8
hidden
100
AcDbLine
 10
8.0
 20
-37.30000000000024
 30
0.0
 11
0.0
 21
-37.30000000000025
 31
0.0
  0
LINE
  5
320
330
294
100
AcDbEntity
  8
hidden
100
AcDbLine
 10
8.0
 20
-130.3667608846255
 30
0.0
 11
0.0
 21
-130.3667608846255
 31
0.0
  0
CIRCLE
  5
321
330
294
100
AcDbEntity
  8
hidden
100
AcDbCircle
 10
4.0
 20
-107.5
 30
0.0
 40
3.5
  0
LINE
  5
322
330
294
100
AcDbEntity
  8
hidden
100
AcDbLine
 10
0.5000000000000013
 20
-100.0
 30
0.0
 11
0.5
 21
-103.0
 31
0.0
  0
LINE
  5
323
330
294
100
AcDbEntity
  8
hidden
100
AcDbLine
 10
7.5
 20
-100.0
 30
0.0
 11
0.5000000000000013
 21
-100.0
 31
0.0
  0
LINE
  5
324
330
294
100
AcDbEntity
  8
hidden
100
AcDbLine
 10
7.499999999999998
 20
-103.0
 30
0.0
 11
7.5
 21
-100.0
 31
0.0
  0
LINE
  5
325
330
294
100
AcDbEntity
  8
hidden
100
AcDbLine
 10
0.5
 20
-103.0
 30
0.0
 11
7.499999999999998
 21
-103.0
 31
0.0
  0
LINE
  5
326
330
294
100
AcDbEntity
  8
hidden
100
AcDbLine
 10
8.0
 20
-127.8667608846255
 30
0.0
 11
0.0
 21
-127.8667608846255
 31
0.0
  0
LINE
  5
327
330
294
100
AcDbEntity
  8
hidden
100
AcDbLine
 10
8.0
 20
-97.31029999999996
 30
0.0
 11
0.0
 21
-97.31029999999996
 31
0.0
  0
LINE
  5
328
330
294
100
AcDbEntity
  8
hidden
100
AcDbLine
 10
9.5
 20
-30.85000000000002
 30
0.0
 11
9.5
 21
-23.45000000000003
 31
0.0
  0
LINE
  5
329
330
294
100
AcDbEntity
  8
hidden
100
AcDbLine
 10
9.5
 20
-90.85000000000001
 30
0.0
 11
9.5
 21
-83.45000000000002
 31
0.0
  0
LINE
  5
32A
330
294
100
AcDbEntity
  8
hidden
100
AcDbLine
 10
9.5
 20
-145.85
 30
0.0
 11
9.500000000000002
 21
-140.45
 31
0.0
  0
LINE
  5
32B
330
294
100
AcDbEntity
  8
hidden
100
AcDbLine
 10
9.500000000000002
 20
-76.49374902313221
 30
0.0
 11
9.5
 21
-82.99999999999997
 31
0.0
  0
LINE
  5
32C
330
294
100
AcDbEntity
  8
hidden
100
AcDbLine
 10
25.5
 20
-75.57878402833894
 30
0.0
 11
25.5
 21
-75.2349939951952
 31
0.0
  0
LINE
  5
32D
330
294
100
AcDbEntity
  8
hidden
100
AcDbLine
 10
25.5
 20
23.99999999999996
 30
0.0
 11
9.500000000000002
 21
24.0
 31
0.0
  0
LINE
  5
32E
330
294
100
AcDbEntity
  8
hidden
100
AcDbLine
 10
25.5
 20
-16.07878402833895
 30
0.0
 11
25.5
 21
-15.73499399519519
 31
0.0
  0
LINE
  5
32F
330
294
100
AcDbEntity
  8
hidden
100
AcDbLine
 10
25.5
 20
-156.0
 30
0.0
 11
25.5
 21
-135.1229939951952
 31
0.0
  0
LINE
  5
330
330
294
100
AcDbEntity
  8
hidden
100
AcDbLine
 10
9.500000000000002
 20
-136.3817490231322
 30
0.0
 11
9.5
 21
-140.0
 31
0.0
  0
LINE
  5
331
330
294
100
AcDbEntity
  8
hidden
100
AcDbLine
 10
9.5
 20
-146.3
 30
0.0
 11
9.5
 21
-156.0
 31
0.0
  0
LINE
  5
332
330
294
100
AcDbEntity
  8
hidden
100
AcDbLine
 10
9.5
 20
-156.0
 30
0.0
 11
25.5
 21
-156.0
 31
0.0
  0
LINE
  5
333
330
294
100
AcDbEntity
  8
hidden
100
AcDbLine
 10
9.5
 20
-16.99374902313221
 30
0.0
 11
9.5
 21
-22.99999999999999
 31
0.0
  0
LINE
  5
334
330
294
100
AcDbEntity
  8
hidden
100
AcDbLine
 10
27.0
 20
-122.0
 30
0.0
 11
26.5
 21
-122.0
 31
0.0
  0
LINE
  5
335
330
294
100
AcDbEntity
  8
hidden
100
AcDbLine
 10
27.0
 20
-62.0
 30
0.0
 11
26.5
 21
-62.0
 31
0.0
  0
LINE
  5
336
330
294
100
AcDbEntity
  8
hidden
100
AcDbLine
 10
9.499999999999998
 20
-1.999999999999995
 30
0.0
 11
8.0
 21
-1.999999999999995
 31
0.0
  0
LINE
  5
337
330
294
100
AcDbEntity
  8
hidden
100
AcDbLine
 10
9.499999999999998
 20
-62.0
 30
0.0
 11
8.0
 21
-62.0
 31
0.0
  0
LINE
  5
338
330
294
100
AcDbEntity
  8
hidden
100
AcDbLine
 10
8.0
 20
-69.0
 30
0.0
 11
9.499999999999998
 21
-69.0
 31
0.0
  0
LINE
  5
339
330
294
100
AcDbEntity
  8
hidden
100
AcDbLine
 10
9.499999999999998
 20
-122.0
 30
0.0
 11
8.0
 21
-122.0
 31
0.0
  0
LINE
  5
33A
330
294
100
AcDbEntity
  8
hidden
100
AcDbLine
 10
8.0
 20
-129.0
 30
0.0
 11
9.499999999999998
 21
-129.0
 31
0.0
  0
LINE
  5
33B
330
294
100
AcDbEntity
  8
hidden
100
AcDbLine
 10
27.0
 20
-1.999999999999995
 30
0.0
 11
26.5
 21
-1.999999999999995
 31
0.0
  0
LINE
  5
33C
330
294
100
AcDbEntity
  8
hidden
100
AcDbLine
 10
8.0
 20
-23.45000000000005
 30
0.0
 11
8.0
 21
-30.85000000000004
 31
0.0
  0
LINE
  5
33D
330
294
100
AcDbEntity
  8
hidden
100
AcDbLine
 10
9.000000000000002
 20
-30.85000000000003
 30
0.0
 11
9.000000000000002
 21
-23.45000000000003
 31
0.0
  0
LINE
  5
33E
330
294
100
AcDbEntity
  8
hidden
100
AcDbLine
 10
8.0
 20
-83.45000000000002
 30
0.0
 11
8.0
 21
-90.85000000000004
 31
0.0
  0
LINE
  5
33F
330
294
100
AcDbEntity
  8
hidden
100
AcDbLine
 10
9.000000000000002
 20
-90.85000000000002
 30
0.0
 11
9.000000000000002
 21
-83.45000000000002
 31
0.0
  0
LINE
  5
340
330
294
100
AcDbEntity
  8
hidden
100
AcDbLine
 10
8.0
 20
-140.45
 30
0.0
 11
8.0
 21
-145.85
 31
0.0
  0
LINE
  5
341
330
294
100
AcDbEntity
  8
hidden
100
AcDbLine
 10
9.000000000000002
 20
-145.85
 30
0.0
 11
9.000000000000002
 21
-140.45
 31
0.0
  0
LINE
  5
342
330
294
100
AcDbEntity
  8
hidden
100
AcDbLine
 10
27.0
 20
-75.30729771688632
 30
0.0
 11
26.5
 21
-75.30729771688632
 31
0.0
  0
LINE
  5
343
330
294
100
AcDbEntity
  8
hidden
100
AcDbLine
 10
27.0
 20
-15.80729771688633
 30
0.0
 11
26.5
 21
-15.80729771688633
 31
0.0
  0
LINE
  5
344
330
294
100
AcDbEntity
  8
hidden
100
AcDbLine
 10
27.0
 20
-135.1957977168863
 30
0.0
 11
26.5
 21
-135.1957977168863
 31
0.0
  0
LINE
  5
345
330
294
100
AcDbEntity
  8
hidden
100
AcDbLine
 10
25.5
 20
-37.76500600480481
 30
0.0
 11
9.5
 21
-37.76500600480481
 31
0.0
  0
LINE
  5
346
330
294
100
AcDbEntity
  8
hidden
100
AcDbLine
 10
25.5
 20
-62.0
 30
0.0
 11
25.5
 21
-69.0
 31
0.0
  0
LINE
  5
347
330
294
100
AcDbEntity
  8
hidden
100
AcDbLine
 10
10.5
 20
-75.2349939951952
 30
0.0
 11
24.5
 21
-75.2349939951952
 31
0.0
  0
LINE
  5
348
330
294
100
AcDbEntity
  8
hidden
100
AcDbLine
 10
26.5
 20
-75.57878402833892
 30
0.0
 11
26.0
 21
-75.57878402833892
 31
0.0
  0
LINE
  5
349
330
294
100
AcDbEntity
  8
hidden
100
AcDbLine
 10
25.5
 20
-37.42121597166108
 30
0.0
 11
26.5
 21
-37.42121597166108
 31
0.0
  0
LINE
  5
34A
330
294
100
AcDbEntity
  8
hidden
100
AcDbLine
 10
25.5
 20
-36.49999999999999
 30
0.0
 11
9.500000000000002
 21
-36.49999999999999
 31
0.0
  0
LINE
  5
34B
330
294
100
AcDbEntity
  8
hidden
100
AcDbLine
 10
25.5
 20
21.73499399519519
 30
0.0
 11
9.5
 21
21.73499399519519
 31
0.0
  0
LINE
  5
34C
330
294
100
AcDbEntity
  8
hidden
100
AcDbLine
 10
25.5
 20
-1.999999999999999
 30
0.0
 11
25.5
 21
-9.000000000000005
 31
0.0
  0
LINE
  5
34D
330
294
100
AcDbEntity
  8
hidden
100
AcDbLine
 10
10.5
 20
-15.73499399519519
 30
0.0
 11
24.5
 21
-15.73499399519519
 31
0.0
  0
LINE
  5
34E
330
294
100
AcDbEntity
  8
hidden
100
AcDbLine
 10
26.5
 20
-16.07878402833891
 30
0.0
 11
26.0
 21
-16.07878402833891
 31
0.0
  0
LINE
  5
34F
330
294
100
AcDbEntity
  8
hidden
100
AcDbLine
 10
25.5
 20
22.07878402833892
 30
0.0
 11
26.5
 21
22.07878402833891
 31
0.0
  0
LINE
  5
350
330
294
100
AcDbEntity
  8
hidden
100
AcDbLine
 10
25.5
 20
23.0
 30
0.0
 11
9.500000000000002
 21
23.0
 31
0.0
  0
LINE
  5
351
330
294
100
AcDbEntity
  8
hidden
100
AcDbLine
 10
25.5
 20
-97.65300600480484
 30
0.0
 11
9.5
 21
-97.65300600480484
 31
0.0
  0
LINE
  5
352
330
294
100
AcDbEntity
  8
hidden
100
AcDbLine
 10
25.5
 20
-122.0
 30
0.0
 11
25.5
 21
-129.0
 31
0.0
  0
LINE
  5
353
330
294
100
AcDbEntity
  8
hidden
100
AcDbLine
 10
10.5
 20
-135.1229939951952
 30
0.0
 11
24.5
 21
-135.1229939951952
 31
0.0
  0
LINE
  5
354
330
294
100
AcDbEntity
  8
hidden
100
AcDbLine
 10
25.5
 20
-97.30921597166112
 30
0.0
 11
26.5
 21
-97.30921597166112
 31
0.0
  0
LINE
  5
355
330
294
100
AcDbEntity
  8
hidden
100
AcDbLine
 10
25.5
 20
-96.38800000000003
 30
0.0
 11
9.500000000000002
 21
-96.38800000000003
 31
0.0
  0
LINE
  5
356
330
294
100
AcDbEntity
  8
hidden
100
AcDbLine
 10
25.5
 20
-58.18784108364524
 30
0.0
 11
25.5
 21
-35.10504998036501
 31
0.0
  0
LINE
  5
357
330
294
100
AcDbEntity
  8
hidden
100
AcDbLine
 10
25.5
 20
-33.80016916040363
 30
0.0
 11
8.0
 21
-33.80016916040363
 31
0.0
  0
LINE
  5
358
330
294
100
AcDbEntity
  8
hidden
100
AcDbLine
 10
27.0
 20
-33.80016916040363
 30
0.0
 11
26.5
 21
-33.80016916040363
 31
0.0
  0
LINE
  5
359
330
294
100
AcDbEntity
  8
hidden
100
AcDbLine
 10
27.0
 20
-33.8
 30
0.0
 11
26.5
 21
-33.8
 31
0.0
  0
LINE
  5
35A
330
294
100
AcDbEntity
  8
hidden
100
AcDbLine
 10
25.5
 20
-37.78156625709494
 30
0.0
 11
9.5
 21
-37.78156625709493
 31
0.0
  0
LINE
  5
35B
330
294
100
AcDbEntity
  8
hidden
100
AcDbLine
 10
25.5
 20
-36.64047535576931
 30
0.0
 11
9.000000000000002
 21
-36.64047535576931
 31
0.0
  0
LINE
  5
35C
330
294
100
AcDbEntity
  8
hidden
100
AcDbLine
 10
27.0
 20
-36.64047535576931
 30
0.0
 11
26.5
 21
-36.64047535576931
 31
0.0
  0
LINE
  5
35D
330
294
100
AcDbEntity
  8
hidden
100
AcDbLine
 10
25.5
 20
21.71843374290506
 30
0.0
 11
9.5
 21
21.71843374290506
 31
0.0
  0
LINE
  5
35E
330
294
100
AcDbEntity
  8
hidden
100
AcDbLine
 10
27.0
 20
-93.68866916040363
 30
0.0
 11
26.5
 21
-93.68866916040363
 31
0.0
  0
LINE
  5
35F
330
294
100
AcDbEntity
  8
hidden
100
AcDbLine
 10
27.0
 20
-93.6885
 30
0.0
 11
26.5
 21
-93.6885
 31
0.0
  0
LINE
  5
360
330
294
100
AcDbEntity
  8
hidden
100
AcDbLine
 10
25.5
 20
1.812158916354764
 30
0.0
 11
25.5
 21
24.89495001963499
 31
0.0
  0
LINE
  5
361
330
294
100
AcDbEntity
  8
hidden
100
AcDbLine
 10
25.5
 20
22.85952464423069
 30
0.0
 11
9.000000000000002
 21
22.85952464423069
 31
0.0
  0
LINE
  5
362
330
294
100
AcDbEntity
  8
hidden
100
AcDbLine
 10
25.5
 20
25.69983083959638
 30
0.0
 11
8.0
 21
25.69983083959638
 31
0.0
  0
LINE
  5
363
330
294
100
AcDbEntity
  8
hidden
100
AcDbLine
 10
27.0
 20
25.69983083959638
 30
0.0
 11
26.5
 21
25.69983083959638
 31
0.0
  0
LINE
  5
364
330
294
100
AcDbEntity
  8
hidden
100
AcDbLine
 10
25.5
 20
-97.66965846723858
 30
0.0
 11
9.5
 21
-97.66965846723855
 31
0.0
  0
LINE
  5
365
330
294
100
AcDbEntity
  8
hidden
100
AcDbLine
 10
25.5
 20
-96.52897535576932
 30
0.0
 11
9.000000000000002
 21
-96.52897535576932
 31
0.0
  0
LINE
  5
366
330
294
100
AcDbEntity
  8
hidden
100
AcDbLine
 10
25.5
 20
-118.1878410836452
 30
0.0
 11
25.5
 21
-95.10504998036501
 31
0.0
  0
LINE
  5
367
330
294
100
AcDbEntity
  8
hidden
100
AcDbLine
 10
25.5
 20
-93.68866916040363
 30
0.0
 11
8.0
 21
-93.68866916040363
 31
0.0
  0
LINE
  5
368
330
294
100
AcDbEntity
  8
hidden
100
AcDbLine
 10
27.0
 20
-96.52897535576932
 30
0.0
 11
26.5
 21
-96.52897535576932
 31
0.0
  0
LINE
  5
369
330
294
100
AcDbEntity
  8
hidden
100
AcDbLine
 10
27.0
 20
22.85952464423069
 30
0.0
 11
26.5
 21
22.85952464423069
 31
0.0
  0
LINE
  5
36A
330
294
100
AcDbEntity
  8
hidden
100
AcDbLine
 10
27.0
 20
10.27197603245671
 30
0.0
 11
26.5
 21
10.27197603245671
 31
0.0
  0
LINE
  5
36B
330
294
100
AcDbEntity
  8
hidden
100
AcDbLine
 10
26.5
 20
24.18841342540753
 30
0.0
 11
26.5
 21
-33.8285662250652
 31
0.0
  0
LINE
  5
36C
330
294
100
AcDbEntity
  8
hidden
100
AcDbLine
 10
27.0
 20
-0.6072977168863347
 30
0.0
 11
26.5
 21
-0.6072977168863347
 31
0.0
  0
LINE
  5
36D
330
294
100
AcDbEntity
  8
hidden
100
AcDbLine
 10
27.0
 20
-9.807297716886307
 30
0.0
 11
26.5
 21
-9.807297716886307
 31
0.0
  0
LINE
  5
36E
330
294
100
AcDbEntity
  8
hidden
100
AcDbLine
 10
9.500000000000002
 20
24.0
 30
0.0
 11
9.499999999999998
 21
1.812158916354766
 31
0.0
  0
LINE
  5
36F
330
294
100
AcDbEntity
  8
hidden
100
AcDbLine
 10
9.499999999999998
 20
10.27197603245671
 30
0.0
 11
9.000000000000002
 21
10.27197603245671
 31
0.0
  0
LINE
  5
370
330
294
100
AcDbEntity
  8
hidden
100
AcDbLine
 10
9.5
 20
-31.29999999999998
 30
0.0
 11
9.499999999999998
 21
-58.18784108364524
 31
0.0
  0
LINE
  5
371
330
294
100
AcDbEntity
  8
hidden
100
AcDbLine
 10
9.499999999999998
 20
-49.22802396754329
 30
0.0
 11
9.000000000000002
 21
-49.22802396754329
 31
0.0
  0
LINE
  5
372
330
294
100
AcDbEntity
  8
hidden
100
AcDbLine
 10
26.5
 20
-35.31158657459246
 30
0.0
 11
26.5
 21
-93.71706622506521
 31
0.0
  0
LINE
  5
373
330
294
100
AcDbEntity
  8
hidden
100
AcDbLine
 10
27.0
 20
-69.30729771688631
 30
0.0
 11
26.5
 21
-69.30729771688631
 31
0.0
  0
LINE
  5
374
330
294
100
AcDbEntity
  8
hidden
100
AcDbLine
 10
26.5
 20
-95.19736428790515
 30
0.0
 11
26.5
 21
-136.0710942074691
 31
0.0
  0
LINE
  5
375
330
294
100
AcDbEntity
  8
hidden
100
AcDbLine
 10
27.0
 20
-129.1957977168863
 30
0.0
 11
26.5
 21
-129.1957977168863
 31
0.0
  0
LINE
  5
376
330
294
100
AcDbEntity
  8
hidden
100
AcDbLine
 10
27.0
 20
-49.22802396754329
 30
0.0
 11
26.5
 21
-49.22802396754329
 31
0.0
  0
LINE
  5
377
330
294
100
AcDbEntity
  8
hidden
100
AcDbLine
 10
27.0
 20
-60.10729771688631
 30
0.0
 11
26.5
 21
-60.10729771688631
 31
0.0
  0
LINE
  5
378
330
294
100
AcDbEntity
  8
hidden
100
AcDbLine
 10
27.0
 20
-109.1165239675433
 30
0.0
 11
26.5
 21
-109.1165239675433
 31
0.0
  0
LINE
  5
379
330
294
100
AcDbEntity
  8
hidden
100
AcDbLine
 10
27.0
 20
-119.9957977168863
 30
0.0
 11
26.5
 21
-119.9957977168863
 31
0.0
  0
LINE
  5
37A
330
294
100
AcDbEntity
  8
hidden
100
AcDbLine
 10
9.5
 20
-91.29999999999997
 30
0.0
 11
9.499999999999998
 21
-118.1878410836452
 31
0.0
  0
LINE
  5
37B
330
294
100
AcDbEntity
  8
hidden
100
AcDbLine
 10
9.499999999999998
 20
-109.1165239675433
 30
0.0
 11
9.000000000000002
 21
-109.1165239675433
 31
0.0
  0
LINE
  5
37C
330
294
100
AcDbEntity
  8
center
100
AcDbLine
 10
0.3249999999999997
 20
12.5
 30
0.0
 11
7.675000000000001
 21
12.5
 31
0.0
  0
LINE
  5
37D
330
294
100
AcDbEntity
  8
center
100
AcDbLine
 10
4.0
 20
8.825
 30
0.0
 11
4.0
 21
16.175
 31
0.0
  0
LINE
  5
37E
330
294
100
AcDbEntity
  8
center
100
AcDbLine
 10
0.3249999999999997
 20
-47.5
 30
0.0
 11
7.675000000000001
 21
-47.5
 31
0.0
  0
LINE
  5
37F
330
294
100
AcDbEntity
  8
center
100
AcDbLine
 10
4.0
 20
-51.175
 30
0.0
 11
4.0
 21
-43.825
 31
0.0
  0
LINE
  5
380
330
294
100
AcDbEntity
  8
center
100
AcDbLine
 10
0.3249999999999997
 20
-107.5
 30
0.0
 11
7.675000000000001
 21
-107.5
 31
0.0
  0
LINE
  5
381
330
294
100
AcDbEntity
  8
center
100
AcDbLine
 10
4.0
 20
-111.175
 30
0.0
 11
4.0
 21
-103.825
 31
0.0
  0
LINE
  5
382
330
294
100
AcDbEntity
  8
center
100
AcDbLine
 10
7.05
 20
-5.499999999999998
 30
0.0
 11
27.95
 21
-5.499999999999998
 31
0.0
  0
LINE
  5
383
330
294
100
AcDbEntity
  8
center
100
AcDbLine
 10
7.05
 20
-65.5
 30
0.0
 11
27.95
 21
-65.5
 31
0.0
  0
LINE
  5
384
330
294
100
AcDbEntity
  8
center
100
AcDbLine
 10
7.05
 20
-125.5
 30
0.0
 11
27.95
 21
-125.5
 31
0.0
  0
LINE
  5
385
330
294
100
AcDbEntity
  8
center
100
AcDbLine
 10
8.65
 20
3.000000000000003
 30
0.0
 11
27.35
 21
3.000000000000003
 31
0.0
  0
LINE
  5
386
330
294
100
AcDbEntity
  8
center
100
AcDbLine
 10
8.65
 20
-56.49999999999999
 30
0.0
 11
27.35
 21
-56.49999999999999
 31
0.0
  0
LINE
  5
387
330
294
100
AcDbEntity
  8
center
100
AcDbLine
 10
8.65
 20
-116.388
 30
0.0
 11
27.35
 21
-116.388
 31
0.0
  0
LINE
  5
388
330
294
100
AcDbEntity
  8
bold
100
AcDbLine
 10
8.0
 20
29.4375
 30
0.0
 11
8.0
 21
34.0
 31
0.0
  0
LINE
  5
389
330
294
100
AcDbEntity
  8
bold
100
AcDbLine
 10
27.0
 20
34.0
 30
0.0
 11
8.0
 21
34.0
 31
0.0
  0
LINE
  5
38A
330
294
100
AcDbEntity
  8
bold
100
AcDbLine
 10
8.0
 20
-166.0
 30
0.0
 11
8.0
 21
-146.3
 31
0.0
  0
LINE
  5
38B
330
294
100
AcDbEntity
  8
bold
100
AcDbLine
 10
27.0
 20
-166.0
 30
0.0
 11
27.0
 21
-136.0710942074691
 31
0.0
  0
LINE
  5
38C
330
294
100
AcDbEntity
  8
bold
100
AcDbLine
 10
27.0
 20
-166.0
 30
0.0
 11
8.0
 21
-166.0
 31
0.0
  0
LINE
  5
38D
330
294
100
AcDbEntity
  8
bold
100
AcDbLine
 10
21.0
 20
34.0
 30
0.0
 11
21.0
 21
32.0
 31
0.0
  0
LINE
  5
38E
330
294
100
AcDbEntity
  8
bold
100
AcDbLine
 10
21.0
 20
32.0
 30
0.0
 11
26.0
 21
32.0
 31
0.0
  0
LINE
  5
38F
330
294
100
AcDbEntity
  8
bold
100
AcDbLine
 10
26.0
 20
32.0
 30
0.0
 11
26.0
 21
34.0
 31
0.0
  0
LINE
  5
390
330
294
100
AcDbEntity
  8
bold
100
AcDbLine
 10
9.5
 20
-23.45000000000003
 30
0.0
 11
9.5
 21
-23.0
 31
0.0
  0
LINE
  5
391
330
294
100
AcDbEntity
  8
bold
100
AcDbLine
 10
9.5
 20
-31.29999999999999
 30
0.0
 11
9.5
 21
-30.85000000000002
 31
0.0
  0
LINE
  5
392
330
294
100
AcDbEntity
  8
bold
100
AcDbLine
 10
9.5
 20
-83.45000000000002
 30
0.0
 11
9.5
 21
-83.0
 31
0.0
  0
LINE
  5
393
330
294
100
AcDbEntity
  8
bold
100
AcDbLine
 10
9.5
 20
-91.3
 30
0.0
 11
9.5
 21
-90.85000000000001
 31
0.0
  0
LINE
  5
394
330
294
100
AcDbEntity
  8
bold
100
AcDbLine
 10
9.500000000000002
 20
-140.45
 30
0.0
 11
9.5
 21
-140.0
 31
0.0
  0
LINE
  5
395
330
294
100
AcDbEntity
  8
bold
100
AcDbLine
 10
9.5
 20
-146.3
 30
0.0
 11
9.5
 21
-145.85
 31
0.0
  0
LINE
  5
396
330
294
100
AcDbEntity
  8
bold
100
AcDbLine
 10
9.000000000000002
 20
-23.45000000000003
 30
0.0
 11
9.000000000000002
 21
-23.0
 31
0.0
  0
LINE
  5
397
330
294
100
AcDbEntity
  8
bold
100
AcDbLine
 10
9.000000000000002
 20
-31.29999999999999
 30
0.0
 11
9.000000000000002
 21
-30.85000000000003
 31
0.0
  0
LINE
  5
398
330
294
100
AcDbEntity
  8
bold
100
AcDbLine
 10
9.000000000000002
 20
-83.45000000000002
 30
0.0
 11
9.000000000000002
 21
-83.0
 31
0.0
  0
LINE
  5
399
330
294
100
AcDbEntity
  8
bold
100
AcDbLine
 10
9.000000000000002
 20
-91.3
 30
0.0
 11
9.000000000000002
 21
-90.85000000000002
 31
0.0
  0
LINE
  5
39A
330
294
100
AcDbEntity
  8
bold
100
AcDbLine
 10
9.000000000000002
 20
-140.45
 30
0.0
 11
9.000000000000002
 21
-140.0
 31
0.0
  0
LINE
  5
39B
330
294
100
AcDbEntity
  8
bold
100
AcDbLine
 10
9.000000000000002
 20
-146.3
 30
0.0
 11
9.000000000000002
 21
-145.85
 31
0.0
  0
LINE
  5
39C
330
294
100
AcDbEntity
  8
bold
100
AcDbLine
 10
26.5
 20
26.0
 30
0.0
 11
26.5
 21
24.18841342540753
 31
0.0
  0
LINE
  5
39D
330
294
100
AcDbEntity
  8
bold
100
AcDbLine
 10
25.5
 20
24.89495001963499
 30
0.0
 11
25.5
 21
26.0
 31
0.0
  0
LINE
  5
39E
330
294
100
AcDbEntity
  8
bold
100
AcDbLine
 10
25.5
 20
26.0
 30
0.0
 11
26.5
 21
26.0
 31
0.0
  0
LINE
  5
39F
330
294
100
AcDbEntity
  8
bold
100
AcDbLine
 10
12.5
 20
26.5625
 30
0.0
 11
12.5
 21
29.4375
 31
0.0
  0
LINE
  5
3A0
330
294
100
AcDbEntity
  8
bold
100
AcDbLine
 10
27.0
 20
31.0
 30
0.0
 11
8.0
 21
31.0
 31
0.0
  0
LINE
  5
3A1
330
294
100
AcDbEntity
  8
bold
100
AcDbLine
 10
26.5
 20
-136.0710942074691
 30
0.0
 11
26.5
 21
-136.3817490231322
 31
0.0
  0
LINE
  5
3A2
330
294
100
AcDbEntity
  8
bold
100
AcDbLine
 10
12.0
 20
-146.3
 30
0.0
 11
8.0
 21
-146.3
 31
0.0
  0
LINE
  5
3A3
330
294
100
AcDbEntity
  8
bold
100
AcDbLine
 10
12.0
 20
-140.0
 30
0.0
 11
8.0
 21
-140.0
 31
0.0
  0
LINE
  5
3A4
330
294
100
AcDbEntity
  8
bold
100
AcDbLine
 10
27.0
 20
-163.0
 30
0.0
 11
8.0
 21
-163.0
 31
0.0
  0
LINE
  5
3A5
330
294
100
AcDbEntity
  8
bold
100
AcDbLine
 10
12.0
 20
-146.3
 30
0.0
 11
12.0
 21
-140.0
 31
0.0
  0
LINE
  5
3A6
330
294
100
AcDbEntity
  8
light
100
AcDbLine
 10
12.5
 20
28.99253805436477
 30
0.0
 11
8.0
 21
28.99253805436477
 31
0.0
  0
LINE
  5
3A7
330
294
100
AcDbEntity
  8
bold
100
AcDbLine
 10
12.5
 20
29.4375
 30
0.0
 11
8.0
 21
29.4375
 31
0.0
  0
LINE
  5
3A8
330
294
100
AcDbEntity
  8
bold
100
AcDbLine
 10
12.5
 20
26.5625
 30
0.0
 11
8.0
 21
26.5625
 31
0.0
  0
LINE
  5
3A9
330
294
100
AcDbEntity
  8
light
100
AcDbLine
 10
12.5
 20
27.00746194563523
 30
0.0
 11
8.0
 21
27.00746194563523
 31
0.0
  0
LINE
  5
3AA
330
294
100
AcDbEntity
  8
bold
100
AcDbLine
 10
12.0
 20
-23.0
 30
0.0
 11
8.0
 21
-23.0
 31
0.0
  0
LINE
  5
3AB
330
294
100
AcDbEntity
  8
bold
100
AcDbLine
 10
12.0
 20
-31.29999999999999
 30
0.0
 11
12.0
 21
-23.0
 31
0.0
  0
LINE
  5
3AC
330
294
100
AcDbEntity
  8
bold
100
AcDbLine
 10
12.0
 20
-31.29999999999999
 30
0.0
 11
8.0
 21
-31.29999999999999
 31
0.0
  0
LINE
  5
3AD
330
294
100
AcDbEntity
  8
bold
100
AcDbLine
 10
12.0
 20
-83.0
 30
0.0
 11
8.0
 21
-83.0
 31
0.0
  0
LINE
  5
3AE
330
294
100
AcDbEntity
  8
bold
100
AcDbLine
 10
12.0
 20
-91.3
 30
0.0
 11
12.0
 21
-83.0
 31
0.0
  0
LINE
  5
3AF
330
294
100
AcDbEntity
  8
bold
100
AcDbLine
 10
12.0
 20
-91.3
 30
0.0
 11
8.0
 21
-91.3
 31
0.0
  0
LINE
  5
3B0
330
294
100
AcDbEntity
  8
bold
100
AcDbLine
 10
9.499999999999998
 20
-75.30729771688632
 30
0.0
 11
8.0
 21
-75.30729771688632
 31
0.0
  0
LINE
  5
3B1
330
294
100
AcDbEntity
  8
bold
100
AcDbLine
 10
9.499999999999998
 20
-135.1957977168863
 30
0.0
 11
8.0
 21
-135.1957977168863
 31
0.0
  0
LINE
  5
3B2
330
294
100
AcDbEntity
  8
bold
100
AcDbLine
 10
9.499999999999998
 20
-15.80729771688633
 30
0.0
 11
8.0
 21
-15.80729771688633
 31
0.0
  0
LINE
  5
3B3
330
294
100
AcDbEntity
  8
bold
100
AcDbLine
 10
25.5
 20
-75.57878402833893
 30
0.0
 11
25.5
 21
-95.10504998036501
 31
0.0
  0
LINE
  5
3B4
330
294
100
AcDbEntity
  8
bold
100
AcDbLine
 10
25.5
 20
-69.0
 30
0.0
 11
25.5
 21
-75.2349939951952
 31
0.0
  0
LINE
  5
3B5
330
294
100
AcDbEntity
  8
bold
100
AcDbLine
 10
25.5
 20
-58.19970723449001
 30
0.0
 11
25.5
 21
-62.0
 31
0.0
  0
LINE
  5
3B6
330
294
100
AcDbEntity
  8
bold
100
AcDbLine
 10
24.5
 20
-75.2349939951952
 30
0.0
 11
25.5
 21
-75.2349939951952
 31
0.0
  0
LINE
  5
3B7
330
294
100
AcDbEntity
  8
bold
100
AcDbLine
 10
9.500000000000002
 20
-75.23499399519518
 30
0.0
 11
10.5
 21
-75.2349939951952
 31
0.0
  0
LINE
  5
3B8
330
294
100
AcDbEntity
  8
bold
100
AcDbLine
 10
9.5
 20
-76.49374902313221
 30
0.0
 11
25.5
 21
-76.49374902313221
 31
0.0
  0
LINE
  5
3B9
330
294
100
AcDbEntity
  8
bold
100
AcDbLine
 10
26.0
 20
-75.57878402833892
 30
0.0
 11
25.5
 21
-75.57878402833893
 31
0.0
  0
LINE
  5
3BA
330
294
100
AcDbEntity
  8
bold
100
AcDbLine
 10
25.5
 20
-16.07878402833891
 30
0.0
 11
25.5
 21
-35.10504998036501
 31
0.0
  0
LINE
  5
3BB
330
294
100
AcDbEntity
  8
bold
100
AcDbLine
 10
25.5
 20
-9.000000000000005
 30
0.0
 11
25.5
 21
-15.73499399519519
 31
0.0
  0
LINE
  5
3BC
330
294
100
AcDbEntity
  8
bold
100
AcDbLine
 10
25.5
 20
1.800292765509993
 30
0.0
 11
25.5
 21
-1.999999999999999
 31
0.0
  0
LINE
  5
3BD
330
294
100
AcDbEntity
  8
bold
100
AcDbLine
 10
24.5
 20
-15.73499399519519
 30
0.0
 11
25.5
 21
-15.73499399519519
 31
0.0
  0
LINE
  5
3BE
330
294
100
AcDbEntity
  8
bold
100
AcDbLine
 10
9.500000000000002
 20
-15.73499399519519
 30
0.0
 11
10.5
 21
-15.73499399519519
 31
0.0
  0
LINE
  5
3BF
330
294
100
AcDbEntity
  8
bold
100
AcDbLine
 10
9.5
 20
-16.99374902313221
 30
0.0
 11
25.5
 21
-16.99374902313221
 31
0.0
  0
LINE
  5
3C0
330
294
100
AcDbEntity
  8
bold
100
AcDbLine
 10
26.0
 20
-16.07878402833891
 30
0.0
 11
25.5
 21
-16.07878402833891
 31
0.0
  0
LINE
  5
3C1
330
294
100
AcDbEntity
  8
bold
100
AcDbLine
 10
25.5
 20
-129.0
 30
0.0
 11
25.5
 21
-135.1229939951952
 31
0.0
  0
LINE
  5
3C2
330
294
100
AcDbEntity
  8
bold
100
AcDbLine
 10
25.5
 20
-118.19970723449
 30
0.0
 11
25.5
 21
-122.0
 31
0.0
  0
LINE
  5
3C3
330
294
100
AcDbEntity
  8
bold
100
AcDbLine
 10
24.5
 20
-135.1229939951952
 30
0.0
 11
25.5
 21
-135.1229939951952
 31
0.0
  0
LINE
  5
3C4
330
294
100
AcDbEntity
  8
bold
100
AcDbLine
 10
9.500000000000002
 20
-135.1229939951952
 30
0.0
 11
10.5
 21
-135.1229939951952
 31
0.0
  0
LINE
  5
3C5
330
294
100
AcDbEntity
  8
bold
100
AcDbLine
 10
9.5
 20
-136.3817490231322
 30
0.0
 11
26.5
 21
-136.3817490231322
 31
0.0
  0
LINE
  5
3C6
330
294
100
AcDbEntity
  8
bold
100
AcDbLine
 10
25.5
 20
-33.8
 30
0.0
 11
8.0
 21
-33.8
 31
0.0
  0
LINE
  5
3C7
330
294
100
AcDbEntity
  8
bold
100
AcDbLine
 10
27.0
 20
-35.31158657459246
 30
0.0
 11
27.0
 21
-33.82856622506519
 31
0.0
  0
LINE
  5
3C8
330
294
100
AcDbEntity
  8
bold
100
AcDbLine
 10
26.5
 20
-33.8285662250652
 30
0.0
 11
26.5
 21
-35.31158657459246
 31
0.0
  0
LINE
  5
3C9
330
294
100
AcDbEntity
  8
bold
100
AcDbLine
 10
9.000000000000002
 20
-36.64047535576931
 30
0.0
 11
8.0
 21
-36.64047535576931
 31
0.0
  0
LINE
  5
3CA
330
294
100
AcDbEntity
  8
bold
100
AcDbLine
 10
27.0
 20
-95.19736428790516
 30
0.0
 11
27.0
 21
-93.71706622506521
 31
0.0
  0
LINE
  5
3CB
330
294
100
AcDbEntity
  8
bold
100
AcDbLine
 10
26.5
 20
-93.71706622506521
 30
0.0
 11
26.5
 21
-95.19736428790515
 31
0.0
  0
LINE
  5
3CC
330
294
100
AcDbEntity
  8
bold
100
AcDbLine
 10
9.000000000000002
 20
22.85952464423069
 30
0.0
 11
8.0
 21
22.85952464423069
 31
0.0
  0
LINE
  5
3CD
330
294
100
AcDbEntity
  8
bold
100
AcDbLine
 10
25.5
 20
25.70000000000001
 30
0.0
 11
8.0
 21
25.70000000000001
 31
0.0
  0
LINE
  5
3CE
330
294
100
AcDbEntity
  8
bold
100
AcDbLine
 10
27.0
 20
24.18841342540752
 30
0.0
 11
27.0
 21
34.0
 31
0.0
  0
LINE
  5
3CF
330
294
100
AcDbEntity
  8
bold
100
AcDbLine
 10
27.0
 20
25.70000000000001
 30
0.0
 11
26.5
 21
25.70000000000001
 31
0.0
  0
LINE
  5
3D0
330
294
100
AcDbEntity
  8
bold
100
AcDbLine
 10
9.000000000000002
 20
-96.52897535576932
 30
0.0
 11
8.0
 21
-96.52897535576932
 31
0.0
  0
LINE
  5
3D1
330
294
100
AcDbEntity
  8
bold
100
AcDbLine
 10
25.5
 20
-93.6885
 30
0.0
 11
8.0
 21
-93.6885
 31
0.0
  0
LINE
  5
3D2
330
294
100
AcDbEntity
  8
bold
100
AcDbLine
 10
8.0
 20
-23.0
 30
0.0
 11
8.0
 21
26.5625
 31
0.0
  0
LINE
  5
3D3
330
294
100
AcDbEntity
  8
bold
100
AcDbLine
 10
9.499999999999998
 20
-9.807297716886307
 30
0.0
 11
8.0
 21
-9.807297716886307
 31
0.0
  0
LINE
  5
3D4
330
294
100
AcDbEntity
  8
bold
100
AcDbLine
 10
9.499999999999998
 20
1.800292765509994
 30
0.0
 11
9.5
 21
-16.99374902313221
 31
0.0
  0
LINE
  5
3D5
330
294
100
AcDbEntity
  8
bold
100
AcDbLine
 10
9.000000000000002
 20
10.27197603245671
 30
0.0
 11
8.0
 21
10.27197603245671
 31
0.0
  0
LINE
  5
3D6
330
294
100
AcDbEntity
  8
bold
100
AcDbLine
 10
9.499999999999998
 20
-0.6072977168863347
 30
0.0
 11
8.0
 21
-0.6072977168863347
 31
0.0
  0
LINE
  5
3D7
330
294
100
AcDbEntity
  8
bold
100
AcDbLine
 10
8.0
 20
-140.0
 30
0.0
 11
8.0
 21
-91.3
 31
0.0
  0
LINE
  5
3D8
330
294
100
AcDbEntity
  8
bold
100
AcDbLine
 10
9.499999999999998
 20
-129.1957977168863
 30
0.0
 11
8.0
 21
-129.1957977168863
 31
0.0
  0
LINE
  5
3D9
330
294
100
AcDbEntity
  8
bold
100
AcDbLine
 10
9.499999999999998
 20
-58.19970723449001
 30
0.0
 11
9.5
 21
-76.49374902313221
 31
0.0
  0
LINE
  5
3DA
330
294
100
AcDbEntity
  8
bold
100
AcDbLine
 10
9.000000000000002
 20
-49.22802396754329
 30
0.0
 11
8.0
 21
-49.22802396754329
 31
0.0
  0
LINE
  5
3DB
330
294
100
AcDbEntity
  8
bold
100
AcDbLine
 10
8.0
 20
-83.0
 30
0.0
 11
8.0
 21
-31.29999999999999
 31
0.0
  0
LINE
  5
3DC
330
294
100
AcDbEntity
  8
bold
100
AcDbLine
 10
9.499999999999998
 20
-60.10729771688631
 30
0.0
 11
8.0
 21
-60.10729771688631
 31
0.0
  0
LINE
  5
3DD
330
294
100
AcDbEntity
  8
bold
100
AcDbLine
 10
9.499999999999998
 20
-69.30729771688631
 30
0.0
 11
8.0
 21
-69.30729771688631
 31
0.0
  0
LINE
  5
3DE
330
294
100
AcDbEntity
  8
bold
100
AcDbLine
 10
9.499999999999998
 20
-118.19970723449
 30
0.0
 11
9.5
 21
-136.3817490231322
 31
0.0
  0
LINE
  5
3DF
330
294
100
AcDbEntity
  8
bold
100
AcDbLine
 10
9.000000000000002
 20
-109.1165239675433
 30
0.0
 11
8.0
 21
-109.1165239675433
 31
0.0
  0
LINE
  5
3E0
330
294
100
AcDbEntity
  8
bold
100
AcDbLine
 10
9.499999999999998
 20
-119.9957977168863
 30
0.0
 11
8.0
 21
-119.9957977168863
 31
0.0
  0
ENDBLK
  5
297
330
294
100
AcDbEntity
  8
0
100
AcDbBlockEnd
  0
BLOCK
  5
3E5
330
3E4
100
AcDbEntity
  8
0
100
AcDbBlockBegin
  2
*D7
 70
     1
 10
0.0
 20
0.0
 30
0.0
  3
*D7
  1

  0
LINE
  5
3E7
330
3E4
100
AcDbEntity
  8
dimension
 62
     0
370
    -2
100
AcDbLine
 10
0.0
 20
34.0
 30
0.0
 11
0.0
 21
60.66666666666666
 31
0.0
  0
LINE
  5
3E8
330
3E4
100
AcDbEntity
  8
dimension
 62
     0
370
    -2
100
AcDbLine
 10
27.0
 20
34.0
 30
0.0
 11
27.0
 21
60.66666666666666
 31
0.0
  0
LINE
  5
3E9
330
3E4
100
AcDbEntity
  8
dimension
 62
     0
370
    -2
100
AcDbLine
 10
5.333333333333333
 20
60.66666666666666
 30
0.0
 11
21.66666666666667
 21
60.66666666666666
 31
0.0
  0
SOLID
  5
3EA
330
3E4
100
AcDbEntity
  8
dimension
 62
     0
100
AcDbTrace
 10
5.333333333333333
 20
61.55555555555555
 30
0.0
 11
5.333333333333333
 21
59.77777777777778
 31
0.0
 12
0.0
 22
60.66666666666666
 32
0.0
 13
0.0
 23
60.66666666666666
 33
0.0
  0
SOLID
  5
3EB
330
3E4
100
AcDbEntity
  8
dimension
 62
     0
100
AcDbTrace
 10
21.66666666666667
 20
59.77777777777778
 30
0.0
 11
21.66666666666667
 21
61.55555555555555
 31
0.0
 12
27.0
 22
60.66666666666666
 32
0.0
 13
27.0
 23
60.66666666666666
 33
0.0
  0
MTEXT
  5
3EC
330
3E4
100
AcDbEntity
  8
dimension
 62
     0
100
AcDbMText
 10
13.5
 20
64.93333333333332
 30
0.0
 40
5.333333333333333
 41
0.0
 46
0.0
 71
     5
 72
     1
  1
27
 73
     1
 44
1.0
  0
POINT
  5
3ED
330
3E4
100
AcDbEntity
  8
Defpoints
 62
     0
100
AcDbPoint
 10
0.0
 20
34.0
 30
0.0
  0
POINT
  5
3EE
330
3E4
100
AcDbEntity
  8
Defpoints
 62
     0
100
AcDbPoint
 10
27.0
 20
34.0
 30
0.0
  0
POINT
  5
3EF
330
3E4
100
AcDbEntity
  8
Defpoints
 62
     0
100
AcDbPoint
 10
27.0
 20
60.66666666666666
 30
0.0
  0
ENDBLK
  5
3E6
330
3E4
100
AcDbEntity
  8
0
100
AcDbBlockEnd
  0
ENDSEC
  0
SECTION
  2
ENTITIES
  0
ATTDEF
  5
5F
330
1F
100
AcDbEntity
  8
attrib
100
AcDbText
 10
32.95
 20
34.0
 30
0.0
 40
0.5
  1
31955
100
AcDbAttributeDefinition
  3

  2
NB
 70
     8
280
     0
  0
ATTDEF
  5
60
330
1F
100
AcDbEntity
  8
attrib
100
AcDbText
 10
32.95
 20
33.5
 30
0.0
 40
0.5
  1
Fuse holders for cylindrical fuses 10x38 acc. to IEC
100
AcDbAttributeDefinition
  3

  2
NN
 70
     8
280
     0
  0
ATTDEF
  5
61
330
1F
100
AcDbEntity
  8
attrib
100
AcDbText
 10
32.95
 20
33.0
 30
0.0
 40
0.5
  1

100
AcDbAttributeDefinition
  3

  2
NT
 70
     8
280
     0
  0
ATTDEF
  5
62
330
1F
100
AcDbEntity
  8
attrib
100
AcDbText
 10
32.95
 20
32.5
 30
0.0
 40
0.5
  1
$ARTNR.
100
AcDbAttributeDefinition
  3

  2
NBSYN
 70
     8
280
     0
  0
ATTDEF
  5
63
330
1F
100
AcDbEntity
  8
attrib
100
AcDbText
 10
32.95
 20
32.0
 30
0.0
 40
0.5
  1
31955000
100
AcDbAttributeDefinition
  3

  2
LINA
 70
     8
280
     0
  0
ATTDEF
  5
64
330
1F
100
AcDbEntity
  8
attrib
100
AcDbText
 10
32.95
 20
31.5
 30
0.0
 40
0.5
  1
Wöhner
100
AcDbAttributeDefinition
  3

  2
CATALOG
 70
     8
280
     0
  0
ATTDEF
  5
65
330
1F
100
AcDbEntity
  8
attrib
100
AcDbText
 10
32.95
 20
31.0
 30
0.0
 40
0.5
  1
31955
100
AcDbAttributeDefinition
  3

  2
ARTNR
 70
     8
280
     0
  0
ATTDEF
  5
66
330
1F
100
AcDbEntity
  8
attrib
100
AcDbText
 10
32.95
 20
30.5
 30
0.0
 40
0.5
  1
12, 15, 20, 25, 30 x 5, 10 and section busbars
100
AcDbAttributeDefinition
  3

  2
BUSB
 70
     8
280
     0
  0
ATTDEF
  5
67
330
1F
100
AcDbEntity
  8
attrib
100
AcDbText
 10
32.95
 20
30.0
 30
0.0
 40
0.5
  1
AMBUS®60Classic
100
AcDbAttributeDefinition
  3

  2
POF
 70
     8
280
     0
  0
ATTDEF
  5
68
330
1F
100
AcDbEntity
  8
attrib
100
AcDbText
 10
32.95
 20
29.5
 30
0.0
 40
0.5
  1
AEL10x38
100
AcDbAttributeDefinition
  3

  2
TYPE
 70
     8
280
     0
  0
ATTDEF
  5
69
330
1F
100
AcDbEntity
  8
attrib
100
AcDbText
 10
32.95
 20
29.0
 30
0.0
 40
0.5
  1
4
100
AcDbAttributeDefinition
  3

  2
QNT
 70
     8
280
     0
  0
ATTDEF
  5
6A
330
1F
100
AcDbEntity
  8
attrib
100
AcDbText
 10
32.95
 20
28.5
 30
0.0
 40
0.5
  1
27.0
100
AcDbAttributeDefinition
  3

  2
W
 70
     8
280
     0
  0
ATTDEF
  5
6B
330
1F
100
AcDbEntity
  8
attrib
100
AcDbText
 10
32.95
 20
28.0
 30
0.0
 40
0.5
  1
200
100
AcDbAttributeDefinition
  3

  2
H
 70
     8
280
     0
  0
ATTDEF
  5
6C
330
1F
100
AcDbEntity
  8
attrib
100
AcDbText
 10
32.95
 20
27.5
 30
0.0
 40
0.5
  1
100
100
AcDbAttributeDefinition
  3

  2
D
 70
     8
280
     0
  0
ATTDEF
  5
6D
330
1F
100
AcDbEntity
  8
attrib
100
AcDbText
 10
32.95
 20
27.0
 30
0.0
 40
0.5
  1
Product link
100
AcDbAttributeDefinition
  3

  2
LINK
 70
     8
280
     0
  0
ATTDEF
  5
6E
330
1F
100
AcDbEntity
  8
attrib
100
AcDbText
 10
32.95
 20
26.5
 30
0.0
 40
0.5
  1
woehner
100
AcDbAttributeDefinition
  3

  2
COMPANY
 70
     8
280
     0
  0
ATTDEF
  5
6F
330
1F
100
AcDbEntity
  8
attrib
100
AcDbText
 10
32.95
 20
26.0
 30
0.0
 40
0.5
  1
{$CADENAS_DATA/23d-libs/woehner/sys_60classic/fuse_holders_iec_en/holder_cylindrical_fuse_ambus_iec_asmtab.prj},218 {VTYP=3D},{STYP=ASSTAB},{NB=31955},{LINA=31955000},{NN=Halter für zyl. Sicherungen 10x38 nach IEC},{DATE=26.01.2024 06:39:58},{GEOMDATE=02.
100
AcDbAttributeDefinition
  3

  2
PSOL_0
 70
     9
280
     0
  0
ATTDEF
  5
70
330
1F
100
AcDbEntity
  8
attrib
100
AcDbText
 10
32.95
 20
25.5
 30
0.0
 40
0.5
  1
10.2023 12:35:06},{VERSION=v231002115156},{LINEID=1070},{WBVAR=},{WBNUMERIC=}  {NB=31955},{LINA=31955000},{KT=DUMMY},{BOM=31955000},{ARTNR=31955},{BUSB=12, 15, 20, 25, 30 x 5, 10 and section busbars},{BE=busbar mounted fuse holder, with LED},{POF=AMBUS®60
100
AcDbAttributeDefinition
  3

  2
PSOL_1
 70
     9
280
     0
  0
ATTDEF
  5
71
330
1F
100
AcDbEntity
  8
attrib
100
AcDbText
 10
32.95
 20
25.0
 30
0.0
 40
0.5
  1
Classic},{TYPE=AEL10x38},{QNT=4},{W=27.0},{H=200},{D=100},{CONCA=},{BUSIN=},{IPR=},{IPRF=},{SEARCH=},{EDZ=},{IODD=},{DIST=8.0},{LINK=Product link},{LINKX=https://www.woehner.de/de/produkte/31955.html},{VER=2},{VER2=3},{PPATH=parts/holder_cylindrical_fuse_
100
AcDbAttributeDefinition
  3

  2
PSOL_2
 70
     9
280
     0
  0
ATTDEF
  5
72
330
1F
100
AcDbEntity
  8
attrib
100
AcDbText
 10
32.95
 20
24.5
 30
0.0
 40
0.5
  1
ambus_iec_asmtpl.prj},{AAO677=Wöhner},{MANUFACTURER_URL=www.woehner.de},{AAQ326=www.woehner.de/de/produkte/31955.html },{AAO676=31955},{TC=AEL10x38},{EAN=4021267319557},{CTN=85361050},{AAU731=AMBUS®60Classic},{DESCRIPTION_LONG=busbar mounted fuse holder, 
100
AcDbAttributeDefinition
  3

  2
PSOL_3
 70
     9
280
     0
  0
ATTDEF
  5
73
330
1F
100
AcDbEntity
  8
attrib
100
AcDbText
 10
32.95
 20
24.0
 30
0.0
 40
0.5
  1
with LED, for fuses 10x38 IEC 60269-2, with LED 110 - 690 V AC / DC, 10 x 38 / 3P},{DESCRIPTION_SHORT=busbar mounted fuse holder, with LED},{AAT080=3},{BAH005=690}
100
AcDbAttributeDefinition
  3

  2
PSOL_4
 70
     9
280
     0
  0
INSERT
  5
75
330
1F
100
AcDbEntity
  8
0
100
AcDbBlockReference
  2
1_79602LED_1_0_in_31955_0
 10
0.0
 20
0.0
 30
0.0
  0
INSERT
  5
101
330
1F
100
AcDbEntity
  8
0
100
AcDbBlockReference
  2
2_79172000_0_in_31955_0
 10
0.0
 20
0.0
 30
0.0
  0
INSERT
  5
135
330
1F
100
AcDbEntity
  8
0
100
AcDbBlockReference
  2
3_79169000_0_in_31955_0
 10
0.0
 20
0.0
 30
0.0
  0
INSERT
  5
189
330
1F
100
AcDbEntity
  8
0
100
AcDbBlockReference
  2
4_79602LED_2_0_in_31955_0
 10
0.0
 20
0.0
 30
0.0
  0
INSERT
  5
20F
330
1F
100
AcDbEntity
  8
0
100
AcDbBlockReference
  2
5_79602LED_3_0_in_31955_0
 10
0.0
 20
0.0
 30
0.0
  0
INSERT
  5
295
330
1F
100
AcDbEntity
  8
0
100
AcDbBlockReference
  2
6_79615000_0_in_31955_0
 10
0.0
 20
0.0
 30
0.0
  0
DIMENSION
  5
3E2
330
1F
100
AcDbEntity
  8
dimension
100
AcDbDimension
280
     0
  2
*D7
 10
27.0
 20
60.66666666666666
 30
0.0
 11
13.5
 21
60.66666666666666
 31
0.0
 70
   160
  1
27
 71
     5
 42
27.0
 73
     0
 74
     0
 75
     0
  3
ISO-25
100
AcDbAlignedDimension
 13
0.0
 23
34.0
 33
0.0
 14
27.0
 24
34.0
 34
0.0
100
AcDbRotatedDimension
1001
ACAD
1000
DSTYLE
1002
{
1070
   147
1040
1.6
1070
    42
1040
0.0
1070
    44
1040
0.0
1070
    41
1040
5.333333333333333
1070
   140
1040
5.333333333333333
1002
}
  0
POINT
  5
3F1
330
1F
100
AcDbEntity
  8
connection
100
AcDbPoint
 10
0.0
 20
34.0
 30
0.0
  0
POINT
  5
3F2
330
1F
100
AcDbEntity
  8
connection
100
AcDbPoint
 10
27.0
 20
27.255
 30
0.0
  0
POINT
  5
3F3
330
1F
100
AcDbEntity
  8
connection
100
AcDbPoint
 10
17.5
 20
-65.5
 30
0.0
  0
POINT
  5
3F4
330
1F
100
AcDbEntity
  8
connection
100
AcDbPoint
 10
17.5
 20
-5.5
 30
0.0
  0
POINT
  5
3F5
330
1F
100
AcDbEntity
  8
connection
100
AcDbPoint
 10
18.0
 20
-6.0
 30
0.0
  0
POINT
  5
3F6
330
1F
100
AcDbEntity
  8
connection
100
AcDbPoint
 10
18.0
 20
-66.0
 30
0.0
  0
POINT
  5
3F7
330
1F
100
AcDbEntity
  8
connection
100
AcDbPoint
 10
18.0
 20
-126.0
 30
0.0
  0
POINT
  5
3F8
330
1F
100
AcDbEntity
  8
connection
100
AcDbPoint
 10
4.0
 20
12.5
 30
0.0
  0
POINT
  5
3F9
330
1F
100
AcDbEntity
  8
connection
100
AcDbPoint
 10
4.0
 20
-47.5
 30
0.0
  0
POINT
  5
3FA
330
1F
100
AcDbEntity
  8
connection
100
AcDbPoint
 10
4.0
 20
-107.5
 30
0.0
  0
POINT
  5
3FB
330
1F
100
AcDbEntity
  8
connection
100
AcDbPoint
 10
0.0
 20
0.0
 30
0.0
  0
POINT
  5
3FC
330
1F
100
AcDbEntity
  8
connection
100
AcDbPoint
 10
0.0
 20
-66.0
 30
0.0
  0
POINT
  5
3FD
330
1F
100
AcDbEntity
  8
connection
100
AcDbPoint
 10
0.0
 20
-166.0
 30
0.0
  0
POINT
  5
3FE
330
1F
100
AcDbEntity
  8
connection
100
AcDbPoint
 10
17.5
 20
-5.5
 30
0.0
  0
POINT
  5
3FF
330
1F
100
AcDbEntity
  8
connection
100
AcDbPoint
 10
17.5
 20
-65.5
 30
0.0
  0
POINT
  5
400
330
1F
100
AcDbEntity
  8
connection
100
AcDbPoint
 10
17.5
 20
-125.5
 30
0.0
  0
POINT
  5
401
330
1F
100
AcDbEntity
  8
connection
100
AcDbPoint
 10
27.0
 20
27.255
 30
0.0
  0
POINT
  5
402
330
1F
100
AcDbEntity
  8
connection
100
AcDbPoint
 10
27.0
 20
27.382
 30
0.0
  0
POINT
  5
403
330
1F
100
AcDbEntity
  8
connection
100
AcDbPoint
 10
0.0
 20
34.0
 30
0.0
  0
ENDSEC
  0
SECTION
  2
OBJECTS
  0
DICTIONARY
  5
C
330
0
100
AcDbDictionary
281
     1
  3
ACAD_DETAILVIEWSTYLE
350
40B
  3
ACAD_GROUP
350
D
  3
ACAD_LAYOUT
350
1A
  3
ACAD_MATERIAL
350
43
  3
ACAD_MLEADERSTYLE
350
5B
  3
ACAD_MLINESTYLE
350
17
  3
ACAD_PLOTSETTINGS
350
19
  3
ACAD_PLOTSTYLENAME
350
E
  3
ACAD_SCALELIST
350
47
  3
ACAD_SECTIONVIEWSTYLE
350
40C
  3
ACAD_TABLESTYLE
350
59
  3
ACAD_VISUALSTYLE
350
2A
  3
ACDB_RECOMPOSE_DATA
350
408
  3
AcDbVariableDictionary
350
404
  0
SUN
  5
5D
330
29
100
AcDbSun
 90
        1
290
     0
 63
     7
421
 16777215
 40
1.0
291
     1
 91
  2455826
 92
 54000000
292
     0
 70
     2
 71
   256
280
     1
  0
DICTIONARY
  5
40B
102
{ACAD_REACTORS
330
C
102
}
330
C
100
AcDbDictionary
281
     1
  0
DICTIONARY
  5
D
102
{ACAD_REACTORS
330
C
102
}
330
C
100
AcDbDictionary
281
     1
  0
DICTIONARY
  5
1A
102
{ACAD_REACTORS
330
C
102
}
330
C
100
AcDbDictionary
281
     1
  3
Layout1
350
1E
  3
Layout2
350
26
  3
Model
350
22
  0
DICTIONARY
  5
43
102
{ACAD_REACTORS
330
C
102
}
330
C
100
AcDbDictionary
281
     1
  3
ByBlock
350
45
  3
ByLayer
350
44
  3
Global
350
46
  0
DICTIONARY
  5
5B
102
{ACAD_REACTORS
330
C
102
}
330
C
100
AcDbDictionary
281
     1
  3
Standard
350
5C
  0
DICTIONARY
  5
17
102
{ACAD_REACTORS
330
C
102
}
330
C
100
AcDbDictionary
281
     1
  3
Standard
350
18
  0
DICTIONARY
  5
19
102
{ACAD_REACTORS
330
C
102
}
330
C
100
AcDbDictionary
281
     1
  0
ACDBDICTIONARYWDFLT
  5
E
102
{ACAD_REACTORS
330
C
102
}
330
C
100
AcDbDictionary
281
     1
  3
Normal
350
F
100
AcDbDictionaryWithDefault
340
F
  0
DICTIONARY
  5
47
102
{ACAD_REACTORS
330
C
102
}
330
C
100
AcDbDictionary
281
     1
  3
A0
350
48
  3
A1
350
49
  3
A2
350
4A
  3
A3
350
4B
  3
A4
350
4C
  3
A5
350
4D
  3
A6
350
4E
  3
A7
350
4F
  3
A8
350
50
  3
A9
350
51
  3
B0
350
52
  3
B1
350
53
  3
B2
350
54
  3
B3
350
55
  3
B4
350
56
  3
B5
350
57
  3
B6
350
58
  0
DICTIONARY
  5
40C
102
{ACAD_REACTORS
330
C
102
}
330
C
100
AcDbDictionary
281
     1
  0
DICTIONARY
  5
59
102
{ACAD_REACTORS
330
C
102
}
330
C
100
AcDbDictionary
281
     1
  3
Standard
350
5A
  0
DICTIONARY
  5
2A
102
{ACAD_REACTORS
330
C
102
}
330
C
100
AcDbDictionary
281
     1
  3
2dWireframe
350
2F
  3
Basic
350
32
  3
Brighten
350
36
  3
ColorChange
350
3A
  3
Conceptual
350
34
  3
Dim
350
35
  3
EdgeColorOff
350
3D
  3
Facepattern
350
39
  3
Flat
350
2B
  3
FlatWithEdges
350
2C
  3
Gouraud
350
2D
  3
GouraudWithEdges
350
2E
  3
Hidden
350
31
  3
JitterOff
350
3B
  3
Linepattern
350
38
  3
OverhangOff
350
3C
  3
Realistic
350
33
  3
Shaded
350
42
  3
Shaded with edges
350
41
  3
Shades of Gray
350
3E
  3
Sketchy
350
3F
  3
Thicken
350
37
  3
Wireframe
350
30
  3
X-Ray
350
40
  0
XRECORD
  5
408
102
{ACAD_REACTORS
330
C
102
}
330
C
100
AcDbXrecord
280
     1
 90
        1
330
5A
  0
DICTIONARY
  5
404
102
{ACAD_REACTORS
330
C
102
}
330
C
100
AcDbDictionary
281
     1
  3
CANNOSCALE
350
405
  3
CENTEREXE
350
40D
  3
CENTERLTYPEFILE
350
40E
  3
CMLEADERSTYLE
350
40A
  3
CTABLESTYLE
350
409
  0
LAYOUT
  5
1E
102
{ACAD_REACTORS
330
1A
102
}
330
1A
100
AcDbPlotSettings
  1

  2
none_device
  4

  6

 40
0.0
 41
0.0
 42
0.0
 43
0.0
 44
0.0
 45
0.0
 46
0.0
 47
0.0
 48
0.0
 49
0.0
140
0.0
141
0.0
142
1.0
143
1.0
 70
   688
 72
     1
 73
     0
 74
     5
  7

 75
    16
 76
     0
 77
     2
 78
   300
147
1.0
148
0.0
149
0.0
100
AcDbLayout
  1
Layout1
 70
     1
 71
     1
 10
0.0
 20
0.0
 11
420.0
 21
297.0
 12
0.0
 22
0.0
 32
0.0
 14
1.000000000000000E+20
 24
1.000000000000000E+20
 34
1.000000000000000E+20
 15
-1.000000000000000E+20
 25
-1.000000000000000E+20
 35
-1.000000000000000E+20
146
0.0
 13
0.0
 23
0.0
 33
0.0
 16
1.0
 26
0.0
 36
0.0
 17
0.0
 27
1.0
 37
0.0
 76
     0
330
1B
  0
LAYOUT
  5
26
102
{ACAD_REACTORS
330
1A
102
}
330
1A
100
AcDbPlotSettings
  1

  2
none_device
  4

  6

 40
0.0
 41
0.0
 42
0.0
 43
0.0
 44
0.0
 45
0.0
 46
0.0
 47
0.0
 48
0.0
 49
0.0
140
0.0
141
0.0
142
1.0
143
1.0
 70
   688
 72
     1
 73
     0
 74
     5
  7

 75
    16
 76
     0
 77
     2
 78
   300
147
1.0
148
0.0
149
0.0
100
AcDbLayout
  1
Layout2
 70
     1
 71
     2
 10
0.0
 20
0.0
 11
0.0
 21
0.0
 12
0.0
 22
0.0
 32
0.0
 14
0.0
 24
0.0
 34
0.0
 15
0.0
 25
0.0
 35
0.0
146
0.0
 13
0.0
 23
0.0
 33
0.0
 16
1.0
 26
0.0
 36
0.0
 17
0.0
 27
1.0
 37
0.0
 76
     0
330
23
  0
LAYOUT
  5
22
102
{ACAD_REACTORS
330
1A
102
}
330
1A
100
AcDbPlotSettings
  1

  2
none_device
  4
Letter_(8.50_x_11.00_Inches)
  6

 40
6.35
 41
6.35
 42
6.35000508
 43
6.35000508
 44
215.9
 45
279.4
 46
0.0
 47
0.0
 48
0.0
 49
0.0
140
0.0
141
0.0
142
1.0
143
1.0
 70
  1712
 72
     1
 73
     0
 74
     0
  7

 75
     0
 76
     0
 77
     2
 78
   300
147
1.0
148
0.0
149
0.0
100
AcDbLayout
  1
Model
 70
     1
 71
     0
 10
0.0
 20
0.0
 11
420.0
 21
297.0
 12
0.0
 22
0.0
 32
0.0
 14
0.0
 24
-166.0
 34
0.0
 15
36.40238095238095
 25
67.6
 35
0.0
146
0.0
 13
0.0
 23
0.0
 33
0.0
 16
1.0
 26
0.0
 36
0.0
 17
0.0
 27
1.0
 37
0.0
 76
     0
330
1F
331
29
  0
MATERIAL
  5
45
102
{ACAD_REACTORS
330
43
102
}
330
43
100
AcDbMaterial
  1
ByBlock
 72
     1
 94
      127
  0
MATERIAL
  5
44
102
{ACAD_REACTORS
330
43
102
}
330
43
100
AcDbMaterial
  1
ByLayer
 72
     1
 94
      127
  0
MATERIAL
  5
46
102
{ACAD_REACTORS
330
43
102
}
330
43
100
AcDbMaterial
  1
Global
 72
     1
 94
      127
  0
MLEADERSTYLE
  5
5C
102
{ACAD_REACTORS
330
5B
102
}
330
5B
100
AcDbMLeaderStyle
179
     2
170
     2
171
     1
172
     0
 90
        2
 40
0.0
 41
0.0
173
     1
 91
-1056964608
340
14
 92
       -2
290
     1
 42
2.0
291
     1
 43
8.0
  3
Standard
341
0
 44
4.0
300

342
11
174
     1
178
     6
175
     1
176
     0
 93
-1056964608
 45
4.0
292
     0
297
     0
 46
4.0
343
0
 94
-1056964608
 47
1.0
 49
1.0
140
1.0
293
     1
141
0.0
294
     1
177
     0
142
1.0
295
     0
296
     0
143
3.75
271
     0
272
     9
273
     9
298
     0
  0
MLINESTYLE
  5
18
102
{ACAD_REACTORS
330
17
102
}
330
17
100
AcDbMlineStyle
  2
Standard
 70
     0
  3

 62
   256
 51
90.0
 52
90.0
 71
     2
 49
0.5
 62
   256
  6
BYLAYER
 49
-0.5
 62
   256
  6
BYLAYER
  0
ACDBPLACEHOLDER
  5
F
102
{ACAD_REACTORS
330
E
102
}
330
E
  0
SCALE
  5
48
102
{ACAD_REACTORS
330
47
102
}
330
47
100
AcDbScale
 70
     0
300
1:1
140
1.0
141
1.0
290
     1
  0
SCALE
  5
49
102
{ACAD_REACTORS
330
47
102
}
330
47
100
AcDbScale
 70
     0
300
1:2
140
1.0
141
2.0
290
     0
  0
SCALE
  5
4A
102
{ACAD_REACTORS
330
47
102
}
330
47
100
AcDbScale
 70
     0
300
1:4
140
1.0
141
4.0
290
     0
  0
SCALE
  5
4B
102
{ACAD_REACTORS
330
47
102
}
330
47
100
AcDbScale
 70
     0
300
1:5
140
1.0
141
5.0
290
     0
  0
SCALE
  5
4C
102
{ACAD_REACTORS
330
47
102
}
330
47
100
AcDbScale
 70
     0
300
1:8
140
1.0
141
8.0
290
     0
  0
SCALE
  5
4D
102
{ACAD_REACTORS
330
47
102
}
330
47
100
AcDbScale
 70
     0
300
1:10
140
1.0
141
10.0
290
     0
  0
SCALE
  5
4E
102
{ACAD_REACTORS
330
47
102
}
330
47
100
AcDbScale
 70
     0
300
1:16
140
1.0
141
16.0
290
     0
  0
SCALE
  5
4F
102
{ACAD_REACTORS
330
47
102
}
330
47
100
AcDbScale
 70
     0
300
1:20
140
1.0
141
20.0
290
     0
  0
SCALE
  5
50
102
{ACAD_REACTORS
330
47
102
}
330
47
100
AcDbScale
 70
     0
300
1:30
140
1.0
141
30.0
290
     0
  0
SCALE
  5
51
102
{ACAD_REACTORS
330
47
102
}
330
47
100
AcDbScale
 70
     0
300
1:40
140
1.0
141
40.0
290
     0
  0
SCALE
  5
52
102
{ACAD_REACTORS
330
47
102
}
330
47
100
AcDbScale
 70
     0
300
1:50
140
1.0
141
50.0
290
     0
  0
SCALE
  5
53
102
{ACAD_REACTORS
330
47
102
}
330
47
100
AcDbScale
 70
     0
300
1:100
140
1.0
141
100.0
290
     0
  0
SCALE
  5
54
102
{ACAD_REACTORS
330
47
102
}
330
47
100
AcDbScale
 70
     0
300
2:1
140
2.0
141
1.0
290
     0
  0
SCALE
  5
55
102
{ACAD_REACTORS
330
47
102
}
330
47
100
AcDbScale
 70
     0
300
4:1
140
4.0
141
1.0
290
     0
  0
SCALE
  5
56
102
{ACAD_REACTORS
330
47
102
}
330
47
100
AcDbScale
 70
     0
300
8:1
140
8.0
141
1.0
290
     0
  0
SCALE
  5
57
102
{ACAD_REACTORS
330
47
102
}
330
47
100
AcDbScale
 70
     0
300
10:1
140
10.0
141
1.0
290
     0
  0
SCALE
  5
58
102
{ACAD_REACTORS
330
47
102
}
330
47
100
AcDbScale
 70
     0
300
100:1
140
100.0
141
1.0
290
     0
  0
TABLESTYLE
  5
5A
102
{ACAD_REACTORS
330
59
102
}
102
{ACAD_XDICTIONARY
360
406
102
}
330
59
100
AcDbTableStyle
  3
Standard
 70
     0
 71
     0
 40
0.06
 41
0.06
280
     0
281
     0
  7
Standard
140
4.5
170
     2
 62
     0
 63
   257
283
     0
 90
        4
 91
        0
  1

274
    -2
284
     1
 64
     0
275
    -2
285
     1
 65
     0
276
    -2
286
     1
 66
     0
277
    -2
287
     1
 67
     0
278
    -2
288
     1
 68
     0
279
    -2
289
     1
 69
     0
  7
Standard
140
6.0
170
     5
 62
     0
 63
   257
283
     0
 90
        4
 91
        0
  1

274
    -2
284
     1
 64
     0
275
    -2
285
     1
 65
     0
276
    -2
286
     1
 66
     0
277
    -2
287
     1
 67
     0
278
    -2
288
     1
 68
     0
279
    -2
289
     1
 69
     0
  7
Standard
140
4.5
170
     5
 62
     0
 63
   257
283
     0
 90
        4
 91
        0
  1

274
    -2
284
     1
 64
     0
275
    -2
285
     1
 65
     0
276
    -2
286
     1
 66
     0
277
    -2
287
     1
 67
     0
278
    -2
288
     1
 68
     0
279
    -2
289
     1
 69
     0
  0
VISUALSTYLE
  5
2F
102
{ACAD_REACTORS
330
2A
102
}
330
2A
100
AcDbVisualStyle
  2
2dWireframe
 70
     4
177
     3
291
     0
 70
    58
 90
        0
176
     1
 90
        2
176
     1
 90
        0
176
     1
 90
        0
176
     1
 40
0.6
176
     1
 40
30.0
176
     1
 62
     7
420
 16777215
176
     1
 90
        1
176
     1
 90
        4
176
     1
 62
     7
176
     1
 62
   257
176
     1
 90
        1
176
     1
 90
        1
176
     1
 40
1.0
176
     1
 90
        0
176
     1
 62
   257
176
     1
 40
1.0
176
     1
 90
        1
176
     1
 90
        6
176
     1
 90
        2
176
     1
 62
     7
176
     1
 90
        5
176
     1
 90
        0
176
     1
 90
        0
176
     1
290
     0
176
     1
 90
        1
176
     1
 40
0.0
176
     1
 90
        0
176
     1
290
     1
176
     1
290
     1
176
     1
290
     0
176
     1
290
     0
176
     1
290
     0
176
     1
290
     0
176
     1
290
     0
176
     1
290
     0
176
     1
290
     0
176
     1
 90
       50
176
     1
 40
0.0
176
     1
 40
1.0
176
     1
 90
        0
176
     1
 62
    18
420
        0
176
     1
 90
       50
176
     1
 90
        3
176
     1
 62
     5
420
      255
176
     1
290
     0
176
     1
 90
       50
176
     1
 90
       50
176
     1
 90
       50
176
     1
290
     0
176
     1
 90
       50
176
     1
 62
   256
176
     0
 40
1.0
176
     0
 90
        2
176
     1
  1
strokes_ogs.tif
176
     1
290
     0
176
     1
 40
1.0
176
     1
 40
1.0
176
     1
  0
VISUALSTYLE
  5
32
102
{ACAD_REACTORS
330
2A
102
}
330
2A
100
AcDbVisualStyle
  2
Basic
 70
     7
177
     3
291
     1
 70
    58
 90
        1
176
     1
 90
        0
176
     1
 90
        1
176
     1
 90
        0
176
     1
 40
0.6
176
     1
 40
30.0
176
     1
 62
     7
420
 16777215
176
     1
 90
        0
176
     1
 90
        4
176
     1
 62
     7
176
     1
 62
   257
176
     1
 90
        1
176
     1
 90
        1
176
     1
 40
1.0
176
     1
 90
        8
176
     1
 62
     7
176
     1
 40
1.0
176
     1
 90
        1
176
     1
 90
        6
176
     1
 90
        2
176
     1
 62
     7
176
     1
 90
        5
176
     1
 90
        0
176
     1
 90
        0
176
     1
290
     0
176
     1
 90
        1
176
     1
 40
0.0
176
     1
 90
        0
176
     1
290
     0
176
     1
290
     1
176
     1
290
     1
176
     1
290
     0
176
     1
290
     0
176
     1
290
     0
176
     1
290
     0
176
     1
290
     0
176
     1
290
     0
176
     1
 90
       50
176
     1
 40
0.0
176
     1
 40
1.0
176
     1
 90
        0
176
     1
 62
    18
420
        0
176
     1
 90
       50
176
     1
 90
        3
176
     1
 62
     5
420
      255
176
     1
290
     0
176
     1
 90
       50
176
     1
 90
       50
176
     1
 90
       50
176
     1
290
     0
176
     1
 90
       50
176
     1
 62
   256
176
     0
 40
1.0
176
     0
 90
        2
176
     1
  1
strokes_ogs.tif
176
     1
290
     0
176
     1
 40
1.0
176
     1
 40
1.0
176
     1
  0
VISUALSTYLE
  5
36
102
{ACAD_REACTORS
330
2A
102
}
330
2A
100
AcDbVisualStyle
  2
Brighten
 70
    12
177
     3
291
     1
 70
    58
 90
        2
176
     1
 90
        2
176
     1
 90
        0
176
     1
 90
        0
176
     1
 40
0.6
176
     1
 40
30.0
176
     1
 62
     7
420
 16777215
176
     1
 90
        1
176
     1
 90
        4
176
     1
 62
     7
176
     1
 62
   257
176
     1
 90
        1
176
     1
 90
        1
176
     1
 40
1.0
176
     1
 90
        8
176
     1
 62
     7
176
     1
 40
1.0
176
     1
 90
        1
176
     1
 90
        6
176
     1
 90
        2
176
     1
 62
     7
176
     1
 90
        5
176
     1
 90
        0
176
     1
 90
        0
176
     1
290
     0
176
     1
 90
        1
176
     1
 40
50.0
176
     1
 90
        0
176
     1
290
     0
176
     1
290
     1
176
     1
290
     1
176
     1
290
     0
176
     1
290
     0
176
     1
290
     0
176
     1
290
     0
176
     1
290
     0
176
     1
290
     0
176
     1
 90
       50
176
     1
 40
0.0
176
     1
 40
1.0
176
     1
 90
        0
176
     1
 62
    18
420
        0
176
     1
 90
       50
176
     1
 90
        3
176
     1
 62
     5
420
      255
176
     1
290
     0
176
     1
 90
       50
176
     1
 90
       50
176
     1
 90
       50
176
     1
290
     0
176
     1
 90
       50
176
     1
 62
   256
176
     0
 40
1.0
176
     0
 90
        2
176
     1
  1
strokes_ogs.tif
176
     1
290
     0
176
     1
 40
1.0
176
     1
 40
1.0
176
     1
  0
VISUALSTYLE
  5
3A
102
{ACAD_REACTORS
330
2A
102
}
330
2A
100
AcDbVisualStyle
  2
ColorChange
 70
    16
177
     3
291
     1
 70
    58
 90
        2
176
     1
 90
        2
176
     1
 90
        3
176
     1
 90
        0
176
     1
 40
0.6
176
     1
 40
30.0
176
     1
 62
     8
420
  8421504
176
     1
 90
        1
176
     1
 90
        4
176
     1
 62
     7
176
     1
 62
   257
176
     1
 90
        1
176
     1
 90
        1
176
     1
 40
1.0
176
     1
 90
        8
176
     1
 62
     8
420
  8421504
176
     1
 40
1.0
176
     1
 90
        1
176
     1
 90
        6
176
     1
 90
        2
176
     1
 62
     7
176
     1
 90
        5
176
     1
 90
        0
176
     1
 90
        0
176
     1
290
     0
176
     1
 90
        1
176
     1
 40
0.0
176
     1
 90
        0
176
     1
290
     0
176
     1
290
     1
176
     1
290
     1
176
     1
290
     0
176
     1
290
     0
176
     1
290
     0
176
     1
290
     0
176
     1
290
     0
176
     1
290
     0
176
     1
 90
       50
176
     1
 40
0.0
176
     1
 40
1.0
176
     1
 90
        0
176
     1
 62
    18
420
        0
176
     1
 90
       50
176
     1
 90
        3
176
     1
 62
     5
420
      255
176
     1
290
     0
176
     1
 90
       50
176
     1
 90
       50
176
     1
 90
       50
176
     1
290
     0
176
     1
 90
       50
176
     1
 62
   256
176
     0
 40
1.0
176
     0
 90
        2
176
     1
  1
strokes_ogs.tif
176
     1
290
     0
176
     1
 40
1.0
176
     1
 40
1.0
176
     1
  0
VISUALSTYLE
  5
34
102
{ACAD_REACTORS
330
2A
102
}
330
2A
100
AcDbVisualStyle
  2
Conceptual
 70
     9
177
     3
291
     0
 70
    58
 90
        3
176
     1
 90
        2
176
     1
 90
        0
176
     1
 90
        0
176
     1
 40
0.6
176
     1
 40
30.0
176
     1
 62
     7
420
 16777215
176
     1
 90
        2
176
     1
 90
        2
176
     1
 62
     7
176
     1
 62
   257
176
     1
 90
        1
176
     1
 90
        1
176
     1
 40
179.0
176
     1
 90
        8
176
     1
 62
     7
176
     1
 40
1.0
176
     1
 90
        1
176
     1
 90
        6
176
     1
 90
        2
176
     1
 62
     7
176
     1
 90
        3
176
     1
 90
        0
176
     1
 90
        0
176
     1
290
     0
176
     1
 90
        1
176
     1
 40
0.0
176
     1
 90
        0
176
     1
290
     0
176
     1
290
     1
176
     1
290
     1
176
     1
290
     0
176
     1
290
     0
176
     1
290
     0
176
     1
290
     0
176
     1
290
     0
176
     1
290
     0
176
     1
 90
       50
176
     1
 40
0.0
176
     1
 40
1.0
176
     1
 90
        0
176
     1
 62
    18
420
        0
176
     1
 90
       50
176
     1
 90
        3
176
     1
 62
     5
420
      255
176
     1
290
     0
176
     1
 90
       50
176
     1
 90
       50
176
     1
 90
       50
176
     1
290
     0
176
     1
 90
       50
176
     1
 62
   256
176
     0
 40
1.0
176
     0
 90
        2
176
     1
  1
strokes_ogs.tif
176
     1
290
     0
176
     1
 40
1.0
176
     1
 40
1.0
176
     1
  0
VISUALSTYLE
  5
35
102
{ACAD_REACTORS
330
2A
102
}
330
2A
100
AcDbVisualStyle
  2
Dim
 70
    11
177
     3
291
     1
 70
    58
 90
        2
176
     1
 90
        2
176
     1
 90
        0
176
     1
 90
        0
176
     1
 40
0.6
176
     1
 40
30.0
176
     1
 62
     7
420
 16777215
176
     1
 90
        1
176
     1
 90
        4
176
     1
 62
     7
176
     1
 62
   257
176
     1
 90
        1
176
     1
 90
        1
176
     1
 40
1.0
176
     1
 90
        8
176
     1
 62
     7
176
     1
 40
1.0
176
     1
 90
        1
176
     1
 90
        6
176
     1
 90
        2
176
     1
 62
     7
176
     1
 90
        5
176
     1
 90
        0
176
     1
 90
        0
176
     1
290
     0
176
     1
 90
        1
176
     1
 40
-50.0
176
     1
 90
        0
176
     1
290
     0
176
     1
290
     1
176
     1
290
     1
176
     1
290
     0
176
     1
290
     0
176
     1
290
     0
176
     1
290
     0
176
     1
290
     0
176
     1
290
     0
176
     1
 90
       50
176
     1
 40
0.0
176
     1
 40
1.0
176
     1
 90
        0
176
     1
 62
    18
420
        0
176
     1
 90
       50
176
     1
 90
        3
176
     1
 62
     5
420
      255
176
     1
290
     0
176
     1
 90
       50
176
     1
 90
       50
176
     1
 90
       50
176
     1
290
     0
176
     1
 90
       50
176
     1
 62
   256
176
     0
 40
1.0
176
     0
 90
        2
176
     1
  1
strokes_ogs.tif
176
     1
290
     0
176
     1
 40
1.0
176
     1
 40
1.0
176
     1
  0
VISUALSTYLE
  5
3D
102
{ACAD_REACTORS
330
2A
102
}
330
2A
100
AcDbVisualStyle
  2
EdgeColorOff
 70
    22
177
     3
291
     1
 70
    58
 90
        2
176
     0
 90
        2
176
     0
 90
        0
176
     0
 90
        0
176
     0
 40
0.6
176
     0
 40
30.0
176
     0
 62
     7
420
 16777215
176
     0
 90
        1
176
     0
 90
        4
176
     0
 62
     7
176
     0
 62
   257
176
     0
 90
        1
176
     0
 90
        1
176
     0
 40
1.0
176
     0
 90
        8
176
     2
 62
     7
176
     0
 40
1.0
176
     0
 90
        1
176
     0
 90
        6
176
     0
 90
        2
176
     0
 62
     7
176
     0
 90
        5
176
     0
 90
        0
176
     0
 90
        0
176
     0
290
     0
176
     0
 90
        1
176
     0
 40
0.0
176
     0
 90
        0
176
     0
290
     0
176
     0
290
     1
176
     0
290
     1
176
     0
290
     0
176
     0
290
     0
176
     0
290
     0
176
     0
290
     0
176
     0
290
     0
176
     0
290
     0
176
     0
 90
       50
176
     0
 40
0.0
176
     0
 40
1.0
176
     0
 90
        0
176
     0
 62
    18
420
        0
176
     0
 90
       50
176
     0
 90
        3
176
     0
 62
     5
420
      255
176
     0
290
     0
176
     0
 90
       50
176
     0
 90
       50
176
     0
 90
       50
176
     0
290
     0
176
     0
 90
       50
176
     0
 62
   256
176
     0
 40
1.0
176
     0
 90
        2
176
     0
  1
strokes_ogs.tif
176
     0
290
     0
176
     0
 40
1.0
176
     0
 40
1.0
176
     0
  0
VISUALSTYLE
  5
39
102
{ACAD_REACTORS
330
2A
102
}
330
2A
100
AcDbVisualStyle
  2
Facepattern
 70
    15
177
     3
291
     1
 70
    58
 90
        2
176
     1
 90
        2
176
     1
 90
        0
176
     1
 90
        0
176
     1
 40
0.6
176
     1
 40
30.0
176
     1
 62
     7
420
 16777215
176
     1
 90
        1
176
     1
 90
        4
176
     1
 62
     7
176
     1
 62
   257
176
     1
 90
        1
176
     1
 90
        1
176
     1
 40
1.0
176
     1
 90
        8
176
     1
 62
     7
176
     1
 40
1.0
176
     1
 90
        1
176
     1
 90
        6
176
     1
 90
        2
176
     1
 62
     7
176
     1
 90
        5
176
     1
 90
        0
176
     1
 90
        0
176
     1
290
     0
176
     1
 90
        1
176
     1
 40
0.0
176
     1
 90
        0
176
     1
290
     0
176
     1
290
     1
176
     1
290
     1
176
     1
290
     0
176
     1
290
     0
176
     1
290
     0
176
     1
290
     0
176
     1
290
     0
176
     1
290
     0
176
     1
 90
       50
176
     1
 40
0.0
176
     1
 40
1.0
176
     1
 90
        0
176
     1
 62
    18
420
        0
176
     1
 90
       50
176
     1
 90
        3
176
     1
 62
     5
420
      255
176
     1
290
     0
176
     1
 90
       50
176
     1
 90
       50
176
     1
 90
       50
176
     1
290
     0
176
     1
 90
       50
176
     1
 62
   256
176
     0
 40
1.0
176
     0
 90
        2
176
     1
  1
strokes_ogs.tif
176
     1
290
     0
176
     1
 40
1.0
176
     1
 40
1.0
176
     1
  0
VISUALSTYLE
  5
2B
102
{ACAD_REACTORS
330
2A
102
}
330
2A
100
AcDbVisualStyle
  2
Flat
 70
     0
177
     3
291
     1
 70
    58
 90
        2
176
     1
 90
        1
176
     1
 90
        1
176
     1
 90
        2
176
     1
 40
0.6
176
     1
 40
30.0
176
     1
 62
     7
420
 16777215
176
     1
 90
        0
176
     1
 90
        0
176
     1
 62
     7
176
     1
 62
   257
176
     1
 90
        1
176
     1
 90
        1
176
     1
 40
1.0
176
     1
 90
        8
176
     1
 62
     7
176
     1
 40
1.0
176
     1
 90
        1
176
     1
 90
        6
176
     1
 90
        2
176
     1
 62
     7
176
     1
 90
        5
176
     1
 90
        0
176
     1
 90
        0
176
     1
290
     0
176
     1
 90
       13
176
     1
 40
0.0
176
     1
 90
        0
176
     1
290
     0
176
     1
290
     1
176
     1
290
     1
176
     1
290
     0
176
     1
290
     0
176
     1
290
     0
176
     1
290
     0
176
     1
290
     0
176
     1
290
     0
176
     1
 90
       50
176
     1
 40
0.0
176
     1
 40
1.0
176
     1
 90
        0
176
     1
 62
    18
420
        0
176
     1
 90
       50
176
     1
 90
        3
176
     1
 62
     5
420
      255
176
     1
290
     0
176
     1
 90
       50
176
     1
 90
       50
176
     1
 90
       50
176
     1
290
     0
176
     1
 90
       50
176
     1
 62
   256
176
     0
 40
1.0
176
     0
 90
        2
176
     1
  1
strokes_ogs.tif
176
     1
290
     0
176
     1
 40
1.0
176
     1
 40
1.0
176
     1
  0
VISUALSTYLE
  5
2C
102
{ACAD_REACTORS
330
2A
102
}
330
2A
100
AcDbVisualStyle
  2
FlatWithEdges
 70
     1
177
     3
291
     1
 70
    58
 90
        2
176
     1
 90
        1
176
     1
 90
        1
176
     1
 90
        2
176
     1
 40
0.6
176
     1
 40
30.0
176
     1
 62
     7
420
 16777215
176
     1
 90
        1
176
     1
 90
        0
176
     1
 62
     7
176
     1
 62
   257
176
     1
 90
        1
176
     1
 90
        1
176
     1
 40
1.0
176
     1
 90
        0
176
     1
 62
   257
176
     1
 40
1.0
176
     1
 90
        1
176
     1
 90
        6
176
     1
 90
        2
176
     1
 62
     7
176
     1
 90
        5
176
     1
 90
        0
176
     1
 90
        0
176
     1
290
     0
176
     1
 90
       13
176
     1
 40
0.0
176
     1
 90
        0
176
     1
290
     0
176
     1
290
     1
176
     1
290
     1
176
     1
290
     0
176
     1
290
     0
176
     1
290
     0
176
     1
290
     0
176
     1
290
     0
176
     1
290
     0
176
     1
 90
       50
176
     1
 40
0.0
176
     1
 40
1.0
176
     1
 90
        0
176
     1
 62
    18
420
        0
176
     1
 90
       50
176
     1
 90
        3
176
     1
 62
     5
420
      255
176
     1
290
     0
176
     1
 90
       50
176
     1
 90
       50
176
     1
 90
       50
176
     1
290
     0
176
     1
 90
       50
176
     1
 62
   256
176
     0
 40
1.0
176
     0
 90
        2
176
     1
  1
strokes_ogs.tif
176
     1
290
     0
176
     1
 40
1.0
176
     1
 40
1.0
176
     1
  0
VISUALSTYLE
  5
2D
102
{ACAD_REACTORS
330
2A
102
}
330
2A
100
AcDbVisualStyle
  2
Gouraud
 70
     2
177
     3
291
     1
 70
    58
 90
        2
176
     1
 90
        2
176
     1
 90
        1
176
     1
 90
        2
176
     1
 40
0.6
176
     1
 40
30.0
176
     1
 62
     7
420
 16777215
176
     1
 90
        0
176
     1
 90
        0
176
     1
 62
     7
176
     1
 62
   257
176
     1
 90
        1
176
     1
 90
        1
176
     1
 40
1.0
176
     1
 90
        0
176
     1
 62
     7
176
     1
 40
1.0
176
     1
 90
        1
176
     1
 90
        6
176
     1
 90
        2
176
     1
 62
     7
176
     1
 90
        5
176
     1
 90
        0
176
     1
 90
        0
176
     1
290
     0
176
     1
 90
       13
176
     1
 40
0.0
176
     1
 90
        0
176
     1
290
     0
176
     1
290
     1
176
     1
290
     1
176
     1
290
     0
176
     1
290
     0
176
     1
290
     0
176
     1
290
     0
176
     1
290
     0
176
     1
290
     0
176
     1
 90
       50
176
     1
 40
0.0
176
     1
 40
1.0
176
     1
 90
        0
176
     1
 62
    18
420
        0
176
     1
 90
       50
176
     1
 90
        3
176
     1
 62
     5
420
      255
176
     1
290
     0
176
     1
 90
       50
176
     1
 90
       50
176
     1
 90
       50
176
     1
290
     0
176
     1
 90
       50
176
     1
 62
   256
176
     0
 40
1.0
176
     0
 90
        2
176
     1
  1
strokes_ogs.tif
176
     1
290
     0
176
     1
 40
1.0
176
     1
 40
1.0
176
     1
  0
VISUALSTYLE
  5
2E
102
{ACAD_REACTORS
330
2A
102
}
330
2A
100
AcDbVisualStyle
  2
GouraudWithEdges
 70
     3
177
     3
291
     1
 70
    58
 90
        2
176
     1
 90
        2
176
     1
 90
        1
176
     1
 90
        2
176
     1
 40
0.6
176
     1
 40
30.0
176
     1
 62
     7
420
 16777215
176
     1
 90
        1
176
     1
 90
        0
176
     1
 62
     7
176
     1
 62
   257
176
     1
 90
        1
176
     1
 90
        1
176
     1
 40
1.0
176
     1
 90
        0
176
     1
 62
   257
176
     1
 40
1.0
176
     1
 90
        1
176
     1
 90
        6
176
     1
 90
        2
176
     1
 62
     7
176
     1
 90
        5
176
     1
 90
        0
176
     1
 90
        0
176
     1
290
     0
176
     1
 90
       13
176
     1
 40
0.0
176
     1
 90
        0
176
     1
290
     0
176
     1
290
     1
176
     1
290
     1
176
     1
290
     0
176
     1
290
     0
176
     1
290
     0
176
     1
290
     0
176
     1
290
     0
176
     1
290
     0
176
     1
 90
       50
176
     1
 40
0.0
176
     1
 40
1.0
176
     1
 90
        0
176
     1
 62
    18
420
        0
176
     1
 90
       50
176
     1
 90
        3
176
     1
 62
     5
420
      255
176
     1
290
     0
176
     1
 90
       50
176
     1
 90
       50
176
     1
 90
       50
176
     1
290
     0
176
     1
 90
       50
176
     1
 62
   256
176
     0
 40
1.0
176
     0
 90
        2
176
     1
  1
strokes_ogs.tif
176
     1
290
     0
176
     1
 40
1.0
176
     1
 40
1.0
176
     1
  0
VISUALSTYLE
  5
31
102
{ACAD_REACTORS
330
2A
102
}
330
2A
100
AcDbVisualStyle
  2
Hidden
 70
     6
177
     3
291
     0
 70
    58
 90
        1
176
     1
 90
        2
176
     1
 90
        2
176
     1
 90
        0
176
     1
 40
0.6
176
     1
 40
30.0
176
     1
 62
     7
420
 16777215
176
     1
 90
        2
176
     1
 90
        2
176
     1
 62
     7
176
     1
 62
   257
176
     1
 90
        2
176
     1
 90
        1
176
     1
 40
40.0
176
     1
 90
        0
176
     1
 62
   257
176
     1
 40
1.0
176
     1
 90
        1
176
     1
 90
        6
176
     1
 90
        2
176
     1
 62
     7
176
     1
 90
        3
176
     1
 90
        0
176
     1
 90
        0
176
     1
290
     0
176
     1
 90
        1
176
     1
 40
0.0
176
     1
 90
        0
176
     1
290
     0
176
     1
290
     1
176
     1
290
     1
176
     1
290
     0
176
     1
290
     0
176
     1
290
     0
176
     1
290
     0
176
     1
290
     0
176
     1
290
     0
176
     1
 90
       50
176
     1
 40
0.0
176
     1
 40
1.0
176
     1
 90
        0
176
     1
 62
    18
420
        0
176
     1
 90
       50
176
     1
 90
        3
176
     1
 62
     5
420
      255
176
     1
290
     0
176
     1
 90
       50
176
     1
 90
       50
176
     1
 90
       50
176
     1
290
     0
176
     1
 90
       50
176
     1
 62
   256
176
     0
 40
1.0
176
     0
 90
        2
176
     1
  1
strokes_ogs.tif
176
     1
290
     0
176
     1
 40
1.0
176
     1
 40
1.0
176
     1
  0
VISUALSTYLE
  5
3B
102
{ACAD_REACTORS
330
2A
102
}
330
2A
100
AcDbVisualStyle
  2
JitterOff
 70
    20
177
     3
291
     1
 70
    58
 90
        2
176
     0
 90
        2
176
     0
 90
        0
176
     0
 90
        0
176
     0
 40
0.6
176
     0
 40
30.0
176
     0
 62
     7
420
 16777215
176
     0
 90
        1
176
     0
 90
        4
176
     0
 62
     7
176
     0
 62
   257
176
     0
 90
        1
176
     0
 90
        1
176
     0
 40
1.0
176
     0
 90
       10
176
     2
 62
     7
176
     0
 40
1.0
176
     0
 90
        1
176
     0
 90
        6
176
     0
 90
        2
176
     0
 62
     7
176
     0
 90
        5
176
     0
 90
        0
176
     0
 90
        0
176
     0
290
     0
176
     0
 90
        1
176
     0
 40
0.0
176
     0
 90
        0
176
     0
290
     0
176
     0
290
     1
176
     0
290
     1
176
     0
290
     0
176
     0
290
     0
176
     0
290
     0
176
     0
290
     0
176
     0
290
     0
176
     0
290
     0
176
     0
 90
       50
176
     0
 40
0.0
176
     0
 40
1.0
176
     0
 90
        0
176
     0
 62
    18
420
        0
176
     0
 90
       50
176
     0
 90
        3
176
     0
 62
     5
420
      255
176
     0
290
     0
176
     0
 90
       50
176
     0
 90
       50
176
     0
 90
       50
176
     0
290
     0
176
     0
 90
       50
176
     0
 62
   256
176
     0
 40
1.0
176
     0
 90
        2
176
     0
  1
strokes_ogs.tif
176
     0
290
     0
176
     0
 40
1.0
176
     0
 40
1.0
176
     0
  0
VISUALSTYLE
  5
38
102
{ACAD_REACTORS
330
2A
102
}
330
2A
100
AcDbVisualStyle
  2
Linepattern
 70
    14
177
     3
291
     1
 70
    58
 90
        2
176
     1
 90
        2
176
     1
 90
        0
176
     1
 90
        0
176
     1
 40
0.6
176
     1
 40
30.0
176
     1
 62
     7
420
 16777215
176
     1
 90
        1
176
     1
 90
        4
176
     1
 62
     7
176
     1
 62
   257
176
     1
 90
        7
176
     1
 90
        7
176
     1
 40
1.0
176
     1
 90
        8
176
     1
 62
     7
176
     1
 40
1.0
176
     1
 90
        1
176
     1
 90
        6
176
     1
 90
        2
176
     1
 62
     7
176
     1
 90
        5
176
     1
 90
        0
176
     1
 90
        0
176
     1
290
     0
176
     1
 90
        1
176
     1
 40
0.0
176
     1
 90
        0
176
     1
290
     0
176
     1
290
     1
176
     1
290
     1
176
     1
290
     0
176
     1
290
     0
176
     1
290
     0
176
     1
290
     0
176
     1
290
     0
176
     1
290
     0
176
     1
 90
       50
176
     1
 40
0.0
176
     1
 40
1.0
176
     1
 90
        0
176
     1
 62
    18
420
        0
176
     1
 90
       50
176
     1
 90
        3
176
     1
 62
     5
420
      255
176
     1
290
     0
176
     1
 90
       50
176
     1
 90
       50
176
     1
 90
       50
176
     1
290
     0
176
     1
 90
       50
176
     1
 62
   256
176
     0
 40
1.0
176
     0
 90
        2
176
     1
  1
strokes_ogs.tif
176
     1
290
     0
176
     1
 40
1.0
176
     1
 40
1.0
176
     1
  0
VISUALSTYLE
  5
3C
102
{ACAD_REACTORS
330
2A
102
}
330
2A
100
AcDbVisualStyle
  2
OverhangOff
 70
    21
177
     3
291
     1
 70
    58
 90
        2
176
     0
 90
        2
176
     0
 90
        0
176
     0
 90
        0
176
     0
 40
0.6
176
     0
 40
30.0
176
     0
 62
     7
420
 16777215
176
     0
 90
        1
176
     0
 90
        4
176
     0
 62
     7
176
     0
 62
   257
176
     0
 90
        1
176
     0
 90
        1
176
     0
 40
1.0
176
     0
 90
        9
176
     2
 62
     7
176
     0
 40
1.0
176
     0
 90
        1
176
     0
 90
        6
176
     0
 90
        2
176
     0
 62
     7
176
     0
 90
        5
176
     0
 90
        0
176
     0
 90
        0
176
     0
290
     0
176
     0
 90
        1
176
     0
 40
0.0
176
     0
 90
        0
176
     0
290
     0
176
     0
290
     1
176
     0
290
     1
176
     0
290
     0
176
     0
290
     0
176
     0
290
     0
176
     0
290
     0
176
     0
290
     0
176
     0
290
     0
176
     0
 90
       50
176
     0
 40
0.0
176
     0
 40
1.0
176
     0
 90
        0
176
     0
 62
    18
420
        0
176
     0
 90
       50
176
     0
 90
        3
176
     0
 62
     5
420
      255
176
     0
290
     0
176
     0
 90
       50
176
     0
 90
       50
176
     0
 90
       50
176
     0
290
     0
176
     0
 90
       50
176
     0
 62
   256
176
     0
 40
1.0
176
     0
 90
        2
176
     0
  1
strokes_ogs.tif
176
     0
290
     0
176
     0
 40
1.0
176
     0
 40
1.0
176
     0
  0
VISUALSTYLE
  5
33
102
{ACAD_REACTORS
330
2A
102
}
330
2A
100
AcDbVisualStyle
  2
Realistic
 70
     8
177
     3
291
     0
 70
    58
 90
        2
176
     1
 90
        3
176
     1
 90
        0
176
     1
 90
        2
176
     1
 40
0.6
176
     1
 40
30.0
176
     1
 62
     7
420
 16777215
176
     1
 90
        0
176
     1
 90
        0
176
     1
 62
     7
176
     1
 62
   257
176
     1
 90
        1
176
     1
 90
        1
176
     1
 40
1.0
176
     1
 90
        8
176
     1
 62
   257
176
     1
 40
1.0
176
     1
 90
        1
176
     1
 90
        6
176
     1
 90
        2
176
     1
 62
     7
176
     1
 90
        3
176
     1
 90
        0
176
     1
 90
        0
176
     1
290
     0
176
     1
 90
       13
176
     1
 40
0.0
176
     1
 90
        0
176
     1
290
     0
176
     1
290
     1
176
     1
290
     1
176
     1
290
     0
176
     1
290
     0
176
     1
290
     0
176
     1
290
     0
176
     1
290
     0
176
     1
290
     0
176
     1
 90
       50
176
     1
 40
0.0
176
     1
 40
1.0
176
     1
 90
        0
176
     1
 62
    18
420
        0
176
     1
 90
       50
176
     1
 90
        3
176
     1
 62
     5
420
      255
176
     1
290
     0
176
     1
 90
       50
176
     1
 90
       50
176
     1
 90
       50
176
     1
290
     0
176
     1
 90
       50
176
     1
 62
   256
176
     0
 40
1.0
176
     0
 90
        2
176
     1
  1
strokes_ogs.tif
176
     1
290
     0
176
     1
 40
1.0
176
     1
 40
1.0
176
     1
  0
VISUALSTYLE
  5
42
102
{ACAD_REACTORS
330
2A
102
}
330
2A
100
AcDbVisualStyle
  2
Shaded
 70
    27
177
     3
291
     0
 70
    58
 90
        2
176
     1
 90
        2
176
     1
 90
        1
176
     1
 90
        2
176
     1
 40
0.6
176
     1
 40
30.0
176
     1
 62
     7
420
 16777215
176
     1
 90
        0
176
     1
 90
        4
176
     1
 62
     7
176
     1
 62
   257
176
     1
 90
        1
176
     1
 90
        1
176
     1
 40
1.0
176
     1
 90
        8
176
     1
 62
   257
176
     1
 40
1.0
176
     1
 90
        1
176
     1
 90
        6
176
     1
 90
        2
176
     1
 62
     8
420
  7895160
176
     1
 90
        3
176
     1
 90
        0
176
     1
 90
        0
176
     1
290
     0
176
     1
 90
        5
176
     1
 40
0.0
176
     1
 90
        0
176
     1
290
     0
176
     1
290
     1
176
     1
290
     1
176
     1
290
     0
176
     1
290
     0
176
     1
290
     0
176
     1
290
     0
176
     1
290
     0
176
     1
290
     0
176
     1
 90
       50
176
     1
 40
0.0
176
     1
 40
1.0
176
     1
 90
        0
176
     1
 62
    18
420
        0
176
     1
 90
       50
176
     1
 90
        3
176
     1
 62
     5
420
      255
176
     1
290
     0
176
     1
 90
       50
176
     1
 90
       50
176
     1
 90
       50
176
     1
290
     0
176
     1
 90
       50
176
     1
 62
   256
176
     0
 40
1.0
176
     0
 90
        2
176
     1
  1
strokes_ogs.tif
176
     1
290
     0
176
     1
 40
1.0
176
     1
 40
1.0
176
     1
  0
VISUALSTYLE
  5
41
102
{ACAD_REACTORS
330
2A
102
}
330
2A
100
AcDbVisualStyle
  2
Shaded with edges
 70
    26
177
     3
291
     0
 70
    58
 90
        2
176
     1
 90
        2
176
     1
 90
        1
176
     1
 90
        2
176
     1
 40
0.6
176
     1
 40
30.0
176
     1
 62
     7
420
 16777215
176
     1
 90
        1
176
     1
 90
       10
176
     1
 62
     7
176
     1
 62
   257
176
     1
 90
        2
176
     1
 90
        1
176
     1
 40
1.0
176
     1
 90
        8
176
     1
 62
   257
176
     1
 40
1.0
176
     1
 90
        1
176
     1
 90
        6
176
     1
 90
        2
176
     1
 62
     7
176
     1
 90
        3
176
     1
 90
        0
176
     1
 90
        0
176
     1
290
     0
176
     1
 90
        5
176
     1
 40
0.0
176
     1
 90
        0
176
     1
290
     0
176
     1
290
     1
176
     1
290
     1
176
     1
290
     0
176
     1
290
     0
176
     1
290
     0
176
     1
290
     0
176
     1
290
     0
176
     1
290
     0
176
     1
 90
       50
176
     1
 40
0.0
176
     1
 40
1.0
176
     1
 90
        0
176
     1
 62
    18
420
        0
176
     1
 90
       50
176
     1
 90
        3
176
     1
 62
     5
420
      255
176
     1
290
     0
176
     1
 90
       50
176
     1
 90
       50
176
     1
 90
       50
176
     1
290
     0
176
     1
 90
       50
176
     1
 62
   256
176
     0
 40
1.0
176
     0
 90
        2
176
     1
  1
strokes_ogs.tif
176
     1
290
     0
176
     1
 40
1.0
176
     1
 40
1.0
176
     1
  0
VISUALSTYLE
  5
3E
102
{ACAD_REACTORS
330
2A
102
}
330
2A
100
AcDbVisualStyle
  2
Shades of Gray
 70
    23
177
     3
291
     0
 70
    58
 90
        2
176
     1
 90
        2
176
     1
 90
        3
176
     1
 90
        0
176
     1
 40
0.6
176
     1
 40
30.0
176
     1
 62
     7
420
 16777215
176
     1
 90
        2
176
     1
 90
        2
176
     1
 62
     7
176
     1
 62
     7
176
     1
 90
        1
176
     1
 90
        1
176
     1
 40
40.0
176
     1
 90
        8
176
     1
 62
     7
176
     1
 40
1.0
176
     1
 90
        1
176
     1
 90
        6
176
     1
 90
        2
176
     1
 62
     7
176
     1
 90
        3
176
     1
 90
        0
176
     1
 90
        0
176
     1
290
     0
176
     1
 90
        1
176
     1
 40
0.0
176
     1
 90
        0
176
     1
290
     0
176
     1
290
     1
176
     1
290
     1
176
     1
290
     0
176
     1
290
     0
176
     1
290
     0
176
     1
290
     0
176
     1
290
     0
176
     1
290
     0
176
     1
 90
       50
176
     1
 40
0.0
176
     1
 40
1.0
176
     1
 90
        0
176
     1
 62
    18
420
        0
176
     1
 90
       50
176
     1
 90
        3
176
     1
 62
     5
420
      255
176
     1
290
     0
176
     1
 90
       50
176
     1
 90
       50
176
     1
 90
       50
176
     1
290
     0
176
     1
 90
       50
176
     1
 62
   256
176
     0
 40
1.0
176
     0
 90
        2
176
     1
  1
strokes_ogs.tif
176
     1
290
     0
176
     1
 40
1.0
176
     1
 40
1.0
176
     1
  0
VISUALSTYLE
  5
3F
102
{ACAD_REACTORS
330
2A
102
}
330
2A
100
AcDbVisualStyle
  2
Sketchy
 70
    24
177
     3
291
     0
 70
    58
 90
        1
176
     1
 90
        2
176
     1
 90
        2
176
     1
 90
        0
176
     1
 40
0.6
176
     1
 40
30.0
176
     1
 62
     7
420
 16777215
176
     1
 90
        2
176
     1
 90
        2
176
     1
 62
     7
176
     1
 62
     7
176
     1
 90
        1
176
     1
 90
        1
176
     1
 40
40.0
176
     1
 90
       11
176
     1
 62
     7
176
     1
 40
1.0
176
     1
 90
        1
176
     1
 90
        6
176
     1
 90
        2
176
     1
 62
     7
176
     1
 90
        6
176
     1
 90
        0
176
     1
 90
        0
176
     1
290
     0
176
     1
 90
        1
176
     1
 40
0.0
176
     1
 90
        0
176
     1
290
     0
176
     1
290
     1
176
     1
290
     1
176
     1
290
     0
176
     1
290
     0
176
     1
290
     0
176
     1
290
     0
176
     1
290
     0
176
     1
290
     0
176
     1
 90
       50
176
     1
 40
0.0
176
     1
 40
1.0
176
     1
 90
        0
176
     1
 62
    18
420
        0
176
     1
 90
       50
176
     1
 90
        3
176
     1
 62
     5
420
      255
176
     1
290
     0
176
     1
 90
       50
176
     1
 90
       50
176
     1
 90
       50
176
     1
290
     0
176
     1
 90
       50
176
     1
 62
   256
176
     0
 40
1.0
176
     0
 90
        2
176
     1
  1
strokes_ogs.tif
176
     1
290
     0
176
     1
 40
1.0
176
     1
 40
1.0
176
     1
  0
VISUALSTYLE
  5
37
102
{ACAD_REACTORS
330
2A
102
}
330
2A
100
AcDbVisualStyle
  2
Thicken
 70
    13
177
     3
291
     1
 70
    58
 90
        2
176
     1
 90
        2
176
     1
 90
        0
176
     1
 90
        0
176
     1
 40
0.6
176
     1
 40
30.0
176
     1
 62
     7
420
 16777215
176
     1
 90
        1
176
     1
 90
        4
176
     1
 62
     7
176
     1
 62
   257
176
     1
 90
        1
176
     1
 90
        1
176
     1
 40
1.0
176
     1
 90
       12
176
     1
 62
     7
176
     1
 40
1.0
176
     1
 90
        1
176
     1
 90
        6
176
     1
 90
        2
176
     1
 62
     7
176
     1
 90
        5
176
     1
 90
        0
176
     1
 90
        0
176
     1
290
     0
176
     1
 90
        1
176
     1
 40
0.0
176
     1
 90
        0
176
     1
290
     0
176
     1
290
     1
176
     1
290
     1
176
     1
290
     0
176
     1
290
     0
176
     1
290
     0
176
     1
290
     0
176
     1
290
     0
176
     1
290
     0
176
     1
 90
       50
176
     1
 40
0.0
176
     1
 40
1.0
176
     1
 90
        0
176
     1
 62
    18
420
        0
176
     1
 90
       50
176
     1
 90
        3
176
     1
 62
     5
420
      255
176
     1
290
     0
176
     1
 90
       50
176
     1
 90
       50
176
     1
 90
       50
176
     1
290
     0
176
     1
 90
       50
176
     1
 62
   256
176
     0
 40
1.0
176
     0
 90
        2
176
     1
  1
strokes_ogs.tif
176
     1
290
     0
176
     1
 40
1.0
176
     1
 40
1.0
176
     1
  0
VISUALSTYLE
  5
30
102
{ACAD_REACTORS
330
2A
102
}
330
2A
100
AcDbVisualStyle
  2
Wireframe
 70
     5
177
     3
291
     0
 70
    58
 90
        0
176
     1
 90
        2
176
     1
 90
        0
176
     1
 90
        0
176
     1
 40
0.6
176
     1
 40
30.0
176
     1
 62
     7
420
 16777215
176
     1
 90
        1
176
     1
 90
        4
176
     1
 62
     7
176
     1
 62
   257
176
     1
 90
        1
176
     1
 90
        1
176
     1
 40
1.0
176
     1
 90
        0
176
     1
 62
   257
176
     1
 40
1.0
176
     1
 90
        1
176
     1
 90
        6
176
     1
 90
        2
176
     1
 62
     7
176
     1
 90
        3
176
     1
 90
        0
176
     1
 90
        0
176
     1
290
     0
176
     1
 90
        1
176
     1
 40
0.0
176
     1
 90
        0
176
     1
290
     0
176
     1
290
     1
176
     1
290
     1
176
     1
290
     0
176
     1
290
     0
176
     1
290
     0
176
     1
290
     0
176
     1
290
     0
176
     1
290
     0
176
     1
 90
       50
176
     1
 40
0.0
176
     1
 40
1.0
176
     1
 90
        0
176
     1
 62
    18
420
        0
176
     1
 90
       50
176
     1
 90
        3
176
     1
 62
     5
420
      255
176
     1
290
     0
176
     1
 90
       50
176
     1
 90
       50
176
     1
 90
       50
176
     1
290
     0
176
     1
 90
       50
176
     1
 62
   256
176
     0
 40
1.0
176
     0
 90
        2
176
     1
  1
strokes_ogs.tif
176
     1
290
     0
176
     1
 40
1.0
176
     1
 40
1.0
176
     1
  0
VISUALSTYLE
  5
40
102
{ACAD_REACTORS
330
2A
102
}
330
2A
100
AcDbVisualStyle
  2
X-Ray
 70
    25
177
     3
291
     0
 70
    58
 90
        2
176
     1
 90
        2
176
     1
 90
        1
176
     1
 90
        1
176
     1
 40
0.5
176
     1
 40
30.0
176
     1
 62
     7
420
 16777215
176
     1
 90
        1
176
     1
 90
        0
176
     1
 62
     7
176
     1
 62
   257
176
     1
 90
        1
176
     1
 90
        1
176
     1
 40
1.0
176
     1
 90
        8
176
     1
 62
     7
176
     1
 40
1.0
176
     1
 90
        1
176
     1
 90
        6
176
     1
 90
        2
176
     1
 62
     7
176
     1
 90
        3
176
     1
 90
        0
176
     1
 90
        0
176
     1
290
     0
176
     1
 90
       13
176
     1
 40
0.0
176
     1
 90
        0
176
     1
290
     0
176
     1
290
     1
176
     1
290
     1
176
     1
290
     0
176
     1
290
     0
176
     1
290
     0
176
     1
290
     0
176
     1
290
     0
176
     1
290
     0
176
     1
 90
       50
176
     1
 40
0.0
176
     1
 40
1.0
176
     1
 90
        0
176
     1
 62
    18
420
        0
176
     1
 90
       50
176
     1
 90
        3
176
     1
 62
     5
420
      255
176
     1
290
     0
176
     1
 90
       50
176
     1
 90
       50
176
     1
 90
       50
176
     1
290
     0
176
     1
 90
       50
176
     1
 62
   256
176
     0
 40
1.0
176
     0
 90
        2
176
     1
  1
strokes_ogs.tif
176
     1
290
     0
176
     1
 40
1.0
176
     1
 40
1.0
176
     1
  0
DICTIONARYVAR
  5
405
102
{ACAD_REACTORS
330
404
102
}
330
404
100
DictionaryVariables
280
     0
  1
1:1
  0
DICTIONARYVAR
  5
40D
102
{ACAD_REACTORS
330
404
102
}
330
404
100
DictionaryVariables
280
     0
  1
3.500000
  0
DICTIONARYVAR
  5
40E
102
{ACAD_REACTORS
330
404
102
}
330
404
100
DictionaryVariables
280
     0
  1
acadiso.lin
  0
DICTIONARYVAR
  5
40A
102
{ACAD_REACTORS
330
404
102
}
330
404
100
DictionaryVariables
280
     0
  1
Standard
  0
DICTIONARYVAR
  5
409
102
{ACAD_REACTORS
330
404
102
}
330
404
100
DictionaryVariables
280
     0
  1
Standard
  0
DICTIONARY
  5
406
330
5A
100
AcDbDictionary
280
     1
281
     1
  3
ACAD_ROUNDTRIP_2008_TABLESTYLE_CELLSTYLEMAP
360
407
  0
CELLSTYLEMAP
  5
407
102
{ACAD_REACTORS
330
406
102
}
330
406
100
AcDbCellStyleMap
 90
        3
300
CELLSTYLE
  1
TABLEFORMAT_BEGIN
 90
        5
170
     1
 91
        0
 92
    32768
 62
   257
 93
        1
300
CONTENTFORMAT
  1
CONTENTFORMAT_BEGIN
 90
        0
 91
        0
 92
        4
 93
        0
300

 40
0.0
140
1.0
 94
        5
 62
     0
340
11
144
6.0
309
CONTENTFORMAT_END
171
     1
301
MARGIN
  1
CELLMARGIN_BEGIN
 40
1.5
 40
1.5
 40
1.5
 40
1.5
 40
1.5
 40
1.5
309
CELLMARGIN_END
 94
        6
 95
        1
302
GRIDFORMAT
  1
GRIDFORMAT_BEGIN
 90
        0
 91
        1
 62
     0
 92
       -2
340
14
 93
        0
 40
0.045
309
GRIDFORMAT_END
 95
        2
302
GRIDFORMAT
  1
GRIDFORMAT_BEGIN
 90
        0
 91
        1
 62
     0
 92
       -2
340
14
 93
        0
 40
0.045
309
GRIDFORMAT_END
 95
        4
302
GRIDFORMAT
  1
GRIDFORMAT_BEGIN
 90
        0
 91
        1
 62
     0
 92
       -2
340
14
 93
        0
 40
0.045
309
GRIDFORMAT_END
 95
        8
302
GRIDFORMAT
  1
GRIDFORMAT_BEGIN
 90
        0
 91
        1
 62
     0
 92
       -2
340
14
 93
        0
 40
0.045
309
GRIDFORMAT_END
 95
       16
302
GRIDFORMAT
  1
GRIDFORMAT_BEGIN
 90
        0
 91
        1
 62
     0
 92
       -2
340
14
 93
        0
 40
0.045
309
GRIDFORMAT_END
 95
       32
302
GRIDFORMAT
  1
GRIDFORMAT_BEGIN
 90
        0
 91
        1
 62
     0
 92
       -2
340
14
 93
        0
 40
0.045
309
GRIDFORMAT_END
309
TABLEFORMAT_END
  1
CELLSTYLE_BEGIN
 90
        1
 91
        1
300
_TITLE
309
CELLSTYLE_END
300
CELLSTYLE
  1
TABLEFORMAT_BEGIN
 90
        5
170
     1
 91
        0
 92
        0
 62
   257
 93
        1
300
CONTENTFORMAT
  1
CONTENTFORMAT_BEGIN
 90
        0
 91
        0
 92
        4
 93
        0
300

 40
0.0
140
1.0
 94
        5
 62
     0
340
11
144
4.5
309
CONTENTFORMAT_END
171
     1
301
MARGIN
  1
CELLMARGIN_BEGIN
 40
1.5
 40
1.5
 40
1.5
 40
1.5
 40
1.5
 40
1.5
309
CELLMARGIN_END
 94
        6
 95
        1
302
GRIDFORMAT
  1
GRIDFORMAT_BEGIN
 90
        0
 91
        1
 62
     0
 92
       -2
340
14
 93
        0
 40
0.045
309
GRIDFORMAT_END
 95
        2
302
GRIDFORMAT
  1
GRIDFORMAT_BEGIN
 90
        0
 91
        1
 62
     0
 92
       -2
340
14
 93
        0
 40
0.045
309
GRIDFORMAT_END
 95
        4
302
GRIDFORMAT
  1
GRIDFORMAT_BEGIN
 90
        0
 91
        1
 62
     0
 92
       -2
340
14
 93
        0
 40
0.045
309
GRIDFORMAT_END
 95
        8
302
GRIDFORMAT
  1
GRIDFORMAT_BEGIN
 90
        0
 91
        1
 62
     0
 92
       -2
340
14
 93
        0
 40
0.045
309
GRIDFORMAT_END
 95
       16
302
GRIDFORMAT
  1
GRIDFORMAT_BEGIN
 90
        0
 91
        1
 62
     0
 92
       -2
340
14
 93
        0
 40
0.045
309
GRIDFORMAT_END
 95
       32
302
GRIDFORMAT
  1
GRIDFORMAT_BEGIN
 90
        0
 91
        1
 62
     0
 92
       -2
340
14
 93
        0
 40
0.045
309
GRIDFORMAT_END
309
TABLEFORMAT_END
  1
CELLSTYLE_BEGIN
 90
        2
 91
        1
300
_HEADER
309
CELLSTYLE_END
300
CELLSTYLE
  1
TABLEFORMAT_BEGIN
 90
        5
170
     1
 91
        0
 92
        0
 62
   257
 93
        1
300
CONTENTFORMAT
  1
CONTENTFORMAT_BEGIN
 90
        0
 91
        0
 92
        4
 93
        0
300

 40
0.0
140
1.0
 94
        2
 62
     0
340
11
144
4.5
309
CONTENTFORMAT_END
171
     1
301
MARGIN
  1
CELLMARGIN_BEGIN
 40
1.5
 40
1.5
 40
1.5
 40
1.5
 40
1.5
 40
1.5
309
CELLMARGIN_END
 94
        6
 95
        1
302
GRIDFORMAT
  1
GRIDFORMAT_BEGIN
 90
        0
 91
        1
 62
     0
 92
       -2
340
14
 93
        0
 40
0.045
309
GRIDFORMAT_END
 95
        2
302
GRIDFORMAT
  1
GRIDFORMAT_BEGIN
 90
        0
 91
        1
 62
     0
 92
       -2
340
14
 93
        0
 40
0.045
309
GRIDFORMAT_END
 95
        4
302
GRIDFORMAT
  1
GRIDFORMAT_BEGIN
 90
        0
 91
        1
 62
     0
 92
       -2
340
14
 93
        0
 40
0.045
309
GRIDFORMAT_END
 95
        8
302
GRIDFORMAT
  1
GRIDFORMAT_BEGIN
 90
        0
 91
        1
 62
     0
 92
       -2
340
14
 93
        0
 40
0.045
309
GRIDFORMAT_END
 95
       16
302
GRIDFORMAT
  1
GRIDFORMAT_BEGIN
 90
        0
 91
        1
 62
     0
 92
       -2
340
14
 93
        0
 40
0.045
309
GRIDFORMAT_END
 95
       32
302
GRIDFORMAT
  1
GRIDFORMAT_BEGIN
 90
        0
 91
        1
 62
     0
 92
       -2
340
14
 93
        0
 40
0.045
309
GRIDFORMAT_END
309
TABLEFORMAT_END
  1
CELLSTYLE_BEGIN
 90
        3
 91
        2
300
_DATA
309
CELLSTYLE_END
  0
ENDSEC
  0
EOF
