  0
SECTION
  2
HEADER
  9
$ACADVER
  1
AC1027
  9
$ACADMAINTVER
 70
   105
  9
$DWGCODEPAGE
  3
ANSI_1252
  9
$COMMENTS
  1
File was created by Cadenas
  9
$LASTSAVEDBY
  1
psAdmin
  9
$CUSTOMPROPERTYTAG
  1
NB
  9
$CUSTOMPROPERTY
  1
32157
  9
$CUSTOMPROPERTYTAG
  1
NN
  9
$CUSTOMPROPERTY
  1
Special adapters 400 A - 630 A, 3-pole
  9
$CUSTOMPROPERTYTAG
  1
NT
  9
$CUSTOMPROPERTY
  1

  9
$CUSTOMPROPERTYTAG
  1
NBSYN
  9
$CUSTOMPROPERTY
  1
$ARTNR.
  9
$CUSTOMPROPERTYTAG
  1
LINA
  9
$CUSTOMPROPERTY
  1
32157000
  9
$CUSTOMPROPERTYTAG
  1
CATALOG
  9
$CUSTOMPROPERTY
  1
Wöhner
  9
$CUSTOMPROPERTYTAG
  1
ARTNR
  9
$CUSTOMPROPERTY
  1
32157
  9
$CUSTOMPROPERTYTAG
  1
BUSB
  9
$CUSTOMPROPERTY
  1
12, 15, 20, 25, 30 x 5, 10 and section busbars
  9
$CUSTOMPROPERTYTAG
  1
POF
  9
$CUSTOMPROPERTY
  1
EQUES®60Classic
  9
$CUSTOMPROPERTYTAG
  1
TYPE
  9
$CUSTOMPROPERTY
  1
60630.1-L
  9
$CUSTOMPROPERTYTAG
  1
QNT
  9
$CUSTOMPROPERTY
  1
1
  9
$CUSTOMPROPERTYTAG
  1
W
  9
$CUSTOMPROPERTY
  1
140
  9
$CUSTOMPROPERTYTAG
  1
H
  9
$CUSTOMPROPERTY
  1
272
  9
$CUSTOMPROPERTYTAG
  1
D
  9
$CUSTOMPROPERTY
  1
35
  9
$CUSTOMPROPERTYTAG
  1
LINK
  9
$CUSTOMPROPERTY
  1
Product link
  9
$CUSTOMPROPERTYTAG
  1
COMPANY
  9
$CUSTOMPROPERTY
  1
woehner
  9
$REQUIREDVERSIONS
160
                 0
  9
$INSBASE
 10
0.0
 20
0.0
 30
0.0
  9
$EXTMIN
 10
0.0
 20
-243.8333333333333
 30
0.0
  9
$EXTMAX
 10
196.0
 20
93.9
 30
0.0
  9
$LIMMIN
 10
0.0
 20
0.0
  9
$LIMMAX
 10
420.0
 20
297.0
  9
$ORTHOMODE
 70
     0
  9
$REGENMODE
 70
     1
  9
$FILLMODE
 70
     1
  9
$QTEXTMODE
 70
     0
  9
$MIRRTEXT
 70
     1
  9
$LTSCALE
 40
1.0
  9
$ATTMODE
 70
     1
  9
$TEXTSIZE
 40
2.5
  9
$TRACEWID
 40
1.0
  9
$TEXTSTYLE
  7
Standard
  9
$CLAYER
  8
0
  9
$CELTYPE
  6
ByLayer
  9
$CECOLOR
 62
   256
  9
$CELTSCALE
 40
1.0
  9
$DISPSILH
 70
     0
  9
$DIMSCALE
 40
1.0
  9
$DIMASZ
 40
2.5
  9
$DIMEXO
 40
0.625
  9
$DIMDLI
 40
3.75
  9
$DIMRND
 40
0.0
  9
$DIMDLE
 40
0.0
  9
$DIMEXE
 40
1.25
  9
$DIMTP
 40
0.0
  9
$DIMTM
 40
0.0
  9
$DIMTXT
 40
2.5
  9
$DIMCEN
 40
2.5
  9
$DIMTSZ
 40
0.0
  9
$DIMTOL
 70
     0
  9
$DIMLIM
 70
     0
  9
$DIMTIH
 70
     0
  9
$DIMTOH
 70
     0
  9
$DIMSE1
 70
     0
  9
$DIMSE2
 70
     0
  9
$DIMTAD
 70
     1
  9
$DIMZIN
 70
     8
  9
$DIMBLK
  1

  9
$DIMASO
 70
     1
  9
$DIMSHO
 70
     1
  9
$DIMPOST
  1

  9
$DIMAPOST
  1

  9
$DIMALT
 70
     0
  9
$DIMALTD
 70
     3
  9
$DIMALTF
 40
0.03937007874016
  9
$DIMLFAC
 40
1.0
  9
$DIMTOFL
 70
     1
  9
$DIMTVP
 40
0.0
  9
$DIMTIX
 70
     0
  9
$DIMSOXD
 70
     0
  9
$DIMSAH
 70
     0
  9
$DIMBLK1
  1

  9
$DIMBLK2
  1

  9
$DIMSTYLE
  2
ISO-25
  9
$DIMCLRD
 70
     0
  9
$DIMCLRE
 70
     0
  9
$DIMCLRT
 70
     0
  9
$DIMTFAC
 40
1.0
  9
$DIMGAP
 40
0.625
  9
$DIMJUST
 70
     0
  9
$DIMSD1
 70
     0
  9
$DIMSD2
 70
     0
  9
$DIMTOLJ
 70
     0
  9
$DIMTZIN
 70
     8
  9
$DIMALTZ
 70
     0
  9
$DIMALTTZ
 70
     0
  9
$DIMUPT
 70
     0
  9
$DIMDEC
 70
     2
  9
$DIMTDEC
 70
     2
  9
$DIMALTU
 70
     2
  9
$DIMALTTD
 70
     3
  9
$DIMTXSTY
  7
Standard
  9
$DIMAUNIT
 70
     0
  9
$DIMADEC
 70
     0
  9
$DIMALTRND
 40
0.0
  9
$DIMAZIN
 70
     0
  9
$DIMDSEP
 70
    44
  9
$DIMATFIT
 70
     3
  9
$DIMFRAC
 70
     0
  9
$DIMLDRBLK
  1

  9
$DIMLUNIT
 70
     2
  9
$DIMLWD
 70
    -2
  9
$DIMLWE
 70
    -2
  9
$DIMTMOVE
 70
     0
  9
$DIMFXL
 40
1.0
  9
$DIMFXLON
 70
     0
  9
$DIMJOGANG
 40
0.7853981633974483
  9
$DIMTFILL
 70
     0
  9
$DIMTFILLCLR
 70
     0
  9
$DIMARCSYM
 70
     0
  9
$DIMLTYPE
  6

  9
$DIMLTEX1
  6

  9
$DIMLTEX2
  6

  9
$DIMTXTDIRECTION
 70
     0
  9
$LUNITS
 70
     2
  9
$LUPREC
 70
     4
  9
$SKETCHINC
 40
1.0
  9
$FILLETRAD
 40
0.0
  9
$AUNITS
 70
     0
  9
$AUPREC
 70
     0
  9
$MENU
  1
.
  9
$ELEVATION
 40
0.0
  9
$PELEVATION
 40
0.0
  9
$THICKNESS
 40
0.0
  9
$LIMCHECK
 70
     0
  9
$CHAMFERA
 40
0.0
  9
$CHAMFERB
 40
0.0
  9
$CHAMFERC
 40
0.0
  9
$CHAMFERD
 40
0.0
  9
$SKPOLY
 70
     0
  9
$TDCREATE
 40
2460348.553990301
  9
$TDUCREATE
 40
2460348.512323634
  9
$TDUPDATE
 40
2460348.553990475
  9
$TDUUPDATE
 40
2460348.512323808
  9
$TDINDWG
 40
0.0000000116
  9
$TDUSRTIMER
 40
0.0000000116
  9
$USRTIMER
 70
     1
  9
$ANGBASE
 50
0.0
  9
$ANGDIR
 70
     0
  9
$PDMODE
 70
     0
  9
$PDSIZE
 40
0.0
  9
$PLINEWID
 40
0.0
  9
$SPLFRAME
 70
     0
  9
$SPLINETYPE
 70
     6
  9
$SPLINESEGS
 70
     8
  9
$HANDSEED
  5
2A3
  9
$SURFTAB1
 70
     6
  9
$SURFTAB2
 70
     6
  9
$SURFTYPE
 70
     6
  9
$SURFU
 70
     6
  9
$SURFV
 70
     6
  9
$UCSBASE
  2

  9
$UCSNAME
  2

  9
$UCSORG
 10
0.0
 20
0.0
 30
0.0
  9
$UCSXDIR
 10
1.0
 20
0.0
 30
0.0
  9
$UCSYDIR
 10
0.0
 20
1.0
 30
0.0
  9
$UCSORTHOREF
  2

  9
$UCSORTHOVIEW
 70
     0
  9
$UCSORGTOP
 10
0.0
 20
0.0
 30
0.0
  9
$UCSORGBOTTOM
 10
0.0
 20
0.0
 30
0.0
  9
$UCSORGLEFT
 10
0.0
 20
0.0
 30
0.0
  9
$UCSORGRIGHT
 10
0.0
 20
0.0
 30
0.0
  9
$UCSORGFRONT
 10
0.0
 20
0.0
 30
0.0
  9
$UCSORGBACK
 10
0.0
 20
0.0
 30
0.0
  9
$PUCSBASE
  2

  9
$PUCSNAME
  2

  9
$PUCSORG
 10
0.0
 20
0.0
 30
0.0
  9
$PUCSXDIR
 10
1.0
 20
0.0
 30
0.0
  9
$PUCSYDIR
 10
0.0
 20
1.0
 30
0.0
  9
$PUCSORTHOREF
  2

  9
$PUCSORTHOVIEW
 70
     0
  9
$PUCSORGTOP
 10
0.0
 20
0.0
 30
0.0
  9
$PUCSORGBOTTOM
 10
0.0
 20
0.0
 30
0.0
  9
$PUCSORGLEFT
 10
0.0
 20
0.0
 30
0.0
  9
$PUCSORGRIGHT
 10
0.0
 20
0.0
 30
0.0
  9
$PUCSORGFRONT
 10
0.0
 20
0.0
 30
0.0
  9
$PUCSORGBACK
 10
0.0
 20
0.0
 30
0.0
  9
$USERI1
 70
     0
  9
$USERI2
 70
     0
  9
$USERI3
 70
     0
  9
$USERI4
 70
     0
  9
$USERI5
 70
     0
  9
$USERR1
 40
0.0
  9
$USERR2
 40
0.0
  9
$USERR3
 40
0.0
  9
$USERR4
 40
0.0
  9
$USERR5
 40
0.0
  9
$WORLDVIEW
 70
     1
  9
$SHADEDGE
 70
     3
  9
$SHADEDIF
 70
    70
  9
$TILEMODE
 70
     1
  9
$MAXACTVP
 70
    64
  9
$PINSBASE
 10
0.0
 20
0.0
 30
0.0
  9
$PLIMCHECK
 70
     0
  9
$PEXTMIN
 10
1.000000000000000E+20
 20
1.000000000000000E+20
 30
1.000000000000000E+20
  9
$PEXTMAX
 10
-1.000000000000000E+20
 20
-1.000000000000000E+20
 30
-1.000000000000000E+20
  9
$PLIMMIN
 10
0.0
 20
0.0
  9
$PLIMMAX
 10
420.0
 20
297.0
  9
$UNITMODE
 70
     0
  9
$VISRETAIN
 70
     1
  9
$PLINEGEN
 70
     0
  9
$PSLTSCALE
 70
     1
  9
$TREEDEPTH
 70
  3020
  9
$CMLSTYLE
  2
Standard
  9
$CMLJUST
 70
     0
  9
$CMLSCALE
 40
20.0
  9
$PROXYGRAPHICS
 70
     1
  9
$MEASUREMENT
 70
     1
  9
$CELWEIGHT
370
    -1
  9
$ENDCAPS
280
     0
  9
$JOINSTYLE
280
     0
  9
$LWDISPLAY
290
     0
  9
$INSUNITS
 70
     4
  9
$HYPERLINKBASE
  1

  9
$STYLESHEET
  1

  9
$XEDIT
290
     1
  9
$CEPSNTYPE
380
     0
  9
$PSTYLEMODE
290
     1
  9
$FINGERPRINTGUID
  2
{df055181-e58f-45c9-afcc-cb74152a8118}
  9
$VERSIONGUID
  2
{FAEB1C32-E019-11D5-929B-00C0DF256EC4}
  9
$EXTNAMES
290
     1
  9
$PSVPSCALE
 40
0.0
  9
$OLESTARTUP
290
     0
  9
$SORTENTS
280
   127
  9
$INDEXCTL
280
     0
  9
$HIDETEXT
280
     1
  9
$XCLIPFRAME
280
     2
  9
$HALOGAP
280
     0
  9
$OBSCOLOR
 70
   257
  9
$OBSLTYPE
280
     0
  9
$INTERSECTIONDISPLAY
280
     0
  9
$INTERSECTIONCOLOR
 70
   257
  9
$DIMASSOC
280
     2
  9
$PROJECTNAME
  1

  9
$CAMERADISPLAY
290
     0
  9
$LENSLENGTH
 40
50.0
  9
$CAMERAHEIGHT
 40
0.0
  9
$STEPSPERSEC
 40
2.0
  9
$STEPSIZE
 40
6.0
  9
$3DDWFPREC
 40
2.0
  9
$PSOLWIDTH
 40
5.0
  9
$PSOLHEIGHT
 40
80.0
  9
$LOFTANG1
 40
1.570796326794897
  9
$LOFTANG2
 40
1.570796326794897
  9
$LOFTMAG1
 40
0.0
  9
$LOFTMAG2
 40
0.0
  9
$LOFTPARAM
 70
     7
  9
$LOFTNORMALS
280
     1
  9
$LATITUDE
 40
37.795
  9
$LONGITUDE
 40
-122.394
  9
$NORTHDIRECTION
 40
0.0
  9
$TIMEZONE
 70
 -8000
  9
$LIGHTGLYPHDISPLAY
280
     1
  9
$TILEMODELIGHTSYNCH
280
     1
  9
$CMATERIAL
347
44
  9
$SOLIDHIST
280
     0
  9
$SHOWHIST
280
     1
  9
$DWFFRAME
280
     2
  9
$DGNFRAME
280
     2
  9
$REALWORLDSCALE
290
     1
  9
$INTERFERECOLOR
 62
   256
  9
$CSHADOW
280
     0
  9
$SHADOWPLANELOCATION
 40
0.0
  0
ENDSEC
  0
SECTION
  2
CLASSES
  0
CLASS
  1
ACDBDICTIONARYWDFLT
  2
AcDbDictionaryWithDefault
  3
ObjectDBX Classes
 90
        0
 91
        3
280
     0
281
     0
  0
CLASS
  1
VISUALSTYLE
  2
AcDbVisualStyle
  3
ObjectDBX Classes
 90
     4095
 91
        3
280
     0
281
     0
  0
CLASS
  1
MATERIAL
  2
AcDbMaterial
  3
ObjectDBX Classes
 90
     1153
 91
        3
280
     0
281
     0
  0
CLASS
  1
SCALE
  2
AcDbScale
  3
ObjectDBX Classes
 90
     1153
 91
        3
280
     0
281
     0
  0
CLASS
  1
TABLESTYLE
  2
AcDbTableStyle
  3
ObjectDBX Classes
 90
     4095
 91
        3
280
     0
281
     0
  0
CLASS
  1
MLEADERSTYLE
  2
AcDbMLeaderStyle
  3
ACDB_MLEADERSTYLE_CLASS
 90
     4095
 91
        3
280
     0
281
     0
  0
CLASS
  1
SUN
  2
AcDbSun
  3
SCENEOE
 90
     1153
 91
        3
280
     0
281
     0
  0
CLASS
  1
DICTIONARYVAR
  2
AcDbDictionaryVar
  3
ObjectDBX Classes
 90
        0
 91
        3
280
     0
281
     0
  0
CLASS
  1
CELLSTYLEMAP
  2
AcDbCellStyleMap
  3
ObjectDBX Classes
 90
     1152
 91
        3
280
     0
281
     0
  0
ENDSEC
  0
SECTION
  2
TABLES
  0
TABLE
  2
VPORT
  5
8
330
0
100
AcDbSymbolTable
 70
     1
  0
VPORT
  5
29
330
8
100
AcDbSymbolTableRecord
100
AcDbViewportTableRecord
  2
*Active
 70
     0
 10
0.0
 20
0.0
 11
1.0
 21
1.0
 12
98.0
 22
-74.9666666666667
 13
0.0
 23
0.0
 14
10.0
 24
10.0
 15
10.0
 25
10.0
 16
0.0
 26
0.0
 36
1.0
 17
0.0
 27
0.0
 37
0.0
 40
344.488
 41
0.5803395183576787
 42
50.0
 43
0.0
 44
0.0
 50
0.0
 51
0.0
 71
     0
 72
   100
 73
     1
 74
     3
 75
     0
 76
     0
 77
     0
 78
     0
281
     0
 65
     1
110
0.0
120
0.0
130
0.0
111
1.0
121
0.0
131
0.0
112
0.0
122
1.0
132
0.0
 79
     0
146
0.0
348
2F
 60
     3
 61
     5
292
     1
282
     1
141
0.0
142
0.0
 63
   250
361
5D
  0
ENDTAB
  0
TABLE
  2
LTYPE
  5
5
330
0
100
AcDbSymbolTable
 70
     3
  0
LTYPE
  5
14
330
5
100
AcDbSymbolTableRecord
100
AcDbLinetypeTableRecord
  2
ByBlock
 70
     0
  3

 72
    65
 73
     0
 40
0.0
  0
LTYPE
  5
15
330
5
100
AcDbSymbolTableRecord
100
AcDbLinetypeTableRecord
  2
ByLayer
 70
     0
  3

 72
    65
 73
     0
 40
0.0
  0
LTYPE
  5
16
330
5
100
AcDbSymbolTableRecord
100
AcDbLinetypeTableRecord
  2
Continuous
 70
     0
  3
Solid line
 72
    65
 73
     0
 40
0.0
  0
LTYPE
  5
85
330
5
100
AcDbSymbolTableRecord
100
AcDbLinetypeTableRecord
  2
Dashed
 70
     0
  3

 72
    65
 73
     2
 40
2.0
 49
1.0
 74
     0
 49
-1.0
 74
     0
  0
LTYPE
  5
A1
330
5
100
AcDbSymbolTableRecord
100
AcDbLinetypeTableRecord
  2
Center
 70
     0
  3

 72
    65
 73
     4
 40
1.5
 49
0.45
 74
     0
 49
-0.5
 74
     0
 49
0.05
 74
     0
 49
-0.5
 74
     0
  0
ENDTAB
  0
TABLE
  2
LAYER
  5
2
330
0
100
AcDbSymbolTable
 70
     8
  0
LAYER
  5
10
330
2
100
AcDbSymbolTableRecord
100
AcDbLayerTableRecord
  2
0
 70
     0
 62
     7
  6
Continuous
370
    -3
390
F
347
46
348
0
  0
LAYER
  5
5E
330
2
100
AcDbSymbolTableRecord
100
AcDbLayerTableRecord
  2
attrib
 70
     0
 62
    -2
  6
Continuous
370
    35
390
F
347
46
348
0
  0
LAYER
  5
86
330
2
100
AcDbSymbolTableRecord
100
AcDbLayerTableRecord
  2
hidden
 70
     0
 62
    -6
  6
Dashed
370
    25
390
F
347
46
348
0
  0
LAYER
  5
A2
330
2
100
AcDbSymbolTableRecord
100
AcDbLayerTableRecord
  2
center
 70
     0
 62
    -7
  6
Center
370
    25
390
F
347
46
348
0
  0
LAYER
  5
A5
330
2
100
AcDbSymbolTableRecord
100
AcDbLayerTableRecord
  2
bold
 70
     0
 62
     7
  6
Continuous
370
    50
390
F
347
46
348
0
  0
LAYER
  5
231
330
2
100
AcDbSymbolTableRecord
100
AcDbLayerTableRecord
  2
dimension
 70
     0
 62
    -5
  6
Continuous
370
    25
390
F
347
46
348
0
  0
LAYER
  5
233
330
2
100
AcDbSymbolTableRecord
100
AcDbLayerTableRecord
  2
Defpoints
 70
     0
 62
     7
  6
Continuous
290
     0
370
    -3
390
F
347
46
348
0
  0
LAYER
  5
277
330
2
100
AcDbSymbolTableRecord
100
AcDbLayerTableRecord
  2
connection
 70
     0
 62
    -7
  6
Continuous
370
    50
390
F
347
46
348
0
  0
ENDTAB
  0
TABLE
  2
STYLE
  5
3
330
0
100
AcDbSymbolTable
 70
     1
  0
STYLE
  5
11
330
3
100
AcDbSymbolTableRecord
100
AcDbTextStyleTableRecord
  2
Standard
 70
     0
 40
0.0
 41
1.0
 50
0.0
 71
     0
 42
2.5
  3
txt
  4

  0
ENDTAB
  0
TABLE
  2
VIEW
  5
6
330
0
100
AcDbSymbolTable
 70
     0
  0
ENDTAB
  0
TABLE
  2
UCS
  5
7
330
0
100
AcDbSymbolTable
 70
     0
  0
ENDTAB
  0
TABLE
  2
APPID
  5
9
330
0
100
AcDbSymbolTable
 70
     1
  0
APPID
  5
12
330
9
100
AcDbSymbolTableRecord
100
AcDbRegAppTableRecord
  2
ACAD
 70
     0
  0
ENDTAB
  0
TABLE
  2
DIMSTYLE
  5
A
330
0
100
AcDbSymbolTable
 70
     1
100
AcDbDimStyleTable
  0
DIMSTYLE
105
27
102
{ACAD_REACTORS
330
232
330
240
330
24D
330
25A
330
268
102
}
330
A
100
AcDbSymbolTableRecord
100
AcDbDimStyleTableRecord
  2
ISO-25
 70
     0
 41
2.5
 42
0.625
 43
3.75
 44
1.25
 73
     0
 74
     0
 77
     1
 78
     8
140
2.5
141
2.5
143
0.03937007874016
147
0.625
171
     3
172
     1
178
     0
271
     2
272
     2
274
     3
278
    44
283
     0
284
     8
340
11
  0
ENDTAB
  0
TABLE
  2
BLOCK_RECORD
  5
1
330
0
100
AcDbSymbolTable
 70
    16
  0
BLOCK_RECORD
  5
1F
330
1
100
AcDbSymbolTableRecord
100
AcDbBlockTableRecord
  2
*Model_Space
340
22
 70
     0
280
     1
281
     0
  0
BLOCK_RECORD
  5
1B
330
1
100
AcDbSymbolTableRecord
100
AcDbBlockTableRecord
  2
*Paper_Space
340
1E
 70
     0
280
     1
281
     0
  0
BLOCK_RECORD
  5
23
330
1
100
AcDbSymbolTableRecord
100
AcDbBlockTableRecord
  2
*Paper_Space0
340
26
 70
     0
280
     1
281
     0
  0
BLOCK_RECORD
  5
75
330
1
100
AcDbSymbolTableRecord
100
AcDbBlockTableRecord
  2
1_clamp3_1_0_in_32157_0
340
0
102
{BLKREFS
331
76
102
}
 70
     0
280
     1
281
     0
  0
BLOCK_RECORD
  5
AC
330
1
100
AcDbSymbolTableRecord
100
AcDbBlockTableRecord
  2
2_clamp3_2_0_in_32157_0
340
0
102
{BLKREFS
331
AD
102
}
 70
     0
280
     1
281
     0
  0
BLOCK_RECORD
  5
DE
330
1
100
AcDbSymbolTableRecord
100
AcDbBlockTableRecord
  2
3_clamp3_3_0_in_32157_0
340
0
102
{BLKREFS
331
DF
102
}
 70
     0
280
     1
281
     0
  0
BLOCK_RECORD
  5
110
330
1
100
AcDbSymbolTableRecord
100
AcDbBlockTableRecord
  2
4_copper_tube_15x9x25_1_0_in_32157_0
340
0
102
{BLKREFS
331
111
102
}
 70
     0
280
     1
281
     0
  0
BLOCK_RECORD
  5
127
330
1
100
AcDbSymbolTableRecord
100
AcDbBlockTableRecord
  2
5_copper_tube_15x9x25_2_0_in_32157_0
340
0
102
{BLKREFS
331
128
102
}
 70
     0
280
     1
281
     0
  0
BLOCK_RECORD
  5
13E
330
1
100
AcDbSymbolTableRecord
100
AcDbBlockTableRecord
  2
6_copper_tube_15x9x25_3_0_in_32157_0
340
0
102
{BLKREFS
331
13F
102
}
 70
     0
280
     1
281
     0
  0
BLOCK_RECORD
  5
155
330
1
100
AcDbSymbolTableRecord
100
AcDbBlockTableRecord
  2
7_contact_bar_l3_2_0_in_32157_0
340
0
102
{BLKREFS
331
156
102
}
 70
     0
280
     1
281
     0
  0
BLOCK_RECORD
  5
180
330
1
100
AcDbSymbolTableRecord
100
AcDbBlockTableRecord
  2
8_contact_bar_l2_2_0_in_32157_0
340
0
102
{BLKREFS
331
181
102
}
 70
     0
280
     1
281
     0
  0
BLOCK_RECORD
  5
1AB
330
1
100
AcDbSymbolTableRecord
100
AcDbBlockTableRecord
  2
9_contact_bar_l1_2_0_in_32157_0
340
0
102
{BLKREFS
331
1AC
102
}
 70
     0
280
     1
281
     0
  0
BLOCK_RECORD
  5
1D6
330
1
100
AcDbSymbolTableRecord
100
AcDbBlockTableRecord
  2
10_Basis140x272_0_in_32157_0
340
0
102
{BLKREFS
331
1D7
102
}
 70
     0
280
     1
281
     0
  0
BLOCK_RECORD
  5
234
330
1
100
AcDbSymbolTableRecord
100
AcDbBlockTableRecord
  2
*D11
340
0
 70
     0
280
     1
281
     0
  0
BLOCK_RECORD
  5
241
330
1
100
AcDbSymbolTableRecord
100
AcDbBlockTableRecord
  2
*D12
340
0
 70
     0
280
     1
281
     0
  0
BLOCK_RECORD
  5
24E
330
1
100
AcDbSymbolTableRecord
100
AcDbBlockTableRecord
  2
*D13
340
0
 70
     0
280
     1
281
     0
  0
BLOCK_RECORD
  5
25B
330
1
100
AcDbSymbolTableRecord
100
AcDbBlockTableRecord
  2
*D14
340
0
 70
     0
280
     1
281
     0
  0
BLOCK_RECORD
  5
269
330
1
100
AcDbSymbolTableRecord
100
AcDbBlockTableRecord
  2
*D15
340
0
 70
     0
280
     1
281
     0
  0
ENDTAB
  0
ENDSEC
  0
SECTION
  2
BLOCKS
  0
BLOCK
  5
20
330
1F
100
AcDbEntity
  8
0
100
AcDbBlockBegin
  2
*Model_Space
 70
     2
 10
0.0
 20
0.0
 30
0.0
  3
*Model_Space
  1

  0
ENDBLK
  5
21
330
1F
100
AcDbEntity
  8
0
100
AcDbBlockEnd
  0
BLOCK
  5
1C
330
1B
100
AcDbEntity
 67
     1
  8
0
100
AcDbBlockBegin
  2
*Paper_Space
 70
     0
 10
0.0
 20
0.0
 30
0.0
  3
*Paper_Space
  1

  0
ENDBLK
  5
1D
330
1B
100
AcDbEntity
 67
     1
  8
0
100
AcDbBlockEnd
  0
BLOCK
  5
24
330
23
100
AcDbEntity
  8
0
100
AcDbBlockBegin
  2
*Paper_Space0
 70
     0
 10
0.0
 20
0.0
 30
0.0
  3
*Paper_Space0
  1

  0
ENDBLK
  5
25
330
23
100
AcDbEntity
  8
0
100
AcDbBlockEnd
  0
BLOCK
  5
77
330
75
100
AcDbEntity
  8
0
100
AcDbBlockBegin
  2
1_clamp3_1_0_in_32157_0
 70
     2
 10
0.0
 20
0.0
 30
0.0
  3
1_clamp3_1_0_in_32157_0
  1

  0
ATTDEF
  5
79
330
75
100
AcDbEntity
  8
attrib
100
AcDbText
 10
136.0
 20
-105.0
 30
0.0
 40
0.5
  1
clamp3
100
AcDbAttributeDefinition
  3

  2
NB
 70
     8
280
     0
  0
ATTDEF
  5
7A
330
75
100
AcDbEntity
  8
attrib
100
AcDbText
 10
136.0
 20
-105.5
 30
0.0
 40
0.5
  1
Adapter copper clamp
100
AcDbAttributeDefinition
  3

  2
NN
 70
     8
280
     0
  0
ATTDEF
  5
7B
330
75
100
AcDbEntity
  8
attrib
100
AcDbText
 10
136.0
 20
-106.0
 30
0.0
 40
0.5
  1

100
AcDbAttributeDefinition
  3

  2
NT
 70
     8
280
     0
  0
ATTDEF
  5
7C
330
75
100
AcDbEntity
  8
attrib
100
AcDbText
 10
136.0
 20
-106.5
 30
0.0
 40
0.5
  1
$BOM.
100
AcDbAttributeDefinition
  3

  2
NBSYN
 70
     8
280
     0
  0
ATTDEF
  5
7D
330
75
100
AcDbEntity
  8
attrib
100
AcDbText
 10
136.0
 20
-107.0
 30
0.0
 40
0.5
  1
clamp3
100
AcDbAttributeDefinition
  3

  2
LINA
 70
     8
280
     0
  0
ATTDEF
  5
7E
330
75
100
AcDbEntity
  8
attrib
100
AcDbText
 10
136.0
 20
-107.5
 30
0.0
 40
0.5
  1
Wöhner
100
AcDbAttributeDefinition
  3

  2
CATALOG
 70
     8
280
     0
  0
ATTDEF
  5
7F
330
75
100
AcDbEntity
  8
attrib
100
AcDbText
 10
136.0
 20
-108.0
 30
0.0
 40
0.5
  1
clamp3
100
AcDbAttributeDefinition
  3

  2
BOM
 70
     8
280
     0
  0
ATTDEF
  5
80
330
75
100
AcDbEntity
  8
attrib
100
AcDbText
 10
136.0
 20
-108.5
 30
0.0
 40
0.5
  1
clamp3
100
AcDbAttributeDefinition
  3

  2
ARTNR
 70
     8
280
     0
  0
ATTDEF
  5
81
330
75
100
AcDbEntity
  8
attrib
100
AcDbText
 10
136.0
 20
-109.0
 30
0.0
 40
0.5
  1
3
100
AcDbAttributeDefinition
  3

  2
VER
 70
     8
280
     0
  0
ATTDEF
  5
82
330
75
100
AcDbEntity
  8
attrib
100
AcDbText
 10
136.0
 20
-109.5
 30
0.0
 40
0.5
  1
woehner
100
AcDbAttributeDefinition
  3

  2
COMPANY
 70
     8
280
     0
  0
ATTDEF
  5
83
330
75
100
AcDbEntity
  8
attrib
100
AcDbText
 10
136.0
 20
-110.0
 30
0.0
 40
0.5
  1
{$CADENAS_DATA/23d-libs/woehner/sys_60classic/adapters/adapters_200_290/parts/adapter_copper_clamp.prj},167 {VTYP=3D},{NB=clamp3},{LINA=clamp3},{NN=Adapter copper clamp},{DATE=26.01.2024 06:39:57},{GEOMDATE=03.02.2023 14:38:00},{VERSION=},{LINEID=580},{WB
100
AcDbAttributeDefinition
  3

  2
PSOL_0
 70
     9
280
     0
  0
ATTDEF
  5
84
330
75
100
AcDbEntity
  8
attrib
100
AcDbText
 10
136.0
 20
-110.5
 30
0.0
 40
0.5
  1
VAR=},{WBNUMERIC=}  {NB=clamp3},{LINA=clamp3},{KT=DUMMY},{BOM=clamp3},{ARTNR=clamp3},{VER=3}
100
AcDbAttributeDefinition
  3

  2
PSOL_1
 70
     9
280
     0
  0
LINE
  5
87
330
75
100
AcDbEntity
  8
hidden
100
AcDbLine
 10
128.0
 20
-126.0
 30
0.0
 11
131.0
 21
-126.0
 31
0.0
  0
LINE
  5
88
330
75
100
AcDbEntity
  8
hidden
100
AcDbLine
 10
99.0
 20
-126.0
 30
0.0
 11
102.0
 21
-126.0
 31
0.0
  0
LINE
  5
89
330
75
100
AcDbEntity
  8
hidden
100
AcDbLine
 10
128.0
 20
-112.0
 30
0.0
 11
131.0
 21
-112.0
 31
0.0
  0
LINE
  5
8A
330
75
100
AcDbEntity
  8
hidden
100
AcDbLine
 10
99.0
 20
-112.0
 30
0.0
 11
102.0
 21
-112.0
 31
0.0
  0
LINE
  5
8B
330
75
100
AcDbEntity
  8
hidden
100
AcDbLine
 10
128.0
 20
-131.0
 30
0.0
 11
131.0
 21
-131.0
 31
0.0
  0
LINE
  5
8C
330
75
100
AcDbEntity
  8
hidden
100
AcDbLine
 10
99.0
 20
-131.0
 30
0.0
 11
102.0
 21
-131.0
 31
0.0
  0
LINE
  5
8D
330
75
100
AcDbEntity
  8
hidden
100
AcDbLine
 10
99.0
 20
-107.0
 30
0.0
 11
102.0
 21
-107.0
 31
0.0
  0
LINE
  5
8E
330
75
100
AcDbEntity
  8
hidden
100
AcDbLine
 10
128.0
 20
-107.0
 30
0.0
 11
131.0
 21
-107.0
 31
0.0
  0
LINE
  5
8F
330
75
100
AcDbEntity
  8
hidden
100
AcDbLine
 10
99.0
 20
-120.5
 30
0.0
 11
102.0
 21
-120.5
 31
0.0
  0
LINE
  5
90
330
75
100
AcDbEntity
  8
hidden
100
AcDbLine
 10
99.0
 20
-120.0
 30
0.0
 11
102.0
 21
-120.0
 31
0.0
  0
LINE
  5
91
330
75
100
AcDbEntity
  8
hidden
100
AcDbLine
 10
128.0
 20
-120.5
 30
0.0
 11
131.0
 21
-120.5
 31
0.0
  0
LINE
  5
92
330
75
100
AcDbEntity
  8
hidden
100
AcDbLine
 10
128.0
 20
-120.0
 30
0.0
 11
131.0
 21
-120.0
 31
0.0
  0
CIRCLE
  5
93
330
75
100
AcDbEntity
  8
hidden
100
AcDbCircle
 10
115.0
 20
-128.0
 30
0.0
 40
7.249999999999999
  0
LWPOLYLINE
  5
94
330
75
100
AcDbEntity
  8
hidden
100
AcDbPolyline
 90
       19
 70
     0
 43
0.0
 10
126.4999999194097
 20
-105.0
 10
126.6307335338378
 20
-105.0012735265146
 10
126.7604721871344
 20
-105.0050844168869
 10
126.8882284898095
 20
-105.0114036679402
 10
127.0130301392583
 20
-105.0201831863582
 10
127.1339273195714
 20
-105.0313561547046
 10
127.2499999302067
 20
-105.0448375399438
 10
127.3603645885108
 20
-105.0605247405939
 10
127.464181352794
 20
-105.0782983675857
 10
127.5606601147938
 20
-105.0980231528858
 10
127.649066612876
 20
-105.1195489789679
 10
127.7287280202088
 20
-105.142712021298
 10
127.7990380653815
 20
-105.1673359951376
 10
127.859461646496
 20
-105.1932334971774
 10
127.9095389036153
 20
-105.2202074317897
 10
127.9488887185753
 20
-105.2480525110446
 10
127.9772116155239
 20
-105.2765568170758
 10
127.9942920401137
 20
-105.3055034149029
 10
128.0
 20
-105.3346720034381
  0
LINE
  5
95
330
75
100
AcDbEntity
  8
hidden
100
AcDbLine
 10
128.0
 20
-105.334672021419
 30
0.0
 11
128.0
 21
-139.0
 31
0.0
  0
LINE
  5
96
330
75
100
AcDbEntity
  8
hidden
100
AcDbLine
 10
102.0
 20
-105.334672021419
 30
0.0
 11
102.0
 21
-139.0
 31
0.0
  0
LWPOLYLINE
  5
97
330
75
100
AcDbEntity
  8
hidden
100
AcDbPolyline
 90
       19
 70
     0
 43
0.0
 10
102.0
 20
-105.334672021419
 10
102.0057079528624
 20
-105.3055034328154
 10
102.0227883704817
 20
-105.2765568347835
 10
102.0511112605664
 20
-105.2480525284128
 10
102.0904610688211
 20
-105.2202074486862
 10
102.140538319445
 20
-105.1932335134736
 10
102.2009618943233
 20
-105.1673360107095
 10
102.2712719335665
 20
-105.1427120360271
 10
102.3509333353215
 20
-105.1195489927421
 10
102.4393398282202
 20
-105.0980231656002
 10
102.5358185854702
 20
-105.0782983791436
 10
102.6396353454734
 20
-105.0605247509073
 10
102.75
 20
-105.0448375489343
 10
102.866072607389
 20
-105.0313561623037
 10
102.9869697850115
 20
-105.0201831925081
 10
103.1117714323462
 20
-105.011403672594
 10
103.2395277334996
 20
-105.0050844200093
 10
103.3692663858785
 20
-105.0012735280817
 10
103.4999999194097
 20
-105.0
  0
LINE
  5
98
330
75
100
AcDbEntity
  8
hidden
100
AcDbLine
 10
100.1458980337503
 20
-105.0
 30
0.0
 11
129.8541019662497
 21
-105.0
 31
0.0
  0
LINE
  5
99
330
75
100
AcDbEntity
  8
hidden
100
AcDbLine
 10
103.5
 20
-105.0
 30
0.0
 11
103.5
 21
-139.0
 31
0.0
  0
LWPOLYLINE
  5
9A
330
75
100
AcDbEntity
  8
hidden
100
AcDbPolyline
 90
       10
 70
     0
 43
0.0
 10
99.0
 20
-105.669344042838
 10
99.01712385858715
 20
-105.5818382770271
 10
99.06836511144506
 20
-105.4949984829315
 10
99.1533337816992
 20
-105.4094855638194
 10
99.27138320646343
 20
-105.3259503246395
 10
99.42161495833508
 20
-105.245028519002
 10
99.60288568297003
 20
-105.1673360107095
 10
99.81381580069954
 20
-105.0934640866623
 10
100.0528000059646
 20
-105.0239749568074
 10
100.1458980337503
 20
-105.0
  0
LINE
  5
9B
330
75
100
AcDbEntity
  8
hidden
100
AcDbLine
 10
99.0
 20
-139.0
 30
0.0
 11
99.0
 21
-105.669344042838
 31
0.0
  0
LINE
  5
9C
330
75
100
AcDbEntity
  8
hidden
100
AcDbLine
 10
131.0
 20
-139.0
 30
0.0
 11
99.0
 21
-139.0
 31
0.0
  0
LINE
  5
9D
330
75
100
AcDbEntity
  8
hidden
100
AcDbLine
 10
131.0
 20
-105.669344042838
 30
0.0
 11
131.0
 21
-139.0
 31
0.0
  0
LWPOLYLINE
  5
9E
330
75
100
AcDbEntity
  8
hidden
100
AcDbPolyline
 90
       10
 70
     0
 43
0.0
 10
129.8541019662497
 20
-105.0
 10
130.10280582388
 20
-105.0677700030889
 10
130.324090153757
 20
-105.1401183478607
 10
130.5162708485151
 20
-105.2164944197265
 10
130.6778852970253
 20
-105.2963169506622
 10
130.8077035157491
 20
-105.3789784430093
 10
130.9047375096555
 20
-105.4638497928986
 10
130.9682487914603
 20
-105.5502850781108
 10
130.9977540019596
 20
-105.6376264739343
 10
131.0
 20
-105.669344042838
  0
LINE
  5
9F
330
75
100
AcDbEntity
  8
hidden
100
AcDbLine
 10
126.5
 20
-139.0
 30
0.0
 11
126.5
 21
-105.0
 31
0.0
  0
CIRCLE
  5
A0
330
75
100
AcDbEntity
  8
hidden
100
AcDbCircle
 10
115.0
 20
-128.0
 30
0.0
 40
5.999999999999998
  0
LINE
  5
A3
330
75
100
AcDbEntity
  8
center
100
AcDbLine
 10
107.3875
 20
-128.0
 30
0.0
 11
122.6125
 21
-128.0
 31
0.0
  0
LINE
  5
A4
330
75
100
AcDbEntity
  8
center
100
AcDbLine
 10
115.0
 20
-135.6125
 30
0.0
 11
115.0
 21
-120.3875
 31
0.0
  0
LINE
  5
A6
330
75
100
AcDbEntity
  8
bold
100
AcDbLine
 10
116.7320508075689
 20
-131.0
 30
0.0
 11
118.4641016151378
 21
-128.0
 31
0.0
  0
LINE
  5
A7
330
75
100
AcDbEntity
  8
bold
100
AcDbLine
 10
111.5358983848623
 20
-128.0
 30
0.0
 11
113.2679491924311
 21
-131.0
 31
0.0
  0
LINE
  5
A8
330
75
100
AcDbEntity
  8
bold
100
AcDbLine
 10
113.2679491924311
 20
-125.0
 30
0.0
 11
111.5358983848623
 21
-128.0
 31
0.0
  0
LINE
  5
A9
330
75
100
AcDbEntity
  8
bold
100
AcDbLine
 10
113.2679491924311
 20
-131.0
 30
0.0
 11
116.7320508075689
 21
-131.0
 31
0.0
  0
LINE
  5
AA
330
75
100
AcDbEntity
  8
bold
100
AcDbLine
 10
113.2679491924311
 20
-125.0
 30
0.0
 11
116.7320508075689
 21
-125.0
 31
0.0
  0
LINE
  5
AB
330
75
100
AcDbEntity
  8
bold
100
AcDbLine
 10
118.4641016151378
 20
-128.0
 30
0.0
 11
116.7320508075689
 21
-125.0
 31
0.0
  0
ENDBLK
  5
78
330
75
100
AcDbEntity
  8
0
100
AcDbBlockEnd
  0
BLOCK
  5
AE
330
AC
100
AcDbEntity
  8
0
100
AcDbBlockBegin
  2
2_clamp3_2_0_in_32157_0
 70
     2
 10
0.0
 20
0.0
 30
0.0
  3
2_clamp3_2_0_in_32157_0
  1

  0
ATTDEF
  5
B0
330
AC
100
AcDbEntity
  8
attrib
100
AcDbText
 10
91.0
 20
-45.0
 30
0.0
 40
0.5
  1
clamp3
100
AcDbAttributeDefinition
  3

  2
NB
 70
     8
280
     0
  0
ATTDEF
  5
B1
330
AC
100
AcDbEntity
  8
attrib
100
AcDbText
 10
91.0
 20
-45.5
 30
0.0
 40
0.5
  1
Adapter copper clamp
100
AcDbAttributeDefinition
  3

  2
NN
 70
     8
280
     0
  0
ATTDEF
  5
B2
330
AC
100
AcDbEntity
  8
attrib
100
AcDbText
 10
91.0
 20
-46.0
 30
0.0
 40
0.5
  1

100
AcDbAttributeDefinition
  3

  2
NT
 70
     8
280
     0
  0
ATTDEF
  5
B3
330
AC
100
AcDbEntity
  8
attrib
100
AcDbText
 10
91.0
 20
-46.5
 30
0.0
 40
0.5
  1
$BOM.
100
AcDbAttributeDefinition
  3

  2
NBSYN
 70
     8
280
     0
  0
ATTDEF
  5
B4
330
AC
100
AcDbEntity
  8
attrib
100
AcDbText
 10
91.0
 20
-47.0
 30
0.0
 40
0.5
  1
clamp3
100
AcDbAttributeDefinition
  3

  2
LINA
 70
     8
280
     0
  0
ATTDEF
  5
B5
330
AC
100
AcDbEntity
  8
attrib
100
AcDbText
 10
91.0
 20
-47.5
 30
0.0
 40
0.5
  1
Wöhner
100
AcDbAttributeDefinition
  3

  2
CATALOG
 70
     8
280
     0
  0
ATTDEF
  5
B6
330
AC
100
AcDbEntity
  8
attrib
100
AcDbText
 10
91.0
 20
-48.0
 30
0.0
 40
0.5
  1
clamp3
100
AcDbAttributeDefinition
  3

  2
BOM
 70
     8
280
     0
  0
ATTDEF
  5
B7
330
AC
100
AcDbEntity
  8
attrib
100
AcDbText
 10
91.0
 20
-48.5
 30
0.0
 40
0.5
  1
clamp3
100
AcDbAttributeDefinition
  3

  2
ARTNR
 70
     8
280
     0
  0
ATTDEF
  5
B8
330
AC
100
AcDbEntity
  8
attrib
100
AcDbText
 10
91.0
 20
-49.0
 30
0.0
 40
0.5
  1
3
100
AcDbAttributeDefinition
  3

  2
VER
 70
     8
280
     0
  0
ATTDEF
  5
B9
330
AC
100
AcDbEntity
  8
attrib
100
AcDbText
 10
91.0
 20
-49.5
 30
0.0
 40
0.5
  1
woehner
100
AcDbAttributeDefinition
  3

  2
COMPANY
 70
     8
280
     0
  0
ATTDEF
  5
BA
330
AC
100
AcDbEntity
  8
attrib
100
AcDbText
 10
91.0
 20
-50.0
 30
0.0
 40
0.5
  1
{$CADENAS_DATA/23d-libs/woehner/sys_60classic/adapters/adapters_200_290/parts/adapter_copper_clamp.prj},167 {VTYP=3D},{NB=clamp3},{LINA=clamp3},{NN=Adapter copper clamp},{DATE=26.01.2024 06:39:57},{GEOMDATE=03.02.2023 14:38:00},{VERSION=},{LINEID=580},{WB
100
AcDbAttributeDefinition
  3

  2
PSOL_0
 70
     9
280
     0
  0
ATTDEF
  5
BB
330
AC
100
AcDbEntity
  8
attrib
100
AcDbText
 10
91.0
 20
-50.5
 30
0.0
 40
0.5
  1
VAR=},{WBNUMERIC=}  {NB=clamp3},{LINA=clamp3},{KT=DUMMY},{BOM=clamp3},{ARTNR=clamp3},{VER=3}
100
AcDbAttributeDefinition
  3

  2
PSOL_1
 70
     9
280
     0
  0
LINE
  5
BC
330
AC
100
AcDbEntity
  8
hidden
100
AcDbLine
 10
83.0
 20
-66.0
 30
0.0
 11
86.0
 21
-66.0
 31
0.0
  0
LINE
  5
BD
330
AC
100
AcDbEntity
  8
hidden
100
AcDbLine
 10
54.00000000000001
 20
-66.0
 30
0.0
 11
57.00000000000001
 21
-66.0
 31
0.0
  0
LINE
  5
BE
330
AC
100
AcDbEntity
  8
hidden
100
AcDbLine
 10
83.0
 20
-52.00000000000001
 30
0.0
 11
86.0
 21
-52.00000000000001
 31
0.0
  0
LINE
  5
BF
330
AC
100
AcDbEntity
  8
hidden
100
AcDbLine
 10
54.00000000000001
 20
-52.00000000000001
 30
0.0
 11
57.00000000000001
 21
-52.00000000000001
 31
0.0
  0
LINE
  5
C0
330
AC
100
AcDbEntity
  8
hidden
100
AcDbLine
 10
54.00000000000001
 20
-71.00000000000001
 30
0.0
 11
57.00000000000001
 21
-71.00000000000001
 31
0.0
  0
LINE
  5
C1
330
AC
100
AcDbEntity
  8
hidden
100
AcDbLine
 10
83.0
 20
-71.00000000000001
 30
0.0
 11
86.0
 21
-71.00000000000001
 31
0.0
  0
LINE
  5
C2
330
AC
100
AcDbEntity
  8
hidden
100
AcDbLine
 10
83.0
 20
-47.0
 30
0.0
 11
86.0
 21
-47.0
 31
0.0
  0
LINE
  5
C3
330
AC
100
AcDbEntity
  8
hidden
100
AcDbLine
 10
54.00000000000001
 20
-47.0
 30
0.0
 11
57.00000000000001
 21
-47.0
 31
0.0
  0
LINE
  5
C4
330
AC
100
AcDbEntity
  8
hidden
100
AcDbLine
 10
83.0
 20
-60.5
 30
0.0
 11
86.0
 21
-60.5
 31
0.0
  0
LINE
  5
C5
330
AC
100
AcDbEntity
  8
hidden
100
AcDbLine
 10
83.0
 20
-60.0
 30
0.0
 11
86.0
 21
-60.0
 31
0.0
  0
LINE
  5
C6
330
AC
100
AcDbEntity
  8
hidden
100
AcDbLine
 10
54.00000000000001
 20
-60.5
 30
0.0
 11
57.00000000000001
 21
-60.5
 31
0.0
  0
LINE
  5
C7
330
AC
100
AcDbEntity
  8
hidden
100
AcDbLine
 10
54.00000000000001
 20
-60.0
 30
0.0
 11
57.00000000000001
 21
-60.0
 31
0.0
  0
CIRCLE
  5
C8
330
AC
100
AcDbEntity
  8
hidden
100
AcDbCircle
 10
70.0
 20
-68.0
 30
0.0
 40
7.249999999999999
  0
LWPOLYLINE
  5
C9
330
AC
100
AcDbEntity
  8
hidden
100
AcDbPolyline
 90
       19
 70
     0
 43
0.0
 10
57.00000000000001
 20
-45.334672021419
 10
57.00570795286239
 20
-45.30550343281537
 10
57.02278837048169
 20
-45.27655683478349
 10
57.0511112605664
 20
-45.24805252841281
 10
57.09046106882114
 20
-45.22020744868618
 10
57.14053831944503
 20
-45.19323351347366
 10
57.20096189432335
 20
-45.1673360107095
 10
57.27127193356652
 20
-45.14271203602708
 10
57.35093333532154
 20
-45.11954899274212
 10
57.43933982822018
 20
-45.09802316560022
 10
57.5358185854702
 20
-45.07829837914358
 10
57.63963534547344
 20
-45.06052475090729
 10
57.75000000000001
 20
-45.04483754893425
 10
57.86607260738896
 20
-45.03135616230366
 10
57.9869697850115
 20
-45.02018319250806
 10
58.11177143234623
 20
-45.01140367259401
 10
58.23952773349961
 20
-45.0050844200093
 10
58.36926638587852
 20
-45.00127352808174
 10
58.49999995529652
 20
-45.0
  0
LINE
  5
CA
330
AC
100
AcDbEntity
  8
hidden
100
AcDbLine
 10
57.00000000000001
 20
-45.334672021419
 30
0.0
 11
57.00000000000001
 21
-79.0
 31
0.0
  0
LWPOLYLINE
  5
CB
330
AC
100
AcDbEntity
  8
hidden
100
AcDbPolyline
 90
       19
 70
     0
 43
0.0
 10
81.49999995529653
 20
-45.0
 10
81.63073356958813
 20
-45.00127352721245
 10
81.76047222247607
 20
-45.00508441827733
 10
81.88822852447355
 20
-45.01140367001255
 10
82.01303017298098
 20
-45.02018318909675
 10
82.13392735209594
 20
-45.03135615808846
 10
82.24999996128565
 20
-45.04483754394725
 10
82.36036461790762
 20
-45.06052474518644
 10
82.46418138028496
 20
-45.07829837273241
 10
82.56066014016969
 20
-45.09802315854753
 10
82.64906663594363
 20
-45.11954898510159
 10
82.72872804079262
 20
-45.14271202785687
 10
82.79903808332492
 20
-45.16733600207176
 10
82.85946166166246
 20
-45.19323350443414
 10
82.90953891588937
 20
-45.22020743931369
 10
82.94888872786349
 20
-45.24805251877866
 10
82.97721162175564
 20
-45.27655682496101
 10
82.99429204324146
 20
-45.30550342287932
 10
83.0
 20
-45.334672011445
  0
LINE
  5
CC
330
AC
100
AcDbEntity
  8
hidden
100
AcDbLine
 10
83.0
 20
-45.334672021419
 30
0.0
 11
83.0
 21
-79.0
 31
0.0
  0
LINE
  5
CD
330
AC
100
AcDbEntity
  8
hidden
100
AcDbLine
 10
86.0
 20
-79.0
 30
0.0
 11
54.00000000000001
 21
-79.0
 31
0.0
  0
LINE
  5
CE
330
AC
100
AcDbEntity
  8
hidden
100
AcDbLine
 10
86.0
 20
-45.66934404283802
 30
0.0
 11
86.0
 21
-79.0
 31
0.0
  0
LWPOLYLINE
  5
CF
330
AC
100
AcDbEntity
  8
hidden
100
AcDbPolyline
 90
       10
 70
     0
 43
0.0
 10
84.85410196624969
 20
-45.0
 10
85.10280582388
 20
-45.06777000308894
 10
85.32409015375697
 20
-45.14011834786071
 10
85.51627084851508
 20
-45.21649441972647
 10
85.67788529702534
 20
-45.29631695066218
 10
85.80770351574913
 20
-45.37897844300927
 10
85.90473750965556
 20
-45.4638497928986
 10
85.9682487914603
 20
-45.55028507811078
 10
85.99775400195963
 20
-45.63762647393432
 10
86.0
 20
-45.66934404283802
  0
LINE
  5
D0
330
AC
100
AcDbEntity
  8
hidden
100
AcDbLine
 10
81.5
 20
-79.0
 30
0.0
 11
81.5
 21
-45.0
 31
0.0
  0
LINE
  5
D1
330
AC
100
AcDbEntity
  8
hidden
100
AcDbLine
 10
55.14589803375032
 20
-45.0
 30
0.0
 11
84.85410196624967
 21
-45.0
 31
0.0
  0
LINE
  5
D2
330
AC
100
AcDbEntity
  8
hidden
100
AcDbLine
 10
58.50000000000001
 20
-45.0
 30
0.0
 11
58.50000000000001
 21
-79.0
 31
0.0
  0
LWPOLYLINE
  5
D3
330
AC
100
AcDbEntity
  8
hidden
100
AcDbPolyline
 90
       10
 70
     0
 43
0.0
 10
54.00000000000001
 20
-45.66934404283802
 10
54.01712385858715
 20
-45.58183827702712
 10
54.06836511144508
 20
-45.49499848293146
 10
54.1533337816992
 20
-45.40948556381942
 10
54.27138320646342
 20
-45.32595032463956
 10
54.42161495833508
 20
-45.24502851900197
 10
54.60288568297004
 20
-45.1673360107095
 10
54.81381580069954
 20
-45.09346408666227
 10
55.05280000596461
 20
-45.02397495680736
 10
55.14589803375033
 20
-45.0
  0
LINE
  5
D4
330
AC
100
AcDbEntity
  8
hidden
100
AcDbLine
 10
54.00000000000001
 20
-79.0
 30
0.0
 11
54.00000000000001
 21
-45.66934404283802
 31
0.0
  0
CIRCLE
  5
D5
330
AC
100
AcDbEntity
  8
hidden
100
AcDbCircle
 10
70.0
 20
-68.0
 30
0.0
 40
5.999999999999998
  0
LINE
  5
D6
330
AC
100
AcDbEntity
  8
center
100
AcDbLine
 10
62.3875
 20
-68.0
 30
0.0
 11
77.6125
 21
-68.0
 31
0.0
  0
LINE
  5
D7
330
AC
100
AcDbEntity
  8
center
100
AcDbLine
 10
70.0
 20
-75.6125
 30
0.0
 11
70.0
 21
-60.3875
 31
0.0
  0
LINE
  5
D8
330
AC
100
AcDbEntity
  8
bold
100
AcDbLine
 10
73.46410161513776
 20
-68.0
 30
0.0
 11
71.73205080756888
 21
-65.0
 31
0.0
  0
LINE
  5
D9
330
AC
100
AcDbEntity
  8
bold
100
AcDbLine
 10
71.73205080756888
 20
-71.0
 30
0.0
 11
73.46410161513776
 21
-68.0
 31
0.0
  0
LINE
  5
DA
330
AC
100
AcDbEntity
  8
bold
100
AcDbLine
 10
68.26794919243113
 20
-65.0
 30
0.0
 11
66.53589838486225
 21
-68.0
 31
0.0
  0
LINE
  5
DB
330
AC
100
AcDbEntity
  8
bold
100
AcDbLine
 10
68.26794919243113
 20
-71.0
 30
0.0
 11
71.73205080756888
 21
-71.0
 31
0.0
  0
LINE
  5
DC
330
AC
100
AcDbEntity
  8
bold
100
AcDbLine
 10
68.26794919243113
 20
-65.0
 30
0.0
 11
71.73205080756888
 21
-65.0
 31
0.0
  0
LINE
  5
DD
330
AC
100
AcDbEntity
  8
bold
100
AcDbLine
 10
66.53589838486225
 20
-68.0
 30
0.0
 11
68.26794919243113
 21
-71.0
 31
0.0
  0
ENDBLK
  5
AF
330
AC
100
AcDbEntity
  8
0
100
AcDbBlockEnd
  0
BLOCK
  5
E0
330
DE
100
AcDbEntity
  8
0
100
AcDbBlockBegin
  2
3_clamp3_3_0_in_32157_0
 70
     2
 10
0.0
 20
0.0
 30
0.0
  3
3_clamp3_3_0_in_32157_0
  1

  0
ATTDEF
  5
E2
330
DE
100
AcDbEntity
  8
attrib
100
AcDbText
 10
46.00000000000001
 20
15.0
 30
0.0
 40
0.5
  1
clamp3
100
AcDbAttributeDefinition
  3

  2
NB
 70
     8
280
     0
  0
ATTDEF
  5
E3
330
DE
100
AcDbEntity
  8
attrib
100
AcDbText
 10
46.00000000000001
 20
14.5
 30
0.0
 40
0.5
  1
Adapter copper clamp
100
AcDbAttributeDefinition
  3

  2
NN
 70
     8
280
     0
  0
ATTDEF
  5
E4
330
DE
100
AcDbEntity
  8
attrib
100
AcDbText
 10
46.00000000000001
 20
14.0
 30
0.0
 40
0.5
  1

100
AcDbAttributeDefinition
  3

  2
NT
 70
     8
280
     0
  0
ATTDEF
  5
E5
330
DE
100
AcDbEntity
  8
attrib
100
AcDbText
 10
46.00000000000001
 20
13.5
 30
0.0
 40
0.5
  1
$BOM.
100
AcDbAttributeDefinition
  3

  2
NBSYN
 70
     8
280
     0
  0
ATTDEF
  5
E6
330
DE
100
AcDbEntity
  8
attrib
100
AcDbText
 10
46.00000000000001
 20
13.0
 30
0.0
 40
0.5
  1
clamp3
100
AcDbAttributeDefinition
  3

  2
LINA
 70
     8
280
     0
  0
ATTDEF
  5
E7
330
DE
100
AcDbEntity
  8
attrib
100
AcDbText
 10
46.00000000000001
 20
12.5
 30
0.0
 40
0.5
  1
Wöhner
100
AcDbAttributeDefinition
  3

  2
CATALOG
 70
     8
280
     0
  0
ATTDEF
  5
E8
330
DE
100
AcDbEntity
  8
attrib
100
AcDbText
 10
46.00000000000001
 20
12.0
 30
0.0
 40
0.5
  1
clamp3
100
AcDbAttributeDefinition
  3

  2
BOM
 70
     8
280
     0
  0
ATTDEF
  5
E9
330
DE
100
AcDbEntity
  8
attrib
100
AcDbText
 10
46.00000000000001
 20
11.5
 30
0.0
 40
0.5
  1
clamp3
100
AcDbAttributeDefinition
  3

  2
ARTNR
 70
     8
280
     0
  0
ATTDEF
  5
EA
330
DE
100
AcDbEntity
  8
attrib
100
AcDbText
 10
46.00000000000001
 20
11.0
 30
0.0
 40
0.5
  1
3
100
AcDbAttributeDefinition
  3

  2
VER
 70
     8
280
     0
  0
ATTDEF
  5
EB
330
DE
100
AcDbEntity
  8
attrib
100
AcDbText
 10
46.00000000000001
 20
10.5
 30
0.0
 40
0.5
  1
woehner
100
AcDbAttributeDefinition
  3

  2
COMPANY
 70
     8
280
     0
  0
ATTDEF
  5
EC
330
DE
100
AcDbEntity
  8
attrib
100
AcDbText
 10
46.00000000000001
 20
10.0
 30
0.0
 40
0.5
  1
{$CADENAS_DATA/23d-libs/woehner/sys_60classic/adapters/adapters_200_290/parts/adapter_copper_clamp.prj},167 {VTYP=3D},{NB=clamp3},{LINA=clamp3},{NN=Adapter copper clamp},{DATE=26.01.2024 06:39:57},{GEOMDATE=03.02.2023 14:38:00},{VERSION=},{LINEID=580},{WB
100
AcDbAttributeDefinition
  3

  2
PSOL_0
 70
     9
280
     0
  0
ATTDEF
  5
ED
330
DE
100
AcDbEntity
  8
attrib
100
AcDbText
 10
46.00000000000001
 20
9.500000000000004
 30
0.0
 40
0.5
  1
VAR=},{WBNUMERIC=}  {NB=clamp3},{LINA=clamp3},{KT=DUMMY},{BOM=clamp3},{ARTNR=clamp3},{VER=3}
100
AcDbAttributeDefinition
  3

  2
PSOL_1
 70
     9
280
     0
  0
LINE
  5
EE
330
DE
100
AcDbEntity
  8
hidden
100
AcDbLine
 10
38.00000000000001
 20
-6.000000000000005
 30
0.0
 11
41.0
 21
-6.000000000000002
 31
0.0
  0
LINE
  5
EF
330
DE
100
AcDbEntity
  8
hidden
100
AcDbLine
 10
9.000000000000002
 20
-6.000000000000002
 30
0.0
 11
12.0
 21
-6.000000000000005
 31
0.0
  0
LINE
  5
F0
330
DE
100
AcDbEntity
  8
hidden
100
AcDbLine
 10
38.00000000000001
 20
7.999999999999996
 30
0.0
 11
41.0
 21
7.999999999999996
 31
0.0
  0
LINE
  5
F1
330
DE
100
AcDbEntity
  8
hidden
100
AcDbLine
 10
9.000000000000002
 20
7.999999999999996
 30
0.0
 11
12.0
 21
7.999999999999996
 31
0.0
  0
LINE
  5
F2
330
DE
100
AcDbEntity
  8
hidden
100
AcDbLine
 10
9.000000000000002
 20
-11.0
 30
0.0
 11
12.0
 21
-11.0
 31
0.0
  0
LINE
  5
F3
330
DE
100
AcDbEntity
  8
hidden
100
AcDbLine
 10
38.00000000000001
 20
-11.0
 30
0.0
 11
41.0
 21
-11.0
 31
0.0
  0
LINE
  5
F4
330
DE
100
AcDbEntity
  8
hidden
100
AcDbLine
 10
9.000000000000002
 20
13.0
 30
0.0
 11
12.0
 21
13.0
 31
0.0
  0
LINE
  5
F5
330
DE
100
AcDbEntity
  8
hidden
100
AcDbLine
 10
38.00000000000001
 20
13.0
 30
0.0
 11
41.0
 21
13.0
 31
0.0
  0
LINE
  5
F6
330
DE
100
AcDbEntity
  8
hidden
100
AcDbLine
 10
38.00000000000001
 20
-0.5000000000000022
 30
0.0
 11
41.0
 21
-0.5000000000000004
 31
0.0
  0
LINE
  5
F7
330
DE
100
AcDbEntity
  8
hidden
100
AcDbLine
 10
38.00000000000001
 20
0.0
 30
0.0
 11
41.0
 21
0.0
 31
0.0
  0
LINE
  5
F8
330
DE
100
AcDbEntity
  8
hidden
100
AcDbLine
 10
9.000000000000002
 20
-0.5000000000000004
 30
0.0
 11
12.0
 21
-0.5000000000000004
 31
0.0
  0
LINE
  5
F9
330
DE
100
AcDbEntity
  8
hidden
100
AcDbLine
 10
9.000000000000002
 20
0.0
 30
0.0
 11
12.0
 21
0.0
 31
0.0
  0
CIRCLE
  5
FA
330
DE
100
AcDbEntity
  8
hidden
100
AcDbCircle
 10
25.0
 20
-8.0
 30
0.0
 40
7.249999999999999
  0
LWPOLYLINE
  5
FB
330
DE
100
AcDbEntity
  8
hidden
100
AcDbPolyline
 90
       19
 70
     0
 43
0.0
 10
36.50000004470348
 20
15.0
 10
36.63073365865486
 20
14.99872647104897
 10
36.76047231052473
 20
14.99491557825873
 10
36.88822861083403
 20
14.98859632482452
 10
37.01303025699604
 20
14.97981680408063
 10
37.13392743312616
 20
14.96864383348114
 10
37.25000003871435
 20
14.95516244607875
 10
37.36036469114551
 20
14.93947524337185
 10
37.46418144877466
 20
14.92170161444526
 10
37.56066020338995
 20
14.9019768273471
 10
37.64906669341331
 20
14.88045099961735
 10
37.72872809207435
 20
14.85728795580268
 10
37.7990381280284
 20
14.83266398065276
 10
37.85946169944749
 20
14.80676647748682
 10
37.90953894646835
 20
14.77979254194132
 10
37.94888875100371
 20
14.75194746195304
 10
37.97721163728099
 20
14.72344315539404
 10
37.99429205103378
 20
14.69449655724858
 10
38.0
 20
14.66532797858099
  0
LINE
  5
FC
330
DE
100
AcDbEntity
  8
hidden
100
AcDbLine
 10
38.00000000000001
 20
14.66532797858099
 30
0.0
 11
38.00000000000001
 21
-19.0
 31
0.0
  0
LINE
  5
FD
330
DE
100
AcDbEntity
  8
hidden
100
AcDbLine
 10
12.0
 20
14.66532797858099
 30
0.0
 11
12.0
 21
-19.0
 31
0.0
  0
LWPOLYLINE
  5
FE
330
DE
100
AcDbEntity
  8
hidden
100
AcDbPolyline
 90
       19
 70
     0
 43
0.0
 10
12.0
 20
14.66532797858099
 10
12.00570795286238
 20
14.69449656718463
 10
12.02278837048169
 20
14.72344316521651
 10
12.0511112605664
 20
14.75194747158719
 10
12.09046106882114
 20
14.77979255131381
 10
12.14053831944502
 20
14.80676648652634
 10
12.20096189432334
 20
14.8326639892905
 10
12.27127193356651
 20
14.85728796397291
 10
12.35093333532153
 20
14.88045100725788
 10
12.43933982822018
 20
14.90197683439978
 10
12.53581858547019
 20
14.92170162085642
 10
12.63963534547343
 20
14.9394752490927
 10
12.75
 20
14.95516245106574
 10
12.86607260738895
 20
14.96864383769634
 10
12.9869697850115
 20
14.97981680749194
 10
13.11177143234622
 20
14.98859632740598
 10
13.2395277334996
 20
14.9949155799907
 10
13.36926638587851
 20
14.99872647191826
 10
13.49999995529652
 20
15.0
  0
LINE
  5
FF
330
DE
100
AcDbEntity
  8
hidden
100
AcDbLine
 10
13.5
 20
15.0
 30
0.0
 11
13.5
 21
-19.0
 31
0.0
  0
LINE
  5
100
330
DE
100
AcDbEntity
  8
hidden
100
AcDbLine
 10
10.14589803375032
 20
15.0
 30
0.0
 11
39.85410196624968
 21
15.0
 31
0.0
  0
LWPOLYLINE
  5
101
330
DE
100
AcDbEntity
  8
hidden
100
AcDbPolyline
 90
       10
 70
     0
 43
0.0
 10
9.000000000000002
 20
14.33065595716198
 10
9.017123858587146
 20
14.41816172297288
 10
9.068365111445065
 20
14.50500151706854
 10
9.153333781699194
 20
14.59051443618057
 10
9.271383206463414
 20
14.67404967536044
 10
9.421614958335077
 20
14.75497148099802
 10
9.602885682970026
 20
14.83266398929049
 10
9.813815800699539
 20
14.90653591333773
 10
10.0528000059646
 20
14.97602504319264
 10
10.14589803375032
 20
15.0
  0
LINE
  5
102
330
DE
100
AcDbEntity
  8
hidden
100
AcDbLine
 10
9.000000000000002
 20
-19.0
 30
0.0
 11
9.000000000000002
 21
14.33065595716198
 31
0.0
  0
LINE
  5
103
330
DE
100
AcDbEntity
  8
hidden
100
AcDbLine
 10
41.0
 20
-19.0
 30
0.0
 11
9.000000000000002
 21
-19.0
 31
0.0
  0
LINE
  5
104
330
DE
100
AcDbEntity
  8
hidden
100
AcDbLine
 10
41.0
 20
14.33065595716198
 30
0.0
 11
41.0
 21
-19.0
 31
0.0
  0
LWPOLYLINE
  5
105
330
DE
100
AcDbEntity
  8
hidden
100
AcDbPolyline
 90
       10
 70
     0
 43
0.0
 10
39.85410196624969
 20
15.0
 10
40.10280582388001
 20
14.93222999691106
 10
40.32409015375698
 20
14.85988165213929
 10
40.51627084851508
 20
14.78350558027353
 10
40.67788529702535
 20
14.70368304933782
 10
40.80770351574913
 20
14.62102155699073
 10
40.90473750965556
 20
14.5361502071014
 10
40.9682487914603
 20
14.44971492188921
 10
40.99775400195963
 20
14.36237352606568
 10
41.00000000000001
 20
14.33065595716198
  0
LINE
  5
106
330
DE
100
AcDbEntity
  8
hidden
100
AcDbLine
 10
36.50000000000001
 20
-19.0
 30
0.0
 11
36.50000000000001
 21
15.0
 31
0.0
  0
CIRCLE
  5
107
330
DE
100
AcDbEntity
  8
hidden
100
AcDbCircle
 10
25.0
 20
-8.0
 30
0.0
 40
5.999999999999998
  0
LINE
  5
108
330
DE
100
AcDbEntity
  8
center
100
AcDbLine
 10
17.3875
 20
-8.0
 30
0.0
 11
32.6125
 21
-8.0
 31
0.0
  0
LINE
  5
109
330
DE
100
AcDbEntity
  8
center
100
AcDbLine
 10
25.0
 20
-15.6125
 30
0.0
 11
25.0
 21
-0.3875000000000002
 31
0.0
  0
LINE
  5
10A
330
DE
100
AcDbEntity
  8
bold
100
AcDbLine
 10
23.26794919243112
 20
-5.000000000000001
 30
0.0
 11
26.73205080756888
 21
-5.000000000000001
 31
0.0
  0
LINE
  5
10B
330
DE
100
AcDbEntity
  8
bold
100
AcDbLine
 10
23.26794919243112
 20
-11.0
 30
0.0
 11
26.73205080756888
 21
-11.0
 31
0.0
  0
LINE
  5
10C
330
DE
100
AcDbEntity
  8
bold
100
AcDbLine
 10
28.46410161513776
 20
-8.0
 30
0.0
 11
26.73205080756888
 21
-5.000000000000001
 31
0.0
  0
LINE
  5
10D
330
DE
100
AcDbEntity
  8
bold
100
AcDbLine
 10
26.73205080756888
 20
-11.0
 30
0.0
 11
28.46410161513776
 21
-8.0
 31
0.0
  0
LINE
  5
10E
330
DE
100
AcDbEntity
  8
bold
100
AcDbLine
 10
23.26794919243112
 20
-5.000000000000001
 30
0.0
 11
21.53589838486225
 21
-8.0
 31
0.0
  0
LINE
  5
10F
330
DE
100
AcDbEntity
  8
bold
100
AcDbLine
 10
21.53589838486225
 20
-8.0
 30
0.0
 11
23.26794919243112
 21
-11.0
 31
0.0
  0
ENDBLK
  5
E1
330
DE
100
AcDbEntity
  8
0
100
AcDbBlockEnd
  0
BLOCK
  5
112
330
110
100
AcDbEntity
  8
0
100
AcDbBlockBegin
  2
4_copper_tube_15x9x25_1_0_in_32157_0
 70
     2
 10
0.0
 20
0.0
 30
0.0
  3
4_copper_tube_15x9x25_1_0_in_32157_0
  1

  0
ATTDEF
  5
114
330
110
100
AcDbEntity
  8
attrib
100
AcDbText
 10
127.5
 20
49.0
 30
0.0
 40
0.5
  1
copper_tube_15x9x25
100
AcDbAttributeDefinition
  3

  2
NB
 70
     8
280
     0
  0
ATTDEF
  5
115
330
110
100
AcDbEntity
  8
attrib
100
AcDbText
 10
127.5
 20
48.5
 30
0.0
 40
0.5
  1
Adapter copper tube
100
AcDbAttributeDefinition
  3

  2
NN
 70
     8
280
     0
  0
ATTDEF
  5
116
330
110
100
AcDbEntity
  8
attrib
100
AcDbText
 10
127.5
 20
48.0
 30
0.0
 40
0.5
  1

100
AcDbAttributeDefinition
  3

  2
NT
 70
     8
280
     0
  0
ATTDEF
  5
117
330
110
100
AcDbEntity
  8
attrib
100
AcDbText
 10
127.5
 20
47.5
 30
0.0
 40
0.5
  1
$BOM.
100
AcDbAttributeDefinition
  3

  2
NBSYN
 70
     8
280
     0
  0
ATTDEF
  5
118
330
110
100
AcDbEntity
  8
attrib
100
AcDbText
 10
127.5
 20
47.0
 30
0.0
 40
0.5
  1
copper_tube_15x9x25
100
AcDbAttributeDefinition
  3

  2
LINA
 70
     8
280
     0
  0
ATTDEF
  5
119
330
110
100
AcDbEntity
  8
attrib
100
AcDbText
 10
127.5
 20
46.5
 30
0.0
 40
0.5
  1
Wöhner
100
AcDbAttributeDefinition
  3

  2
CATALOG
 70
     8
280
     0
  0
ATTDEF
  5
11A
330
110
100
AcDbEntity
  8
attrib
100
AcDbText
 10
127.5
 20
46.0
 30
0.0
 40
0.5
  1
copper_tube_15x9x25
100
AcDbAttributeDefinition
  3

  2
BOM
 70
     8
280
     0
  0
ATTDEF
  5
11B
330
110
100
AcDbEntity
  8
attrib
100
AcDbText
 10
127.5
 20
45.5
 30
0.0
 40
0.5
  1
copper_tube_15x9x25
100
AcDbAttributeDefinition
  3

  2
ARTNR
 70
     8
280
     0
  0
ATTDEF
  5
11C
330
110
100
AcDbEntity
  8
attrib
100
AcDbText
 10
127.5
 20
45.0
 30
0.0
 40
0.5
  1
1
100
AcDbAttributeDefinition
  3

  2
QNT
 70
     8
280
     0
  0
ATTDEF
  5
11D
330
110
100
AcDbEntity
  8
attrib
100
AcDbText
 10
127.5
 20
44.5
 30
0.0
 40
0.5
  1
15.0
100
AcDbAttributeDefinition
  3

  2
D
 70
     8
280
     0
  0
ATTDEF
  5
11E
330
110
100
AcDbEntity
  8
attrib
100
AcDbText
 10
127.5
 20
44.0
 30
0.0
 40
0.5
  1
9.000
100
AcDbAttributeDefinition
  3

  2
DD
 70
     8
280
     0
  0
ATTDEF
  5
11F
330
110
100
AcDbEntity
  8
attrib
100
AcDbText
 10
127.5
 20
43.5
 30
0.0
 40
0.5
  1
25.000
100
AcDbAttributeDefinition
  3

  2
L
 70
     8
280
     0
  0
ATTDEF
  5
120
330
110
100
AcDbEntity
  8
attrib
100
AcDbText
 10
127.5
 20
43.0
 30
0.0
 40
0.5
  1

100
AcDbAttributeDefinition
  3

  2
VER
 70
     8
280
     0
  0
ATTDEF
  5
121
330
110
100
AcDbEntity
  8
attrib
100
AcDbText
 10
127.5
 20
42.5
 30
0.0
 40
0.5
  1
woehner
100
AcDbAttributeDefinition
  3

  2
COMPANY
 70
     8
280
     0
  0
ATTDEF
  5
122
330
110
100
AcDbEntity
  8
attrib
100
AcDbText
 10
127.5
 20
42.0
 30
0.0
 40
0.5
  1
{$CADENAS_DATA/23d-libs/woehner/sys_60classic/adapters/adapters_200_290/parts/adapter_copper_tube.prj},192 {VTYP=3D},{NB=copper_tube_15x9x25},{LINA=copper_tube_15x9x25},{NN=Adapter copper tube},{DATE=26.01.2024 06:39:57},{GEOMDATE=06.02.2023 13:04:14},{VE
100
AcDbAttributeDefinition
  3

  2
PSOL_0
 70
     9
280
     0
  0
ATTDEF
  5
123
330
110
100
AcDbEntity
  8
attrib
100
AcDbText
 10
127.5
 20
41.5
 30
0.0
 40
0.5
  1
RSION=},{LINEID=560},{WBVAR=},{WBNUMERIC=}  {NB=copper_tube_15x9x25},{LINA=copper_tube_15x9x25},{KT=DUMMY},{BOM=copper_tube_15x9x25},{ARTNR=copper_tube_15x9x25},{QNT=1},{D=15.0},{DD=9.000},{L=25.000},{VER=}
100
AcDbAttributeDefinition
  3

  2
PSOL_1
 70
     9
280
     0
  0
CIRCLE
  5
124
330
110
100
AcDbEntity
  8
bold
100
AcDbCircle
 10
115.0
 20
41.5
 30
0.0
 40
7.5
  0
CIRCLE
  5
125
330
110
100
AcDbEntity
  8
bold
100
AcDbCircle
 10
115.0
 20
41.5
 30
0.0
 40
4.500000000000001
  0
CIRCLE
  5
126
330
110
100
AcDbEntity
  8
bold
100
AcDbCircle
 10
115.0
 20
41.5
 30
0.0
 40
7.45
  0
ENDBLK
  5
113
330
110
100
AcDbEntity
  8
0
100
AcDbBlockEnd
  0
BLOCK
  5
129
330
127
100
AcDbEntity
  8
0
100
AcDbBlockBegin
  2
5_copper_tube_15x9x25_2_0_in_32157_0
 70
     2
 10
0.0
 20
0.0
 30
0.0
  3
5_copper_tube_15x9x25_2_0_in_32157_0
  1

  0
ATTDEF
  5
12B
330
127
100
AcDbEntity
  8
attrib
100
AcDbText
 10
82.5
 20
49.0
 30
0.0
 40
0.5
  1
copper_tube_15x9x25
100
AcDbAttributeDefinition
  3

  2
NB
 70
     8
280
     0
  0
ATTDEF
  5
12C
330
127
100
AcDbEntity
  8
attrib
100
AcDbText
 10
82.5
 20
48.5
 30
0.0
 40
0.5
  1
Adapter copper tube
100
AcDbAttributeDefinition
  3

  2
NN
 70
     8
280
     0
  0
ATTDEF
  5
12D
330
127
100
AcDbEntity
  8
attrib
100
AcDbText
 10
82.5
 20
48.0
 30
0.0
 40
0.5
  1

100
AcDbAttributeDefinition
  3

  2
NT
 70
     8
280
     0
  0
ATTDEF
  5
12E
330
127
100
AcDbEntity
  8
attrib
100
AcDbText
 10
82.5
 20
47.5
 30
0.0
 40
0.5
  1
$BOM.
100
AcDbAttributeDefinition
  3

  2
NBSYN
 70
     8
280
     0
  0
ATTDEF
  5
12F
330
127
100
AcDbEntity
  8
attrib
100
AcDbText
 10
82.5
 20
47.0
 30
0.0
 40
0.5
  1
copper_tube_15x9x25
100
AcDbAttributeDefinition
  3

  2
LINA
 70
     8
280
     0
  0
ATTDEF
  5
130
330
127
100
AcDbEntity
  8
attrib
100
AcDbText
 10
82.5
 20
46.5
 30
0.0
 40
0.5
  1
Wöhner
100
AcDbAttributeDefinition
  3

  2
CATALOG
 70
     8
280
     0
  0
ATTDEF
  5
131
330
127
100
AcDbEntity
  8
attrib
100
AcDbText
 10
82.5
 20
46.0
 30
0.0
 40
0.5
  1
copper_tube_15x9x25
100
AcDbAttributeDefinition
  3

  2
BOM
 70
     8
280
     0
  0
ATTDEF
  5
132
330
127
100
AcDbEntity
  8
attrib
100
AcDbText
 10
82.5
 20
45.5
 30
0.0
 40
0.5
  1
copper_tube_15x9x25
100
AcDbAttributeDefinition
  3

  2
ARTNR
 70
     8
280
     0
  0
ATTDEF
  5
133
330
127
100
AcDbEntity
  8
attrib
100
AcDbText
 10
82.5
 20
45.0
 30
0.0
 40
0.5
  1
1
100
AcDbAttributeDefinition
  3

  2
QNT
 70
     8
280
     0
  0
ATTDEF
  5
134
330
127
100
AcDbEntity
  8
attrib
100
AcDbText
 10
82.5
 20
44.5
 30
0.0
 40
0.5
  1
15.0
100
AcDbAttributeDefinition
  3

  2
D
 70
     8
280
     0
  0
ATTDEF
  5
135
330
127
100
AcDbEntity
  8
attrib
100
AcDbText
 10
82.5
 20
44.0
 30
0.0
 40
0.5
  1
9.000
100
AcDbAttributeDefinition
  3

  2
DD
 70
     8
280
     0
  0
ATTDEF
  5
136
330
127
100
AcDbEntity
  8
attrib
100
AcDbText
 10
82.5
 20
43.5
 30
0.0
 40
0.5
  1
25.000
100
AcDbAttributeDefinition
  3

  2
L
 70
     8
280
     0
  0
ATTDEF
  5
137
330
127
100
AcDbEntity
  8
attrib
100
AcDbText
 10
82.5
 20
43.0
 30
0.0
 40
0.5
  1

100
AcDbAttributeDefinition
  3

  2
VER
 70
     8
280
     0
  0
ATTDEF
  5
138
330
127
100
AcDbEntity
  8
attrib
100
AcDbText
 10
82.5
 20
42.5
 30
0.0
 40
0.5
  1
woehner
100
AcDbAttributeDefinition
  3

  2
COMPANY
 70
     8
280
     0
  0
ATTDEF
  5
139
330
127
100
AcDbEntity
  8
attrib
100
AcDbText
 10
82.5
 20
42.0
 30
0.0
 40
0.5
  1
{$CADENAS_DATA/23d-libs/woehner/sys_60classic/adapters/adapters_200_290/parts/adapter_copper_tube.prj},192 {VTYP=3D},{NB=copper_tube_15x9x25},{LINA=copper_tube_15x9x25},{NN=Adapter copper tube},{DATE=26.01.2024 06:39:57},{GEOMDATE=06.02.2023 13:04:14},{VE
100
AcDbAttributeDefinition
  3

  2
PSOL_0
 70
     9
280
     0
  0
ATTDEF
  5
13A
330
127
100
AcDbEntity
  8
attrib
100
AcDbText
 10
82.5
 20
41.5
 30
0.0
 40
0.5
  1
RSION=},{LINEID=560},{WBVAR=},{WBNUMERIC=}  {NB=copper_tube_15x9x25},{LINA=copper_tube_15x9x25},{KT=DUMMY},{BOM=copper_tube_15x9x25},{ARTNR=copper_tube_15x9x25},{QNT=1},{D=15.0},{DD=9.000},{L=25.000},{VER=}
100
AcDbAttributeDefinition
  3

  2
PSOL_1
 70
     9
280
     0
  0
CIRCLE
  5
13B
330
127
100
AcDbEntity
  8
bold
100
AcDbCircle
 10
70.0
 20
41.5
 30
0.0
 40
7.5
  0
CIRCLE
  5
13C
330
127
100
AcDbEntity
  8
bold
100
AcDbCircle
 10
70.0
 20
41.5
 30
0.0
 40
4.500000000000001
  0
CIRCLE
  5
13D
330
127
100
AcDbEntity
  8
bold
100
AcDbCircle
 10
70.0
 20
41.5
 30
0.0
 40
7.45
  0
ENDBLK
  5
12A
330
127
100
AcDbEntity
  8
0
100
AcDbBlockEnd
  0
BLOCK
  5
140
330
13E
100
AcDbEntity
  8
0
100
AcDbBlockBegin
  2
6_copper_tube_15x9x25_3_0_in_32157_0
 70
     2
 10
0.0
 20
0.0
 30
0.0
  3
6_copper_tube_15x9x25_3_0_in_32157_0
  1

  0
ATTDEF
  5
142
330
13E
100
AcDbEntity
  8
attrib
100
AcDbText
 10
37.5
 20
49.0
 30
0.0
 40
0.5
  1
copper_tube_15x9x25
100
AcDbAttributeDefinition
  3

  2
NB
 70
     8
280
     0
  0
ATTDEF
  5
143
330
13E
100
AcDbEntity
  8
attrib
100
AcDbText
 10
37.5
 20
48.5
 30
0.0
 40
0.5
  1
Adapter copper tube
100
AcDbAttributeDefinition
  3

  2
NN
 70
     8
280
     0
  0
ATTDEF
  5
144
330
13E
100
AcDbEntity
  8
attrib
100
AcDbText
 10
37.5
 20
48.0
 30
0.0
 40
0.5
  1

100
AcDbAttributeDefinition
  3

  2
NT
 70
     8
280
     0
  0
ATTDEF
  5
145
330
13E
100
AcDbEntity
  8
attrib
100
AcDbText
 10
37.5
 20
47.5
 30
0.0
 40
0.5
  1
$BOM.
100
AcDbAttributeDefinition
  3

  2
NBSYN
 70
     8
280
     0
  0
ATTDEF
  5
146
330
13E
100
AcDbEntity
  8
attrib
100
AcDbText
 10
37.5
 20
47.0
 30
0.0
 40
0.5
  1
copper_tube_15x9x25
100
AcDbAttributeDefinition
  3

  2
LINA
 70
     8
280
     0
  0
ATTDEF
  5
147
330
13E
100
AcDbEntity
  8
attrib
100
AcDbText
 10
37.5
 20
46.5
 30
0.0
 40
0.5
  1
Wöhner
100
AcDbAttributeDefinition
  3

  2
CATALOG
 70
     8
280
     0
  0
ATTDEF
  5
148
330
13E
100
AcDbEntity
  8
attrib
100
AcDbText
 10
37.5
 20
46.0
 30
0.0
 40
0.5
  1
copper_tube_15x9x25
100
AcDbAttributeDefinition
  3

  2
BOM
 70
     8
280
     0
  0
ATTDEF
  5
149
330
13E
100
AcDbEntity
  8
attrib
100
AcDbText
 10
37.5
 20
45.5
 30
0.0
 40
0.5
  1
copper_tube_15x9x25
100
AcDbAttributeDefinition
  3

  2
ARTNR
 70
     8
280
     0
  0
ATTDEF
  5
14A
330
13E
100
AcDbEntity
  8
attrib
100
AcDbText
 10
37.5
 20
45.0
 30
0.0
 40
0.5
  1
1
100
AcDbAttributeDefinition
  3

  2
QNT
 70
     8
280
     0
  0
ATTDEF
  5
14B
330
13E
100
AcDbEntity
  8
attrib
100
AcDbText
 10
37.5
 20
44.5
 30
0.0
 40
0.5
  1
15.0
100
AcDbAttributeDefinition
  3

  2
D
 70
     8
280
     0
  0
ATTDEF
  5
14C
330
13E
100
AcDbEntity
  8
attrib
100
AcDbText
 10
37.5
 20
44.0
 30
0.0
 40
0.5
  1
9.000
100
AcDbAttributeDefinition
  3

  2
DD
 70
     8
280
     0
  0
ATTDEF
  5
14D
330
13E
100
AcDbEntity
  8
attrib
100
AcDbText
 10
37.5
 20
43.5
 30
0.0
 40
0.5
  1
25.000
100
AcDbAttributeDefinition
  3

  2
L
 70
     8
280
     0
  0
ATTDEF
  5
14E
330
13E
100
AcDbEntity
  8
attrib
100
AcDbText
 10
37.5
 20
43.0
 30
0.0
 40
0.5
  1

100
AcDbAttributeDefinition
  3

  2
VER
 70
     8
280
     0
  0
ATTDEF
  5
14F
330
13E
100
AcDbEntity
  8
attrib
100
AcDbText
 10
37.5
 20
42.5
 30
0.0
 40
0.5
  1
woehner
100
AcDbAttributeDefinition
  3

  2
COMPANY
 70
     8
280
     0
  0
ATTDEF
  5
150
330
13E
100
AcDbEntity
  8
attrib
100
AcDbText
 10
37.5
 20
42.0
 30
0.0
 40
0.5
  1
{$CADENAS_DATA/23d-libs/woehner/sys_60classic/adapters/adapters_200_290/parts/adapter_copper_tube.prj},192 {VTYP=3D},{NB=copper_tube_15x9x25},{LINA=copper_tube_15x9x25},{NN=Adapter copper tube},{DATE=26.01.2024 06:39:57},{GEOMDATE=06.02.2023 13:04:14},{VE
100
AcDbAttributeDefinition
  3

  2
PSOL_0
 70
     9
280
     0
  0
ATTDEF
  5
151
330
13E
100
AcDbEntity
  8
attrib
100
AcDbText
 10
37.5
 20
41.5
 30
0.0
 40
0.5
  1
RSION=},{LINEID=560},{WBVAR=},{WBNUMERIC=}  {NB=copper_tube_15x9x25},{LINA=copper_tube_15x9x25},{KT=DUMMY},{BOM=copper_tube_15x9x25},{ARTNR=copper_tube_15x9x25},{QNT=1},{D=15.0},{DD=9.000},{L=25.000},{VER=}
100
AcDbAttributeDefinition
  3

  2
PSOL_1
 70
     9
280
     0
  0
CIRCLE
  5
152
330
13E
100
AcDbEntity
  8
bold
100
AcDbCircle
 10
25.0
 20
41.5
 30
0.0
 40
7.5
  0
CIRCLE
  5
153
330
13E
100
AcDbEntity
  8
bold
100
AcDbCircle
 10
25.0
 20
41.5
 30
0.0
 40
7.45
  0
CIRCLE
  5
154
330
13E
100
AcDbEntity
  8
bold
100
AcDbCircle
 10
25.0
 20
41.5
 30
0.0
 40
4.500000000000001
  0
ENDBLK
  5
141
330
13E
100
AcDbEntity
  8
0
100
AcDbBlockEnd
  0
BLOCK
  5
157
330
155
100
AcDbEntity
  8
0
100
AcDbBlockBegin
  2
7_contact_bar_l3_2_0_in_32157_0
 70
     2
 10
0.0
 20
0.0
 30
0.0
  3
7_contact_bar_l3_2_0_in_32157_0
  1

  0
ATTDEF
  5
159
330
155
100
AcDbEntity
  8
attrib
100
AcDbText
 10
135.0
 20
51.3
 30
0.0
 40
0.5
  1
contact_bar_l3_2
100
AcDbAttributeDefinition
  3

  2
NB
 70
     8
280
     0
  0
ATTDEF
  5
15A
330
155
100
AcDbEntity
  8
attrib
100
AcDbText
 10
135.0
 20
50.8
 30
0.0
 40
0.5
  1
Adapter copper tube
100
AcDbAttributeDefinition
  3

  2
NN
 70
     8
280
     0
  0
ATTDEF
  5
15B
330
155
100
AcDbEntity
  8
attrib
100
AcDbText
 10
135.0
 20
50.3
 30
0.0
 40
0.5
  1

100
AcDbAttributeDefinition
  3

  2
NT
 70
     8
280
     0
  0
ATTDEF
  5
15C
330
155
100
AcDbEntity
  8
attrib
100
AcDbText
 10
135.0
 20
49.8
 30
0.0
 40
0.5
  1
$BOM.
100
AcDbAttributeDefinition
  3

  2
NBSYN
 70
     8
280
     0
  0
ATTDEF
  5
15D
330
155
100
AcDbEntity
  8
attrib
100
AcDbText
 10
135.0
 20
49.3
 30
0.0
 40
0.5
  1
contact_bar_l3_2
100
AcDbAttributeDefinition
  3

  2
LINA
 70
     8
280
     0
  0
ATTDEF
  5
15E
330
155
100
AcDbEntity
  8
attrib
100
AcDbText
 10
135.0
 20
48.8
 30
0.0
 40
0.5
  1
Wöhner
100
AcDbAttributeDefinition
  3

  2
CATALOG
 70
     8
280
     0
  0
ATTDEF
  5
15F
330
155
100
AcDbEntity
  8
attrib
100
AcDbText
 10
135.0
 20
48.3
 30
0.0
 40
0.5
  1
contact_bar_l3_2
100
AcDbAttributeDefinition
  3

  2
BOM
 70
     8
280
     0
  0
ATTDEF
  5
160
330
155
100
AcDbEntity
  8
attrib
100
AcDbText
 10
135.0
 20
47.8
 30
0.0
 40
0.5
  1
contact_bar_l3_2
100
AcDbAttributeDefinition
  3

  2
ARTNR
 70
     8
280
     0
  0
ATTDEF
  5
161
330
155
100
AcDbEntity
  8
attrib
100
AcDbText
 10
135.0
 20
47.3
 30
0.0
 40
0.5
  1
0.000
100
AcDbAttributeDefinition
  3

  2
L
 70
     8
280
     0
  0
ATTDEF
  5
162
330
155
100
AcDbEntity
  8
attrib
100
AcDbText
 10
135.0
 20
46.8
 30
0.0
 40
0.5
  1
0
100
AcDbAttributeDefinition
  3

  2
D
 70
     8
280
     0
  0
ATTDEF
  5
163
330
155
100
AcDbEntity
  8
attrib
100
AcDbText
 10
135.0
 20
46.3
 30
0.0
 40
0.5
  1
6.000
100
AcDbAttributeDefinition
  3

  2
DD
 70
     8
280
     0
  0
ATTDEF
  5
164
330
155
100
AcDbEntity
  8
attrib
100
AcDbText
 10
135.0
 20
45.8
 30
0.0
 40
0.5
  1
8
100
AcDbAttributeDefinition
  3

  2
VER
 70
     8
280
     0
  0
ATTDEF
  5
165
330
155
100
AcDbEntity
  8
attrib
100
AcDbText
 10
135.0
 20
45.3
 30
0.0
 40
0.5
  1
woehner
100
AcDbAttributeDefinition
  3

  2
COMPANY
 70
     8
280
     0
  0
ATTDEF
  5
166
330
155
100
AcDbEntity
  8
attrib
100
AcDbText
 10
135.0
 20
44.8
 30
0.0
 40
0.5
  1
{$CADENAS_DATA/23d-libs/woehner/sys_60classic/adapters/adapters_200_290/parts/adapter_copper_contact.prj},186 {VTYP=3D},{NB=contact_bar_l3_2},{LINA=contact_bar_l3_2},{NN=Adapter copper tube},{DATE=26.01.2024 06:39:57},{GEOMDATE=03.02.2023 15:29:00},{VERSI
100
AcDbAttributeDefinition
  3

  2
PSOL_0
 70
     9
280
     0
  0
ATTDEF
  5
167
330
155
100
AcDbEntity
  8
attrib
100
AcDbText
 10
135.0
 20
44.3
 30
0.0
 40
0.5
  1
ON=},{LINEID=650},{WBVAR=},{WBNUMERIC=}  {NB=contact_bar_l3_2},{LINA=contact_bar_l3_2},{KT=DUMMY},{BOM=contact_bar_l3_2},{ARTNR=contact_bar_l3_2},{L=0.000},{D=0},{DD=6.000},{VER=8}
100
AcDbAttributeDefinition
  3

  2
PSOL_1
 70
     9
280
     0
  0
LINE
  5
168
330
155
100
AcDbEntity
  8
hidden
100
AcDbLine
 10
127.5
 20
-102.9291524227067
 30
0.0
 11
102.5
 21
-102.9291524227067
 31
0.0
  0
LINE
  5
169
330
155
100
AcDbEntity
  8
hidden
100
AcDbLine
 10
127.5
 20
-161.6418475772934
 30
0.0
 11
102.5
 21
-161.6418475772934
 31
0.0
  0
LINE
  5
16A
330
155
100
AcDbEntity
  8
hidden
100
AcDbLine
 10
127.5
 20
-155.5796697508023
 30
0.0
 11
102.5
 21
-155.5796697508023
 31
0.0
  0
LINE
  5
16B
330
155
100
AcDbEntity
  8
hidden
100
AcDbLine
 10
127.5
 20
-108.9913302491977
 30
0.0
 11
102.5
 21
-108.9913302491977
 31
0.0
  0
LINE
  5
16C
330
155
100
AcDbEntity
  8
hidden
100
AcDbLine
 10
127.5
 20
-95.4235989232415
 30
0.0
 11
102.5
 21
-95.4235989232415
 31
0.0
  0
LINE
  5
16D
330
155
100
AcDbEntity
  8
hidden
100
AcDbLine
 10
127.5
 20
-169.1474010767585
 30
0.0
 11
102.5
 21
-169.1474010767585
 31
0.0
  0
LINE
  5
16E
330
155
100
AcDbEntity
  8
hidden
100
AcDbLine
 10
127.5
 20
-157.3117205583712
 30
0.0
 11
102.5
 21
-157.3117205583712
 31
0.0
  0
LINE
  5
16F
330
155
100
AcDbEntity
  8
hidden
100
AcDbLine
 10
127.5
 20
-107.2592794416288
 30
0.0
 11
102.5
 21
-107.2592794416288
 31
0.0
  0
LINE
  5
170
330
155
100
AcDbEntity
  8
hidden
100
AcDbLine
 10
102.5
 20
-93.19999999999999
 30
0.0
 11
100.0
 21
-90.70000000000002
 31
0.0
  0
LINE
  5
171
330
155
100
AcDbEntity
  8
hidden
100
AcDbLine
 10
130.0
 20
-90.70000000000002
 30
0.0
 11
127.5
 21
-93.19999999999999
 31
0.0
  0
LINE
  5
172
330
155
100
AcDbEntity
  8
hidden
100
AcDbLine
 10
130.0
 20
51.3
 30
0.0
 11
100.0
 21
51.3
 31
0.0
  0
LINE
  5
173
330
155
100
AcDbEntity
  8
hidden
100
AcDbLine
 10
100.0
 20
51.3
 30
0.0
 11
100.0
 21
-90.70000000000002
 31
0.0
  0
LINE
  5
174
330
155
100
AcDbEntity
  8
hidden
100
AcDbLine
 10
130.0
 20
51.3
 30
0.0
 11
130.0
 21
-90.70000000000002
 31
0.0
  0
LINE
  5
175
330
155
100
AcDbEntity
  8
hidden
100
AcDbLine
 10
127.5
 20
-93.6915481156726
 30
0.0
 11
102.5
 21
-93.6915481156726
 31
0.0
  0
LINE
  5
176
330
155
100
AcDbEntity
  8
hidden
100
AcDbLine
 10
127.5
 20
-99.75372594216368
 30
0.0
 11
102.5
 21
-99.75372594216368
 31
0.0
  0
LINE
  5
177
330
155
100
AcDbEntity
  8
hidden
100
AcDbLine
 10
127.5
 20
-171.2
 30
0.0
 11
130.0
 21
-173.7
 31
0.0
  0
LINE
  5
178
330
155
100
AcDbEntity
  8
hidden
100
AcDbLine
 10
102.5
 20
-171.2
 30
0.0
 11
102.5
 21
-93.19999999999999
 31
0.0
  0
LINE
  5
179
330
155
100
AcDbEntity
  8
hidden
100
AcDbLine
 10
100.0
 20
-173.7
 30
0.0
 11
102.5
 21
-171.2
 31
0.0
  0
LINE
  5
17A
330
155
100
AcDbEntity
  8
hidden
100
AcDbLine
 10
127.5
 20
-93.19999999999999
 30
0.0
 11
127.5
 21
-171.2
 31
0.0
  0
LINE
  5
17B
330
155
100
AcDbEntity
  8
hidden
100
AcDbLine
 10
100.0
 20
-173.7
 30
0.0
 11
100.0
 21
-195.2
 31
0.0
  0
LINE
  5
17C
330
155
100
AcDbEntity
  8
hidden
100
AcDbLine
 10
130.0
 20
-195.2
 30
0.0
 11
100.0
 21
-195.2
 31
0.0
  0
LINE
  5
17D
330
155
100
AcDbEntity
  8
hidden
100
AcDbLine
 10
130.0
 20
-173.7
 30
0.0
 11
130.0
 21
-195.2
 31
0.0
  0
LINE
  5
17E
330
155
100
AcDbEntity
  8
hidden
100
AcDbLine
 10
127.5
 20
-164.8172740578363
 30
0.0
 11
102.5
 21
-164.8172740578363
 31
0.0
  0
LINE
  5
17F
330
155
100
AcDbEntity
  8
hidden
100
AcDbLine
 10
127.5
 20
-170.8794518843274
 30
0.0
 11
102.5
 21
-170.8794518843274
 31
0.0
  0
ENDBLK
  5
158
330
155
100
AcDbEntity
  8
0
100
AcDbBlockEnd
  0
BLOCK
  5
182
330
180
100
AcDbEntity
  8
0
100
AcDbBlockBegin
  2
8_contact_bar_l2_2_0_in_32157_0
 70
     2
 10
0.0
 20
0.0
 30
0.0
  3
8_contact_bar_l2_2_0_in_32157_0
  1

  0
ATTDEF
  5
184
330
180
100
AcDbEntity
  8
attrib
100
AcDbText
 10
90.0
 20
51.3
 30
0.0
 40
0.5
  1
contact_bar_l2_2
100
AcDbAttributeDefinition
  3

  2
NB
 70
     8
280
     0
  0
ATTDEF
  5
185
330
180
100
AcDbEntity
  8
attrib
100
AcDbText
 10
90.0
 20
50.8
 30
0.0
 40
0.5
  1
Adapter copper tube
100
AcDbAttributeDefinition
  3

  2
NN
 70
     8
280
     0
  0
ATTDEF
  5
186
330
180
100
AcDbEntity
  8
attrib
100
AcDbText
 10
90.0
 20
50.3
 30
0.0
 40
0.5
  1

100
AcDbAttributeDefinition
  3

  2
NT
 70
     8
280
     0
  0
ATTDEF
  5
187
330
180
100
AcDbEntity
  8
attrib
100
AcDbText
 10
90.0
 20
49.8
 30
0.0
 40
0.5
  1
$BOM.
100
AcDbAttributeDefinition
  3

  2
NBSYN
 70
     8
280
     0
  0
ATTDEF
  5
188
330
180
100
AcDbEntity
  8
attrib
100
AcDbText
 10
90.0
 20
49.3
 30
0.0
 40
0.5
  1
contact_bar_l2_2
100
AcDbAttributeDefinition
  3

  2
LINA
 70
     8
280
     0
  0
ATTDEF
  5
189
330
180
100
AcDbEntity
  8
attrib
100
AcDbText
 10
90.0
 20
48.8
 30
0.0
 40
0.5
  1
Wöhner
100
AcDbAttributeDefinition
  3

  2
CATALOG
 70
     8
280
     0
  0
ATTDEF
  5
18A
330
180
100
AcDbEntity
  8
attrib
100
AcDbText
 10
90.0
 20
48.3
 30
0.0
 40
0.5
  1
contact_bar_l2_2
100
AcDbAttributeDefinition
  3

  2
BOM
 70
     8
280
     0
  0
ATTDEF
  5
18B
330
180
100
AcDbEntity
  8
attrib
100
AcDbText
 10
90.0
 20
47.8
 30
0.0
 40
0.5
  1
contact_bar_l2_2
100
AcDbAttributeDefinition
  3

  2
ARTNR
 70
     8
280
     0
  0
ATTDEF
  5
18C
330
180
100
AcDbEntity
  8
attrib
100
AcDbText
 10
90.0
 20
47.3
 30
0.0
 40
0.5
  1
0.000
100
AcDbAttributeDefinition
  3

  2
L
 70
     8
280
     0
  0
ATTDEF
  5
18D
330
180
100
AcDbEntity
  8
attrib
100
AcDbText
 10
90.0
 20
46.8
 30
0.0
 40
0.5
  1
0
100
AcDbAttributeDefinition
  3

  2
D
 70
     8
280
     0
  0
ATTDEF
  5
18E
330
180
100
AcDbEntity
  8
attrib
100
AcDbText
 10
90.0
 20
46.3
 30
0.0
 40
0.5
  1
0.000
100
AcDbAttributeDefinition
  3

  2
DD
 70
     8
280
     0
  0
ATTDEF
  5
18F
330
180
100
AcDbEntity
  8
attrib
100
AcDbText
 10
90.0
 20
45.8
 30
0.0
 40
0.5
  1
7
100
AcDbAttributeDefinition
  3

  2
VER
 70
     8
280
     0
  0
ATTDEF
  5
190
330
180
100
AcDbEntity
  8
attrib
100
AcDbText
 10
90.0
 20
45.3
 30
0.0
 40
0.5
  1
woehner
100
AcDbAttributeDefinition
  3

  2
COMPANY
 70
     8
280
     0
  0
ATTDEF
  5
191
330
180
100
AcDbEntity
  8
attrib
100
AcDbText
 10
90.0
 20
44.8
 30
0.0
 40
0.5
  1
{$CADENAS_DATA/23d-libs/woehner/sys_60classic/adapters/adapters_200_290/parts/adapter_copper_contact.prj},186 {VTYP=3D},{NB=contact_bar_l2_2},{LINA=contact_bar_l2_2},{NN=Adapter copper tube},{DATE=26.01.2024 06:39:57},{GEOMDATE=03.02.2023 15:29:00},{VERSI
100
AcDbAttributeDefinition
  3

  2
PSOL_0
 70
     9
280
     0
  0
ATTDEF
  5
192
330
180
100
AcDbEntity
  8
attrib
100
AcDbText
 10
90.0
 20
44.3
 30
0.0
 40
0.5
  1
ON=},{LINEID=640},{WBVAR=},{WBNUMERIC=}  {NB=contact_bar_l2_2},{LINA=contact_bar_l2_2},{KT=DUMMY},{BOM=contact_bar_l2_2},{ARTNR=contact_bar_l2_2},{L=0.000},{D=0},{DD=0.000},{VER=7}
100
AcDbAttributeDefinition
  3

  2
PSOL_1
 70
     9
280
     0
  0
LINE
  5
193
330
180
100
AcDbEntity
  8
hidden
100
AcDbLine
 10
82.5
 20
-99.97084757729337
 30
0.0
 11
57.50000000000001
 21
-99.97084757729337
 31
0.0
  0
LINE
  5
194
330
180
100
AcDbEntity
  8
hidden
100
AcDbLine
 10
82.5
 20
-41.25815242270662
 30
0.0
 11
57.50000000000001
 21
-41.25815242270662
 31
0.0
  0
LINE
  5
195
330
180
100
AcDbEntity
  8
hidden
100
AcDbLine
 10
82.5
 20
-47.32033024919771
 30
0.0
 11
57.50000000000001
 21
-47.32033024919771
 31
0.0
  0
LINE
  5
196
330
180
100
AcDbEntity
  8
hidden
100
AcDbLine
 10
82.5
 20
-93.90866975080225
 30
0.0
 11
57.50000000000001
 21
-93.90866975080229
 31
0.0
  0
LINE
  5
197
330
180
100
AcDbEntity
  8
hidden
100
AcDbLine
 10
82.5
 20
-107.4764010767585
 30
0.0
 11
57.50000000000001
 21
-107.4764010767585
 31
0.0
  0
LINE
  5
198
330
180
100
AcDbEntity
  8
hidden
100
AcDbLine
 10
82.5
 20
-33.75259892324149
 30
0.0
 11
57.50000000000001
 21
-33.75259892324149
 31
0.0
  0
LINE
  5
199
330
180
100
AcDbEntity
  8
hidden
100
AcDbLine
 10
82.5
 20
-45.58827944162883
 30
0.0
 11
57.50000000000001
 21
-45.58827944162883
 31
0.0
  0
LINE
  5
19A
330
180
100
AcDbEntity
  8
hidden
100
AcDbLine
 10
82.5
 20
-95.64072055837119
 30
0.0
 11
57.50000000000001
 21
-95.64072055837119
 31
0.0
  0
LINE
  5
19B
330
180
100
AcDbEntity
  8
hidden
100
AcDbLine
 10
82.5
 20
-38.08272594216369
 30
0.0
 11
57.50000000000001
 21
-38.08272594216369
 31
0.0
  0
LINE
  5
19C
330
180
100
AcDbEntity
  8
hidden
100
AcDbLine
 10
85.0
 20
-29.2
 30
0.0
 11
82.5
 21
-31.70000000000001
 31
0.0
  0
LINE
  5
19D
330
180
100
AcDbEntity
  8
hidden
100
AcDbLine
 10
57.50000000000001
 20
-31.70000000000001
 30
0.0
 11
55.00000000000001
 21
-29.2
 31
0.0
  0
LINE
  5
19E
330
180
100
AcDbEntity
  8
hidden
100
AcDbLine
 10
55.00000000000001
 20
51.3
 30
0.0
 11
55.00000000000001
 21
-29.2
 31
0.0
  0
LINE
  5
19F
330
180
100
AcDbEntity
  8
hidden
100
AcDbLine
 10
85.0
 20
51.3
 30
0.0
 11
55.00000000000001
 21
51.3
 31
0.0
  0
LINE
  5
1A0
330
180
100
AcDbEntity
  8
hidden
100
AcDbLine
 10
85.0
 20
51.3
 30
0.0
 11
85.0
 21
-29.2
 31
0.0
  0
LINE
  5
1A1
330
180
100
AcDbEntity
  8
hidden
100
AcDbLine
 10
82.5
 20
-32.02054811567262
 30
0.0
 11
57.50000000000001
 21
-32.0205481156726
 31
0.0
  0
LINE
  5
1A2
330
180
100
AcDbEntity
  8
hidden
100
AcDbLine
 10
55.00000000000001
 20
-112.2
 30
0.0
 11
57.50000000000001
 21
-109.7
 31
0.0
  0
LINE
  5
1A3
330
180
100
AcDbEntity
  8
hidden
100
AcDbLine
 10
57.50000000000001
 20
-109.7
 30
0.0
 11
57.50000000000001
 21
-31.70000000000001
 31
0.0
  0
LINE
  5
1A4
330
180
100
AcDbEntity
  8
hidden
100
AcDbLine
 10
82.5
 20
-109.7
 30
0.0
 11
85.0
 21
-112.2
 31
0.0
  0
LINE
  5
1A5
330
180
100
AcDbEntity
  8
hidden
100
AcDbLine
 10
82.5
 20
-31.70000000000001
 30
0.0
 11
82.5
 21
-109.7
 31
0.0
  0
LINE
  5
1A6
330
180
100
AcDbEntity
  8
hidden
100
AcDbLine
 10
55.00000000000001
 20
-112.2
 30
0.0
 11
55.00000000000001
 21
-195.2
 31
0.0
  0
LINE
  5
1A7
330
180
100
AcDbEntity
  8
hidden
100
AcDbLine
 10
85.0
 20
-195.2
 30
0.0
 11
55.00000000000001
 21
-195.2
 31
0.0
  0
LINE
  5
1A8
330
180
100
AcDbEntity
  8
hidden
100
AcDbLine
 10
85.0
 20
-112.2
 30
0.0
 11
85.0
 21
-195.2
 31
0.0
  0
LINE
  5
1A9
330
180
100
AcDbEntity
  8
hidden
100
AcDbLine
 10
82.5
 20
-103.1462740578363
 30
0.0
 11
57.50000000000001
 21
-103.1462740578363
 31
0.0
  0
LINE
  5
1AA
330
180
100
AcDbEntity
  8
hidden
100
AcDbLine
 10
82.5
 20
-109.2084518843274
 30
0.0
 11
57.50000000000001
 21
-109.2084518843274
 31
0.0
  0
ENDBLK
  5
183
330
180
100
AcDbEntity
  8
0
100
AcDbBlockEnd
  0
BLOCK
  5
1AD
330
1AB
100
AcDbEntity
  8
0
100
AcDbBlockBegin
  2
9_contact_bar_l1_2_0_in_32157_0
 70
     2
 10
0.0
 20
0.0
 30
0.0
  3
9_contact_bar_l1_2_0_in_32157_0
  1

  0
ATTDEF
  5
1AF
330
1AB
100
AcDbEntity
  8
attrib
100
AcDbText
 10
45.0
 20
51.3
 30
0.0
 40
0.5
  1
contact_bar_l1_2
100
AcDbAttributeDefinition
  3

  2
NB
 70
     8
280
     0
  0
ATTDEF
  5
1B0
330
1AB
100
AcDbEntity
  8
attrib
100
AcDbText
 10
45.0
 20
50.8
 30
0.0
 40
0.5
  1
Adapter copper tube
100
AcDbAttributeDefinition
  3

  2
NN
 70
     8
280
     0
  0
ATTDEF
  5
1B1
330
1AB
100
AcDbEntity
  8
attrib
100
AcDbText
 10
45.0
 20
50.3
 30
0.0
 40
0.5
  1

100
AcDbAttributeDefinition
  3

  2
NT
 70
     8
280
     0
  0
ATTDEF
  5
1B2
330
1AB
100
AcDbEntity
  8
attrib
100
AcDbText
 10
45.0
 20
49.8
 30
0.0
 40
0.5
  1
$BOM.
100
AcDbAttributeDefinition
  3

  2
NBSYN
 70
     8
280
     0
  0
ATTDEF
  5
1B3
330
1AB
100
AcDbEntity
  8
attrib
100
AcDbText
 10
45.0
 20
49.3
 30
0.0
 40
0.5
  1
contact_bar_l1_2
100
AcDbAttributeDefinition
  3

  2
LINA
 70
     8
280
     0
  0
ATTDEF
  5
1B4
330
1AB
100
AcDbEntity
  8
attrib
100
AcDbText
 10
45.0
 20
48.8
 30
0.0
 40
0.5
  1
Wöhner
100
AcDbAttributeDefinition
  3

  2
CATALOG
 70
     8
280
     0
  0
ATTDEF
  5
1B5
330
1AB
100
AcDbEntity
  8
attrib
100
AcDbText
 10
45.0
 20
48.3
 30
0.0
 40
0.5
  1
contact_bar_l1_2
100
AcDbAttributeDefinition
  3

  2
BOM
 70
     8
280
     0
  0
ATTDEF
  5
1B6
330
1AB
100
AcDbEntity
  8
attrib
100
AcDbText
 10
45.0
 20
47.8
 30
0.0
 40
0.5
  1
contact_bar_l1_2
100
AcDbAttributeDefinition
  3

  2
ARTNR
 70
     8
280
     0
  0
ATTDEF
  5
1B7
330
1AB
100
AcDbEntity
  8
attrib
100
AcDbText
 10
45.0
 20
47.3
 30
0.0
 40
0.5
  1
0.000
100
AcDbAttributeDefinition
  3

  2
L
 70
     8
280
     0
  0
ATTDEF
  5
1B8
330
1AB
100
AcDbEntity
  8
attrib
100
AcDbText
 10
45.0
 20
46.8
 30
0.0
 40
0.5
  1
0
100
AcDbAttributeDefinition
  3

  2
D
 70
     8
280
     0
  0
ATTDEF
  5
1B9
330
1AB
100
AcDbEntity
  8
attrib
100
AcDbText
 10
45.0
 20
46.3
 30
0.0
 40
0.5
  1
0.000
100
AcDbAttributeDefinition
  3

  2
DD
 70
     8
280
     0
  0
ATTDEF
  5
1BA
330
1AB
100
AcDbEntity
  8
attrib
100
AcDbText
 10
45.0
 20
45.8
 30
0.0
 40
0.5
  1
6
100
AcDbAttributeDefinition
  3

  2
VER
 70
     8
280
     0
  0
ATTDEF
  5
1BB
330
1AB
100
AcDbEntity
  8
attrib
100
AcDbText
 10
45.0
 20
45.3
 30
0.0
 40
0.5
  1
woehner
100
AcDbAttributeDefinition
  3

  2
COMPANY
 70
     8
280
     0
  0
ATTDEF
  5
1BC
330
1AB
100
AcDbEntity
  8
attrib
100
AcDbText
 10
45.0
 20
44.8
 30
0.0
 40
0.5
  1
{$CADENAS_DATA/23d-libs/woehner/sys_60classic/adapters/adapters_200_290/parts/adapter_copper_contact.prj},186 {VTYP=3D},{NB=contact_bar_l1_2},{LINA=contact_bar_l1_2},{NN=Adapter copper tube},{DATE=26.01.2024 06:39:57},{GEOMDATE=03.02.2023 15:29:00},{VERSI
100
AcDbAttributeDefinition
  3

  2
PSOL_0
 70
     9
280
     0
  0
ATTDEF
  5
1BD
330
1AB
100
AcDbEntity
  8
attrib
100
AcDbText
 10
45.0
 20
44.3
 30
0.0
 40
0.5
  1
ON=},{LINEID=630},{WBVAR=},{WBNUMERIC=}  {NB=contact_bar_l1_2},{LINA=contact_bar_l1_2},{KT=DUMMY},{BOM=contact_bar_l1_2},{ARTNR=contact_bar_l1_2},{L=0.000},{D=0},{DD=0.000},{VER=6}
100
AcDbAttributeDefinition
  3

  2
PSOL_1
 70
     9
280
     0
  0
LINE
  5
1BE
330
1AB
100
AcDbEntity
  8
hidden
100
AcDbLine
 10
37.50000000000001
 20
-40.97084757729337
 30
0.0
 11
12.5
 21
-40.97084757729337
 31
0.0
  0
LINE
  5
1BF
330
1AB
100
AcDbEntity
  8
hidden
100
AcDbLine
 10
37.50000000000001
 20
17.74184757729338
 30
0.0
 11
12.5
 21
17.74184757729338
 31
0.0
  0
LINE
  5
1C0
330
1AB
100
AcDbEntity
  8
hidden
100
AcDbLine
 10
37.50000000000001
 20
-34.90866975080225
 30
0.0
 11
12.5
 21
-34.90866975080228
 31
0.0
  0
LINE
  5
1C1
330
1AB
100
AcDbEntity
  8
hidden
100
AcDbLine
 10
37.50000000000001
 20
11.67966975080231
 30
0.0
 11
12.5
 21
11.67966975080231
 31
0.0
  0
LINE
  5
1C2
330
1AB
100
AcDbEntity
  8
hidden
100
AcDbLine
 10
37.50000000000001
 20
-48.47640107675851
 30
0.0
 11
12.5
 21
-48.47640107675851
 31
0.0
  0
LINE
  5
1C3
330
1AB
100
AcDbEntity
  8
hidden
100
AcDbLine
 10
37.50000000000001
 20
25.2474010767585
 30
0.0
 11
12.5
 21
25.2474010767585
 31
0.0
  0
LINE
  5
1C4
330
1AB
100
AcDbEntity
  8
hidden
100
AcDbLine
 10
37.50000000000001
 20
13.41172055837118
 30
0.0
 11
12.5
 21
13.41172055837118
 31
0.0
  0
LINE
  5
1C5
330
1AB
100
AcDbEntity
  8
hidden
100
AcDbLine
 10
37.50000000000001
 20
-36.64072055837117
 30
0.0
 11
12.5
 21
-36.64072055837117
 31
0.0
  0
LINE
  5
1C6
330
1AB
100
AcDbEntity
  8
hidden
100
AcDbLine
 10
37.50000000000001
 20
-44.14627405783632
 30
0.0
 11
12.5
 21
-44.14627405783632
 31
0.0
  0
LINE
  5
1C7
330
1AB
100
AcDbEntity
  8
hidden
100
AcDbLine
 10
10.0
 20
-53.2
 30
0.0
 11
12.5
 21
-50.70000000000001
 31
0.0
  0
LINE
  5
1C8
330
1AB
100
AcDbEntity
  8
hidden
100
AcDbLine
 10
37.50000000000001
 20
-50.70000000000001
 30
0.0
 11
40.0
 21
-53.2
 31
0.0
  0
LINE
  5
1C9
330
1AB
100
AcDbEntity
  8
hidden
100
AcDbLine
 10
40.0
 20
-53.2
 30
0.0
 11
40.0
 21
-195.2
 31
0.0
  0
LINE
  5
1CA
330
1AB
100
AcDbEntity
  8
hidden
100
AcDbLine
 10
40.0
 20
-195.2
 30
0.0
 11
10.0
 21
-195.2
 31
0.0
  0
LINE
  5
1CB
330
1AB
100
AcDbEntity
  8
hidden
100
AcDbLine
 10
10.0
 20
-53.2
 30
0.0
 11
10.0
 21
-195.2
 31
0.0
  0
LINE
  5
1CC
330
1AB
100
AcDbEntity
  8
hidden
100
AcDbLine
 10
37.50000000000001
 20
-50.2084518843274
 30
0.0
 11
12.5
 21
-50.2084518843274
 31
0.0
  0
LINE
  5
1CD
330
1AB
100
AcDbEntity
  8
hidden
100
AcDbLine
 10
12.5
 20
-50.70000000000001
 30
0.0
 11
12.5
 21
27.3
 31
0.0
  0
LINE
  5
1CE
330
1AB
100
AcDbEntity
  8
hidden
100
AcDbLine
 10
12.5
 20
27.3
 30
0.0
 11
10.0
 21
29.8
 31
0.0
  0
LINE
  5
1CF
330
1AB
100
AcDbEntity
  8
hidden
100
AcDbLine
 10
37.50000000000001
 20
27.3
 30
0.0
 11
37.50000000000001
 21
-50.70000000000001
 31
0.0
  0
LINE
  5
1D0
330
1AB
100
AcDbEntity
  8
hidden
100
AcDbLine
 10
40.0
 20
51.3
 30
0.0
 11
10.0
 21
51.3
 31
0.0
  0
LINE
  5
1D1
330
1AB
100
AcDbEntity
  8
hidden
100
AcDbLine
 10
10.0
 20
51.3
 30
0.0
 11
10.0
 21
29.8
 31
0.0
  0
LINE
  5
1D2
330
1AB
100
AcDbEntity
  8
hidden
100
AcDbLine
 10
40.0
 20
51.3
 30
0.0
 11
40.0
 21
29.79999999999998
 31
0.0
  0
LINE
  5
1D3
330
1AB
100
AcDbEntity
  8
hidden
100
AcDbLine
 10
40.0
 20
29.79999999999998
 30
0.0
 11
37.50000000000001
 21
27.3
 31
0.0
  0
LINE
  5
1D4
330
1AB
100
AcDbEntity
  8
hidden
100
AcDbLine
 10
37.50000000000001
 20
26.97945188432737
 30
0.0
 11
12.5
 21
26.97945188432738
 31
0.0
  0
LINE
  5
1D5
330
1AB
100
AcDbEntity
  8
hidden
100
AcDbLine
 10
37.50000000000001
 20
20.91727405783631
 30
0.0
 11
12.5
 21
20.91727405783631
 31
0.0
  0
ENDBLK
  5
1AE
330
1AB
100
AcDbEntity
  8
0
100
AcDbBlockEnd
  0
BLOCK
  5
1D8
330
1D6
100
AcDbEntity
  8
0
100
AcDbBlockBegin
  2
10_Basis140x272_0_in_32157_0
 70
     2
 10
0.0
 20
0.0
 30
0.0
  3
10_Basis140x272_0_in_32157_0
  1

  0
ATTDEF
  5
1DA
330
1D6
100
AcDbEntity
  8
attrib
100
AcDbText
 10
145.0
 20
55.5
 30
0.0
 40
0.5
  1
Basis140x272
100
AcDbAttributeDefinition
  3

  2
NB
 70
     8
280
     0
  0
ATTDEF
  5
1DB
330
1D6
100
AcDbEntity
  8
attrib
100
AcDbText
 10
145.0
 20
55.0
 30
0.0
 40
0.5
  1
Adapter base
100
AcDbAttributeDefinition
  3

  2
NN
 70
     8
280
     0
  0
ATTDEF
  5
1DC
330
1D6
100
AcDbEntity
  8
attrib
100
AcDbText
 10
145.0
 20
54.5
 30
0.0
 40
0.5
  1

100
AcDbAttributeDefinition
  3

  2
NT
 70
     8
280
     0
  0
ATTDEF
  5
1DD
330
1D6
100
AcDbEntity
  8
attrib
100
AcDbText
 10
145.0
 20
54.0
 30
0.0
 40
0.5
  1
$BOM.
100
AcDbAttributeDefinition
  3

  2
NBSYN
 70
     8
280
     0
  0
ATTDEF
  5
1DE
330
1D6
100
AcDbEntity
  8
attrib
100
AcDbText
 10
145.0
 20
53.5
 30
0.0
 40
0.5
  1
Basis140x272
100
AcDbAttributeDefinition
  3

  2
LINA
 70
     8
280
     0
  0
ATTDEF
  5
1DF
330
1D6
100
AcDbEntity
  8
attrib
100
AcDbText
 10
145.0
 20
53.0
 30
0.0
 40
0.5
  1
Wöhner
100
AcDbAttributeDefinition
  3

  2
CATALOG
 70
     8
280
     0
  0
ATTDEF
  5
1E0
330
1D6
100
AcDbEntity
  8
attrib
100
AcDbText
 10
145.0
 20
52.5
 30
0.0
 40
0.5
  1
4
100
AcDbAttributeDefinition
  3

  2
VER
 70
     8
280
     0
  0
ATTDEF
  5
1E1
330
1D6
100
AcDbEntity
  8
attrib
100
AcDbText
 10
145.0
 20
52.0
 30
0.0
 40
0.5
  1
Basis140x272
100
AcDbAttributeDefinition
  3

  2
BOM
 70
     8
280
     0
  0
ATTDEF
  5
1E2
330
1D6
100
AcDbEntity
  8
attrib
100
AcDbText
 10
145.0
 20
51.5
 30
0.0
 40
0.5
  1
Basis140x272
100
AcDbAttributeDefinition
  3

  2
ARTNR
 70
     8
280
     0
  0
ATTDEF
  5
1E3
330
1D6
100
AcDbEntity
  8
attrib
100
AcDbText
 10
145.0
 20
51.0
 30
0.0
 40
0.5
  1
140
100
AcDbAttributeDefinition
  3

  2
W
 70
     8
280
     0
  0
ATTDEF
  5
1E4
330
1D6
100
AcDbEntity
  8
attrib
100
AcDbText
 10
145.0
 20
50.5
 30
0.0
 40
0.5
  1
270
100
AcDbAttributeDefinition
  3

  2
H
 70
     8
280
     0
  0
ATTDEF
  5
1E5
330
1D6
100
AcDbEntity
  8
attrib
100
AcDbText
 10
145.0
 20
50.0
 30
0.0
 40
0.5
  1
3
100
AcDbAttributeDefinition
  3

  2
POLES
 70
     8
280
     0
  0
ATTDEF
  5
1E6
330
1D6
100
AcDbEntity
  8
attrib
100
AcDbText
 10
145.0
 20
49.5
 30
0.0
 40
0.5
  1
woehner
100
AcDbAttributeDefinition
  3

  2
COMPANY
 70
     8
280
     0
  0
ATTDEF
  5
1E7
330
1D6
100
AcDbEntity
  8
attrib
100
AcDbText
 10
145.0
 20
49.0
 30
0.0
 40
0.5
  1
{$CADENAS_DATA/23d-libs/woehner/sys_60classic/adapters/adapters_200_290/parts/adapter_base.prj},184 {VTYP=3D},{NB=Basis140x272},{LINA=Basis140x272},{NN=Adapter base},{DATE=26.01.2024 06:52:57},{GEOMDATE=26.09.2023 07:26:00},{VERSION=v230929135048},{LINEID
100
AcDbAttributeDefinition
  3

  2
PSOL_0
 70
     9
280
     0
  0
ATTDEF
  5
1E8
330
1D6
100
AcDbEntity
  8
attrib
100
AcDbText
 10
145.0
 20
48.5
 30
0.0
 40
0.5
  1
=600},{WBVAR=},{WBNUMERIC=}  {NB=Basis140x272},{LINA=Basis140x272},{KT=DUMMY},{VER=4},{BOM=Basis140x272},{ARTNR=Basis140x272},{W=140},{H=270},{POLES=3}
100
AcDbAttributeDefinition
  3

  2
PSOL_1
 70
     9
280
     0
  0
LINE
  5
1E9
330
1D6
100
AcDbEntity
  8
hidden
100
AcDbLine
 10
0.0
 20
23.0
 30
0.0
 11
140.0
 21
23.0
 31
0.0
  0
LINE
  5
1EA
330
1D6
100
AcDbEntity
  8
hidden
100
AcDbLine
 10
0.0
 20
-167.0
 30
0.0
 11
140.0
 21
-167.0
 31
0.0
  0
LINE
  5
1EB
330
1D6
100
AcDbEntity
  8
hidden
100
AcDbLine
 10
131.6
 20
-162.0
 30
0.0
 11
140.0
 21
-162.0
 31
0.0
  0
LINE
  5
1EC
330
1D6
100
AcDbEntity
  8
hidden
100
AcDbLine
 10
0.0
 20
-162.0
 30
0.0
 11
98.4
 21
-162.0
 31
0.0
  0
LINE
  5
1ED
330
1D6
100
AcDbEntity
  8
hidden
100
AcDbLine
 10
41.60000000000001
 20
18.0
 30
0.0
 11
140.0
 21
18.0
 31
0.0
  0
LINE
  5
1EE
330
1D6
100
AcDbEntity
  8
hidden
100
AcDbLine
 10
0.0
 20
18.0
 30
0.0
 11
8.400000000000004
 21
18.0
 31
0.0
  0
LINE
  5
1EF
330
1D6
100
AcDbEntity
  8
hidden
100
AcDbLine
 10
100.1458980337503
 20
-105.0
 30
0.0
 11
98.4
 21
-105.0
 31
0.0
  0
LINE
  5
1F0
330
1D6
100
AcDbEntity
  8
hidden
100
AcDbLine
 10
131.6
 20
-105.0
 30
0.0
 11
129.8541019662497
 21
-105.0
 31
0.0
  0
LINE
  5
1F1
330
1D6
100
AcDbEntity
  8
hidden
100
AcDbLine
 10
55.14589803375032
 20
-45.00000000000001
 30
0.0
 11
53.40000000000001
 21
-45.00000000000001
 31
0.0
  0
LINE
  5
1F2
330
1D6
100
AcDbEntity
  8
hidden
100
AcDbLine
 10
86.6
 20
-45.00000000000001
 30
0.0
 11
84.85410196624967
 21
-45.0
 31
0.0
  0
LINE
  5
1F3
330
1D6
100
AcDbEntity
  8
hidden
100
AcDbLine
 10
131.6
 20
-165.0
 30
0.0
 11
98.4
 21
-165.0
 31
0.0
  0
LINE
  5
1F4
330
1D6
100
AcDbEntity
  8
hidden
100
AcDbLine
 10
131.6
 20
-105.0
 30
0.0
 11
131.6
 21
-165.0
 31
0.0
  0
LINE
  5
1F5
330
1D6
100
AcDbEntity
  8
hidden
100
AcDbLine
 10
98.4
 20
-165.0
 30
0.0
 11
98.4
 21
-105.0
 31
0.0
  0
LINE
  5
1F6
330
1D6
100
AcDbEntity
  8
hidden
100
AcDbLine
 10
86.6
 20
-45.00000000000001
 30
0.0
 11
86.60000000000001
 21
-101.5
 31
0.0
  0
LINE
  5
1F7
330
1D6
100
AcDbEntity
  8
hidden
100
AcDbLine
 10
53.40000000000002
 20
-101.5
 30
0.0
 11
53.40000000000001
 21
-45.00000000000001
 31
0.0
  0
LINE
  5
1F8
330
1D6
100
AcDbEntity
  8
hidden
100
AcDbLine
 10
86.60000000000001
 20
-101.5
 30
0.0
 11
53.40000000000002
 21
-101.5
 31
0.0
  0
LINE
  5
1F9
330
1D6
100
AcDbEntity
  8
hidden
100
AcDbLine
 10
41.60000000000001
 20
21.0
 30
0.0
 11
41.60000000000001
 21
-49.49999999999999
 31
0.0
  0
LINE
  5
1FA
330
1D6
100
AcDbEntity
  8
hidden
100
AcDbLine
 10
41.60000000000001
 20
-49.49999999999999
 30
0.0
 11
8.400000000000004
 21
-49.49999999999999
 31
0.0
  0
LINE
  5
1FB
330
1D6
100
AcDbEntity
  8
hidden
100
AcDbLine
 10
8.400000000000004
 20
-49.49999999999999
 30
0.0
 11
8.400000000000004
 21
21.0
 31
0.0
  0
LINE
  5
1FC
330
1D6
100
AcDbEntity
  8
hidden
100
AcDbLine
 10
8.400000000000004
 20
21.0
 30
0.0
 11
41.60000000000001
 21
21.0
 31
0.0
  0
LINE
  5
1FD
330
1D6
100
AcDbEntity
  8
hidden
100
AcDbLine
 10
99.5
 20
-196.0
 30
0.0
 11
130.5
 21
-196.0
 31
0.0
  0
LINE
  5
1FE
330
1D6
100
AcDbEntity
  8
hidden
100
AcDbLine
 10
130.5
 20
52.0
 30
0.0
 11
99.5
 21
52.0
 31
0.0
  0
LINE
  5
1FF
330
1D6
100
AcDbEntity
  8
hidden
100
AcDbLine
 10
99.5
 20
52.0
 30
0.0
 11
99.5
 21
-196.0
 31
0.0
  0
LINE
  5
200
330
1D6
100
AcDbEntity
  8
hidden
100
AcDbLine
 10
85.5
 20
52.0
 30
0.0
 11
54.50000000000001
 21
52.0
 31
0.0
  0
LINE
  5
201
330
1D6
100
AcDbEntity
  8
hidden
100
AcDbLine
 10
85.5
 20
-196.0
 30
0.0
 11
85.5
 21
52.0
 31
0.0
  0
LINE
  5
202
330
1D6
100
AcDbEntity
  8
hidden
100
AcDbLine
 10
54.50000000000001
 20
-196.0
 30
0.0
 11
85.5
 21
-196.0
 31
0.0
  0
LINE
  5
203
330
1D6
100
AcDbEntity
  8
hidden
100
AcDbLine
 10
130.5
 20
-196.0
 30
0.0
 11
130.5
 21
52.0
 31
0.0
  0
LINE
  5
204
330
1D6
100
AcDbEntity
  8
hidden
100
AcDbLine
 10
40.50000000000001
 20
-196.0
 30
0.0
 11
40.50000000000001
 21
52.0
 31
0.0
  0
LINE
  5
205
330
1D6
100
AcDbEntity
  8
hidden
100
AcDbLine
 10
9.500000000000009
 20
52.0
 30
0.0
 11
9.500000000000009
 21
-196.0
 31
0.0
  0
LINE
  5
206
330
1D6
100
AcDbEntity
  8
hidden
100
AcDbLine
 10
54.50000000000001
 20
52.0
 30
0.0
 11
54.50000000000001
 21
-196.0
 31
0.0
  0
LINE
  5
207
330
1D6
100
AcDbEntity
  8
hidden
100
AcDbLine
 10
40.50000000000001
 20
52.0
 30
0.0
 11
9.500000000000009
 21
52.0
 31
0.0
  0
LINE
  5
208
330
1D6
100
AcDbEntity
  8
hidden
100
AcDbLine
 10
9.500000000000009
 20
-196.0
 30
0.0
 11
40.50000000000001
 21
-196.0
 31
0.0
  0
LINE
  5
209
330
1D6
100
AcDbEntity
  8
center
100
AcDbLine
 10
59.5
 20
-185.5
 30
0.0
 11
80.5
 21
-185.5
 31
0.0
  0
LINE
  5
20A
330
1D6
100
AcDbEntity
  8
center
100
AcDbLine
 10
70.0
 20
-196.0
 30
0.0
 11
70.0
 21
-175.0
 31
0.0
  0
LINE
  5
20B
330
1D6
100
AcDbEntity
  8
center
100
AcDbLine
 10
59.5
 20
41.50000000000001
 30
0.0
 11
80.5
 21
41.50000000000001
 31
0.0
  0
LINE
  5
20C
330
1D6
100
AcDbEntity
  8
center
100
AcDbLine
 10
70.0
 20
31.00000000000001
 30
0.0
 11
70.0
 21
52.00000000000001
 31
0.0
  0
LINE
  5
20D
330
1D6
100
AcDbEntity
  8
center
100
AcDbLine
 10
109.75
 20
-205.5
 30
0.0
 11
120.25
 21
-205.5
 31
0.0
  0
LINE
  5
20E
330
1D6
100
AcDbEntity
  8
center
100
AcDbLine
 10
115.0
 20
-210.75
 30
0.0
 11
115.0
 21
-200.25
 31
0.0
  0
LINE
  5
20F
330
1D6
100
AcDbEntity
  8
center
100
AcDbLine
 10
104.5
 20
41.50000000000001
 30
0.0
 11
125.5
 21
41.50000000000001
 31
0.0
  0
LINE
  5
210
330
1D6
100
AcDbEntity
  8
center
100
AcDbLine
 10
115.0
 20
31.00000000000001
 30
0.0
 11
115.0
 21
52.00000000000001
 31
0.0
  0
LINE
  5
211
330
1D6
100
AcDbEntity
  8
center
100
AcDbLine
 10
64.75
 20
-205.5
 30
0.0
 11
75.25
 21
-205.5
 31
0.0
  0
LINE
  5
212
330
1D6
100
AcDbEntity
  8
center
100
AcDbLine
 10
70.0
 20
-210.75
 30
0.0
 11
70.0
 21
-200.25
 31
0.0
  0
LINE
  5
213
330
1D6
100
AcDbEntity
  8
center
100
AcDbLine
 10
19.75000000000001
 20
-205.5
 30
0.0
 11
30.25000000000001
 21
-205.5
 31
0.0
  0
LINE
  5
214
330
1D6
100
AcDbEntity
  8
center
100
AcDbLine
 10
25.00000000000001
 20
-210.75
 30
0.0
 11
25.00000000000001
 21
-200.25
 31
0.0
  0
LINE
  5
215
330
1D6
100
AcDbEntity
  8
center
100
AcDbLine
 10
104.5
 20
-185.5
 30
0.0
 11
125.5
 21
-185.5
 31
0.0
  0
LINE
  5
216
330
1D6
100
AcDbEntity
  8
center
100
AcDbLine
 10
115.0
 20
-196.0
 30
0.0
 11
115.0
 21
-175.0
 31
0.0
  0
LINE
  5
217
330
1D6
100
AcDbEntity
  8
center
100
AcDbLine
 10
14.50000000000001
 20
41.50000000000001
 30
0.0
 11
35.50000000000001
 21
41.50000000000001
 31
0.0
  0
LINE
  5
218
330
1D6
100
AcDbEntity
  8
center
100
AcDbLine
 10
25.00000000000001
 20
31.00000000000001
 30
0.0
 11
25.00000000000001
 21
52.00000000000001
 31
0.0
  0
LINE
  5
219
330
1D6
100
AcDbEntity
  8
center
100
AcDbLine
 10
14.50000000000001
 20
-185.5
 30
0.0
 11
35.50000000000001
 21
-185.5
 31
0.0
  0
LINE
  5
21A
330
1D6
100
AcDbEntity
  8
center
100
AcDbLine
 10
25.00000000000001
 20
-196.0
 30
0.0
 11
25.00000000000001
 21
-175.0
 31
0.0
  0
CIRCLE
  5
21B
330
1D6
100
AcDbEntity
  8
bold
100
AcDbCircle
 10
25.00000000000001
 20
-185.5
 30
0.0
 40
9.000000000000002
  0
CIRCLE
  5
21C
330
1D6
100
AcDbEntity
  8
bold
100
AcDbCircle
 10
70.0
 20
41.50000000000001
 30
0.0
 40
9.000000000000002
  0
CIRCLE
  5
21D
330
1D6
100
AcDbEntity
  8
bold
100
AcDbCircle
 10
115.0
 20
-185.5
 30
0.0
 40
9.000000000000002
  0
CIRCLE
  5
21E
330
1D6
100
AcDbEntity
  8
bold
100
AcDbCircle
 10
25.00000000000001
 20
41.50000000000001
 30
0.0
 40
9.000000000000002
  0
CIRCLE
  5
21F
330
1D6
100
AcDbEntity
  8
bold
100
AcDbCircle
 10
70.0
 20
-185.5
 30
0.0
 40
9.000000000000002
  0
CIRCLE
  5
220
330
1D6
100
AcDbEntity
  8
bold
100
AcDbCircle
 10
70.0
 20
-185.5
 30
0.0
 40
10.0
  0
CIRCLE
  5
221
330
1D6
100
AcDbEntity
  8
bold
100
AcDbCircle
 10
70.0
 20
-68.0
 30
0.0
 40
4.25
  0
CIRCLE
  5
222
330
1D6
100
AcDbEntity
  8
bold
100
AcDbCircle
 10
70.0
 20
41.50000000000001
 30
0.0
 40
10.0
  0
CIRCLE
  5
223
330
1D6
100
AcDbEntity
  8
bold
100
AcDbCircle
 10
115.0
 20
-205.5
 30
0.0
 40
5.0
  0
CIRCLE
  5
224
330
1D6
100
AcDbEntity
  8
bold
100
AcDbCircle
 10
115.0
 20
41.50000000000001
 30
0.0
 40
10.0
  0
CIRCLE
  5
225
330
1D6
100
AcDbEntity
  8
bold
100
AcDbCircle
 10
70.0
 20
-205.5
 30
0.0
 40
5.0
  0
LINE
  5
226
330
1D6
100
AcDbEntity
  8
bold
100
AcDbLine
 10
0.0
 20
-214.5
 30
0.0
 11
140.0
 21
-214.5
 31
0.0
  0
CIRCLE
  5
227
330
1D6
100
AcDbEntity
  8
bold
100
AcDbCircle
 10
25.00000000000001
 20
-205.5
 30
0.0
 40
5.0
  0
CIRCLE
  5
228
330
1D6
100
AcDbEntity
  8
bold
100
AcDbCircle
 10
115.0
 20
-128.0
 30
0.0
 40
4.25
  0
CIRCLE
  5
229
330
1D6
100
AcDbEntity
  8
bold
100
AcDbCircle
 10
25.00000000000001
 20
-8.0
 30
0.0
 40
4.25
  0
CIRCLE
  5
22A
330
1D6
100
AcDbEntity
  8
bold
100
AcDbCircle
 10
115.0
 20
-185.5
 30
0.0
 40
10.0
  0
CIRCLE
  5
22B
330
1D6
100
AcDbEntity
  8
bold
100
AcDbCircle
 10
25.00000000000001
 20
41.50000000000001
 30
0.0
 40
10.0
  0
CIRCLE
  5
22C
330
1D6
100
AcDbEntity
  8
bold
100
AcDbCircle
 10
25.00000000000001
 20
-185.5
 30
0.0
 40
10.0
  0
LINE
  5
22D
330
1D6
100
AcDbEntity
  8
bold
100
AcDbLine
 10
140.0
 20
-214.5
 30
0.0
 11
140.0
 21
55.5
 31
0.0
  0
LINE
  5
22E
330
1D6
100
AcDbEntity
  8
bold
100
AcDbLine
 10
0.0
 20
55.5
 30
0.0
 11
140.0
 21
55.5
 31
0.0
  0
LINE
  5
22F
330
1D6
100
AcDbEntity
  8
bold
100
AcDbLine
 10
0.0
 20
-214.5
 30
0.0
 11
0.0
 21
55.5
 31
0.0
  0
CIRCLE
  5
230
330
1D6
100
AcDbEntity
  8
bold
100
AcDbCircle
 10
115.0
 20
41.50000000000001
 30
0.0
 40
9.000000000000002
  0
ENDBLK
  5
1D9
330
1D6
100
AcDbEntity
  8
0
100
AcDbBlockEnd
  0
BLOCK
  5
235
330
234
100
AcDbEntity
  8
0
100
AcDbBlockBegin
  2
*D11
 70
     1
 10
0.0
 20
0.0
 30
0.0
  3
*D11
  1

  0
LINE
  5
237
330
234
100
AcDbEntity
  8
dimension
 62
     0
370
    -2
100
AcDbLine
 10
0.0
 20
-214.5
 30
0.0
 11
0.0
 21
-242.5
 31
0.0
  0
LINE
  5
238
330
234
100
AcDbEntity
  8
dimension
 62
     0
370
    -2
100
AcDbLine
 10
140.0
 20
-214.5
 30
0.0
 11
140.0
 21
-242.5
 31
0.0
  0
LINE
  5
239
330
234
100
AcDbEntity
  8
dimension
 62
     0
370
    -2
100
AcDbLine
 10
8.0
 20
-242.5
 30
0.0
 11
132.0
 21
-242.5
 31
0.0
  0
SOLID
  5
23A
330
234
100
AcDbEntity
  8
dimension
 62
     0
100
AcDbTrace
 10
8.0
 20
-241.1666666666667
 30
0.0
 11
8.0
 21
-243.8333333333333
 31
0.0
 12
0.0
 22
-242.5
 32
0.0
 13
0.0
 23
-242.5
 33
0.0
  0
SOLID
  5
23B
330
234
100
AcDbEntity
  8
dimension
 62
     0
100
AcDbTrace
 10
132.0
 20
-243.8333333333333
 30
0.0
 11
132.0
 21
-241.1666666666667
 31
0.0
 12
140.0
 22
-242.5
 32
0.0
 13
140.0
 23
-242.5
 33
0.0
  0
MTEXT
  5
23C
330
234
100
AcDbEntity
  8
dimension
 62
     0
100
AcDbMText
 10
70.0
 20
-236.1
 30
0.0
 40
8.0
 41
0.0
 46
0.0
 71
     5
 72
     1
  1
140
 73
     1
 44
1.0
  0
POINT
  5
23D
330
234
100
AcDbEntity
  8
Defpoints
 62
     0
100
AcDbPoint
 10
0.0
 20
-214.5
 30
0.0
  0
POINT
  5
23E
330
234
100
AcDbEntity
  8
Defpoints
 62
     0
100
AcDbPoint
 10
140.0
 20
-214.5
 30
0.0
  0
POINT
  5
23F
330
234
100
AcDbEntity
  8
Defpoints
 62
     0
100
AcDbPoint
 10
140.0
 20
-242.5
 30
0.0
  0
ENDBLK
  5
236
330
234
100
AcDbEntity
  8
0
100
AcDbBlockEnd
  0
BLOCK
  5
242
330
241
100
AcDbEntity
  8
0
100
AcDbBlockBegin
  2
*D12
 70
     1
 10
0.0
 20
0.0
 30
0.0
  3
*D12
  1

  0
LINE
  5
244
330
241
100
AcDbEntity
  8
dimension
 62
     0
370
    -2
100
AcDbLine
 10
25.0
 20
41.5
 30
0.0
 11
25.0
 21
83.5
 31
0.0
  0
LINE
  5
245
330
241
100
AcDbEntity
  8
dimension
 62
     0
370
    -2
100
AcDbLine
 10
70.0
 20
41.5
 30
0.0
 11
70.0
 21
83.5
 31
0.0
  0
LINE
  5
246
330
241
100
AcDbEntity
  8
dimension
 62
     0
370
    -2
100
AcDbLine
 10
33.0
 20
83.5
 30
0.0
 11
62.0
 21
83.5
 31
0.0
  0
SOLID
  5
247
330
241
100
AcDbEntity
  8
dimension
 62
     0
100
AcDbTrace
 10
33.0
 20
84.83333333333333
 30
0.0
 11
33.0
 21
82.16666666666667
 31
0.0
 12
25.0
 22
83.5
 32
0.0
 13
25.0
 23
83.5
 33
0.0
  0
SOLID
  5
248
330
241
100
AcDbEntity
  8
dimension
 62
     0
100
AcDbTrace
 10
62.0
 20
82.16666666666667
 30
0.0
 11
62.0
 21
84.83333333333333
 31
0.0
 12
70.0
 22
83.5
 32
0.0
 13
70.0
 23
83.5
 33
0.0
  0
MTEXT
  5
249
330
241
100
AcDbEntity
  8
dimension
 62
     0
100
AcDbMText
 10
47.5
 20
89.9
 30
0.0
 40
8.0
 41
0.0
 46
0.0
 71
     5
 72
     1
  1
45
 73
     1
 44
1.0
  0
POINT
  5
24A
330
241
100
AcDbEntity
  8
Defpoints
 62
     0
100
AcDbPoint
 10
25.0
 20
41.5
 30
0.0
  0
POINT
  5
24B
330
241
100
AcDbEntity
  8
Defpoints
 62
     0
100
AcDbPoint
 10
70.0
 20
41.5
 30
0.0
  0
POINT
  5
24C
330
241
100
AcDbEntity
  8
Defpoints
 62
     0
100
AcDbPoint
 10
70.0
 20
83.5
 30
0.0
  0
ENDBLK
  5
243
330
241
100
AcDbEntity
  8
0
100
AcDbBlockEnd
  0
BLOCK
  5
24F
330
24E
100
AcDbEntity
  8
0
100
AcDbBlockBegin
  2
*D13
 70
     1
 10
0.0
 20
0.0
 30
0.0
  3
*D13
  1

  0
LINE
  5
251
330
24E
100
AcDbEntity
  8
dimension
 62
     0
370
    -2
100
AcDbLine
 10
115.0
 20
41.5
 30
0.0
 11
115.0
 21
83.5
 31
0.0
  0
LINE
  5
252
330
24E
100
AcDbEntity
  8
dimension
 62
     0
370
    -2
100
AcDbLine
 10
70.0
 20
41.5
 30
0.0
 11
70.0
 21
83.5
 31
0.0
  0
LINE
  5
253
330
24E
100
AcDbEntity
  8
dimension
 62
     0
370
    -2
100
AcDbLine
 10
107.0
 20
83.5
 30
0.0
 11
78.0
 21
83.5
 31
0.0
  0
SOLID
  5
254
330
24E
100
AcDbEntity
  8
dimension
 62
     0
100
AcDbTrace
 10
107.0
 20
82.16666666666667
 30
0.0
 11
107.0
 21
84.83333333333333
 31
0.0
 12
115.0
 22
83.5
 32
0.0
 13
115.0
 23
83.5
 33
0.0
  0
SOLID
  5
255
330
24E
100
AcDbEntity
  8
dimension
 62
     0
100
AcDbTrace
 10
78.0
 20
84.83333333333333
 30
0.0
 11
78.0
 21
82.16666666666667
 31
0.0
 12
70.0
 22
83.5
 32
0.0
 13
70.0
 23
83.5
 33
0.0
  0
MTEXT
  5
256
330
24E
100
AcDbEntity
  8
dimension
 62
     0
100
AcDbMText
 10
92.5
 20
89.9
 30
0.0
 40
8.0
 41
0.0
 46
0.0
 71
     5
 72
     1
  1
45
 73
     1
 44
1.0
  0
POINT
  5
257
330
24E
100
AcDbEntity
  8
Defpoints
 62
     0
100
AcDbPoint
 10
115.0
 20
41.5
 30
0.0
  0
POINT
  5
258
330
24E
100
AcDbEntity
  8
Defpoints
 62
     0
100
AcDbPoint
 10
70.0
 20
41.5
 30
0.0
  0
POINT
  5
259
330
24E
100
AcDbEntity
  8
Defpoints
 62
     0
100
AcDbPoint
 10
70.0
 20
83.5
 30
0.0
  0
ENDBLK
  5
250
330
24E
100
AcDbEntity
  8
0
100
AcDbBlockEnd
  0
BLOCK
  5
25C
330
25B
100
AcDbEntity
  8
0
100
AcDbBlockBegin
  2
*D14
 70
     1
 10
0.0
 20
0.0
 30
0.0
  3
*D14
  1

  0
LINE
  5
25E
330
25B
100
AcDbEntity
  8
dimension
 62
     0
370
    -2
100
AcDbLine
 10
140.0
 20
55.5
 30
0.0
 11
192.0
 21
55.5
 31
0.0
  0
LINE
  5
25F
330
25B
100
AcDbEntity
  8
dimension
 62
     0
370
    -2
100
AcDbLine
 10
140.0
 20
-214.5
 30
0.0
 11
192.0
 21
-214.5
 31
0.0
  0
LINE
  5
260
330
25B
100
AcDbEntity
  8
dimension
 62
     0
370
    -2
100
AcDbLine
 10
192.0
 20
47.5
 30
0.0
 11
192.0
 21
-66.81428571428572
 31
0.0
  0
LINE
  5
261
330
25B
100
AcDbEntity
  8
dimension
 62
     0
370
    -2
100
AcDbLine
 10
192.0
 20
-206.5
 30
0.0
 11
192.0
 21
-92.18571428571428
 31
0.0
  0
SOLID
  5
262
330
25B
100
AcDbEntity
  8
dimension
 62
     0
100
AcDbTrace
 10
193.3333333333333
 20
47.5
 30
0.0
 11
190.6666666666667
 21
47.5
 31
0.0
 12
192.0
 22
55.5
 32
0.0
 13
192.0
 23
55.5
 33
0.0
  0
SOLID
  5
263
330
25B
100
AcDbEntity
  8
dimension
 62
     0
100
AcDbTrace
 10
190.6666666666667
 20
-206.5
 30
0.0
 11
193.3333333333333
 21
-206.5
 31
0.0
 12
192.0
 22
-214.5
 32
0.0
 13
192.0
 23
-214.5
 33
0.0
  0
MTEXT
  5
264
330
25B
100
AcDbEntity
  8
dimension
 62
     0
100
AcDbMText
 10
192.0
 20
-79.5
 30
0.0
 40
8.0
 41
0.0
 46
0.0
 71
     5
 72
     1
  1
270
 11
6.123233995736766E-17
 21
1.0
 31
0.0
 73
     1
 44
1.0
  0
POINT
  5
265
330
25B
100
AcDbEntity
  8
Defpoints
 62
     0
100
AcDbPoint
 10
140.0
 20
55.5
 30
0.0
  0
POINT
  5
266
330
25B
100
AcDbEntity
  8
Defpoints
 62
     0
100
AcDbPoint
 10
140.0
 20
-214.5
 30
0.0
  0
POINT
  5
267
330
25B
100
AcDbEntity
  8
Defpoints
 62
     0
100
AcDbPoint
 10
192.0
 20
-214.5
 30
0.0
  0
ENDBLK
  5
25D
330
25B
100
AcDbEntity
  8
0
100
AcDbBlockEnd
  0
BLOCK
  5
26A
330
269
100
AcDbEntity
  8
0
100
AcDbBlockBegin
  2
*D15
 70
     1
 10
0.0
 20
0.0
 30
0.0
  3
*D15
  1

  0
LINE
  5
26C
330
269
100
AcDbEntity
  8
dimension
 62
     0
370
    -2
100
AcDbLine
 10
140.0
 20
55.5
 30
0.0
 11
168.0
 21
55.5
 31
0.0
  0
LINE
  5
26D
330
269
100
AcDbEntity
  8
dimension
 62
     0
370
    -2
100
AcDbLine
 10
115.0
 20
41.5
 30
0.0
 11
168.0
 21
41.5
 31
0.0
  0
LINE
  5
26E
330
269
100
AcDbEntity
  8
dimension
 62
     0
370
    -2
100
AcDbLine
 10
168.0
 20
55.5
 30
0.0
 11
168.0
 21
41.5
 31
0.0
  0
LINE
  5
26F
330
269
100
AcDbEntity
  8
dimension
 62
     0
370
    -2
100
AcDbLine
 10
168.0
 20
63.5
 30
0.0
 11
168.0
 21
71.5
 31
0.0
  0
LINE
  5
270
330
269
100
AcDbEntity
  8
dimension
 62
     0
370
    -2
100
AcDbLine
 10
168.0
 20
33.5
 30
0.0
 11
168.0
 21
25.5
 31
0.0
  0
SOLID
  5
271
330
269
100
AcDbEntity
  8
dimension
 62
     0
100
AcDbTrace
 10
166.6666666666667
 20
63.5
 30
0.0
 11
169.3333333333333
 21
63.5
 31
0.0
 12
168.0
 22
55.5
 32
0.0
 13
168.0
 23
55.5
 33
0.0
  0
SOLID
  5
272
330
269
100
AcDbEntity
  8
dimension
 62
     0
100
AcDbTrace
 10
169.3333333333333
 20
33.5
 30
0.0
 11
166.6666666666667
 21
33.5
 31
0.0
 12
168.0
 22
41.5
 32
0.0
 13
168.0
 23
41.5
 33
0.0
  0
MTEXT
  5
273
330
269
100
AcDbEntity
  8
dimension
 62
     0
100
AcDbMText
 10
168.0
 20
48.5
 30
0.0
 40
8.0
 41
0.0
 46
0.0
 71
     5
 72
     1
  1
14
 11
6.123233995736766E-17
 21
1.0
 31
0.0
 73
     1
 44
1.0
  0
POINT
  5
274
330
269
100
AcDbEntity
  8
Defpoints
 62
     0
100
AcDbPoint
 10
140.0
 20
55.5
 30
0.0
  0
POINT
  5
275
330
269
100
AcDbEntity
  8
Defpoints
 62
     0
100
AcDbPoint
 10
115.0
 20
41.5
 30
0.0
  0
POINT
  5
276
330
269
100
AcDbEntity
  8
Defpoints
 62
     0
100
AcDbPoint
 10
168.0
 20
41.5
 30
0.0
  0
ENDBLK
  5
26B
330
269
100
AcDbEntity
  8
0
100
AcDbBlockEnd
  0
ENDSEC
  0
SECTION
  2
ENTITIES
  0
ATTDEF
  5
5F
330
1F
100
AcDbEntity
  8
attrib
100
AcDbText
 10
145.0
 20
55.5
 30
0.0
 40
0.5
  1
32157
100
AcDbAttributeDefinition
  3

  2
NB
 70
     8
280
     0
  0
ATTDEF
  5
60
330
1F
100
AcDbEntity
  8
attrib
100
AcDbText
 10
145.0
 20
55.0
 30
0.0
 40
0.5
  1
Special adapters 400 A - 630 A, 3-pole
100
AcDbAttributeDefinition
  3

  2
NN
 70
     8
280
     0
  0
ATTDEF
  5
61
330
1F
100
AcDbEntity
  8
attrib
100
AcDbText
 10
145.0
 20
54.5
 30
0.0
 40
0.5
  1

100
AcDbAttributeDefinition
  3

  2
NT
 70
     8
280
     0
  0
ATTDEF
  5
62
330
1F
100
AcDbEntity
  8
attrib
100
AcDbText
 10
145.0
 20
54.0
 30
0.0
 40
0.5
  1
$ARTNR.
100
AcDbAttributeDefinition
  3

  2
NBSYN
 70
     8
280
     0
  0
ATTDEF
  5
63
330
1F
100
AcDbEntity
  8
attrib
100
AcDbText
 10
145.0
 20
53.5
 30
0.0
 40
0.5
  1
32157000
100
AcDbAttributeDefinition
  3

  2
LINA
 70
     8
280
     0
  0
ATTDEF
  5
64
330
1F
100
AcDbEntity
  8
attrib
100
AcDbText
 10
145.0
 20
53.0
 30
0.0
 40
0.5
  1
Wöhner
100
AcDbAttributeDefinition
  3

  2
CATALOG
 70
     8
280
     0
  0
ATTDEF
  5
65
330
1F
100
AcDbEntity
  8
attrib
100
AcDbText
 10
145.0
 20
52.5
 30
0.0
 40
0.5
  1
32157
100
AcDbAttributeDefinition
  3

  2
ARTNR
 70
     8
280
     0
  0
ATTDEF
  5
66
330
1F
100
AcDbEntity
  8
attrib
100
AcDbText
 10
145.0
 20
52.0
 30
0.0
 40
0.5
  1
12, 15, 20, 25, 30 x 5, 10 and section busbars
100
AcDbAttributeDefinition
  3

  2
BUSB
 70
     8
280
     0
  0
ATTDEF
  5
67
330
1F
100
AcDbEntity
  8
attrib
100
AcDbText
 10
145.0
 20
51.5
 30
0.0
 40
0.5
  1
EQUES®60Classic
100
AcDbAttributeDefinition
  3

  2
POF
 70
     8
280
     0
  0
ATTDEF
  5
68
330
1F
100
AcDbEntity
  8
attrib
100
AcDbText
 10
145.0
 20
51.0
 30
0.0
 40
0.5
  1
60630.1-L
100
AcDbAttributeDefinition
  3

  2
TYPE
 70
     8
280
     0
  0
ATTDEF
  5
69
330
1F
100
AcDbEntity
  8
attrib
100
AcDbText
 10
145.0
 20
50.5
 30
0.0
 40
0.5
  1
1
100
AcDbAttributeDefinition
  3

  2
QNT
 70
     8
280
     0
  0
ATTDEF
  5
6A
330
1F
100
AcDbEntity
  8
attrib
100
AcDbText
 10
145.0
 20
50.0
 30
0.0
 40
0.5
  1
140
100
AcDbAttributeDefinition
  3

  2
W
 70
     8
280
     0
  0
ATTDEF
  5
6B
330
1F
100
AcDbEntity
  8
attrib
100
AcDbText
 10
145.0
 20
49.5
 30
0.0
 40
0.5
  1
272
100
AcDbAttributeDefinition
  3

  2
H
 70
     8
280
     0
  0
ATTDEF
  5
6C
330
1F
100
AcDbEntity
  8
attrib
100
AcDbText
 10
145.0
 20
49.0
 30
0.0
 40
0.5
  1
35
100
AcDbAttributeDefinition
  3

  2
D
 70
     8
280
     0
  0
ATTDEF
  5
6D
330
1F
100
AcDbEntity
  8
attrib
100
AcDbText
 10
145.0
 20
48.5
 30
0.0
 40
0.5
  1
Product link
100
AcDbAttributeDefinition
  3

  2
LINK
 70
     8
280
     0
  0
ATTDEF
  5
6E
330
1F
100
AcDbEntity
  8
attrib
100
AcDbText
 10
145.0
 20
48.0
 30
0.0
 40
0.5
  1
woehner
100
AcDbAttributeDefinition
  3

  2
COMPANY
 70
     8
280
     0
  0
ATTDEF
  5
6F
330
1F
100
AcDbEntity
  8
attrib
100
AcDbText
 10
145.0
 20
47.5
 30
0.0
 40
0.5
  1
{$CADENAS_DATA/23d-libs/woehner/sys_60classic/adapters/adapters_400_630/special_adapters_400_630_asmtab.prj},212 {VTYP=3D},{STYP=ASSTAB},{NB=32157},{LINA=32157000},{NN=Spezialadapter 400 A - 630 A, 3-polig},{DATE=26.01.2024 06:39:57},{GEOMDATE=29.09.2023 
100
AcDbAttributeDefinition
  3

  2
PSOL_0
 70
     9
280
     0
  0
ATTDEF
  5
70
330
1F
100
AcDbEntity
  8
attrib
100
AcDbText
 10
145.0
 20
47.0
 30
0.0
 40
0.5
  1
13:50:48},{VERSION=v230929135048},{LINEID=450},{WBVAR=},{WBNUMERIC=}  {NB=32157},{LINA=32157000},{KT=DUMMY},{ARTNRBASE=Basis140x272},{TUBE=},{CONTACTL1=contact_bar_l1_2},{CONTACTL2=contact_bar_l2_2},{CONTACTL3=contact_bar_l3_2},{CONTACTN=},{CLAMP=clamp3},
100
AcDbAttributeDefinition
  3

  2
PSOL_1
 70
     9
280
     0
  0
ATTDEF
  5
71
330
1F
100
AcDbEntity
  8
attrib
100
AcDbText
 10
145.0
 20
46.5
 30
0.0
 40
0.5
  1
{BOM=32157000},{ARTNR=32157},{BUSB=12, 15, 20, 25, 30 x 5, 10 and section busbars},{POF=EQUES®60Classic},{TYPE=60630.1-L},{QNT=1},{W=140},{H=272},{D=35},{C=MIN},{DD=},{E=},{CONCA=},{SCR=},{IPR=},{IPRF=},{SEARCH=},{EDZ=},{IODD=},{DIST=8.0},{LINK=Product li
100
AcDbAttributeDefinition
  3

  2
PSOL_2
 70
     9
280
     0
  0
ATTDEF
  5
72
330
1F
100
AcDbEntity
  8
attrib
100
AcDbText
 10
145.0
 20
46.0
 30
0.0
 40
0.5
  1
nk},{LINKX=https://www.woehner.de/de/produkte/32157.html},{PPATH=../adapters_200_290/parts/universal_adapters_210_630_asmtpl.prj},{AAO677=Wöhner},{MANUFACTURER_URL=www.woehner.de},{AAQ326=www.woehner.de/de/produkte/32157.html },{AAO676=32157},{TC=60630.1-
100
AcDbAttributeDefinition
  3

  2
PSOL_3
 70
     9
280
     0
  0
ATTDEF
  5
73
330
1F
100
AcDbEntity
  8
attrib
100
AcDbText
 10
145.0
 20
45.5
 30
0.0
 40
0.5
  1
L},{EAN=4021267321680},{CTN=85369095},{MASS=2,226},{AAU731=EQUES®60Classic},{DESCRIPTION_LONG=busbar adapter 570 A, 3-pole, 140 x 270, connection to the system top or bottom, for Schneider Electric NS400, NS630, NSX400, NSX630},{DESCRIPTION_SHORT=busbar a
100
AcDbAttributeDefinition
  3

  2
PSOL_4
 70
     9
280
     0
  0
ATTDEF
  5
74
330
1F
100
AcDbEntity
  8
attrib
100
AcDbText
 10
145.0
 20
45.0
 30
0.0
 40
0.5
  1
dapter 570 A, 3-pole},{AAB414=Push in connection},{AAB460=570},{AAB509=140},{AAC144=0}
100
AcDbAttributeDefinition
  3

  2
PSOL_5
 70
     9
280
     0
  0
INSERT
  5
76
330
1F
100
AcDbEntity
  8
0
100
AcDbBlockReference
  2
1_clamp3_1_0_in_32157_0
 10
0.0
 20
0.0
 30
0.0
  0
INSERT
  5
AD
330
1F
100
AcDbEntity
  8
0
100
AcDbBlockReference
  2
2_clamp3_2_0_in_32157_0
 10
0.0
 20
0.0
 30
0.0
  0
INSERT
  5
DF
330
1F
100
AcDbEntity
  8
0
100
AcDbBlockReference
  2
3_clamp3_3_0_in_32157_0
 10
0.0
 20
0.0
 30
0.0
  0
INSERT
  5
111
330
1F
100
AcDbEntity
  8
0
100
AcDbBlockReference
  2
4_copper_tube_15x9x25_1_0_in_32157_0
 10
0.0
 20
0.0
 30
0.0
  0
INSERT
  5
128
330
1F
100
AcDbEntity
  8
0
100
AcDbBlockReference
  2
5_copper_tube_15x9x25_2_0_in_32157_0
 10
0.0
 20
0.0
 30
0.0
  0
INSERT
  5
13F
330
1F
100
AcDbEntity
  8
0
100
AcDbBlockReference
  2
6_copper_tube_15x9x25_3_0_in_32157_0
 10
0.0
 20
0.0
 30
0.0
  0
INSERT
  5
156
330
1F
100
AcDbEntity
  8
0
100
AcDbBlockReference
  2
7_contact_bar_l3_2_0_in_32157_0
 10
0.0
 20
0.0
 30
0.0
  0
INSERT
  5
181
330
1F
100
AcDbEntity
  8
0
100
AcDbBlockReference
  2
8_contact_bar_l2_2_0_in_32157_0
 10
0.0
 20
0.0
 30
0.0
  0
INSERT
  5
1AC
330
1F
100
AcDbEntity
  8
0
100
AcDbBlockReference
  2
9_contact_bar_l1_2_0_in_32157_0
 10
0.0
 20
0.0
 30
0.0
  0
INSERT
  5
1D7
330
1F
100
AcDbEntity
  8
0
100
AcDbBlockReference
  2
10_Basis140x272_0_in_32157_0
 10
0.0
 20
0.0
 30
0.0
  0
DIMENSION
  5
232
330
1F
100
AcDbEntity
  8
dimension
100
AcDbDimension
280
     0
  2
*D11
 10
140.0
 20
-242.5
 30
0.0
 11
70.0
 21
-242.5
 31
0.0
 70
   160
  1
140
 71
     5
 42
140.0
 73
     0
 74
     0
 75
     0
  3
ISO-25
100
AcDbAlignedDimension
 13
0.0
 23
-214.5
 33
0.0
 14
140.0
 24
-214.5
 34
0.0
100
AcDbRotatedDimension
1001
ACAD
1000
DSTYLE
1002
{
1070
   147
1040
2.4
1070
    42
1040
0.0
1070
    44
1040
0.0
1070
    41
1040
8.0
1070
   140
1040
8.0
1002
}
  0
DIMENSION
  5
240
330
1F
100
AcDbEntity
  8
dimension
100
AcDbDimension
280
     0
  2
*D12
 10
70.0
 20
83.5
 30
0.0
 11
47.5
 21
83.5
 31
0.0
 70
   160
  1
45
 71
     5
 42
45.0
 73
     0
 74
     0
 75
     0
  3
ISO-25
100
AcDbAlignedDimension
 13
25.0
 23
41.5
 33
0.0
 14
70.0
 24
41.5
 34
0.0
100
AcDbRotatedDimension
1001
ACAD
1000
DSTYLE
1002
{
1070
   147
1040
2.4
1070
    42
1040
0.0
1070
    44
1040
0.0
1070
    41
1040
8.0
1070
   140
1040
8.0
1002
}
  0
DIMENSION
  5
24D
330
1F
100
AcDbEntity
  8
dimension
100
AcDbDimension
280
     0
  2
*D13
 10
70.0
 20
83.5
 30
0.0
 11
92.5
 21
83.5
 31
0.0
 70
   160
  1
45
 71
     5
 42
45.0
 73
     0
 74
     0
 75
     0
  3
ISO-25
100
AcDbAlignedDimension
 13
115.0
 23
41.5
 33
0.0
 14
70.0
 24
41.5
 34
0.0
100
AcDbRotatedDimension
1001
ACAD
1000
DSTYLE
1002
{
1070
   147
1040
2.4
1070
    42
1040
0.0
1070
    44
1040
0.0
1070
    41
1040
8.0
1070
   140
1040
8.0
1002
}
  0
DIMENSION
  5
25A
330
1F
100
AcDbEntity
  8
dimension
100
AcDbDimension
280
     0
  2
*D14
 10
192.0
 20
-214.5
 30
0.0
 11
192.0
 21
-79.5
 31
0.0
 70
   160
  1
270
 71
     5
 42
270.0
 73
     0
 74
     0
 75
     0
 53
90.0
  3
ISO-25
100
AcDbAlignedDimension
 13
140.0
 23
55.5
 33
0.0
 14
140.0
 24
-214.5
 34
0.0
 50
90.0
100
AcDbRotatedDimension
1001
ACAD
1000
DSTYLE
1002
{
1070
   147
1040
2.4
1070
    42
1040
0.0
1070
    44
1040
0.0
1070
    41
1040
8.0
1070
   140
1040
8.0
1002
}
  0
DIMENSION
  5
268
330
1F
100
AcDbEntity
  8
dimension
100
AcDbDimension
280
     0
  2
*D15
 10
168.0
 20
41.5
 30
0.0
 11
168.0
 21
48.5
 31
0.0
 70
   160
  1
14
 71
     5
 42
14.0
 73
     0
 74
     0
 75
     0
 53
90.0
  3
ISO-25
100
AcDbAlignedDimension
 13
140.0
 23
55.5
 33
0.0
 14
115.0
 24
41.5
 34
0.0
 50
90.0
100
AcDbRotatedDimension
1001
ACAD
1000
DSTYLE
1002
{
1070
   147
1040
2.4
1070
    42
1040
0.0
1070
    44
1040
0.0
1070
    41
1040
8.0
1070
   140
1040
8.0
1002
}
  0
POINT
  5
278
330
1F
100
AcDbEntity
  8
connection
100
AcDbPoint
 10
70.0
 20
-45.0
 30
0.0
  0
POINT
  5
279
330
1F
100
AcDbEntity
  8
connection
100
AcDbPoint
 10
25.0
 20
15.0
 30
0.0
  0
POINT
  5
27A
330
1F
100
AcDbEntity
  8
connection
100
AcDbPoint
 10
115.0
 20
41.5
 30
0.0
  0
POINT
  5
27B
330
1F
100
AcDbEntity
  8
connection
100
AcDbPoint
 10
70.0
 20
41.5
 30
0.0
  0
POINT
  5
27C
330
1F
100
AcDbEntity
  8
connection
100
AcDbPoint
 10
25.0
 20
41.5
 30
0.0
  0
POINT
  5
27D
330
1F
100
AcDbEntity
  8
connection
100
AcDbPoint
 10
115.0
 20
51.3
 30
0.0
  0
POINT
  5
27E
330
1F
100
AcDbEntity
  8
connection
100
AcDbPoint
 10
115.0
 20
51.3
 30
0.0
  0
POINT
  5
27F
330
1F
100
AcDbEntity
  8
connection
100
AcDbPoint
 10
115.0
 20
51.3
 30
0.0
  0
POINT
  5
280
330
1F
100
AcDbEntity
  8
connection
100
AcDbPoint
 10
70.0
 20
51.3
 30
0.0
  0
POINT
  5
281
330
1F
100
AcDbEntity
  8
connection
100
AcDbPoint
 10
70.0
 20
51.3
 30
0.0
  0
POINT
  5
282
330
1F
100
AcDbEntity
  8
connection
100
AcDbPoint
 10
70.0
 20
51.3
 30
0.0
  0
POINT
  5
283
330
1F
100
AcDbEntity
  8
connection
100
AcDbPoint
 10
25.0
 20
51.3
 30
0.0
  0
POINT
  5
284
330
1F
100
AcDbEntity
  8
connection
100
AcDbPoint
 10
25.0
 20
51.3
 30
0.0
  0
POINT
  5
285
330
1F
100
AcDbEntity
  8
connection
100
AcDbPoint
 10
25.0
 20
51.3
 30
0.0
  0
POINT
  5
286
330
1F
100
AcDbEntity
  8
connection
100
AcDbPoint
 10
25.0
 20
-8.0
 30
0.0
  0
POINT
  5
287
330
1F
100
AcDbEntity
  8
connection
100
AcDbPoint
 10
70.0
 20
-68.0
 30
0.0
  0
POINT
  5
288
330
1F
100
AcDbEntity
  8
connection
100
AcDbPoint
 10
115.0
 20
-128.0
 30
0.0
  0
POINT
  5
289
330
1F
100
AcDbEntity
  8
connection
100
AcDbPoint
 10
25.0
 20
15.0
 30
0.0
  0
POINT
  5
28A
330
1F
100
AcDbEntity
  8
connection
100
AcDbPoint
 10
70.0
 20
-45.0
 30
0.0
  0
POINT
  5
28B
330
1F
100
AcDbEntity
  8
connection
100
AcDbPoint
 10
115.0
 20
-105.0
 30
0.0
  0
POINT
  5
28C
330
1F
100
AcDbEntity
  8
connection
100
AcDbPoint
 10
25.0
 20
51.3
 30
0.0
  0
POINT
  5
28D
330
1F
100
AcDbEntity
  8
connection
100
AcDbPoint
 10
70.0
 20
51.3
 30
0.0
  0
POINT
  5
28E
330
1F
100
AcDbEntity
  8
connection
100
AcDbPoint
 10
115.0
 20
51.3
 30
0.0
  0
POINT
  5
28F
330
1F
100
AcDbEntity
  8
connection
100
AcDbPoint
 10
25.0
 20
41.5
 30
0.0
  0
POINT
  5
290
330
1F
100
AcDbEntity
  8
connection
100
AcDbPoint
 10
70.0
 20
41.5
 30
0.0
  0
POINT
  5
291
330
1F
100
AcDbEntity
  8
connection
100
AcDbPoint
 10
115.0
 20
41.5
 30
0.0
  0
POINT
  5
292
330
1F
100
AcDbEntity
  8
connection
100
AcDbPoint
 10
0.0
 20
0.0
 30
0.0
  0
POINT
  5
293
330
1F
100
AcDbEntity
  8
connection
100
AcDbPoint
 10
70.0
 20
-79.5
 30
0.0
  0
POINT
  5
294
330
1F
100
AcDbEntity
  8
connection
100
AcDbPoint
 10
25.0
 20
41.5
 30
0.0
  0
POINT
  5
295
330
1F
100
AcDbEntity
  8
connection
100
AcDbPoint
 10
70.0
 20
41.5
 30
0.0
  0
POINT
  5
296
330
1F
100
AcDbEntity
  8
connection
100
AcDbPoint
 10
115.0
 20
41.5
 30
0.0
  0
POINT
  5
297
330
1F
100
AcDbEntity
  8
connection
100
AcDbPoint
 10
0.0
 20
-214.5
 30
0.0
  0
ENDSEC
  0
SECTION
  2
OBJECTS
  0
DICTIONARY
  5
C
330
0
100
AcDbDictionary
281
     1
  3
ACAD_DETAILVIEWSTYLE
350
29F
  3
ACAD_GROUP
350
D
  3
ACAD_LAYOUT
350
1A
  3
ACAD_MATERIAL
350
43
  3
ACAD_MLEADERSTYLE
350
5B
  3
ACAD_MLINESTYLE
350
17
  3
ACAD_PLOTSETTINGS
350
19
  3
ACAD_PLOTSTYLENAME
350
E
  3
ACAD_SCALELIST
350
47
  3
ACAD_SECTIONVIEWSTYLE
350
2A0
  3
ACAD_TABLESTYLE
350
59
  3
ACAD_VISUALSTYLE
350
2A
  3
ACDB_RECOMPOSE_DATA
350
29C
  3
AcDbVariableDictionary
350
298
  0
SUN
  5
5D
330
29
100
AcDbSun
 90
        1
290
     0
 63
     7
421
 16777215
 40
1.0
291
     1
 91
  2455826
 92
 54000000
292
     0
 70
     2
 71
   256
280
     1
  0
DICTIONARY
  5
29F
102
{ACAD_REACTORS
330
C
102
}
330
C
100
AcDbDictionary
281
     1
  0
DICTIONARY
  5
D
102
{ACAD_REACTORS
330
C
102
}
330
C
100
AcDbDictionary
281
     1
  0
DICTIONARY
  5
1A
102
{ACAD_REACTORS
330
C
102
}
330
C
100
AcDbDictionary
281
     1
  3
Layout1
350
1E
  3
Layout2
350
26
  3
Model
350
22
  0
DICTIONARY
  5
43
102
{ACAD_REACTORS
330
C
102
}
330
C
100
AcDbDictionary
281
     1
  3
ByBlock
350
45
  3
ByLayer
350
44
  3
Global
350
46
  0
DICTIONARY
  5
5B
102
{ACAD_REACTORS
330
C
102
}
330
C
100
AcDbDictionary
281
     1
  3
Standard
350
5C
  0
DICTIONARY
  5
17
102
{ACAD_REACTORS
330
C
102
}
330
C
100
AcDbDictionary
281
     1
  3
Standard
350
18
  0
DICTIONARY
  5
19
102
{ACAD_REACTORS
330
C
102
}
330
C
100
AcDbDictionary
281
     1
  0
ACDBDICTIONARYWDFLT
  5
E
102
{ACAD_REACTORS
330
C
102
}
330
C
100
AcDbDictionary
281
     1
  3
Normal
350
F
100
AcDbDictionaryWithDefault
340
F
  0
DICTIONARY
  5
47
102
{ACAD_REACTORS
330
C
102
}
330
C
100
AcDbDictionary
281
     1
  3
A0
350
48
  3
A1
350
49
  3
A2
350
4A
  3
A3
350
4B
  3
A4
350
4C
  3
A5
350
4D
  3
A6
350
4E
  3
A7
350
4F
  3
A8
350
50
  3
A9
350
51
  3
B0
350
52
  3
B1
350
53
  3
B2
350
54
  3
B3
350
55
  3
B4
350
56
  3
B5
350
57
  3
B6
350
58
  0
DICTIONARY
  5
2A0
102
{ACAD_REACTORS
330
C
102
}
330
C
100
AcDbDictionary
281
     1
  0
DICTIONARY
  5
59
102
{ACAD_REACTORS
330
C
102
}
330
C
100
AcDbDictionary
281
     1
  3
Standard
350
5A
  0
DICTIONARY
  5
2A
102
{ACAD_REACTORS
330
C
102
}
330
C
100
AcDbDictionary
281
     1
  3
2dWireframe
350
2F
  3
Basic
350
32
  3
Brighten
350
36
  3
ColorChange
350
3A
  3
Conceptual
350
34
  3
Dim
350
35
  3
EdgeColorOff
350
3D
  3
Facepattern
350
39
  3
Flat
350
2B
  3
FlatWithEdges
350
2C
  3
Gouraud
350
2D
  3
GouraudWithEdges
350
2E
  3
Hidden
350
31
  3
JitterOff
350
3B
  3
Linepattern
350
38
  3
OverhangOff
350
3C
  3
Realistic
350
33
  3
Shaded
350
42
  3
Shaded with edges
350
41
  3
Shades of Gray
350
3E
  3
Sketchy
350
3F
  3
Thicken
350
37
  3
Wireframe
350
30
  3
X-Ray
350
40
  0
XRECORD
  5
29C
102
{ACAD_REACTORS
330
C
102
}
330
C
100
AcDbXrecord
280
     1
 90
        1
330
5A
  0
DICTIONARY
  5
298
102
{ACAD_REACTORS
330
C
102
}
330
C
100
AcDbDictionary
281
     1
  3
CANNOSCALE
350
299
  3
CENTEREXE
350
2A1
  3
CENTERLTYPEFILE
350
2A2
  3
CMLEADERSTYLE
350
29E
  3
CTABLESTYLE
350
29D
  0
LAYOUT
  5
1E
102
{ACAD_REACTORS
330
1A
102
}
330
1A
100
AcDbPlotSettings
  1

  2
none_device
  4

  6

 40
0.0
 41
0.0
 42
0.0
 43
0.0
 44
0.0
 45
0.0
 46
0.0
 47
0.0
 48
0.0
 49
0.0
140
0.0
141
0.0
142
1.0
143
1.0
 70
   688
 72
     1
 73
     0
 74
     5
  7

 75
    16
 76
     0
 77
     2
 78
   300
147
1.0
148
0.0
149
0.0
100
AcDbLayout
  1
Layout1
 70
     1
 71
     1
 10
0.0
 20
0.0
 11
420.0
 21
297.0
 12
0.0
 22
0.0
 32
0.0
 14
1.000000000000000E+20
 24
1.000000000000000E+20
 34
1.000000000000000E+20
 15
-1.000000000000000E+20
 25
-1.000000000000000E+20
 35
-1.000000000000000E+20
146
0.0
 13
0.0
 23
0.0
 33
0.0
 16
1.0
 26
0.0
 36
0.0
 17
0.0
 27
1.0
 37
0.0
 76
     0
330
1B
  0
LAYOUT
  5
26
102
{ACAD_REACTORS
330
1A
102
}
330
1A
100
AcDbPlotSettings
  1

  2
none_device
  4

  6

 40
0.0
 41
0.0
 42
0.0
 43
0.0
 44
0.0
 45
0.0
 46
0.0
 47
0.0
 48
0.0
 49
0.0
140
0.0
141
0.0
142
1.0
143
1.0
 70
   688
 72
     1
 73
     0
 74
     5
  7

 75
    16
 76
     0
 77
     2
 78
   300
147
1.0
148
0.0
149
0.0
100
AcDbLayout
  1
Layout2
 70
     1
 71
     2
 10
0.0
 20
0.0
 11
0.0
 21
0.0
 12
0.0
 22
0.0
 32
0.0
 14
0.0
 24
0.0
 34
0.0
 15
0.0
 25
0.0
 35
0.0
146
0.0
 13
0.0
 23
0.0
 33
0.0
 16
1.0
 26
0.0
 36
0.0
 17
0.0
 27
1.0
 37
0.0
 76
     0
330
23
  0
LAYOUT
  5
22
102
{ACAD_REACTORS
330
1A
102
}
330
1A
100
AcDbPlotSettings
  1

  2
none_device
  4
Letter_(8.50_x_11.00_Inches)
  6

 40
6.35
 41
6.35
 42
6.35000508
 43
6.35000508
 44
215.9
 45
279.4
 46
0.0
 47
0.0
 48
0.0
 49
0.0
140
0.0
141
0.0
142
1.0
143
1.0
 70
  1712
 72
     1
 73
     0
 74
     0
  7

 75
     0
 76
     0
 77
     2
 78
   300
147
1.0
148
0.0
149
0.0
100
AcDbLayout
  1
Model
 70
     1
 71
     0
 10
0.0
 20
0.0
 11
420.0
 21
297.0
 12
0.0
 22
0.0
 32
0.0
 14
0.0
 24
-243.8333333333333
 34
0.0
 15
196.0
 25
93.9
 35
0.0
146
0.0
 13
0.0
 23
0.0
 33
0.0
 16
1.0
 26
0.0
 36
0.0
 17
0.0
 27
1.0
 37
0.0
 76
     0
330
1F
331
29
  0
MATERIAL
  5
45
102
{ACAD_REACTORS
330
43
102
}
330
43
100
AcDbMaterial
  1
ByBlock
 72
     1
 94
      127
  0
MATERIAL
  5
44
102
{ACAD_REACTORS
330
43
102
}
330
43
100
AcDbMaterial
  1
ByLayer
 72
     1
 94
      127
  0
MATERIAL
  5
46
102
{ACAD_REACTORS
330
43
102
}
330
43
100
AcDbMaterial
  1
Global
 72
     1
 94
      127
  0
MLEADERSTYLE
  5
5C
102
{ACAD_REACTORS
330
5B
102
}
330
5B
100
AcDbMLeaderStyle
179
     2
170
     2
171
     1
172
     0
 90
        2
 40
0.0
 41
0.0
173
     1
 91
-1056964608
340
14
 92
       -2
290
     1
 42
2.0
291
     1
 43
8.0
  3
Standard
341
0
 44
4.0
300

342
11
174
     1
178
     6
175
     1
176
     0
 93
-1056964608
 45
4.0
292
     0
297
     0
 46
4.0
343
0
 94
-1056964608
 47
1.0
 49
1.0
140
1.0
293
     1
141
0.0
294
     1
177
     0
142
1.0
295
     0
296
     0
143
3.75
271
     0
272
     9
273
     9
298
     0
  0
MLINESTYLE
  5
18
102
{ACAD_REACTORS
330
17
102
}
330
17
100
AcDbMlineStyle
  2
Standard
 70
     0
  3

 62
   256
 51
90.0
 52
90.0
 71
     2
 49
0.5
 62
   256
  6
BYLAYER
 49
-0.5
 62
   256
  6
BYLAYER
  0
ACDBPLACEHOLDER
  5
F
102
{ACAD_REACTORS
330
E
102
}
330
E
  0
SCALE
  5
48
102
{ACAD_REACTORS
330
47
102
}
330
47
100
AcDbScale
 70
     0
300
1:1
140
1.0
141
1.0
290
     1
  0
SCALE
  5
49
102
{ACAD_REACTORS
330
47
102
}
330
47
100
AcDbScale
 70
     0
300
1:2
140
1.0
141
2.0
290
     0
  0
SCALE
  5
4A
102
{ACAD_REACTORS
330
47
102
}
330
47
100
AcDbScale
 70
     0
300
1:4
140
1.0
141
4.0
290
     0
  0
SCALE
  5
4B
102
{ACAD_REACTORS
330
47
102
}
330
47
100
AcDbScale
 70
     0
300
1:5
140
1.0
141
5.0
290
     0
  0
SCALE
  5
4C
102
{ACAD_REACTORS
330
47
102
}
330
47
100
AcDbScale
 70
     0
300
1:8
140
1.0
141
8.0
290
     0
  0
SCALE
  5
4D
102
{ACAD_REACTORS
330
47
102
}
330
47
100
AcDbScale
 70
     0
300
1:10
140
1.0
141
10.0
290
     0
  0
SCALE
  5
4E
102
{ACAD_REACTORS
330
47
102
}
330
47
100
AcDbScale
 70
     0
300
1:16
140
1.0
141
16.0
290
     0
  0
SCALE
  5
4F
102
{ACAD_REACTORS
330
47
102
}
330
47
100
AcDbScale
 70
     0
300
1:20
140
1.0
141
20.0
290
     0
  0
SCALE
  5
50
102
{ACAD_REACTORS
330
47
102
}
330
47
100
AcDbScale
 70
     0
300
1:30
140
1.0
141
30.0
290
     0
  0
SCALE
  5
51
102
{ACAD_REACTORS
330
47
102
}
330
47
100
AcDbScale
 70
     0
300
1:40
140
1.0
141
40.0
290
     0
  0
SCALE
  5
52
102
{ACAD_REACTORS
330
47
102
}
330
47
100
AcDbScale
 70
     0
300
1:50
140
1.0
141
50.0
290
     0
  0
SCALE
  5
53
102
{ACAD_REACTORS
330
47
102
}
330
47
100
AcDbScale
 70
     0
300
1:100
140
1.0
141
100.0
290
     0
  0
SCALE
  5
54
102
{ACAD_REACTORS
330
47
102
}
330
47
100
AcDbScale
 70
     0
300
2:1
140
2.0
141
1.0
290
     0
  0
SCALE
  5
55
102
{ACAD_REACTORS
330
47
102
}
330
47
100
AcDbScale
 70
     0
300
4:1
140
4.0
141
1.0
290
     0
  0
SCALE
  5
56
102
{ACAD_REACTORS
330
47
102
}
330
47
100
AcDbScale
 70
     0
300
8:1
140
8.0
141
1.0
290
     0
  0
SCALE
  5
57
102
{ACAD_REACTORS
330
47
102
}
330
47
100
AcDbScale
 70
     0
300
10:1
140
10.0
141
1.0
290
     0
  0
SCALE
  5
58
102
{ACAD_REACTORS
330
47
102
}
330
47
100
AcDbScale
 70
     0
300
100:1
140
100.0
141
1.0
290
     0
  0
TABLESTYLE
  5
5A
102
{ACAD_REACTORS
330
59
102
}
102
{ACAD_XDICTIONARY
360
29A
102
}
330
59
100
AcDbTableStyle
  3
Standard
 70
     0
 71
     0
 40
0.06
 41
0.06
280
     0
281
     0
  7
Standard
140
4.5
170
     2
 62
     0
 63
   257
283
     0
 90
        4
 91
        0
  1

274
    -2
284
     1
 64
     0
275
    -2
285
     1
 65
     0
276
    -2
286
     1
 66
     0
277
    -2
287
     1
 67
     0
278
    -2
288
     1
 68
     0
279
    -2
289
     1
 69
     0
  7
Standard
140
6.0
170
     5
 62
     0
 63
   257
283
     0
 90
        4
 91
        0
  1

274
    -2
284
     1
 64
     0
275
    -2
285
     1
 65
     0
276
    -2
286
     1
 66
     0
277
    -2
287
     1
 67
     0
278
    -2
288
     1
 68
     0
279
    -2
289
     1
 69
     0
  7
Standard
140
4.5
170
     5
 62
     0
 63
   257
283
     0
 90
        4
 91
        0
  1

274
    -2
284
     1
 64
     0
275
    -2
285
     1
 65
     0
276
    -2
286
     1
 66
     0
277
    -2
287
     1
 67
     0
278
    -2
288
     1
 68
     0
279
    -2
289
     1
 69
     0
  0
VISUALSTYLE
  5
2F
102
{ACAD_REACTORS
330
2A
102
}
330
2A
100
AcDbVisualStyle
  2
2dWireframe
 70
     4
177
     3
291
     0
 70
    58
 90
        0
176
     1
 90
        2
176
     1
 90
        0
176
     1
 90
        0
176
     1
 40
0.6
176
     1
 40
30.0
176
     1
 62
     7
420
 16777215
176
     1
 90
        1
176
     1
 90
        4
176
     1
 62
     7
176
     1
 62
   257
176
     1
 90
        1
176
     1
 90
        1
176
     1
 40
1.0
176
     1
 90
        0
176
     1
 62
   257
176
     1
 40
1.0
176
     1
 90
        1
176
     1
 90
        6
176
     1
 90
        2
176
     1
 62
     7
176
     1
 90
        5
176
     1
 90
        0
176
     1
 90
        0
176
     1
290
     0
176
     1
 90
        1
176
     1
 40
0.0
176
     1
 90
        0
176
     1
290
     1
176
     1
290
     1
176
     1
290
     0
176
     1
290
     0
176
     1
290
     0
176
     1
290
     0
176
     1
290
     0
176
     1
290
     0
176
     1
290
     0
176
     1
 90
       50
176
     1
 40
0.0
176
     1
 40
1.0
176
     1
 90
        0
176
     1
 62
    18
420
        0
176
     1
 90
       50
176
     1
 90
        3
176
     1
 62
     5
420
      255
176
     1
290
     0
176
     1
 90
       50
176
     1
 90
       50
176
     1
 90
       50
176
     1
290
     0
176
     1
 90
       50
176
     1
 62
   256
176
     0
 40
1.0
176
     0
 90
        2
176
     1
  1
strokes_ogs.tif
176
     1
290
     0
176
     1
 40
1.0
176
     1
 40
1.0
176
     1
  0
VISUALSTYLE
  5
32
102
{ACAD_REACTORS
330
2A
102
}
330
2A
100
AcDbVisualStyle
  2
Basic
 70
     7
177
     3
291
     1
 70
    58
 90
        1
176
     1
 90
        0
176
     1
 90
        1
176
     1
 90
        0
176
     1
 40
0.6
176
     1
 40
30.0
176
     1
 62
     7
420
 16777215
176
     1
 90
        0
176
     1
 90
        4
176
     1
 62
     7
176
     1
 62
   257
176
     1
 90
        1
176
     1
 90
        1
176
     1
 40
1.0
176
     1
 90
        8
176
     1
 62
     7
176
     1
 40
1.0
176
     1
 90
        1
176
     1
 90
        6
176
     1
 90
        2
176
     1
 62
     7
176
     1
 90
        5
176
     1
 90
        0
176
     1
 90
        0
176
     1
290
     0
176
     1
 90
        1
176
     1
 40
0.0
176
     1
 90
        0
176
     1
290
     0
176
     1
290
     1
176
     1
290
     1
176
     1
290
     0
176
     1
290
     0
176
     1
290
     0
176
     1
290
     0
176
     1
290
     0
176
     1
290
     0
176
     1
 90
       50
176
     1
 40
0.0
176
     1
 40
1.0
176
     1
 90
        0
176
     1
 62
    18
420
        0
176
     1
 90
       50
176
     1
 90
        3
176
     1
 62
     5
420
      255
176
     1
290
     0
176
     1
 90
       50
176
     1
 90
       50
176
     1
 90
       50
176
     1
290
     0
176
     1
 90
       50
176
     1
 62
   256
176
     0
 40
1.0
176
     0
 90
        2
176
     1
  1
strokes_ogs.tif
176
     1
290
     0
176
     1
 40
1.0
176
     1
 40
1.0
176
     1
  0
VISUALSTYLE
  5
36
102
{ACAD_REACTORS
330
2A
102
}
330
2A
100
AcDbVisualStyle
  2
Brighten
 70
    12
177
     3
291
     1
 70
    58
 90
        2
176
     1
 90
        2
176
     1
 90
        0
176
     1
 90
        0
176
     1
 40
0.6
176
     1
 40
30.0
176
     1
 62
     7
420
 16777215
176
     1
 90
        1
176
     1
 90
        4
176
     1
 62
     7
176
     1
 62
   257
176
     1
 90
        1
176
     1
 90
        1
176
     1
 40
1.0
176
     1
 90
        8
176
     1
 62
     7
176
     1
 40
1.0
176
     1
 90
        1
176
     1
 90
        6
176
     1
 90
        2
176
     1
 62
     7
176
     1
 90
        5
176
     1
 90
        0
176
     1
 90
        0
176
     1
290
     0
176
     1
 90
        1
176
     1
 40
50.0
176
     1
 90
        0
176
     1
290
     0
176
     1
290
     1
176
     1
290
     1
176
     1
290
     0
176
     1
290
     0
176
     1
290
     0
176
     1
290
     0
176
     1
290
     0
176
     1
290
     0
176
     1
 90
       50
176
     1
 40
0.0
176
     1
 40
1.0
176
     1
 90
        0
176
     1
 62
    18
420
        0
176
     1
 90
       50
176
     1
 90
        3
176
     1
 62
     5
420
      255
176
     1
290
     0
176
     1
 90
       50
176
     1
 90
       50
176
     1
 90
       50
176
     1
290
     0
176
     1
 90
       50
176
     1
 62
   256
176
     0
 40
1.0
176
     0
 90
        2
176
     1
  1
strokes_ogs.tif
176
     1
290
     0
176
     1
 40
1.0
176
     1
 40
1.0
176
     1
  0
VISUALSTYLE
  5
3A
102
{ACAD_REACTORS
330
2A
102
}
330
2A
100
AcDbVisualStyle
  2
ColorChange
 70
    16
177
     3
291
     1
 70
    58
 90
        2
176
     1
 90
        2
176
     1
 90
        3
176
     1
 90
        0
176
     1
 40
0.6
176
     1
 40
30.0
176
     1
 62
     8
420
  8421504
176
     1
 90
        1
176
     1
 90
        4
176
     1
 62
     7
176
     1
 62
   257
176
     1
 90
        1
176
     1
 90
        1
176
     1
 40
1.0
176
     1
 90
        8
176
     1
 62
     8
420
  8421504
176
     1
 40
1.0
176
     1
 90
        1
176
     1
 90
        6
176
     1
 90
        2
176
     1
 62
     7
176
     1
 90
        5
176
     1
 90
        0
176
     1
 90
        0
176
     1
290
     0
176
     1
 90
        1
176
     1
 40
0.0
176
     1
 90
        0
176
     1
290
     0
176
     1
290
     1
176
     1
290
     1
176
     1
290
     0
176
     1
290
     0
176
     1
290
     0
176
     1
290
     0
176
     1
290
     0
176
     1
290
     0
176
     1
 90
       50
176
     1
 40
0.0
176
     1
 40
1.0
176
     1
 90
        0
176
     1
 62
    18
420
        0
176
     1
 90
       50
176
     1
 90
        3
176
     1
 62
     5
420
      255
176
     1
290
     0
176
     1
 90
       50
176
     1
 90
       50
176
     1
 90
       50
176
     1
290
     0
176
     1
 90
       50
176
     1
 62
   256
176
     0
 40
1.0
176
     0
 90
        2
176
     1
  1
strokes_ogs.tif
176
     1
290
     0
176
     1
 40
1.0
176
     1
 40
1.0
176
     1
  0
VISUALSTYLE
  5
34
102
{ACAD_REACTORS
330
2A
102
}
330
2A
100
AcDbVisualStyle
  2
Conceptual
 70
     9
177
     3
291
     0
 70
    58
 90
        3
176
     1
 90
        2
176
     1
 90
        0
176
     1
 90
        0
176
     1
 40
0.6
176
     1
 40
30.0
176
     1
 62
     7
420
 16777215
176
     1
 90
        2
176
     1
 90
        2
176
     1
 62
     7
176
     1
 62
   257
176
     1
 90
        1
176
     1
 90
        1
176
     1
 40
179.0
176
     1
 90
        8
176
     1
 62
     7
176
     1
 40
1.0
176
     1
 90
        1
176
     1
 90
        6
176
     1
 90
        2
176
     1
 62
     7
176
     1
 90
        3
176
     1
 90
        0
176
     1
 90
        0
176
     1
290
     0
176
     1
 90
        1
176
     1
 40
0.0
176
     1
 90
        0
176
     1
290
     0
176
     1
290
     1
176
     1
290
     1
176
     1
290
     0
176
     1
290
     0
176
     1
290
     0
176
     1
290
     0
176
     1
290
     0
176
     1
290
     0
176
     1
 90
       50
176
     1
 40
0.0
176
     1
 40
1.0
176
     1
 90
        0
176
     1
 62
    18
420
        0
176
     1
 90
       50
176
     1
 90
        3
176
     1
 62
     5
420
      255
176
     1
290
     0
176
     1
 90
       50
176
     1
 90
       50
176
     1
 90
       50
176
     1
290
     0
176
     1
 90
       50
176
     1
 62
   256
176
     0
 40
1.0
176
     0
 90
        2
176
     1
  1
strokes_ogs.tif
176
     1
290
     0
176
     1
 40
1.0
176
     1
 40
1.0
176
     1
  0
VISUALSTYLE
  5
35
102
{ACAD_REACTORS
330
2A
102
}
330
2A
100
AcDbVisualStyle
  2
Dim
 70
    11
177
     3
291
     1
 70
    58
 90
        2
176
     1
 90
        2
176
     1
 90
        0
176
     1
 90
        0
176
     1
 40
0.6
176
     1
 40
30.0
176
     1
 62
     7
420
 16777215
176
     1
 90
        1
176
     1
 90
        4
176
     1
 62
     7
176
     1
 62
   257
176
     1
 90
        1
176
     1
 90
        1
176
     1
 40
1.0
176
     1
 90
        8
176
     1
 62
     7
176
     1
 40
1.0
176
     1
 90
        1
176
     1
 90
        6
176
     1
 90
        2
176
     1
 62
     7
176
     1
 90
        5
176
     1
 90
        0
176
     1
 90
        0
176
     1
290
     0
176
     1
 90
        1
176
     1
 40
-50.0
176
     1
 90
        0
176
     1
290
     0
176
     1
290
     1
176
     1
290
     1
176
     1
290
     0
176
     1
290
     0
176
     1
290
     0
176
     1
290
     0
176
     1
290
     0
176
     1
290
     0
176
     1
 90
       50
176
     1
 40
0.0
176
     1
 40
1.0
176
     1
 90
        0
176
     1
 62
    18
420
        0
176
     1
 90
       50
176
     1
 90
        3
176
     1
 62
     5
420
      255
176
     1
290
     0
176
     1
 90
       50
176
     1
 90
       50
176
     1
 90
       50
176
     1
290
     0
176
     1
 90
       50
176
     1
 62
   256
176
     0
 40
1.0
176
     0
 90
        2
176
     1
  1
strokes_ogs.tif
176
     1
290
     0
176
     1
 40
1.0
176
     1
 40
1.0
176
     1
  0
VISUALSTYLE
  5
3D
102
{ACAD_REACTORS
330
2A
102
}
330
2A
100
AcDbVisualStyle
  2
EdgeColorOff
 70
    22
177
     3
291
     1
 70
    58
 90
        2
176
     0
 90
        2
176
     0
 90
        0
176
     0
 90
        0
176
     0
 40
0.6
176
     0
 40
30.0
176
     0
 62
     7
420
 16777215
176
     0
 90
        1
176
     0
 90
        4
176
     0
 62
     7
176
     0
 62
   257
176
     0
 90
        1
176
     0
 90
        1
176
     0
 40
1.0
176
     0
 90
        8
176
     2
 62
     7
176
     0
 40
1.0
176
     0
 90
        1
176
     0
 90
        6
176
     0
 90
        2
176
     0
 62
     7
176
     0
 90
        5
176
     0
 90
        0
176
     0
 90
        0
176
     0
290
     0
176
     0
 90
        1
176
     0
 40
0.0
176
     0
 90
        0
176
     0
290
     0
176
     0
290
     1
176
     0
290
     1
176
     0
290
     0
176
     0
290
     0
176
     0
290
     0
176
     0
290
     0
176
     0
290
     0
176
     0
290
     0
176
     0
 90
       50
176
     0
 40
0.0
176
     0
 40
1.0
176
     0
 90
        0
176
     0
 62
    18
420
        0
176
     0
 90
       50
176
     0
 90
        3
176
     0
 62
     5
420
      255
176
     0
290
     0
176
     0
 90
       50
176
     0
 90
       50
176
     0
 90
       50
176
     0
290
     0
176
     0
 90
       50
176
     0
 62
   256
176
     0
 40
1.0
176
     0
 90
        2
176
     0
  1
strokes_ogs.tif
176
     0
290
     0
176
     0
 40
1.0
176
     0
 40
1.0
176
     0
  0
VISUALSTYLE
  5
39
102
{ACAD_REACTORS
330
2A
102
}
330
2A
100
AcDbVisualStyle
  2
Facepattern
 70
    15
177
     3
291
     1
 70
    58
 90
        2
176
     1
 90
        2
176
     1
 90
        0
176
     1
 90
        0
176
     1
 40
0.6
176
     1
 40
30.0
176
     1
 62
     7
420
 16777215
176
     1
 90
        1
176
     1
 90
        4
176
     1
 62
     7
176
     1
 62
   257
176
     1
 90
        1
176
     1
 90
        1
176
     1
 40
1.0
176
     1
 90
        8
176
     1
 62
     7
176
     1
 40
1.0
176
     1
 90
        1
176
     1
 90
        6
176
     1
 90
        2
176
     1
 62
     7
176
     1
 90
        5
176
     1
 90
        0
176
     1
 90
        0
176
     1
290
     0
176
     1
 90
        1
176
     1
 40
0.0
176
     1
 90
        0
176
     1
290
     0
176
     1
290
     1
176
     1
290
     1
176
     1
290
     0
176
     1
290
     0
176
     1
290
     0
176
     1
290
     0
176
     1
290
     0
176
     1
290
     0
176
     1
 90
       50
176
     1
 40
0.0
176
     1
 40
1.0
176
     1
 90
        0
176
     1
 62
    18
420
        0
176
     1
 90
       50
176
     1
 90
        3
176
     1
 62
     5
420
      255
176
     1
290
     0
176
     1
 90
       50
176
     1
 90
       50
176
     1
 90
       50
176
     1
290
     0
176
     1
 90
       50
176
     1
 62
   256
176
     0
 40
1.0
176
     0
 90
        2
176
     1
  1
strokes_ogs.tif
176
     1
290
     0
176
     1
 40
1.0
176
     1
 40
1.0
176
     1
  0
VISUALSTYLE
  5
2B
102
{ACAD_REACTORS
330
2A
102
}
330
2A
100
AcDbVisualStyle
  2
Flat
 70
     0
177
     3
291
     1
 70
    58
 90
        2
176
     1
 90
        1
176
     1
 90
        1
176
     1
 90
        2
176
     1
 40
0.6
176
     1
 40
30.0
176
     1
 62
     7
420
 16777215
176
     1
 90
        0
176
     1
 90
        0
176
     1
 62
     7
176
     1
 62
   257
176
     1
 90
        1
176
     1
 90
        1
176
     1
 40
1.0
176
     1
 90
        8
176
     1
 62
     7
176
     1
 40
1.0
176
     1
 90
        1
176
     1
 90
        6
176
     1
 90
        2
176
     1
 62
     7
176
     1
 90
        5
176
     1
 90
        0
176
     1
 90
        0
176
     1
290
     0
176
     1
 90
       13
176
     1
 40
0.0
176
     1
 90
        0
176
     1
290
     0
176
     1
290
     1
176
     1
290
     1
176
     1
290
     0
176
     1
290
     0
176
     1
290
     0
176
     1
290
     0
176
     1
290
     0
176
     1
290
     0
176
     1
 90
       50
176
     1
 40
0.0
176
     1
 40
1.0
176
     1
 90
        0
176
     1
 62
    18
420
        0
176
     1
 90
       50
176
     1
 90
        3
176
     1
 62
     5
420
      255
176
     1
290
     0
176
     1
 90
       50
176
     1
 90
       50
176
     1
 90
       50
176
     1
290
     0
176
     1
 90
       50
176
     1
 62
   256
176
     0
 40
1.0
176
     0
 90
        2
176
     1
  1
strokes_ogs.tif
176
     1
290
     0
176
     1
 40
1.0
176
     1
 40
1.0
176
     1
  0
VISUALSTYLE
  5
2C
102
{ACAD_REACTORS
330
2A
102
}
330
2A
100
AcDbVisualStyle
  2
FlatWithEdges
 70
     1
177
     3
291
     1
 70
    58
 90
        2
176
     1
 90
        1
176
     1
 90
        1
176
     1
 90
        2
176
     1
 40
0.6
176
     1
 40
30.0
176
     1
 62
     7
420
 16777215
176
     1
 90
        1
176
     1
 90
        0
176
     1
 62
     7
176
     1
 62
   257
176
     1
 90
        1
176
     1
 90
        1
176
     1
 40
1.0
176
     1
 90
        0
176
     1
 62
   257
176
     1
 40
1.0
176
     1
 90
        1
176
     1
 90
        6
176
     1
 90
        2
176
     1
 62
     7
176
     1
 90
        5
176
     1
 90
        0
176
     1
 90
        0
176
     1
290
     0
176
     1
 90
       13
176
     1
 40
0.0
176
     1
 90
        0
176
     1
290
     0
176
     1
290
     1
176
     1
290
     1
176
     1
290
     0
176
     1
290
     0
176
     1
290
     0
176
     1
290
     0
176
     1
290
     0
176
     1
290
     0
176
     1
 90
       50
176
     1
 40
0.0
176
     1
 40
1.0
176
     1
 90
        0
176
     1
 62
    18
420
        0
176
     1
 90
       50
176
     1
 90
        3
176
     1
 62
     5
420
      255
176
     1
290
     0
176
     1
 90
       50
176
     1
 90
       50
176
     1
 90
       50
176
     1
290
     0
176
     1
 90
       50
176
     1
 62
   256
176
     0
 40
1.0
176
     0
 90
        2
176
     1
  1
strokes_ogs.tif
176
     1
290
     0
176
     1
 40
1.0
176
     1
 40
1.0
176
     1
  0
VISUALSTYLE
  5
2D
102
{ACAD_REACTORS
330
2A
102
}
330
2A
100
AcDbVisualStyle
  2
Gouraud
 70
     2
177
     3
291
     1
 70
    58
 90
        2
176
     1
 90
        2
176
     1
 90
        1
176
     1
 90
        2
176
     1
 40
0.6
176
     1
 40
30.0
176
     1
 62
     7
420
 16777215
176
     1
 90
        0
176
     1
 90
        0
176
     1
 62
     7
176
     1
 62
   257
176
     1
 90
        1
176
     1
 90
        1
176
     1
 40
1.0
176
     1
 90
        0
176
     1
 62
     7
176
     1
 40
1.0
176
     1
 90
        1
176
     1
 90
        6
176
     1
 90
        2
176
     1
 62
     7
176
     1
 90
        5
176
     1
 90
        0
176
     1
 90
        0
176
     1
290
     0
176
     1
 90
       13
176
     1
 40
0.0
176
     1
 90
        0
176
     1
290
     0
176
     1
290
     1
176
     1
290
     1
176
     1
290
     0
176
     1
290
     0
176
     1
290
     0
176
     1
290
     0
176
     1
290
     0
176
     1
290
     0
176
     1
 90
       50
176
     1
 40
0.0
176
     1
 40
1.0
176
     1
 90
        0
176
     1
 62
    18
420
        0
176
     1
 90
       50
176
     1
 90
        3
176
     1
 62
     5
420
      255
176
     1
290
     0
176
     1
 90
       50
176
     1
 90
       50
176
     1
 90
       50
176
     1
290
     0
176
     1
 90
       50
176
     1
 62
   256
176
     0
 40
1.0
176
     0
 90
        2
176
     1
  1
strokes_ogs.tif
176
     1
290
     0
176
     1
 40
1.0
176
     1
 40
1.0
176
     1
  0
VISUALSTYLE
  5
2E
102
{ACAD_REACTORS
330
2A
102
}
330
2A
100
AcDbVisualStyle
  2
GouraudWithEdges
 70
     3
177
     3
291
     1
 70
    58
 90
        2
176
     1
 90
        2
176
     1
 90
        1
176
     1
 90
        2
176
     1
 40
0.6
176
     1
 40
30.0
176
     1
 62
     7
420
 16777215
176
     1
 90
        1
176
     1
 90
        0
176
     1
 62
     7
176
     1
 62
   257
176
     1
 90
        1
176
     1
 90
        1
176
     1
 40
1.0
176
     1
 90
        0
176
     1
 62
   257
176
     1
 40
1.0
176
     1
 90
        1
176
     1
 90
        6
176
     1
 90
        2
176
     1
 62
     7
176
     1
 90
        5
176
     1
 90
        0
176
     1
 90
        0
176
     1
290
     0
176
     1
 90
       13
176
     1
 40
0.0
176
     1
 90
        0
176
     1
290
     0
176
     1
290
     1
176
     1
290
     1
176
     1
290
     0
176
     1
290
     0
176
     1
290
     0
176
     1
290
     0
176
     1
290
     0
176
     1
290
     0
176
     1
 90
       50
176
     1
 40
0.0
176
     1
 40
1.0
176
     1
 90
        0
176
     1
 62
    18
420
        0
176
     1
 90
       50
176
     1
 90
        3
176
     1
 62
     5
420
      255
176
     1
290
     0
176
     1
 90
       50
176
     1
 90
       50
176
     1
 90
       50
176
     1
290
     0
176
     1
 90
       50
176
     1
 62
   256
176
     0
 40
1.0
176
     0
 90
        2
176
     1
  1
strokes_ogs.tif
176
     1
290
     0
176
     1
 40
1.0
176
     1
 40
1.0
176
     1
  0
VISUALSTYLE
  5
31
102
{ACAD_REACTORS
330
2A
102
}
330
2A
100
AcDbVisualStyle
  2
Hidden
 70
     6
177
     3
291
     0
 70
    58
 90
        1
176
     1
 90
        2
176
     1
 90
        2
176
     1
 90
        0
176
     1
 40
0.6
176
     1
 40
30.0
176
     1
 62
     7
420
 16777215
176
     1
 90
        2
176
     1
 90
        2
176
     1
 62
     7
176
     1
 62
   257
176
     1
 90
        2
176
     1
 90
        1
176
     1
 40
40.0
176
     1
 90
        0
176
     1
 62
   257
176
     1
 40
1.0
176
     1
 90
        1
176
     1
 90
        6
176
     1
 90
        2
176
     1
 62
     7
176
     1
 90
        3
176
     1
 90
        0
176
     1
 90
        0
176
     1
290
     0
176
     1
 90
        1
176
     1
 40
0.0
176
     1
 90
        0
176
     1
290
     0
176
     1
290
     1
176
     1
290
     1
176
     1
290
     0
176
     1
290
     0
176
     1
290
     0
176
     1
290
     0
176
     1
290
     0
176
     1
290
     0
176
     1
 90
       50
176
     1
 40
0.0
176
     1
 40
1.0
176
     1
 90
        0
176
     1
 62
    18
420
        0
176
     1
 90
       50
176
     1
 90
        3
176
     1
 62
     5
420
      255
176
     1
290
     0
176
     1
 90
       50
176
     1
 90
       50
176
     1
 90
       50
176
     1
290
     0
176
     1
 90
       50
176
     1
 62
   256
176
     0
 40
1.0
176
     0
 90
        2
176
     1
  1
strokes_ogs.tif
176
     1
290
     0
176
     1
 40
1.0
176
     1
 40
1.0
176
     1
  0
VISUALSTYLE
  5
3B
102
{ACAD_REACTORS
330
2A
102
}
330
2A
100
AcDbVisualStyle
  2
JitterOff
 70
    20
177
     3
291
     1
 70
    58
 90
        2
176
     0
 90
        2
176
     0
 90
        0
176
     0
 90
        0
176
     0
 40
0.6
176
     0
 40
30.0
176
     0
 62
     7
420
 16777215
176
     0
 90
        1
176
     0
 90
        4
176
     0
 62
     7
176
     0
 62
   257
176
     0
 90
        1
176
     0
 90
        1
176
     0
 40
1.0
176
     0
 90
       10
176
     2
 62
     7
176
     0
 40
1.0
176
     0
 90
        1
176
     0
 90
        6
176
     0
 90
        2
176
     0
 62
     7
176
     0
 90
        5
176
     0
 90
        0
176
     0
 90
        0
176
     0
290
     0
176
     0
 90
        1
176
     0
 40
0.0
176
     0
 90
        0
176
     0
290
     0
176
     0
290
     1
176
     0
290
     1
176
     0
290
     0
176
     0
290
     0
176
     0
290
     0
176
     0
290
     0
176
     0
290
     0
176
     0
290
     0
176
     0
 90
       50
176
     0
 40
0.0
176
     0
 40
1.0
176
     0
 90
        0
176
     0
 62
    18
420
        0
176
     0
 90
       50
176
     0
 90
        3
176
     0
 62
     5
420
      255
176
     0
290
     0
176
     0
 90
       50
176
     0
 90
       50
176
     0
 90
       50
176
     0
290
     0
176
     0
 90
       50
176
     0
 62
   256
176
     0
 40
1.0
176
     0
 90
        2
176
     0
  1
strokes_ogs.tif
176
     0
290
     0
176
     0
 40
1.0
176
     0
 40
1.0
176
     0
  0
VISUALSTYLE
  5
38
102
{ACAD_REACTORS
330
2A
102
}
330
2A
100
AcDbVisualStyle
  2
Linepattern
 70
    14
177
     3
291
     1
 70
    58
 90
        2
176
     1
 90
        2
176
     1
 90
        0
176
     1
 90
        0
176
     1
 40
0.6
176
     1
 40
30.0
176
     1
 62
     7
420
 16777215
176
     1
 90
        1
176
     1
 90
        4
176
     1
 62
     7
176
     1
 62
   257
176
     1
 90
        7
176
     1
 90
        7
176
     1
 40
1.0
176
     1
 90
        8
176
     1
 62
     7
176
     1
 40
1.0
176
     1
 90
        1
176
     1
 90
        6
176
     1
 90
        2
176
     1
 62
     7
176
     1
 90
        5
176
     1
 90
        0
176
     1
 90
        0
176
     1
290
     0
176
     1
 90
        1
176
     1
 40
0.0
176
     1
 90
        0
176
     1
290
     0
176
     1
290
     1
176
     1
290
     1
176
     1
290
     0
176
     1
290
     0
176
     1
290
     0
176
     1
290
     0
176
     1
290
     0
176
     1
290
     0
176
     1
 90
       50
176
     1
 40
0.0
176
     1
 40
1.0
176
     1
 90
        0
176
     1
 62
    18
420
        0
176
     1
 90
       50
176
     1
 90
        3
176
     1
 62
     5
420
      255
176
     1
290
     0
176
     1
 90
       50
176
     1
 90
       50
176
     1
 90
       50
176
     1
290
     0
176
     1
 90
       50
176
     1
 62
   256
176
     0
 40
1.0
176
     0
 90
        2
176
     1
  1
strokes_ogs.tif
176
     1
290
     0
176
     1
 40
1.0
176
     1
 40
1.0
176
     1
  0
VISUALSTYLE
  5
3C
102
{ACAD_REACTORS
330
2A
102
}
330
2A
100
AcDbVisualStyle
  2
OverhangOff
 70
    21
177
     3
291
     1
 70
    58
 90
        2
176
     0
 90
        2
176
     0
 90
        0
176
     0
 90
        0
176
     0
 40
0.6
176
     0
 40
30.0
176
     0
 62
     7
420
 16777215
176
     0
 90
        1
176
     0
 90
        4
176
     0
 62
     7
176
     0
 62
   257
176
     0
 90
        1
176
     0
 90
        1
176
     0
 40
1.0
176
     0
 90
        9
176
     2
 62
     7
176
     0
 40
1.0
176
     0
 90
        1
176
     0
 90
        6
176
     0
 90
        2
176
     0
 62
     7
176
     0
 90
        5
176
     0
 90
        0
176
     0
 90
        0
176
     0
290
     0
176
     0
 90
        1
176
     0
 40
0.0
176
     0
 90
        0
176
     0
290
     0
176
     0
290
     1
176
     0
290
     1
176
     0
290
     0
176
     0
290
     0
176
     0
290
     0
176
     0
290
     0
176
     0
290
     0
176
     0
290
     0
176
     0
 90
       50
176
     0
 40
0.0
176
     0
 40
1.0
176
     0
 90
        0
176
     0
 62
    18
420
        0
176
     0
 90
       50
176
     0
 90
        3
176
     0
 62
     5
420
      255
176
     0
290
     0
176
     0
 90
       50
176
     0
 90
       50
176
     0
 90
       50
176
     0
290
     0
176
     0
 90
       50
176
     0
 62
   256
176
     0
 40
1.0
176
     0
 90
        2
176
     0
  1
strokes_ogs.tif
176
     0
290
     0
176
     0
 40
1.0
176
     0
 40
1.0
176
     0
  0
VISUALSTYLE
  5
33
102
{ACAD_REACTORS
330
2A
102
}
330
2A
100
AcDbVisualStyle
  2
Realistic
 70
     8
177
     3
291
     0
 70
    58
 90
        2
176
     1
 90
        3
176
     1
 90
        0
176
     1
 90
        2
176
     1
 40
0.6
176
     1
 40
30.0
176
     1
 62
     7
420
 16777215
176
     1
 90
        0
176
     1
 90
        0
176
     1
 62
     7
176
     1
 62
   257
176
     1
 90
        1
176
     1
 90
        1
176
     1
 40
1.0
176
     1
 90
        8
176
     1
 62
   257
176
     1
 40
1.0
176
     1
 90
        1
176
     1
 90
        6
176
     1
 90
        2
176
     1
 62
     7
176
     1
 90
        3
176
     1
 90
        0
176
     1
 90
        0
176
     1
290
     0
176
     1
 90
       13
176
     1
 40
0.0
176
     1
 90
        0
176
     1
290
     0
176
     1
290
     1
176
     1
290
     1
176
     1
290
     0
176
     1
290
     0
176
     1
290
     0
176
     1
290
     0
176
     1
290
     0
176
     1
290
     0
176
     1
 90
       50
176
     1
 40
0.0
176
     1
 40
1.0
176
     1
 90
        0
176
     1
 62
    18
420
        0
176
     1
 90
       50
176
     1
 90
        3
176
     1
 62
     5
420
      255
176
     1
290
     0
176
     1
 90
       50
176
     1
 90
       50
176
     1
 90
       50
176
     1
290
     0
176
     1
 90
       50
176
     1
 62
   256
176
     0
 40
1.0
176
     0
 90
        2
176
     1
  1
strokes_ogs.tif
176
     1
290
     0
176
     1
 40
1.0
176
     1
 40
1.0
176
     1
  0
VISUALSTYLE
  5
42
102
{ACAD_REACTORS
330
2A
102
}
330
2A
100
AcDbVisualStyle
  2
Shaded
 70
    27
177
     3
291
     0
 70
    58
 90
        2
176
     1
 90
        2
176
     1
 90
        1
176
     1
 90
        2
176
     1
 40
0.6
176
     1
 40
30.0
176
     1
 62
     7
420
 16777215
176
     1
 90
        0
176
     1
 90
        4
176
     1
 62
     7
176
     1
 62
   257
176
     1
 90
        1
176
     1
 90
        1
176
     1
 40
1.0
176
     1
 90
        8
176
     1
 62
   257
176
     1
 40
1.0
176
     1
 90
        1
176
     1
 90
        6
176
     1
 90
        2
176
     1
 62
     8
420
  7895160
176
     1
 90
        3
176
     1
 90
        0
176
     1
 90
        0
176
     1
290
     0
176
     1
 90
        5
176
     1
 40
0.0
176
     1
 90
        0
176
     1
290
     0
176
     1
290
     1
176
     1
290
     1
176
     1
290
     0
176
     1
290
     0
176
     1
290
     0
176
     1
290
     0
176
     1
290
     0
176
     1
290
     0
176
     1
 90
       50
176
     1
 40
0.0
176
     1
 40
1.0
176
     1
 90
        0
176
     1
 62
    18
420
        0
176
     1
 90
       50
176
     1
 90
        3
176
     1
 62
     5
420
      255
176
     1
290
     0
176
     1
 90
       50
176
     1
 90
       50
176
     1
 90
       50
176
     1
290
     0
176
     1
 90
       50
176
     1
 62
   256
176
     0
 40
1.0
176
     0
 90
        2
176
     1
  1
strokes_ogs.tif
176
     1
290
     0
176
     1
 40
1.0
176
     1
 40
1.0
176
     1
  0
VISUALSTYLE
  5
41
102
{ACAD_REACTORS
330
2A
102
}
330
2A
100
AcDbVisualStyle
  2
Shaded with edges
 70
    26
177
     3
291
     0
 70
    58
 90
        2
176
     1
 90
        2
176
     1
 90
        1
176
     1
 90
        2
176
     1
 40
0.6
176
     1
 40
30.0
176
     1
 62
     7
420
 16777215
176
     1
 90
        1
176
     1
 90
       10
176
     1
 62
     7
176
     1
 62
   257
176
     1
 90
        2
176
     1
 90
        1
176
     1
 40
1.0
176
     1
 90
        8
176
     1
 62
   257
176
     1
 40
1.0
176
     1
 90
        1
176
     1
 90
        6
176
     1
 90
        2
176
     1
 62
     7
176
     1
 90
        3
176
     1
 90
        0
176
     1
 90
        0
176
     1
290
     0
176
     1
 90
        5
176
     1
 40
0.0
176
     1
 90
        0
176
     1
290
     0
176
     1
290
     1
176
     1
290
     1
176
     1
290
     0
176
     1
290
     0
176
     1
290
     0
176
     1
290
     0
176
     1
290
     0
176
     1
290
     0
176
     1
 90
       50
176
     1
 40
0.0
176
     1
 40
1.0
176
     1
 90
        0
176
     1
 62
    18
420
        0
176
     1
 90
       50
176
     1
 90
        3
176
     1
 62
     5
420
      255
176
     1
290
     0
176
     1
 90
       50
176
     1
 90
       50
176
     1
 90
       50
176
     1
290
     0
176
     1
 90
       50
176
     1
 62
   256
176
     0
 40
1.0
176
     0
 90
        2
176
     1
  1
strokes_ogs.tif
176
     1
290
     0
176
     1
 40
1.0
176
     1
 40
1.0
176
     1
  0
VISUALSTYLE
  5
3E
102
{ACAD_REACTORS
330
2A
102
}
330
2A
100
AcDbVisualStyle
  2
Shades of Gray
 70
    23
177
     3
291
     0
 70
    58
 90
        2
176
     1
 90
        2
176
     1
 90
        3
176
     1
 90
        0
176
     1
 40
0.6
176
     1
 40
30.0
176
     1
 62
     7
420
 16777215
176
     1
 90
        2
176
     1
 90
        2
176
     1
 62
     7
176
     1
 62
     7
176
     1
 90
        1
176
     1
 90
        1
176
     1
 40
40.0
176
     1
 90
        8
176
     1
 62
     7
176
     1
 40
1.0
176
     1
 90
        1
176
     1
 90
        6
176
     1
 90
        2
176
     1
 62
     7
176
     1
 90
        3
176
     1
 90
        0
176
     1
 90
        0
176
     1
290
     0
176
     1
 90
        1
176
     1
 40
0.0
176
     1
 90
        0
176
     1
290
     0
176
     1
290
     1
176
     1
290
     1
176
     1
290
     0
176
     1
290
     0
176
     1
290
     0
176
     1
290
     0
176
     1
290
     0
176
     1
290
     0
176
     1
 90
       50
176
     1
 40
0.0
176
     1
 40
1.0
176
     1
 90
        0
176
     1
 62
    18
420
        0
176
     1
 90
       50
176
     1
 90
        3
176
     1
 62
     5
420
      255
176
     1
290
     0
176
     1
 90
       50
176
     1
 90
       50
176
     1
 90
       50
176
     1
290
     0
176
     1
 90
       50
176
     1
 62
   256
176
     0
 40
1.0
176
     0
 90
        2
176
     1
  1
strokes_ogs.tif
176
     1
290
     0
176
     1
 40
1.0
176
     1
 40
1.0
176
     1
  0
VISUALSTYLE
  5
3F
102
{ACAD_REACTORS
330
2A
102
}
330
2A
100
AcDbVisualStyle
  2
Sketchy
 70
    24
177
     3
291
     0
 70
    58
 90
        1
176
     1
 90
        2
176
     1
 90
        2
176
     1
 90
        0
176
     1
 40
0.6
176
     1
 40
30.0
176
     1
 62
     7
420
 16777215
176
     1
 90
        2
176
     1
 90
        2
176
     1
 62
     7
176
     1
 62
     7
176
     1
 90
        1
176
     1
 90
        1
176
     1
 40
40.0
176
     1
 90
       11
176
     1
 62
     7
176
     1
 40
1.0
176
     1
 90
        1
176
     1
 90
        6
176
     1
 90
        2
176
     1
 62
     7
176
     1
 90
        6
176
     1
 90
        0
176
     1
 90
        0
176
     1
290
     0
176
     1
 90
        1
176
     1
 40
0.0
176
     1
 90
        0
176
     1
290
     0
176
     1
290
     1
176
     1
290
     1
176
     1
290
     0
176
     1
290
     0
176
     1
290
     0
176
     1
290
     0
176
     1
290
     0
176
     1
290
     0
176
     1
 90
       50
176
     1
 40
0.0
176
     1
 40
1.0
176
     1
 90
        0
176
     1
 62
    18
420
        0
176
     1
 90
       50
176
     1
 90
        3
176
     1
 62
     5
420
      255
176
     1
290
     0
176
     1
 90
       50
176
     1
 90
       50
176
     1
 90
       50
176
     1
290
     0
176
     1
 90
       50
176
     1
 62
   256
176
     0
 40
1.0
176
     0
 90
        2
176
     1
  1
strokes_ogs.tif
176
     1
290
     0
176
     1
 40
1.0
176
     1
 40
1.0
176
     1
  0
VISUALSTYLE
  5
37
102
{ACAD_REACTORS
330
2A
102
}
330
2A
100
AcDbVisualStyle
  2
Thicken
 70
    13
177
     3
291
     1
 70
    58
 90
        2
176
     1
 90
        2
176
     1
 90
        0
176
     1
 90
        0
176
     1
 40
0.6
176
     1
 40
30.0
176
     1
 62
     7
420
 16777215
176
     1
 90
        1
176
     1
 90
        4
176
     1
 62
     7
176
     1
 62
   257
176
     1
 90
        1
176
     1
 90
        1
176
     1
 40
1.0
176
     1
 90
       12
176
     1
 62
     7
176
     1
 40
1.0
176
     1
 90
        1
176
     1
 90
        6
176
     1
 90
        2
176
     1
 62
     7
176
     1
 90
        5
176
     1
 90
        0
176
     1
 90
        0
176
     1
290
     0
176
     1
 90
        1
176
     1
 40
0.0
176
     1
 90
        0
176
     1
290
     0
176
     1
290
     1
176
     1
290
     1
176
     1
290
     0
176
     1
290
     0
176
     1
290
     0
176
     1
290
     0
176
     1
290
     0
176
     1
290
     0
176
     1
 90
       50
176
     1
 40
0.0
176
     1
 40
1.0
176
     1
 90
        0
176
     1
 62
    18
420
        0
176
     1
 90
       50
176
     1
 90
        3
176
     1
 62
     5
420
      255
176
     1
290
     0
176
     1
 90
       50
176
     1
 90
       50
176
     1
 90
       50
176
     1
290
     0
176
     1
 90
       50
176
     1
 62
   256
176
     0
 40
1.0
176
     0
 90
        2
176
     1
  1
strokes_ogs.tif
176
     1
290
     0
176
     1
 40
1.0
176
     1
 40
1.0
176
     1
  0
VISUALSTYLE
  5
30
102
{ACAD_REACTORS
330
2A
102
}
330
2A
100
AcDbVisualStyle
  2
Wireframe
 70
     5
177
     3
291
     0
 70
    58
 90
        0
176
     1
 90
        2
176
     1
 90
        0
176
     1
 90
        0
176
     1
 40
0.6
176
     1
 40
30.0
176
     1
 62
     7
420
 16777215
176
     1
 90
        1
176
     1
 90
        4
176
     1
 62
     7
176
     1
 62
   257
176
     1
 90
        1
176
     1
 90
        1
176
     1
 40
1.0
176
     1
 90
        0
176
     1
 62
   257
176
     1
 40
1.0
176
     1
 90
        1
176
     1
 90
        6
176
     1
 90
        2
176
     1
 62
     7
176
     1
 90
        3
176
     1
 90
        0
176
     1
 90
        0
176
     1
290
     0
176
     1
 90
        1
176
     1
 40
0.0
176
     1
 90
        0
176
     1
290
     0
176
     1
290
     1
176
     1
290
     1
176
     1
290
     0
176
     1
290
     0
176
     1
290
     0
176
     1
290
     0
176
     1
290
     0
176
     1
290
     0
176
     1
 90
       50
176
     1
 40
0.0
176
     1
 40
1.0
176
     1
 90
        0
176
     1
 62
    18
420
        0
176
     1
 90
       50
176
     1
 90
        3
176
     1
 62
     5
420
      255
176
     1
290
     0
176
     1
 90
       50
176
     1
 90
       50
176
     1
 90
       50
176
     1
290
     0
176
     1
 90
       50
176
     1
 62
   256
176
     0
 40
1.0
176
     0
 90
        2
176
     1
  1
strokes_ogs.tif
176
     1
290
     0
176
     1
 40
1.0
176
     1
 40
1.0
176
     1
  0
VISUALSTYLE
  5
40
102
{ACAD_REACTORS
330
2A
102
}
330
2A
100
AcDbVisualStyle
  2
X-Ray
 70
    25
177
     3
291
     0
 70
    58
 90
        2
176
     1
 90
        2
176
     1
 90
        1
176
     1
 90
        1
176
     1
 40
0.5
176
     1
 40
30.0
176
     1
 62
     7
420
 16777215
176
     1
 90
        1
176
     1
 90
        0
176
     1
 62
     7
176
     1
 62
   257
176
     1
 90
        1
176
     1
 90
        1
176
     1
 40
1.0
176
     1
 90
        8
176
     1
 62
     7
176
     1
 40
1.0
176
     1
 90
        1
176
     1
 90
        6
176
     1
 90
        2
176
     1
 62
     7
176
     1
 90
        3
176
     1
 90
        0
176
     1
 90
        0
176
     1
290
     0
176
     1
 90
       13
176
     1
 40
0.0
176
     1
 90
        0
176
     1
290
     0
176
     1
290
     1
176
     1
290
     1
176
     1
290
     0
176
     1
290
     0
176
     1
290
     0
176
     1
290
     0
176
     1
290
     0
176
     1
290
     0
176
     1
 90
       50
176
     1
 40
0.0
176
     1
 40
1.0
176
     1
 90
        0
176
     1
 62
    18
420
        0
176
     1
 90
       50
176
     1
 90
        3
176
     1
 62
     5
420
      255
176
     1
290
     0
176
     1
 90
       50
176
     1
 90
       50
176
     1
 90
       50
176
     1
290
     0
176
     1
 90
       50
176
     1
 62
   256
176
     0
 40
1.0
176
     0
 90
        2
176
     1
  1
strokes_ogs.tif
176
     1
290
     0
176
     1
 40
1.0
176
     1
 40
1.0
176
     1
  0
DICTIONARYVAR
  5
299
102
{ACAD_REACTORS
330
298
102
}
330
298
100
DictionaryVariables
280
     0
  1
1:1
  0
DICTIONARYVAR
  5
2A1
102
{ACAD_REACTORS
330
298
102
}
330
298
100
DictionaryVariables
280
     0
  1
3.500000
  0
DICTIONARYVAR
  5
2A2
102
{ACAD_REACTORS
330
298
102
}
330
298
100
DictionaryVariables
280
     0
  1
acadiso.lin
  0
DICTIONARYVAR
  5
29E
102
{ACAD_REACTORS
330
298
102
}
330
298
100
DictionaryVariables
280
     0
  1
Standard
  0
DICTIONARYVAR
  5
29D
102
{ACAD_REACTORS
330
298
102
}
330
298
100
DictionaryVariables
280
     0
  1
Standard
  0
DICTIONARY
  5
29A
330
5A
100
AcDbDictionary
280
     1
281
     1
  3
ACAD_ROUNDTRIP_2008_TABLESTYLE_CELLSTYLEMAP
360
29B
  0
CELLSTYLEMAP
  5
29B
102
{ACAD_REACTORS
330
29A
102
}
330
29A
100
AcDbCellStyleMap
 90
        3
300
CELLSTYLE
  1
TABLEFORMAT_BEGIN
 90
        5
170
     1
 91
        0
 92
    32768
 62
   257
 93
        1
300
CONTENTFORMAT
  1
CONTENTFORMAT_BEGIN
 90
        0
 91
        0
 92
        4
 93
        0
300

 40
0.0
140
1.0
 94
        5
 62
     0
340
11
144
6.0
309
CONTENTFORMAT_END
171
     1
301
MARGIN
  1
CELLMARGIN_BEGIN
 40
1.5
 40
1.5
 40
1.5
 40
1.5
 40
1.5
 40
1.5
309
CELLMARGIN_END
 94
        6
 95
        1
302
GRIDFORMAT
  1
GRIDFORMAT_BEGIN
 90
        0
 91
        1
 62
     0
 92
       -2
340
14
 93
        0
 40
0.045
309
GRIDFORMAT_END
 95
        2
302
GRIDFORMAT
  1
GRIDFORMAT_BEGIN
 90
        0
 91
        1
 62
     0
 92
       -2
340
14
 93
        0
 40
0.045
309
GRIDFORMAT_END
 95
        4
302
GRIDFORMAT
  1
GRIDFORMAT_BEGIN
 90
        0
 91
        1
 62
     0
 92
       -2
340
14
 93
        0
 40
0.045
309
GRIDFORMAT_END
 95
        8
302
GRIDFORMAT
  1
GRIDFORMAT_BEGIN
 90
        0
 91
        1
 62
     0
 92
       -2
340
14
 93
        0
 40
0.045
309
GRIDFORMAT_END
 95
       16
302
GRIDFORMAT
  1
GRIDFORMAT_BEGIN
 90
        0
 91
        1
 62
     0
 92
       -2
340
14
 93
        0
 40
0.045
309
GRIDFORMAT_END
 95
       32
302
GRIDFORMAT
  1
GRIDFORMAT_BEGIN
 90
        0
 91
        1
 62
     0
 92
       -2
340
14
 93
        0
 40
0.045
309
GRIDFORMAT_END
309
TABLEFORMAT_END
  1
CELLSTYLE_BEGIN
 90
        1
 91
        1
300
_TITLE
309
CELLSTYLE_END
300
CELLSTYLE
  1
TABLEFORMAT_BEGIN
 90
        5
170
     1
 91
        0
 92
        0
 62
   257
 93
        1
300
CONTENTFORMAT
  1
CONTENTFORMAT_BEGIN
 90
        0
 91
        0
 92
        4
 93
        0
300

 40
0.0
140
1.0
 94
        5
 62
     0
340
11
144
4.5
309
CONTENTFORMAT_END
171
     1
301
MARGIN
  1
CELLMARGIN_BEGIN
 40
1.5
 40
1.5
 40
1.5
 40
1.5
 40
1.5
 40
1.5
309
CELLMARGIN_END
 94
        6
 95
        1
302
GRIDFORMAT
  1
GRIDFORMAT_BEGIN
 90
        0
 91
        1
 62
     0
 92
       -2
340
14
 93
        0
 40
0.045
309
GRIDFORMAT_END
 95
        2
302
GRIDFORMAT
  1
GRIDFORMAT_BEGIN
 90
        0
 91
        1
 62
     0
 92
       -2
340
14
 93
        0
 40
0.045
309
GRIDFORMAT_END
 95
        4
302
GRIDFORMAT
  1
GRIDFORMAT_BEGIN
 90
        0
 91
        1
 62
     0
 92
       -2
340
14
 93
        0
 40
0.045
309
GRIDFORMAT_END
 95
        8
302
GRIDFORMAT
  1
GRIDFORMAT_BEGIN
 90
        0
 91
        1
 62
     0
 92
       -2
340
14
 93
        0
 40
0.045
309
GRIDFORMAT_END
 95
       16
302
GRIDFORMAT
  1
GRIDFORMAT_BEGIN
 90
        0
 91
        1
 62
     0
 92
       -2
340
14
 93
        0
 40
0.045
309
GRIDFORMAT_END
 95
       32
302
GRIDFORMAT
  1
GRIDFORMAT_BEGIN
 90
        0
 91
        1
 62
     0
 92
       -2
340
14
 93
        0
 40
0.045
309
GRIDFORMAT_END
309
TABLEFORMAT_END
  1
CELLSTYLE_BEGIN
 90
        2
 91
        1
300
_HEADER
309
CELLSTYLE_END
300
CELLSTYLE
  1
TABLEFORMAT_BEGIN
 90
        5
170
     1
 91
        0
 92
        0
 62
   257
 93
        1
300
CONTENTFORMAT
  1
CONTENTFORMAT_BEGIN
 90
        0
 91
        0
 92
        4
 93
        0
300

 40
0.0
140
1.0
 94
        2
 62
     0
340
11
144
4.5
309
CONTENTFORMAT_END
171
     1
301
MARGIN
  1
CELLMARGIN_BEGIN
 40
1.5
 40
1.5
 40
1.5
 40
1.5
 40
1.5
 40
1.5
309
CELLMARGIN_END
 94
        6
 95
        1
302
GRIDFORMAT
  1
GRIDFORMAT_BEGIN
 90
        0
 91
        1
 62
     0
 92
       -2
340
14
 93
        0
 40
0.045
309
GRIDFORMAT_END
 95
        2
302
GRIDFORMAT
  1
GRIDFORMAT_BEGIN
 90
        0
 91
        1
 62
     0
 92
       -2
340
14
 93
        0
 40
0.045
309
GRIDFORMAT_END
 95
        4
302
GRIDFORMAT
  1
GRIDFORMAT_BEGIN
 90
        0
 91
        1
 62
     0
 92
       -2
340
14
 93
        0
 40
0.045
309
GRIDFORMAT_END
 95
        8
302
GRIDFORMAT
  1
GRIDFORMAT_BEGIN
 90
        0
 91
        1
 62
     0
 92
       -2
340
14
 93
        0
 40
0.045
309
GRIDFORMAT_END
 95
       16
302
GRIDFORMAT
  1
GRIDFORMAT_BEGIN
 90
        0
 91
        1
 62
     0
 92
       -2
340
14
 93
        0
 40
0.045
309
GRIDFORMAT_END
 95
       32
302
GRIDFORMAT
  1
GRIDFORMAT_BEGIN
 90
        0
 91
        1
 62
     0
 92
       -2
340
14
 93
        0
 40
0.045
309
GRIDFORMAT_END
309
TABLEFORMAT_END
  1
CELLSTYLE_BEGIN
 90
        3
 91
        2
300
_DATA
309
CELLSTYLE_END
  0
ENDSEC
  0
EOF
