  0
SECTION
  2
HEADER
  9
$ACADVER
  1
AC1027
  9
$ACADMAINTVER
 70
   105
  9
$DWGCODEPAGE
  3
ANSI_1252
  9
$COMMENTS
  1
File was created by Cadenas
  9
$LASTSAVEDBY
  1
psAdmin
  9
$CUSTOMPROPERTYTAG
  1
NB
  9
$CUSTOMPROPERTY
  1
32478
  9
$CUSTOMPROPERTYTAG
  1
NN
  9
$CUSTOMPROPERTY
  1
Component supports
  9
$CUSTOMPROPERTYTAG
  1
NT
  9
$CUSTOMPROPERTY
  1

  9
$CUSTOMPROPERTYTAG
  1
NBSYN
  9
$CUSTOMPROPERTY
  1
$ARTNR.$CABLE.
  9
$CUSTOMPROPERTYTAG
  1
LINA
  9
$CUSTOMPROPERTY
  1
32478000
  9
$CUSTOMPROPERTYTAG
  1
CATALOG
  9
$CUSTOMPROPERTY
  1
Wöhner
  9
$CUSTOMPROPERTYTAG
  1
ARTNR
  9
$CUSTOMPROPERTY
  1
32478
  9
$CUSTOMPROPERTYTAG
  1
BUSB
  9
$CUSTOMPROPERTY
  1
12, 15, 20, 25, 30 x 5, 10 and section busbars
  9
$CUSTOMPROPERTYTAG
  1
POF
  9
$CUSTOMPROPERTY
  1
EQUES®60Classic
  9
$CUSTOMPROPERTYTAG
  1
TYPE
  9
$CUSTOMPROPERTY
  1
EEC6000-L
  9
$CUSTOMPROPERTYTAG
  1
QNT
  9
$CUSTOMPROPERTY
  1
4
  9
$CUSTOMPROPERTYTAG
  1
W
  9
$CUSTOMPROPERTY
  1
54
  9
$CUSTOMPROPERTYTAG
  1
H
  9
$CUSTOMPROPERTY
  1
200
  9
$CUSTOMPROPERTYTAG
  1
D
  9
$CUSTOMPROPERTY
  1
63
  9
$CUSTOMPROPERTYTAG
  1
C
  9
$CUSTOMPROPERTY
  1
62.5
  9
$CUSTOMPROPERTYTAG
  1
DD
  9
$CUSTOMPROPERTY
  1
95
  9
$CUSTOMPROPERTYTAG
  1
E
  9
$CUSTOMPROPERTY
  1
-
  9
$CUSTOMPROPERTYTAG
  1
LINK
  9
$CUSTOMPROPERTY
  1
Product link
  9
$CUSTOMPROPERTYTAG
  1
COMPANY
  9
$CUSTOMPROPERTY
  1
woehner
  9
$REQUIREDVERSIONS
160
                 0
  9
$INSBASE
 10
0.0
 20
0.0
 30
0.0
  9
$EXTMIN
 10
-56.0
 20
-195.3333333333333
 30
0.0
  9
$EXTMAX
 10
62.45238095238096
 20
34.5
 30
0.0
  9
$LIMMIN
 10
0.0
 20
0.0
  9
$LIMMAX
 10
420.0
 20
297.0
  9
$ORTHOMODE
 70
     0
  9
$REGENMODE
 70
     1
  9
$FILLMODE
 70
     1
  9
$QTEXTMODE
 70
     0
  9
$MIRRTEXT
 70
     1
  9
$LTSCALE
 40
1.0
  9
$ATTMODE
 70
     1
  9
$TEXTSIZE
 40
2.5
  9
$TRACEWID
 40
1.0
  9
$TEXTSTYLE
  7
Standard
  9
$CLAYER
  8
0
  9
$CELTYPE
  6
ByLayer
  9
$CECOLOR
 62
   256
  9
$CELTSCALE
 40
1.0
  9
$DISPSILH
 70
     0
  9
$DIMSCALE
 40
1.0
  9
$DIMASZ
 40
2.5
  9
$DIMEXO
 40
0.625
  9
$DIMDLI
 40
3.75
  9
$DIMRND
 40
0.0
  9
$DIMDLE
 40
0.0
  9
$DIMEXE
 40
1.25
  9
$DIMTP
 40
0.0
  9
$DIMTM
 40
0.0
  9
$DIMTXT
 40
2.5
  9
$DIMCEN
 40
2.5
  9
$DIMTSZ
 40
0.0
  9
$DIMTOL
 70
     0
  9
$DIMLIM
 70
     0
  9
$DIMTIH
 70
     0
  9
$DIMTOH
 70
     0
  9
$DIMSE1
 70
     0
  9
$DIMSE2
 70
     0
  9
$DIMTAD
 70
     1
  9
$DIMZIN
 70
     8
  9
$DIMBLK
  1

  9
$DIMASO
 70
     1
  9
$DIMSHO
 70
     1
  9
$DIMPOST
  1

  9
$DIMAPOST
  1

  9
$DIMALT
 70
     0
  9
$DIMALTD
 70
     3
  9
$DIMALTF
 40
0.03937007874016
  9
$DIMLFAC
 40
1.0
  9
$DIMTOFL
 70
     1
  9
$DIMTVP
 40
0.0
  9
$DIMTIX
 70
     0
  9
$DIMSOXD
 70
     0
  9
$DIMSAH
 70
     0
  9
$DIMBLK1
  1

  9
$DIMBLK2
  1

  9
$DIMSTYLE
  2
ISO-25
  9
$DIMCLRD
 70
     0
  9
$DIMCLRE
 70
     0
  9
$DIMCLRT
 70
     0
  9
$DIMTFAC
 40
1.0
  9
$DIMGAP
 40
0.625
  9
$DIMJUST
 70
     0
  9
$DIMSD1
 70
     0
  9
$DIMSD2
 70
     0
  9
$DIMTOLJ
 70
     0
  9
$DIMTZIN
 70
     8
  9
$DIMALTZ
 70
     0
  9
$DIMALTTZ
 70
     0
  9
$DIMUPT
 70
     0
  9
$DIMDEC
 70
     2
  9
$DIMTDEC
 70
     2
  9
$DIMALTU
 70
     2
  9
$DIMALTTD
 70
     3
  9
$DIMTXSTY
  7
Standard
  9
$DIMAUNIT
 70
     0
  9
$DIMADEC
 70
     0
  9
$DIMALTRND
 40
0.0
  9
$DIMAZIN
 70
     0
  9
$DIMDSEP
 70
    44
  9
$DIMATFIT
 70
     3
  9
$DIMFRAC
 70
     0
  9
$DIMLDRBLK
  1

  9
$DIMLUNIT
 70
     2
  9
$DIMLWD
 70
    -2
  9
$DIMLWE
 70
    -2
  9
$DIMTMOVE
 70
     0
  9
$DIMFXL
 40
1.0
  9
$DIMFXLON
 70
     0
  9
$DIMJOGANG
 40
0.7853981633974483
  9
$DIMTFILL
 70
     0
  9
$DIMTFILLCLR
 70
     0
  9
$DIMARCSYM
 70
     0
  9
$DIMLTYPE
  6

  9
$DIMLTEX1
  6

  9
$DIMLTEX2
  6

  9
$DIMTXTDIRECTION
 70
     0
  9
$LUNITS
 70
     2
  9
$LUPREC
 70
     4
  9
$SKETCHINC
 40
1.0
  9
$FILLETRAD
 40
0.0
  9
$AUNITS
 70
     0
  9
$AUPREC
 70
     0
  9
$MENU
  1
.
  9
$ELEVATION
 40
0.0
  9
$PELEVATION
 40
0.0
  9
$THICKNESS
 40
0.0
  9
$LIMCHECK
 70
     0
  9
$CHAMFERA
 40
0.0
  9
$CHAMFERB
 40
0.0
  9
$CHAMFERC
 40
0.0
  9
$CHAMFERD
 40
0.0
  9
$SKPOLY
 70
     0
  9
$TDCREATE
 40
2460346.616208345
  9
$TDUCREATE
 40
2460346.574541678
  9
$TDUPDATE
 40
2460346.616208889
  9
$TDUUPDATE
 40
2460346.574542222
  9
$TDINDWG
 40
0.0000000116
  9
$TDUSRTIMER
 40
0.0000000116
  9
$USRTIMER
 70
     1
  9
$ANGBASE
 50
0.0
  9
$ANGDIR
 70
     0
  9
$PDMODE
 70
     0
  9
$PDSIZE
 40
0.0
  9
$PLINEWID
 40
0.0
  9
$SPLFRAME
 70
     0
  9
$SPLINETYPE
 70
     6
  9
$SPLINESEGS
 70
     8
  9
$HANDSEED
  5
45F
  9
$SURFTAB1
 70
     6
  9
$SURFTAB2
 70
     6
  9
$SURFTYPE
 70
     6
  9
$SURFU
 70
     6
  9
$SURFV
 70
     6
  9
$UCSBASE
  2

  9
$UCSNAME
  2

  9
$UCSORG
 10
0.0
 20
0.0
 30
0.0
  9
$UCSXDIR
 10
1.0
 20
0.0
 30
0.0
  9
$UCSYDIR
 10
0.0
 20
1.0
 30
0.0
  9
$UCSORTHOREF
  2

  9
$UCSORTHOVIEW
 70
     0
  9
$UCSORGTOP
 10
0.0
 20
0.0
 30
0.0
  9
$UCSORGBOTTOM
 10
0.0
 20
0.0
 30
0.0
  9
$UCSORGLEFT
 10
0.0
 20
0.0
 30
0.0
  9
$UCSORGRIGHT
 10
0.0
 20
0.0
 30
0.0
  9
$UCSORGFRONT
 10
0.0
 20
0.0
 30
0.0
  9
$UCSORGBACK
 10
0.0
 20
0.0
 30
0.0
  9
$PUCSBASE
  2

  9
$PUCSNAME
  2

  9
$PUCSORG
 10
0.0
 20
0.0
 30
0.0
  9
$PUCSXDIR
 10
1.0
 20
0.0
 30
0.0
  9
$PUCSYDIR
 10
0.0
 20
1.0
 30
0.0
  9
$PUCSORTHOREF
  2

  9
$PUCSORTHOVIEW
 70
     0
  9
$PUCSORGTOP
 10
0.0
 20
0.0
 30
0.0
  9
$PUCSORGBOTTOM
 10
0.0
 20
0.0
 30
0.0
  9
$PUCSORGLEFT
 10
0.0
 20
0.0
 30
0.0
  9
$PUCSORGRIGHT
 10
0.0
 20
0.0
 30
0.0
  9
$PUCSORGFRONT
 10
0.0
 20
0.0
 30
0.0
  9
$PUCSORGBACK
 10
0.0
 20
0.0
 30
0.0
  9
$USERI1
 70
     0
  9
$USERI2
 70
     0
  9
$USERI3
 70
     0
  9
$USERI4
 70
     0
  9
$USERI5
 70
     0
  9
$USERR1
 40
0.0
  9
$USERR2
 40
0.0
  9
$USERR3
 40
0.0
  9
$USERR4
 40
0.0
  9
$USERR5
 40
0.0
  9
$WORLDVIEW
 70
     1
  9
$SHADEDGE
 70
     3
  9
$SHADEDIF
 70
    70
  9
$TILEMODE
 70
     1
  9
$MAXACTVP
 70
    64
  9
$PINSBASE
 10
0.0
 20
0.0
 30
0.0
  9
$PLIMCHECK
 70
     0
  9
$PEXTMIN
 10
1.000000000000000E+20
 20
1.000000000000000E+20
 30
1.000000000000000E+20
  9
$PEXTMAX
 10
-1.000000000000000E+20
 20
-1.000000000000000E+20
 30
-1.000000000000000E+20
  9
$PLIMMIN
 10
0.0
 20
0.0
  9
$PLIMMAX
 10
420.0
 20
297.0
  9
$UNITMODE
 70
     0
  9
$VISRETAIN
 70
     1
  9
$PLINEGEN
 70
     0
  9
$PSLTSCALE
 70
     1
  9
$TREEDEPTH
 70
  3020
  9
$CMLSTYLE
  2
Standard
  9
$CMLJUST
 70
     0
  9
$CMLSCALE
 40
20.0
  9
$PROXYGRAPHICS
 70
     1
  9
$MEASUREMENT
 70
     1
  9
$CELWEIGHT
370
    -1
  9
$ENDCAPS
280
     0
  9
$JOINSTYLE
280
     0
  9
$LWDISPLAY
290
     0
  9
$INSUNITS
 70
     4
  9
$HYPERLINKBASE
  1

  9
$STYLESHEET
  1

  9
$XEDIT
290
     1
  9
$CEPSNTYPE
380
     0
  9
$PSTYLEMODE
290
     1
  9
$FINGERPRINTGUID
  2
{1a38d341-6117-4646-b940-998342829263}
  9
$VERSIONGUID
  2
{FAEB1C32-E019-11D5-929B-00C0DF256EC4}
  9
$EXTNAMES
290
     1
  9
$PSVPSCALE
 40
0.0
  9
$OLESTARTUP
290
     0
  9
$SORTENTS
280
   127
  9
$INDEXCTL
280
     0
  9
$HIDETEXT
280
     1
  9
$XCLIPFRAME
280
     2
  9
$HALOGAP
280
     0
  9
$OBSCOLOR
 70
   257
  9
$OBSLTYPE
280
     0
  9
$INTERSECTIONDISPLAY
280
     0
  9
$INTERSECTIONCOLOR
 70
   257
  9
$DIMASSOC
280
     2
  9
$PROJECTNAME
  1

  9
$CAMERADISPLAY
290
     0
  9
$LENSLENGTH
 40
50.0
  9
$CAMERAHEIGHT
 40
0.0
  9
$STEPSPERSEC
 40
2.0
  9
$STEPSIZE
 40
6.0
  9
$3DDWFPREC
 40
2.0
  9
$PSOLWIDTH
 40
5.0
  9
$PSOLHEIGHT
 40
80.0
  9
$LOFTANG1
 40
1.570796326794897
  9
$LOFTANG2
 40
1.570796326794897
  9
$LOFTMAG1
 40
0.0
  9
$LOFTMAG2
 40
0.0
  9
$LOFTPARAM
 70
     7
  9
$LOFTNORMALS
280
     1
  9
$LATITUDE
 40
37.795
  9
$LONGITUDE
 40
-122.394
  9
$NORTHDIRECTION
 40
0.0
  9
$TIMEZONE
 70
 -8000
  9
$LIGHTGLYPHDISPLAY
280
     1
  9
$TILEMODELIGHTSYNCH
280
     1
  9
$CMATERIAL
347
44
  9
$SOLIDHIST
280
     0
  9
$SHOWHIST
280
     1
  9
$DWFFRAME
280
     2
  9
$DGNFRAME
280
     2
  9
$REALWORLDSCALE
290
     1
  9
$INTERFERECOLOR
 62
   256
  9
$CSHADOW
280
     0
  9
$SHADOWPLANELOCATION
 40
0.0
  0
ENDSEC
  0
SECTION
  2
CLASSES
  0
CLASS
  1
ACDBDICTIONARYWDFLT
  2
AcDbDictionaryWithDefault
  3
ObjectDBX Classes
 90
        0
 91
        3
280
     0
281
     0
  0
CLASS
  1
VISUALSTYLE
  2
AcDbVisualStyle
  3
ObjectDBX Classes
 90
     4095
 91
        3
280
     0
281
     0
  0
CLASS
  1
MATERIAL
  2
AcDbMaterial
  3
ObjectDBX Classes
 90
     1153
 91
        3
280
     0
281
     0
  0
CLASS
  1
SCALE
  2
AcDbScale
  3
ObjectDBX Classes
 90
     1153
 91
        3
280
     0
281
     0
  0
CLASS
  1
TABLESTYLE
  2
AcDbTableStyle
  3
ObjectDBX Classes
 90
     4095
 91
        3
280
     0
281
     0
  0
CLASS
  1
MLEADERSTYLE
  2
AcDbMLeaderStyle
  3
ACDB_MLEADERSTYLE_CLASS
 90
     4095
 91
        3
280
     0
281
     0
  0
CLASS
  1
SUN
  2
AcDbSun
  3
SCENEOE
 90
     1153
 91
        3
280
     0
281
     0
  0
CLASS
  1
DICTIONARYVAR
  2
AcDbDictionaryVar
  3
ObjectDBX Classes
 90
        0
 91
        3
280
     0
281
     0
  0
CLASS
  1
CELLSTYLEMAP
  2
AcDbCellStyleMap
  3
ObjectDBX Classes
 90
     1152
 91
        3
280
     0
281
     0
  0
ENDSEC
  0
SECTION
  2
TABLES
  0
TABLE
  2
VPORT
  5
8
330
0
100
AcDbSymbolTable
 70
     1
  0
VPORT
  5
29
330
8
100
AcDbSymbolTableRecord
100
AcDbViewportTableRecord
  2
*Active
 70
     0
 10
0.0
 20
0.0
 11
1.0
 21
1.0
 12
3.226190476190482
 22
-80.41666666666669
 13
0.0
 23
0.0
 14
10.0
 24
10.0
 15
10.0
 25
10.0
 16
0.0
 26
0.0
 36
1.0
 17
0.0
 27
0.0
 37
0.0
 40
234.43
 41
0.5153838185020201
 42
50.0
 43
0.0
 44
0.0
 50
0.0
 51
0.0
 71
     0
 72
   100
 73
     1
 74
     3
 75
     0
 76
     0
 77
     0
 78
     0
281
     0
 65
     1
110
0.0
120
0.0
130
0.0
111
1.0
121
0.0
131
0.0
112
0.0
122
1.0
132
0.0
 79
     0
146
0.0
348
2F
 60
     3
 61
     5
292
     1
282
     1
141
0.0
142
0.0
 63
   250
361
5D
  0
ENDTAB
  0
TABLE
  2
LTYPE
  5
5
330
0
100
AcDbSymbolTable
 70
     3
  0
LTYPE
  5
14
330
5
100
AcDbSymbolTableRecord
100
AcDbLinetypeTableRecord
  2
ByBlock
 70
     0
  3

 72
    65
 73
     0
 40
0.0
  0
LTYPE
  5
15
330
5
100
AcDbSymbolTableRecord
100
AcDbLinetypeTableRecord
  2
ByLayer
 70
     0
  3

 72
    65
 73
     0
 40
0.0
  0
LTYPE
  5
16
330
5
100
AcDbSymbolTableRecord
100
AcDbLinetypeTableRecord
  2
Continuous
 70
     0
  3
Solid line
 72
    65
 73
     0
 40
0.0
  0
LTYPE
  5
87
330
5
100
AcDbSymbolTableRecord
100
AcDbLinetypeTableRecord
  2
Dashed
 70
     0
  3

 72
    65
 73
     2
 40
2.0
 49
1.0
 74
     0
 49
-1.0
 74
     0
  0
LTYPE
  5
CE
330
5
100
AcDbSymbolTableRecord
100
AcDbLinetypeTableRecord
  2
Center
 70
     0
  3

 72
    65
 73
     4
 40
1.5
 49
0.45
 74
     0
 49
-0.5
 74
     0
 49
0.05
 74
     0
 49
-0.5
 74
     0
  0
ENDTAB
  0
TABLE
  2
LAYER
  5
2
330
0
100
AcDbSymbolTable
 70
     9
  0
LAYER
  5
10
330
2
100
AcDbSymbolTableRecord
100
AcDbLayerTableRecord
  2
0
 70
     0
 62
     7
  6
Continuous
370
    -3
390
F
347
46
348
0
  0
LAYER
  5
5E
330
2
100
AcDbSymbolTableRecord
100
AcDbLayerTableRecord
  2
attrib
 70
     0
 62
    -2
  6
Continuous
370
    35
390
F
347
46
348
0
  0
LAYER
  5
88
330
2
100
AcDbSymbolTableRecord
100
AcDbLayerTableRecord
  2
hidden
 70
     0
 62
    -6
  6
Dashed
370
    25
390
F
347
46
348
0
  0
LAYER
  5
8A
330
2
100
AcDbSymbolTableRecord
100
AcDbLayerTableRecord
  2
bold
 70
     0
 62
     7
  6
Continuous
370
    50
390
F
347
46
348
0
  0
LAYER
  5
92
330
2
100
AcDbSymbolTableRecord
100
AcDbLayerTableRecord
  2
light
 70
     0
 62
    -3
  6
Continuous
370
    25
390
F
347
46
348
0
  0
LAYER
  5
CF
330
2
100
AcDbSymbolTableRecord
100
AcDbLayerTableRecord
  2
center
 70
     0
 62
    -7
  6
Center
370
    25
390
F
347
46
348
0
  0
LAYER
  5
3DD
330
2
100
AcDbSymbolTableRecord
100
AcDbLayerTableRecord
  2
dimension
 70
     0
 62
    -5
  6
Continuous
370
    25
390
F
347
46
348
0
  0
LAYER
  5
3DF
330
2
100
AcDbSymbolTableRecord
100
AcDbLayerTableRecord
  2
Defpoints
 70
     0
 62
     7
  6
Continuous
290
     0
370
    -3
390
F
347
46
348
0
  0
LAYER
  5
416
330
2
100
AcDbSymbolTableRecord
100
AcDbLayerTableRecord
  2
connection
 70
     0
 62
    -7
  6
Continuous
370
    50
390
F
347
46
348
0
  0
ENDTAB
  0
TABLE
  2
STYLE
  5
3
330
0
100
AcDbSymbolTable
 70
     1
  0
STYLE
  5
11
330
3
100
AcDbSymbolTableRecord
100
AcDbTextStyleTableRecord
  2
Standard
 70
     0
 40
0.0
 41
1.0
 50
0.0
 71
     0
 42
2.5
  3
txt
  4

  0
ENDTAB
  0
TABLE
  2
VIEW
  5
6
330
0
100
AcDbSymbolTable
 70
     0
  0
ENDTAB
  0
TABLE
  2
UCS
  5
7
330
0
100
AcDbSymbolTable
 70
     0
  0
ENDTAB
  0
TABLE
  2
APPID
  5
9
330
0
100
AcDbSymbolTable
 70
     1
  0
APPID
  5
12
330
9
100
AcDbSymbolTableRecord
100
AcDbRegAppTableRecord
  2
ACAD
 70
     0
  0
ENDTAB
  0
TABLE
  2
DIMSTYLE
  5
A
330
0
100
AcDbSymbolTable
 70
     1
100
AcDbDimStyleTable
  0
DIMSTYLE
105
27
102
{ACAD_REACTORS
330
3DE
330
3EC
330
3FA
330
408
102
}
330
A
100
AcDbSymbolTableRecord
100
AcDbDimStyleTableRecord
  2
ISO-25
 70
     0
 41
2.5
 42
0.625
 43
3.75
 44
1.25
 73
     0
 74
     0
 77
     1
 78
     8
140
2.5
141
2.5
143
0.03937007874016
147
0.625
171
     3
172
     1
178
     0
271
     2
272
     2
274
     3
278
    44
283
     0
284
     8
340
11
  0
ENDTAB
  0
TABLE
  2
BLOCK_RECORD
  5
1
330
0
100
AcDbSymbolTable
 70
    10
  0
BLOCK_RECORD
  5
1F
330
1
100
AcDbSymbolTableRecord
100
AcDbBlockTableRecord
  2
*Model_Space
340
22
 70
     0
280
     1
281
     0
  0
BLOCK_RECORD
  5
1B
330
1
100
AcDbSymbolTableRecord
100
AcDbBlockTableRecord
  2
*Paper_Space
340
1E
 70
     0
280
     1
281
     0
  0
BLOCK_RECORD
  5
23
330
1
100
AcDbSymbolTableRecord
100
AcDbBlockTableRecord
  2
*Paper_Space0
340
26
 70
     0
280
     1
281
     0
  0
BLOCK_RECORD
  5
77
330
1
100
AcDbSymbolTableRecord
100
AcDbBlockTableRecord
  2
1_80034CrossBoardScrew_1_0_in_32478_0
340
0
102
{BLKREFS
331
78
102
}
 70
     0
280
     1
281
     0
  0
BLOCK_RECORD
  5
9E
330
1
100
AcDbSymbolTableRecord
100
AcDbBlockTableRecord
  2
2_32948b_1_0_in_32478_0
340
0
102
{BLKREFS
331
9F
102
}
 70
     0
280
     1
281
     0
  0
BLOCK_RECORD
  5
F5
330
1
100
AcDbSymbolTableRecord
100
AcDbBlockTableRecord
  2
3_80034CrossBoardScrew_2_0_in_32478_0
340
0
102
{BLKREFS
331
F6
102
}
 70
     0
280
     1
281
     0
  0
BLOCK_RECORD
  5
118
330
1
100
AcDbSymbolTableRecord
100
AcDbBlockTableRecord
  2
4_32948b_2_0_in_32478_0
340
0
102
{BLKREFS
331
119
102
}
 70
     0
280
     1
281
     0
  0
BLOCK_RECORD
  5
16D
330
1
100
AcDbSymbolTableRecord
100
AcDbBlockTableRecord
  2
5_Basis54x200_0_in_32478_0
340
0
102
{BLKREFS
331
16E
102
}
 70
     0
280
     1
281
     0
  0
BLOCK_RECORD
  5
3E0
330
1
100
AcDbSymbolTableRecord
100
AcDbBlockTableRecord
  2
*D6
340
0
 70
     0
280
     1
281
     0
  0
BLOCK_RECORD
  5
3ED
330
1
100
AcDbSymbolTableRecord
100
AcDbBlockTableRecord
  2
*D7
340
0
 70
     0
280
     1
281
     0
  0
BLOCK_RECORD
  5
3FB
330
1
100
AcDbSymbolTableRecord
100
AcDbBlockTableRecord
  2
*D8
340
0
 70
     0
280
     1
281
     0
  0
BLOCK_RECORD
  5
409
330
1
100
AcDbSymbolTableRecord
100
AcDbBlockTableRecord
  2
*D9
340
0
 70
     0
280
     1
281
     0
  0
ENDTAB
  0
ENDSEC
  0
SECTION
  2
BLOCKS
  0
BLOCK
  5
20
330
1F
100
AcDbEntity
  8
0
100
AcDbBlockBegin
  2
*Model_Space
 70
     2
 10
0.0
 20
0.0
 30
0.0
  3
*Model_Space
  1

  0
ENDBLK
  5
21
330
1F
100
AcDbEntity
  8
0
100
AcDbBlockEnd
  0
BLOCK
  5
1C
330
1B
100
AcDbEntity
 67
     1
  8
0
100
AcDbBlockBegin
  2
*Paper_Space
 70
     0
 10
0.0
 20
0.0
 30
0.0
  3
*Paper_Space
  1

  0
ENDBLK
  5
1D
330
1B
100
AcDbEntity
 67
     1
  8
0
100
AcDbBlockEnd
  0
BLOCK
  5
24
330
23
100
AcDbEntity
  8
0
100
AcDbBlockBegin
  2
*Paper_Space0
 70
     0
 10
0.0
 20
0.0
 30
0.0
  3
*Paper_Space0
  1

  0
ENDBLK
  5
25
330
23
100
AcDbEntity
  8
0
100
AcDbBlockEnd
  0
BLOCK
  5
79
330
77
100
AcDbEntity
  8
0
100
AcDbBlockBegin
  2
1_80034CrossBoardScrew_1_0_in_32478_0
 70
     2
 10
0.0
 20
0.0
 30
0.0
  3
1_80034CrossBoardScrew_1_0_in_32478_0
  1

  0
ATTDEF
  5
7B
330
77
100
AcDbEntity
  8
attrib
100
AcDbText
 10
54.95832767577082
 20
-116.3202185599621
 30
0.0
 40
0.5
  1
80034CrossBoardScrew
100
AcDbAttributeDefinition
  3

  2
NB
 70
     8
280
     0
  0
ATTDEF
  5
7C
330
77
100
AcDbEntity
  8
attrib
100
AcDbText
 10
54.95832767577082
 20
-116.8202185599621
 30
0.0
 40
0.5
  1
32668 Screw
100
AcDbAttributeDefinition
  3

  2
NN
 70
     8
280
     0
  0
ATTDEF
  5
7D
330
77
100
AcDbEntity
  8
attrib
100
AcDbText
 10
54.95832767577082
 20
-117.3202185599621
 30
0.0
 40
0.5
  1

100
AcDbAttributeDefinition
  3

  2
NT
 70
     8
280
     0
  0
ATTDEF
  5
7E
330
77
100
AcDbEntity
  8
attrib
100
AcDbText
 10
54.95832767577082
 20
-117.8202185599621
 30
0.0
 40
0.5
  1
$ARTNR.$SYSTEM.$MODEL.
100
AcDbAttributeDefinition
  3

  2
NBSYN
 70
     8
280
     0
  0
ATTDEF
  5
7F
330
77
100
AcDbEntity
  8
attrib
100
AcDbText
 10
54.95832767577082
 20
-118.3202185599621
 30
0.0
 40
0.5
  1
80034
100
AcDbAttributeDefinition
  3

  2
LINA
 70
     8
280
     0
  0
ATTDEF
  5
80
330
77
100
AcDbEntity
  8
attrib
100
AcDbText
 10
54.95832767577082
 20
-118.8202185599621
 30
0.0
 40
0.5
  1
Wöhner
100
AcDbAttributeDefinition
  3

  2
CATALOG
 70
     8
280
     0
  0
ATTDEF
  5
81
330
77
100
AcDbEntity
  8
attrib
100
AcDbText
 10
54.95832767577082
 20
-119.3202185599621
 30
0.0
 40
0.5
  1
80034
100
AcDbAttributeDefinition
  3

  2
ARTNR
 70
     8
280
     0
  0
ATTDEF
  5
82
330
77
100
AcDbEntity
  8
attrib
100
AcDbText
 10
54.95832767577082
 20
-119.8202185599621
 30
0.0
 40
0.5
  1
CrossBoard
100
AcDbAttributeDefinition
  3

  2
SYSTEM
 70
     8
280
     0
  0
ATTDEF
  5
83
330
77
100
AcDbEntity
  8
attrib
100
AcDbText
 10
54.95832767577082
 20
-120.3202185599621
 30
0.0
 40
0.5
  1
Screw
100
AcDbAttributeDefinition
  3

  2
MODEL
 70
     8
280
     0
  0
ATTDEF
  5
84
330
77
100
AcDbEntity
  8
attrib
100
AcDbText
 10
54.95832767577082
 20
-120.8202185599621
 30
0.0
 40
0.5
  1
woehner
100
AcDbAttributeDefinition
  3

  2
COMPANY
 70
     8
280
     0
  0
ATTDEF
  5
85
330
77
100
AcDbEntity
  8
attrib
100
AcDbText
 10
54.95832767577082
 20
-121.3202185599621
 30
0.0
 40
0.5
  1
{$CADENAS_DATA/23d-libs/woehner/sys_crossboard/parts/32668_screw.prj},170 {VTYP=3D},{NB=80034CrossBoardScrew},{LINA=80034},{NN=32668 Screw},{DATE=19.01.2024 08:52:31},{GEOMDATE=27.01.2022 06:14:50},{VERSION=},{LINEID=10},{WBVAR=},{WBNUMERIC=}  {NB=80034Cr
100
AcDbAttributeDefinition
  3

  2
PSOL_0
 70
     9
280
     0
  0
ATTDEF
  5
86
330
77
100
AcDbEntity
  8
attrib
100
AcDbText
 10
54.95832767577082
 20
-121.8202185599621
 30
0.0
 40
0.5
  1
ossBoardScrew},{LINA=80034},{KT=DUMMY},{ARTNR=80034},{SYSTEM=CrossBoard},{MODEL=Screw}
100
AcDbAttributeDefinition
  3

  2
PSOL_1
 70
     9
280
     0
  0
CIRCLE
  5
89
330
77
100
AcDbEntity
  8
hidden
100
AcDbCircle
 10
47.5
 20
-118.5
 30
0.0
 40
1.25
  0
LINE
  5
8B
330
77
100
AcDbEntity
  8
bold
100
AcDbLine
 10
49.90904754547643
 20
-119.0
 30
0.0
 11
48.4
 21
-119.0
 31
0.0
  0
LINE
  5
8C
330
77
100
AcDbEntity
  8
bold
100
AcDbLine
 10
46.6
 20
-119.0
 30
0.0
 11
45.09095245452357
 21
-119.0
 31
0.0
  0
LINE
  5
8D
330
77
100
AcDbEntity
  8
bold
100
AcDbLine
 10
45.09095245452357
 20
-118.0
 30
0.0
 11
46.6
 21
-118.0
 31
0.0
  0
LINE
  5
8E
330
77
100
AcDbEntity
  8
bold
100
AcDbLine
 10
48.4
 20
-118.0
 30
0.0
 11
49.90904754547643
 21
-118.0
 31
0.0
  0
ARC
  5
8F
330
77
100
AcDbEntity
  8
bold
100
AcDbCircle
 10
47.50000000000044
 20
-118.5
 30
0.0
 40
2.460388196274749
100
AcDbArc
 50
168.2746827725562
 51
191.7253172274438
  0
ARC
  5
90
330
77
100
AcDbEntity
  8
bold
100
AcDbCircle
 10
47.49999999999956
 20
-118.5
 30
0.0
 40
2.460388196274749
100
AcDbArc
 50
348.2746827725562
 51
11.7253172274438
  0
LWPOLYLINE
  5
91
330
77
100
AcDbEntity
  8
bold
100
AcDbPolyline
 90
        6
 70
     0
 43
0.0
 10
48.4
 20
-118.0
 10
48.27128350595047
 20
-117.9787242587419
 10
48.15453491934166
 20
-117.9158273170221
 10
48.06647619406623
 20
-117.8208209022612
 10
48.01406495610961
 20
-117.7051386793589
 10
48.0
 20
-117.6
  0
ARC
  5
93
330
77
100
AcDbEntity
  8
light
100
AcDbCircle
 10
47.5
 20
-118.5
 30
0.0
 40
2.181818161107069
100
AcDbArc
 50
13.24801503372472
 51
166.7519849662753
  0
LWPOLYLINE
  5
94
330
77
100
AcDbEntity
  8
bold
100
AcDbPolyline
 90
        6
 70
     0
 43
0.0
 10
47.0
 20
-117.6
 10
46.9787242587419
 20
-117.7287164940495
 10
46.91582731702213
 20
-117.8454650806584
 10
46.8208209022612
 20
-117.9335238059338
 10
46.70513867935886
 20
-117.9859350438904
 10
46.6
 20
-118.0
  0
LINE
  5
95
330
77
100
AcDbEntity
  8
bold
100
AcDbLine
 10
47.0
 20
-117.6
 30
0.0
 11
47.0
 21
-117.0
 31
0.0
  0
LINE
  5
96
330
77
100
AcDbEntity
  8
bold
100
AcDbLine
 10
47.0
 20
-117.0
 30
0.0
 11
48.0
 21
-117.0
 31
0.0
  0
LINE
  5
97
330
77
100
AcDbEntity
  8
bold
100
AcDbLine
 10
48.0
 20
-117.0
 30
0.0
 11
48.0
 21
-117.6
 31
0.0
  0
LWPOLYLINE
  5
98
330
77
100
AcDbEntity
  8
bold
100
AcDbPolyline
 90
        6
 70
     0
 43
0.0
 10
46.6
 20
-119.0
 10
46.72871649404953
 20
-119.0212757412581
 10
46.84546508065834
 20
-119.0841726829779
 10
46.93352380593377
 20
-119.1791790977388
 10
46.98593504389039
 20
-119.2948613206411
 10
47.0
 20
-119.4
  0
ARC
  5
99
330
77
100
AcDbEntity
  8
light
100
AcDbCircle
 10
47.5
 20
-118.5
 30
0.0
 40
2.181818161107069
100
AcDbArc
 50
193.2480150337247
 51
346.7519849662753
  0
LWPOLYLINE
  5
9A
330
77
100
AcDbEntity
  8
bold
100
AcDbPolyline
 90
        6
 70
     0
 43
0.0
 10
48.0
 20
-119.4
 10
48.02127574125811
 20
-119.2712835059505
 10
48.08417268297787
 20
-119.1545349193417
 10
48.1791790977388
 20
-119.0664761940662
 10
48.29486132064114
 20
-119.0140649561096
 10
48.4
 20
-119.0
  0
LINE
  5
9B
330
77
100
AcDbEntity
  8
bold
100
AcDbLine
 10
48.0
 20
-119.4
 30
0.0
 11
48.0
 21
-120.0
 31
0.0
  0
LINE
  5
9C
330
77
100
AcDbEntity
  8
bold
100
AcDbLine
 10
48.0
 20
-120.0
 30
0.0
 11
47.0
 21
-120.0
 31
0.0
  0
LINE
  5
9D
330
77
100
AcDbEntity
  8
bold
100
AcDbLine
 10
47.0
 20
-120.0
 30
0.0
 11
47.0
 21
-119.4
 31
0.0
  0
ENDBLK
  5
7A
330
77
100
AcDbEntity
  8
0
100
AcDbBlockEnd
  0
BLOCK
  5
A0
330
9E
100
AcDbEntity
  8
0
100
AcDbBlockBegin
  2
2_32948b_1_0_in_32478_0
 70
     2
 10
0.0
 20
0.0
 30
0.0
  3
2_32948b_1_0_in_32478_0
  1

  0
ATTDEF
  5
A2
330
9E
100
AcDbEntity
  8
attrib
100
AcDbText
 10
59.0
 20
-106.0
 30
0.0
 40
0.5
  1
32948b
100
AcDbAttributeDefinition
  3

  2
NB
 70
     8
280
     0
  0
ATTDEF
  5
A3
330
9E
100
AcDbEntity
  8
attrib
100
AcDbText
 10
59.0
 20
-106.5
 30
0.0
 40
0.5
  1
Switch-disconnector-fuse, 3-pole
100
AcDbAttributeDefinition
  3

  2
NN
 70
     8
280
     0
  0
ATTDEF
  5
A4
330
9E
100
AcDbEntity
  8
attrib
100
AcDbText
 10
59.0
 20
-107.0
 30
0.0
 40
0.5
  1

100
AcDbAttributeDefinition
  3

  2
NT
 70
     8
280
     0
  0
ATTDEF
  5
A5
330
9E
100
AcDbEntity
  8
attrib
100
AcDbText
 10
59.0
 20
-107.5
 30
0.0
 40
0.5
  1
$ARTNR.b
100
AcDbAttributeDefinition
  3

  2
NBSYN
 70
     8
280
     0
  0
ATTDEF
  5
A6
330
9E
100
AcDbEntity
  8
attrib
100
AcDbText
 10
59.0
 20
-108.0
 30
0.0
 40
0.5
  1
32948000
100
AcDbAttributeDefinition
  3

  2
LINA
 70
     8
280
     0
  0
ATTDEF
  5
A7
330
9E
100
AcDbEntity
  8
attrib
100
AcDbText
 10
59.0
 20
-108.5
 30
0.0
 40
0.5
  1
Wöhner
100
AcDbAttributeDefinition
  3

  2
CATALOG
 70
     8
280
     0
  0
ATTDEF
  5
A8
330
9E
100
AcDbEntity
  8
attrib
100
AcDbText
 10
59.0
 20
-109.0
 30
0.0
 40
0.5
  1
32948000
100
AcDbAttributeDefinition
  3

  2
BOM
 70
     8
280
     0
  0
ATTDEF
  5
A9
330
9E
100
AcDbEntity
  8
attrib
100
AcDbText
 10
59.0
 20
-109.5
 30
0.0
 40
0.5
  1
32948
100
AcDbAttributeDefinition
  3

  2
ARTNR
 70
     8
280
     0
  0
ATTDEF
  5
AA
330
9E
100
AcDbEntity
  8
attrib
100
AcDbText
 10
59.0
 20
-110.0
 30
0.0
 40
0.5
  1
CAPUS®CrossBoard
100
AcDbAttributeDefinition
  3

  2
POF
 70
     8
280
     0
  0
ATTDEF
  5
AB
330
9E
100
AcDbEntity
  8
attrib
100
AcDbText
 10
59.0
 20
-110.5
 30
0.0
 40
0.5
  1
TS35-L
100
AcDbAttributeDefinition
  3

  2
TYPE
 70
     8
280
     0
  0
ATTDEF
  5
AC
330
9E
100
AcDbEntity
  8
attrib
100
AcDbText
 10
59.0
 20
-111.0
 30
0.0
 40
0.5
  1
10
100
AcDbAttributeDefinition
  3

  2
QNT
 70
     8
280
     0
  0
ATTDEF
  5
AD
330
9E
100
AcDbEntity
  8
attrib
100
AcDbText
 10
59.0
 20
-111.5
 30
0.0
 40
0.5
  1
54.0
100
AcDbAttributeDefinition
  3

  2
W
 70
     8
280
     0
  0
ATTDEF
  5
AE
330
9E
100
AcDbEntity
  8
attrib
100
AcDbText
 10
59.0
 20
-112.0
 30
0.0
 40
0.5
  1
57
100
AcDbAttributeDefinition
  3

  2
H
 70
     8
280
     0
  0
ATTDEF
  5
AF
330
9E
100
AcDbEntity
  8
attrib
100
AcDbText
 10
59.0
 20
-112.5
 30
0.0
 40
0.5
  1
19
100
AcDbAttributeDefinition
  3

  2
D
 70
     8
280
     0
  0
ATTDEF
  5
B0
330
9E
100
AcDbEntity
  8
attrib
100
AcDbText
 10
59.0
 20
-113.0
 30
0.0
 40
0.5
  1

100
AcDbAttributeDefinition
  3

  2
SCR
 70
     8
280
     0
  0
ATTDEF
  5
B1
330
9E
100
AcDbEntity
  8
attrib
100
AcDbText
 10
59.0
 20
-113.5
 30
0.0
 40
0.5
  1

100
AcDbAttributeDefinition
  3

  2
IPR
 70
     8
280
     0
  0
ATTDEF
  5
B2
330
9E
100
AcDbEntity
  8
attrib
100
AcDbText
 10
59.0
 20
-114.0
 30
0.0
 40
0.5
  1

100
AcDbAttributeDefinition
  3

  2
SEARCH
 70
     8
280
     0
  0
ATTDEF
  5
B3
330
9E
100
AcDbEntity
  8
attrib
100
AcDbText
 10
59.0
 20
-114.5
 30
0.0
 40
0.5
  1

100
AcDbAttributeDefinition
  3

  2
EDZ
 70
     8
280
     0
  0
ATTDEF
  5
B4
330
9E
100
AcDbEntity
  8
attrib
100
AcDbText
 10
59.0
 20
-115.0
 30
0.0
 40
0.5
  1

100
AcDbAttributeDefinition
  3

  2
IODD
 70
     8
280
     0
  0
ATTDEF
  5
B5
330
9E
100
AcDbEntity
  8
attrib
100
AcDbText
 10
59.0
 20
-115.5
 30
0.0
 40
0.5
  1
Product link
100
AcDbAttributeDefinition
  3

  2
LINK
 70
     8
280
     0
  0
ATTDEF
  5
B6
330
9E
100
AcDbEntity
  8
attrib
100
AcDbText
 10
59.0
 20
-116.0
 30
0.0
 40
0.5
  1
www.woehner.de/en/products/32948.html 
100
AcDbAttributeDefinition
  3

  2
LINKEN
 70
     8
280
     0
  0
ATTDEF
  5
B7
330
9E
100
AcDbEntity
  8
attrib
100
AcDbText
 10
59.0
 20
-116.5
 30
0.0
 40
0.5
  1
www.woehner.de/de/produkte/32948.html 
100
AcDbAttributeDefinition
  3

  2
LINKDE
 70
     8
280
     0
  0
ATTDEF
  5
B8
330
9E
100
AcDbEntity
  8
attrib
100
AcDbText
 10
59.0
 20
-117.0
 30
0.0
 40
0.5
  1
woehner
100
AcDbAttributeDefinition
  3

  2
COMPANY
 70
     8
280
     0
  0
ATTDEF
  5
B9
330
9E
100
AcDbEntity
  8
attrib
100
AcDbText
 10
59.0
 20
-117.5
 30
0.0
 40
0.5
  1
{$CADENAS_DATA/23d-libs/woehner/sys_60classic/accessories_sys_60classic/parts/mounting_rail_body.prj},193 {VTYP=3D},{NB=32948b},{LINA=32948000},{NN=Switch-disconnector-fuse, 3-pole},{DATE=26.01.2024 06:49:05},{GEOMDATE=26.09.2023 07:33:00},{VERSION=v23092
100
AcDbAttributeDefinition
  3

  2
PSOL_0
 70
     9
280
     0
  0
ATTDEF
  5
BA
330
9E
100
AcDbEntity
  8
attrib
100
AcDbText
 10
59.0
 20
-118.0
 30
0.0
 40
0.5
  1
9135048},{LINEID=30},{WBVAR=},{WBNUMERIC=}  {NB=32948b},{LINA=32948000},{KT=DUMMY},{BOM=32948000},{ARTNR=32948},{POF=CAPUS®CrossBoard},{TYPE=TS35-L},{QNT=10},{W=54.0},{H=57},{D=19},{SCR=},{IPR=},{SEARCH=},{EDZ=},{IODD=},{LINK=Product link},{LINKEN=www.woe
100
AcDbAttributeDefinition
  3

  2
PSOL_1
 70
     9
280
     0
  0
ATTDEF
  5
BB
330
9E
100
AcDbEntity
  8
attrib
100
AcDbText
 10
59.0
 20
-118.5
 30
0.0
 40
0.5
  1
hner.de/en/products/32948.html },{LINKDE=www.woehner.de/de/produkte/32948.html },{DIST=4},{LINKX=https://www.woehner.de/de/produkte/32948.html }
100
AcDbAttributeDefinition
  3

  2
PSOL_2
 70
     9
280
     0
  0
LINE
  5
BC
330
9E
100
AcDbEntity
  8
hidden
100
AcDbLine
 10
47.9765
 20
-127.4223036771379
 30
0.0
 11
47.9765
 21
-143.0776963228621
 31
0.0
  0
LINE
  5
BD
330
9E
100
AcDbEntity
  8
hidden
100
AcDbLine
 10
47.9765
 20
-119.9223036771379
 30
0.0
 11
47.9765
 21
-124.5776963228621
 31
0.0
  0
LINE
  5
BE
330
9E
100
AcDbEntity
  8
hidden
100
AcDbLine
 10
47.9765
 20
-106.0
 30
0.0
 11
47.9765
 21
-117.0776963228621
 31
0.0
  0
LINE
  5
BF
330
9E
100
AcDbEntity
  8
hidden
100
AcDbLine
 10
47.9765
 20
-145.9223036771379
 30
0.0
 11
47.9765
 21
-150.5776963228621
 31
0.0
  0
LINE
  5
C0
330
9E
100
AcDbEntity
  8
hidden
100
AcDbLine
 10
47.9765
 20
-153.4223036771379
 30
0.0
 11
47.9765
 21
-163.0
 31
0.0
  0
LINE
  5
C1
330
9E
100
AcDbEntity
  8
hidden
100
AcDbLine
 10
6.023500000000001
 20
-106.0
 30
0.0
 11
6.023500000000001
 21
-117.0776963228621
 31
0.0
  0
LINE
  5
C2
330
9E
100
AcDbEntity
  8
hidden
100
AcDbLine
 10
6.023500000000001
 20
-119.9223036771379
 30
0.0
 11
6.023500000000001
 21
-124.5776963228621
 31
0.0
  0
LINE
  5
C3
330
9E
100
AcDbEntity
  8
hidden
100
AcDbLine
 10
6.023500000000001
 20
-127.4223036771379
 30
0.0
 11
6.023500000000001
 21
-143.0776963228621
 31
0.0
  0
LINE
  5
C4
330
9E
100
AcDbEntity
  8
hidden
100
AcDbLine
 10
6.023500000000001
 20
-145.9223036771379
 30
0.0
 11
6.023500000000001
 21
-150.5776963228621
 31
0.0
  0
LINE
  5
C5
330
9E
100
AcDbEntity
  8
hidden
100
AcDbLine
 10
6.023500000000001
 20
-153.4223036771379
 30
0.0
 11
6.023500000000001
 21
-163.0
 31
0.0
  0
LINE
  5
C6
330
9E
100
AcDbEntity
  8
hidden
100
AcDbLine
 10
2.999999999999999
 20
-106.0
 30
0.0
 11
2.999999999999999
 21
-163.0
 31
0.0
  0
LINE
  5
C7
330
9E
100
AcDbEntity
  8
hidden
100
AcDbLine
 10
51.00000000000001
 20
-106.0
 30
0.0
 11
51.00000000000001
 21
-163.0
 31
0.0
  0
LINE
  5
C8
330
9E
100
AcDbEntity
  8
hidden
100
AcDbLine
 10
15.5
 20
-137.0
 30
0.0
 11
15.5
 21
-141.0
 31
0.0
  0
LINE
  5
C9
330
9E
100
AcDbEntity
  8
hidden
100
AcDbLine
 10
38.5
 20
-137.0
 30
0.0
 11
15.5
 21
-137.0
 31
0.0
  0
LINE
  5
CA
330
9E
100
AcDbEntity
  8
hidden
100
AcDbLine
 10
38.5
 20
-141.0
 30
0.0
 11
38.5
 21
-137.0
 31
0.0
  0
LINE
  5
CB
330
9E
100
AcDbEntity
  8
hidden
100
AcDbLine
 10
54.0
 20
-111.0
 30
0.0
 11
0.0
 21
-111.0
 31
0.0
  0
LINE
  5
CC
330
9E
100
AcDbEntity
  8
hidden
100
AcDbLine
 10
54.0
 20
-136.0
 30
0.0
 11
0.0
 21
-136.0
 31
0.0
  0
CIRCLE
  5
CD
330
9E
100
AcDbEntity
  8
hidden
100
AcDbCircle
 10
47.50000000000006
 20
-118.5000000000001
 30
0.0
 40
1.500000000000071
  0
LINE
  5
D0
330
9E
100
AcDbEntity
  8
center
100
AcDbLine
 10
44.875
 20
-152.0
 30
0.0
 11
50.125
 21
-152.0
 31
0.0
  0
LINE
  5
D1
330
9E
100
AcDbEntity
  8
center
100
AcDbLine
 10
3.874999999999999
 20
-144.5
 30
0.0
 11
9.125
 21
-144.5
 31
0.0
  0
LINE
  5
D2
330
9E
100
AcDbEntity
  8
center
100
AcDbLine
 10
6.499999999999999
 20
-147.125
 30
0.0
 11
6.499999999999999
 21
-141.875
 31
0.0
  0
LINE
  5
D3
330
9E
100
AcDbEntity
  8
center
100
AcDbLine
 10
44.875
 20
-144.5
 30
0.0
 11
50.125
 21
-144.5
 31
0.0
  0
LINE
  5
D4
330
9E
100
AcDbEntity
  8
center
100
AcDbLine
 10
47.5
 20
-147.125
 30
0.0
 11
47.5
 21
-141.875
 31
0.0
  0
LINE
  5
D5
330
9E
100
AcDbEntity
  8
center
100
AcDbLine
 10
3.874999999999999
 20
-152.0
 30
0.0
 11
9.125
 21
-152.0
 31
0.0
  0
LINE
  5
D6
330
9E
100
AcDbEntity
  8
center
100
AcDbLine
 10
3.874999999999996
 20
-118.5
 30
0.0
 11
9.125000000000002
 21
-118.5
 31
0.0
  0
LINE
  5
D7
330
9E
100
AcDbEntity
  8
center
100
AcDbLine
 10
6.499999999999999
 20
-121.125
 30
0.0
 11
6.499999999999999
 21
-115.875
 31
0.0
  0
LINE
  5
D8
330
9E
100
AcDbEntity
  8
center
100
AcDbLine
 10
3.874999999999996
 20
-126.0
 30
0.0
 11
9.125000000000002
 21
-126.0
 31
0.0
  0
LINE
  5
D9
330
9E
100
AcDbEntity
  8
center
100
AcDbLine
 10
44.875
 20
-126.0
 30
0.0
 11
50.125
 21
-126.0
 31
0.0
  0
LINE
  5
DA
330
9E
100
AcDbEntity
  8
center
100
AcDbLine
 10
44.875
 20
-118.5
 30
0.0
 11
50.125
 21
-118.5
 31
0.0
  0
LINE
  5
DB
330
9E
100
AcDbEntity
  8
center
100
AcDbLine
 10
47.5
 20
-121.125
 30
0.0
 11
47.5
 21
-115.875
 31
0.0
  0
CIRCLE
  5
DC
330
9E
100
AcDbEntity
  8
bold
100
AcDbCircle
 10
6.499999999999999
 20
-126.0
 30
0.0
 40
1.500000000000001
  0
CIRCLE
  5
DD
330
9E
100
AcDbEntity
  8
bold
100
AcDbCircle
 10
47.5
 20
-152.0
 30
0.0
 40
1.500000000000001
  0
CIRCLE
  5
DE
330
9E
100
AcDbEntity
  8
bold
100
AcDbCircle
 10
6.499999999999999
 20
-118.5
 30
0.0
 40
1.500000000000001
  0
CIRCLE
  5
DF
330
9E
100
AcDbEntity
  8
bold
100
AcDbCircle
 10
6.499999999999999
 20
-144.5
 30
0.0
 40
1.500000000000001
  0
CIRCLE
  5
E0
330
9E
100
AcDbEntity
  8
bold
100
AcDbCircle
 10
47.5
 20
-144.5
 30
0.0
 40
1.500000000000001
  0
CIRCLE
  5
E1
330
9E
100
AcDbEntity
  8
bold
100
AcDbCircle
 10
47.5
 20
-126.0
 30
0.0
 40
1.500000000000001
  0
CIRCLE
  5
E2
330
9E
100
AcDbEntity
  8
bold
100
AcDbCircle
 10
6.499999999999999
 20
-152.0
 30
0.0
 40
1.500000000000001
  0
CIRCLE
  5
E3
330
9E
100
AcDbEntity
  8
bold
100
AcDbCircle
 10
47.5
 20
-152.0
 30
0.0
 40
2.5
  0
CIRCLE
  5
E4
330
9E
100
AcDbEntity
  8
bold
100
AcDbCircle
 10
6.499999999999999
 20
-144.5
 30
0.0
 40
2.5
  0
CIRCLE
  5
E5
330
9E
100
AcDbEntity
  8
bold
100
AcDbCircle
 10
47.5
 20
-144.5
 30
0.0
 40
2.5
  0
CIRCLE
  5
E6
330
9E
100
AcDbEntity
  8
bold
100
AcDbCircle
 10
6.499999999999999
 20
-152.0
 30
0.0
 40
2.5
  0
LINE
  5
E7
330
9E
100
AcDbEntity
  8
bold
100
AcDbLine
 10
0.0
 20
-163.0
 30
0.0
 11
15.5
 21
-163.0
 31
0.0
  0
LINE
  5
E8
330
9E
100
AcDbEntity
  8
bold
100
AcDbLine
 10
15.5
 20
-141.0
 30
0.0
 11
15.5
 21
-163.0
 31
0.0
  0
LINE
  5
E9
330
9E
100
AcDbEntity
  8
bold
100
AcDbLine
 10
38.5
 20
-163.0
 30
0.0
 11
38.5
 21
-141.0
 31
0.0
  0
LINE
  5
EA
330
9E
100
AcDbEntity
  8
bold
100
AcDbLine
 10
38.5
 20
-163.0
 30
0.0
 11
54.0
 21
-163.0
 31
0.0
  0
CIRCLE
  5
EB
330
9E
100
AcDbEntity
  8
bold
100
AcDbCircle
 10
6.499999999999999
 20
-118.5
 30
0.0
 40
2.500000000000002
  0
CIRCLE
  5
EC
330
9E
100
AcDbEntity
  8
bold
100
AcDbCircle
 10
6.499999999999999
 20
-126.0
 30
0.0
 40
2.500000000000002
  0
CIRCLE
  5
ED
330
9E
100
AcDbEntity
  8
bold
100
AcDbCircle
 10
47.5
 20
-126.0
 30
0.0
 40
2.500000000000002
  0
CIRCLE
  5
EE
330
9E
100
AcDbEntity
  8
bold
100
AcDbCircle
 10
47.5
 20
-118.5
 30
0.0
 40
2.500000000000002
  0
LINE
  5
EF
330
9E
100
AcDbEntity
  8
bold
100
AcDbLine
 10
54.0
 20
-141.0
 30
0.0
 11
0.0
 21
-141.0
 31
0.0
  0
LINE
  5
F0
330
9E
100
AcDbEntity
  8
bold
100
AcDbLine
 10
54.0
 20
-134.0
 30
0.0
 11
0.0
 21
-134.0
 31
0.0
  0
LINE
  5
F1
330
9E
100
AcDbEntity
  8
bold
100
AcDbLine
 10
54.0
 20
-113.0
 30
0.0
 11
0.0
 21
-113.0
 31
0.0
  0
LINE
  5
F2
330
9E
100
AcDbEntity
  8
bold
100
AcDbLine
 10
54.0
 20
-106.0
 30
0.0
 11
54.0
 21
-163.0
 31
0.0
  0
LINE
  5
F3
330
9E
100
AcDbEntity
  8
bold
100
AcDbLine
 10
0.0
 20
-106.0
 30
0.0
 11
54.0
 21
-106.0
 31
0.0
  0
LINE
  5
F4
330
9E
100
AcDbEntity
  8
bold
100
AcDbLine
 10
0.0
 20
-106.0
 30
0.0
 11
0.0
 21
-163.0
 31
0.0
  0
ENDBLK
  5
A1
330
9E
100
AcDbEntity
  8
0
100
AcDbBlockEnd
  0
BLOCK
  5
F7
330
F5
100
AcDbEntity
  8
0
100
AcDbBlockBegin
  2
3_80034CrossBoardScrew_2_0_in_32478_0
 70
     2
 10
0.0
 20
0.0
 30
0.0
  3
3_80034CrossBoardScrew_2_0_in_32478_0
  1

  0
ATTDEF
  5
F9
330
F5
100
AcDbEntity
  8
attrib
100
AcDbText
 10
54.95832767577082
 20
-21.3202185599621
 30
0.0
 40
0.5
  1
80034CrossBoardScrew
100
AcDbAttributeDefinition
  3

  2
NB
 70
     8
280
     0
  0
ATTDEF
  5
FA
330
F5
100
AcDbEntity
  8
attrib
100
AcDbText
 10
54.95832767577082
 20
-21.8202185599621
 30
0.0
 40
0.5
  1
32668 Screw
100
AcDbAttributeDefinition
  3

  2
NN
 70
     8
280
     0
  0
ATTDEF
  5
FB
330
F5
100
AcDbEntity
  8
attrib
100
AcDbText
 10
54.95832767577082
 20
-22.3202185599621
 30
0.0
 40
0.5
  1

100
AcDbAttributeDefinition
  3

  2
NT
 70
     8
280
     0
  0
ATTDEF
  5
FC
330
F5
100
AcDbEntity
  8
attrib
100
AcDbText
 10
54.95832767577082
 20
-22.8202185599621
 30
0.0
 40
0.5
  1
$ARTNR.$SYSTEM.$MODEL.
100
AcDbAttributeDefinition
  3

  2
NBSYN
 70
     8
280
     0
  0
ATTDEF
  5
FD
330
F5
100
AcDbEntity
  8
attrib
100
AcDbText
 10
54.95832767577082
 20
-23.3202185599621
 30
0.0
 40
0.5
  1
80034
100
AcDbAttributeDefinition
  3

  2
LINA
 70
     8
280
     0
  0
ATTDEF
  5
FE
330
F5
100
AcDbEntity
  8
attrib
100
AcDbText
 10
54.95832767577082
 20
-23.8202185599621
 30
0.0
 40
0.5
  1
Wöhner
100
AcDbAttributeDefinition
  3

  2
CATALOG
 70
     8
280
     0
  0
ATTDEF
  5
FF
330
F5
100
AcDbEntity
  8
attrib
100
AcDbText
 10
54.95832767577082
 20
-24.3202185599621
 30
0.0
 40
0.5
  1
80034
100
AcDbAttributeDefinition
  3

  2
ARTNR
 70
     8
280
     0
  0
ATTDEF
  5
100
330
F5
100
AcDbEntity
  8
attrib
100
AcDbText
 10
54.95832767577082
 20
-24.8202185599621
 30
0.0
 40
0.5
  1
CrossBoard
100
AcDbAttributeDefinition
  3

  2
SYSTEM
 70
     8
280
     0
  0
ATTDEF
  5
101
330
F5
100
AcDbEntity
  8
attrib
100
AcDbText
 10
54.95832767577082
 20
-25.3202185599621
 30
0.0
 40
0.5
  1
Screw
100
AcDbAttributeDefinition
  3

  2
MODEL
 70
     8
280
     0
  0
ATTDEF
  5
102
330
F5
100
AcDbEntity
  8
attrib
100
AcDbText
 10
54.95832767577082
 20
-25.8202185599621
 30
0.0
 40
0.5
  1
woehner
100
AcDbAttributeDefinition
  3

  2
COMPANY
 70
     8
280
     0
  0
ATTDEF
  5
103
330
F5
100
AcDbEntity
  8
attrib
100
AcDbText
 10
54.95832767577082
 20
-26.3202185599621
 30
0.0
 40
0.5
  1
{$CADENAS_DATA/23d-libs/woehner/sys_crossboard/parts/32668_screw.prj},170 {VTYP=3D},{NB=80034CrossBoardScrew},{LINA=80034},{NN=32668 Screw},{DATE=19.01.2024 08:52:31},{GEOMDATE=27.01.2022 06:14:50},{VERSION=},{LINEID=10},{WBVAR=},{WBNUMERIC=}  {NB=80034Cr
100
AcDbAttributeDefinition
  3

  2
PSOL_0
 70
     9
280
     0
  0
ATTDEF
  5
104
330
F5
100
AcDbEntity
  8
attrib
100
AcDbText
 10
54.95832767577082
 20
-26.8202185599621
 30
0.0
 40
0.5
  1
ossBoardScrew},{LINA=80034},{KT=DUMMY},{ARTNR=80034},{SYSTEM=CrossBoard},{MODEL=Screw}
100
AcDbAttributeDefinition
  3

  2
PSOL_1
 70
     9
280
     0
  0
CIRCLE
  5
105
330
F5
100
AcDbEntity
  8
hidden
100
AcDbCircle
 10
47.5
 20
-23.5
 30
0.0
 40
1.25
  0
LINE
  5
106
330
F5
100
AcDbEntity
  8
bold
100
AcDbLine
 10
48.4
 20
-23.0
 30
0.0
 11
49.90904754547643
 21
-23.0
 31
0.0
  0
LINE
  5
107
330
F5
100
AcDbEntity
  8
bold
100
AcDbLine
 10
49.90904754547643
 20
-24.0
 30
0.0
 11
48.4
 21
-24.0
 31
0.0
  0
LINE
  5
108
330
F5
100
AcDbEntity
  8
bold
100
AcDbLine
 10
45.09095245452357
 20
-23.0
 30
0.0
 11
46.6
 21
-23.0
 31
0.0
  0
LINE
  5
109
330
F5
100
AcDbEntity
  8
bold
100
AcDbLine
 10
46.6
 20
-24.0
 30
0.0
 11
45.09095245452357
 21
-24.0
 31
0.0
  0
ARC
  5
10A
330
F5
100
AcDbEntity
  8
bold
100
AcDbCircle
 10
47.5000000000001
 20
-23.5
 30
0.0
 40
2.460388196274415
100
AcDbArc
 50
168.2746827725546
 51
191.7253172274454
  0
ARC
  5
10B
330
F5
100
AcDbEntity
  8
bold
100
AcDbCircle
 10
47.4999999999999
 20
-23.5
 30
0.0
 40
2.460388196274415
100
AcDbArc
 50
348.2746827725545
 51
11.72531722744541
  0
LWPOLYLINE
  5
10C
330
F5
100
AcDbEntity
  8
bold
100
AcDbPolyline
 90
        6
 70
     0
 43
0.0
 10
48.4
 20
-23.0
 10
48.27128350595047
 20
-22.9787242587419
 10
48.15453491934166
 20
-22.91582731702213
 10
48.06647619406623
 20
-22.82082090226119
 10
48.01406495610961
 20
-22.70513867935886
 10
48.0
 20
-22.6
  0
ARC
  5
10D
330
F5
100
AcDbEntity
  8
light
100
AcDbCircle
 10
47.5
 20
-23.49999999999999
 30
0.0
 40
2.181818161107071
100
AcDbArc
 50
13.2480150337249
 51
166.7519849662751
  0
LWPOLYLINE
  5
10E
330
F5
100
AcDbEntity
  8
bold
100
AcDbPolyline
 90
        6
 70
     0
 43
0.0
 10
47.0
 20
-22.6
 10
46.9787242587419
 20
-22.72871649404953
 10
46.91582731702213
 20
-22.84546508065834
 10
46.8208209022612
 20
-22.93352380593377
 10
46.70513867935886
 20
-22.98593504389039
 10
46.6
 20
-23.0
  0
LINE
  5
10F
330
F5
100
AcDbEntity
  8
bold
100
AcDbLine
 10
47.0
 20
-22.6
 30
0.0
 11
47.0
 21
-22.0
 31
0.0
  0
LINE
  5
110
330
F5
100
AcDbEntity
  8
bold
100
AcDbLine
 10
47.0
 20
-22.0
 30
0.0
 11
48.0
 21
-22.0
 31
0.0
  0
LINE
  5
111
330
F5
100
AcDbEntity
  8
bold
100
AcDbLine
 10
48.0
 20
-22.0
 30
0.0
 11
48.0
 21
-22.6
 31
0.0
  0
LWPOLYLINE
  5
112
330
F5
100
AcDbEntity
  8
bold
100
AcDbPolyline
 90
        6
 70
     0
 43
0.0
 10
46.6
 20
-24.0
 10
46.72871649404953
 20
-24.0212757412581
 10
46.84546508065834
 20
-24.08417268297787
 10
46.93352380593377
 20
-24.17917909773881
 10
46.98593504389039
 20
-24.29486132064114
 10
47.0
 20
-24.4
  0
ARC
  5
113
330
F5
100
AcDbEntity
  8
light
100
AcDbCircle
 10
47.5
 20
-23.50000000000001
 30
0.0
 40
2.181818161107071
100
AcDbArc
 50
193.2480150337249
 51
346.7519849662751
  0
LWPOLYLINE
  5
114
330
F5
100
AcDbEntity
  8
bold
100
AcDbPolyline
 90
        6
 70
     0
 43
0.0
 10
48.0
 20
-24.4
 10
48.02127574125811
 20
-24.27128350595047
 10
48.08417268297787
 20
-24.15453491934166
 10
48.1791790977388
 20
-24.06647619406623
 10
48.29486132064114
 20
-24.01406495610961
 10
48.4
 20
-24.0
  0
LINE
  5
115
330
F5
100
AcDbEntity
  8
bold
100
AcDbLine
 10
48.0
 20
-24.4
 30
0.0
 11
48.0
 21
-25.0
 31
0.0
  0
LINE
  5
116
330
F5
100
AcDbEntity
  8
bold
100
AcDbLine
 10
48.0
 20
-25.0
 30
0.0
 11
47.0
 21
-25.0
 31
0.0
  0
LINE
  5
117
330
F5
100
AcDbEntity
  8
bold
100
AcDbLine
 10
47.0
 20
-25.0
 30
0.0
 11
47.0
 21
-24.4
 31
0.0
  0
ENDBLK
  5
F8
330
F5
100
AcDbEntity
  8
0
100
AcDbBlockEnd
  0
BLOCK
  5
11A
330
118
100
AcDbEntity
  8
0
100
AcDbBlockBegin
  2
4_32948b_2_0_in_32478_0
 70
     2
 10
0.0
 20
0.0
 30
0.0
  3
4_32948b_2_0_in_32478_0
  1

  0
ATTDEF
  5
11C
330
118
100
AcDbEntity
  8
attrib
100
AcDbText
 10
59.0
 20
-11.0
 30
0.0
 40
0.5
  1
32948b
100
AcDbAttributeDefinition
  3

  2
NB
 70
     8
280
     0
  0
ATTDEF
  5
11D
330
118
100
AcDbEntity
  8
attrib
100
AcDbText
 10
59.0
 20
-11.5
 30
0.0
 40
0.5
  1
Switch-disconnector-fuse, 3-pole
100
AcDbAttributeDefinition
  3

  2
NN
 70
     8
280
     0
  0
ATTDEF
  5
11E
330
118
100
AcDbEntity
  8
attrib
100
AcDbText
 10
59.0
 20
-12.0
 30
0.0
 40
0.5
  1

100
AcDbAttributeDefinition
  3

  2
NT
 70
     8
280
     0
  0
ATTDEF
  5
11F
330
118
100
AcDbEntity
  8
attrib
100
AcDbText
 10
59.0
 20
-12.5
 30
0.0
 40
0.5
  1
$ARTNR.b
100
AcDbAttributeDefinition
  3

  2
NBSYN
 70
     8
280
     0
  0
ATTDEF
  5
120
330
118
100
AcDbEntity
  8
attrib
100
AcDbText
 10
59.0
 20
-13.0
 30
0.0
 40
0.5
  1
32948000
100
AcDbAttributeDefinition
  3

  2
LINA
 70
     8
280
     0
  0
ATTDEF
  5
121
330
118
100
AcDbEntity
  8
attrib
100
AcDbText
 10
59.0
 20
-13.5
 30
0.0
 40
0.5
  1
Wöhner
100
AcDbAttributeDefinition
  3

  2
CATALOG
 70
     8
280
     0
  0
ATTDEF
  5
122
330
118
100
AcDbEntity
  8
attrib
100
AcDbText
 10
59.0
 20
-14.0
 30
0.0
 40
0.5
  1
32948000
100
AcDbAttributeDefinition
  3

  2
BOM
 70
     8
280
     0
  0
ATTDEF
  5
123
330
118
100
AcDbEntity
  8
attrib
100
AcDbText
 10
59.0
 20
-14.5
 30
0.0
 40
0.5
  1
32948
100
AcDbAttributeDefinition
  3

  2
ARTNR
 70
     8
280
     0
  0
ATTDEF
  5
124
330
118
100
AcDbEntity
  8
attrib
100
AcDbText
 10
59.0
 20
-15.0
 30
0.0
 40
0.5
  1
CAPUS®CrossBoard
100
AcDbAttributeDefinition
  3

  2
POF
 70
     8
280
     0
  0
ATTDEF
  5
125
330
118
100
AcDbEntity
  8
attrib
100
AcDbText
 10
59.0
 20
-15.5
 30
0.0
 40
0.5
  1
TS35-L
100
AcDbAttributeDefinition
  3

  2
TYPE
 70
     8
280
     0
  0
ATTDEF
  5
126
330
118
100
AcDbEntity
  8
attrib
100
AcDbText
 10
59.0
 20
-16.0
 30
0.0
 40
0.5
  1
10
100
AcDbAttributeDefinition
  3

  2
QNT
 70
     8
280
     0
  0
ATTDEF
  5
127
330
118
100
AcDbEntity
  8
attrib
100
AcDbText
 10
59.0
 20
-16.5
 30
0.0
 40
0.5
  1
54.0
100
AcDbAttributeDefinition
  3

  2
W
 70
     8
280
     0
  0
ATTDEF
  5
128
330
118
100
AcDbEntity
  8
attrib
100
AcDbText
 10
59.0
 20
-17.0
 30
0.0
 40
0.5
  1
57
100
AcDbAttributeDefinition
  3

  2
H
 70
     8
280
     0
  0
ATTDEF
  5
129
330
118
100
AcDbEntity
  8
attrib
100
AcDbText
 10
59.0
 20
-17.5
 30
0.0
 40
0.5
  1
19
100
AcDbAttributeDefinition
  3

  2
D
 70
     8
280
     0
  0
ATTDEF
  5
12A
330
118
100
AcDbEntity
  8
attrib
100
AcDbText
 10
59.0
 20
-18.0
 30
0.0
 40
0.5
  1

100
AcDbAttributeDefinition
  3

  2
SCR
 70
     8
280
     0
  0
ATTDEF
  5
12B
330
118
100
AcDbEntity
  8
attrib
100
AcDbText
 10
59.0
 20
-18.5
 30
0.0
 40
0.5
  1

100
AcDbAttributeDefinition
  3

  2
IPR
 70
     8
280
     0
  0
ATTDEF
  5
12C
330
118
100
AcDbEntity
  8
attrib
100
AcDbText
 10
59.0
 20
-19.0
 30
0.0
 40
0.5
  1

100
AcDbAttributeDefinition
  3

  2
SEARCH
 70
     8
280
     0
  0
ATTDEF
  5
12D
330
118
100
AcDbEntity
  8
attrib
100
AcDbText
 10
59.0
 20
-19.5
 30
0.0
 40
0.5
  1

100
AcDbAttributeDefinition
  3

  2
EDZ
 70
     8
280
     0
  0
ATTDEF
  5
12E
330
118
100
AcDbEntity
  8
attrib
100
AcDbText
 10
59.0
 20
-20.0
 30
0.0
 40
0.5
  1

100
AcDbAttributeDefinition
  3

  2
IODD
 70
     8
280
     0
  0
ATTDEF
  5
12F
330
118
100
AcDbEntity
  8
attrib
100
AcDbText
 10
59.0
 20
-20.5
 30
0.0
 40
0.5
  1
Product link
100
AcDbAttributeDefinition
  3

  2
LINK
 70
     8
280
     0
  0
ATTDEF
  5
130
330
118
100
AcDbEntity
  8
attrib
100
AcDbText
 10
59.0
 20
-21.0
 30
0.0
 40
0.5
  1
www.woehner.de/en/products/32948.html 
100
AcDbAttributeDefinition
  3

  2
LINKEN
 70
     8
280
     0
  0
ATTDEF
  5
131
330
118
100
AcDbEntity
  8
attrib
100
AcDbText
 10
59.0
 20
-21.5
 30
0.0
 40
0.5
  1
www.woehner.de/de/produkte/32948.html 
100
AcDbAttributeDefinition
  3

  2
LINKDE
 70
     8
280
     0
  0
ATTDEF
  5
132
330
118
100
AcDbEntity
  8
attrib
100
AcDbText
 10
59.0
 20
-22.0
 30
0.0
 40
0.5
  1
woehner
100
AcDbAttributeDefinition
  3

  2
COMPANY
 70
     8
280
     0
  0
ATTDEF
  5
133
330
118
100
AcDbEntity
  8
attrib
100
AcDbText
 10
59.0
 20
-22.5
 30
0.0
 40
0.5
  1
{$CADENAS_DATA/23d-libs/woehner/sys_60classic/accessories_sys_60classic/parts/mounting_rail_body.prj},193 {VTYP=3D},{NB=32948b},{LINA=32948000},{NN=Switch-disconnector-fuse, 3-pole},{DATE=26.01.2024 06:49:05},{GEOMDATE=26.09.2023 07:33:00},{VERSION=v23092
100
AcDbAttributeDefinition
  3

  2
PSOL_0
 70
     9
280
     0
  0
ATTDEF
  5
134
330
118
100
AcDbEntity
  8
attrib
100
AcDbText
 10
59.0
 20
-23.0
 30
0.0
 40
0.5
  1
9135048},{LINEID=30},{WBVAR=},{WBNUMERIC=}  {NB=32948b},{LINA=32948000},{KT=DUMMY},{BOM=32948000},{ARTNR=32948},{POF=CAPUS®CrossBoard},{TYPE=TS35-L},{QNT=10},{W=54.0},{H=57},{D=19},{SCR=},{IPR=},{SEARCH=},{EDZ=},{IODD=},{LINK=Product link},{LINKEN=www.woe
100
AcDbAttributeDefinition
  3

  2
PSOL_1
 70
     9
280
     0
  0
ATTDEF
  5
135
330
118
100
AcDbEntity
  8
attrib
100
AcDbText
 10
59.0
 20
-23.5
 30
0.0
 40
0.5
  1
hner.de/en/products/32948.html },{LINKDE=www.woehner.de/de/produkte/32948.html },{DIST=4},{LINKX=https://www.woehner.de/de/produkte/32948.html }
100
AcDbAttributeDefinition
  3

  2
PSOL_2
 70
     9
280
     0
  0
LINE
  5
136
330
118
100
AcDbEntity
  8
hidden
100
AcDbLine
 10
47.9765
 20
-50.92230367713791
 30
0.0
 11
47.9765
 21
-55.5776963228621
 31
0.0
  0
LINE
  5
137
330
118
100
AcDbEntity
  8
hidden
100
AcDbLine
 10
47.9765
 20
-24.92230367713791
 30
0.0
 11
47.9765
 21
-29.5776963228621
 31
0.0
  0
LINE
  5
138
330
118
100
AcDbEntity
  8
hidden
100
AcDbLine
 10
47.9765
 20
-58.42230367713791
 30
0.0
 11
47.9765
 21
-68.0
 31
0.0
  0
LINE
  5
139
330
118
100
AcDbEntity
  8
hidden
100
AcDbLine
 10
47.9765
 20
-32.42230367713791
 30
0.0
 11
47.9765
 21
-48.0776963228621
 31
0.0
  0
LINE
  5
13A
330
118
100
AcDbEntity
  8
hidden
100
AcDbLine
 10
47.9765
 20
-11.0
 30
0.0
 11
47.9765
 21
-22.0776963228621
 31
0.0
  0
LINE
  5
13B
330
118
100
AcDbEntity
  8
hidden
100
AcDbLine
 10
6.023500000000001
 20
-58.4223036771379
 30
0.0
 11
6.023500000000001
 21
-68.0
 31
0.0
  0
LINE
  5
13C
330
118
100
AcDbEntity
  8
hidden
100
AcDbLine
 10
6.023500000000001
 20
-50.92230367713791
 30
0.0
 11
6.023500000000001
 21
-55.5776963228621
 31
0.0
  0
LINE
  5
13D
330
118
100
AcDbEntity
  8
hidden
100
AcDbLine
 10
6.023500000000001
 20
-11.0
 30
0.0
 11
6.023500000000001
 21
-22.0776963228621
 31
0.0
  0
LINE
  5
13E
330
118
100
AcDbEntity
  8
hidden
100
AcDbLine
 10
6.023500000000001
 20
-32.42230367713791
 30
0.0
 11
6.023500000000001
 21
-48.0776963228621
 31
0.0
  0
LINE
  5
13F
330
118
100
AcDbEntity
  8
hidden
100
AcDbLine
 10
6.023500000000001
 20
-24.92230367713791
 30
0.0
 11
6.023500000000001
 21
-29.5776963228621
 31
0.0
  0
LINE
  5
140
330
118
100
AcDbEntity
  8
hidden
100
AcDbLine
 10
51.00000000000001
 20
-11.0
 30
0.0
 11
51.00000000000001
 21
-68.0
 31
0.0
  0
LINE
  5
141
330
118
100
AcDbEntity
  8
hidden
100
AcDbLine
 10
2.999999999999999
 20
-11.0
 30
0.0
 11
2.999999999999999
 21
-68.0
 31
0.0
  0
LINE
  5
142
330
118
100
AcDbEntity
  8
hidden
100
AcDbLine
 10
15.5
 20
-42.0
 30
0.0
 11
15.5
 21
-46.0
 31
0.0
  0
LINE
  5
143
330
118
100
AcDbEntity
  8
hidden
100
AcDbLine
 10
38.5
 20
-46.0
 30
0.0
 11
38.5
 21
-42.0
 31
0.0
  0
LINE
  5
144
330
118
100
AcDbEntity
  8
hidden
100
AcDbLine
 10
38.5
 20
-42.0
 30
0.0
 11
15.5
 21
-42.0
 31
0.0
  0
LINE
  5
145
330
118
100
AcDbEntity
  8
hidden
100
AcDbLine
 10
54.0
 20
-16.0
 30
0.0
 11
0.0
 21
-16.0
 31
0.0
  0
LINE
  5
146
330
118
100
AcDbEntity
  8
hidden
100
AcDbLine
 10
54.0
 20
-41.00000000000001
 30
0.0
 11
0.0
 21
-41.00000000000001
 31
0.0
  0
CIRCLE
  5
147
330
118
100
AcDbEntity
  8
hidden
100
AcDbCircle
 10
47.49999999999999
 20
-23.49999999999995
 30
0.0
 40
1.499999999999946
  0
LINE
  5
148
330
118
100
AcDbEntity
  8
center
100
AcDbLine
 10
44.875
 20
-49.5
 30
0.0
 11
50.125
 21
-49.5
 31
0.0
  0
LINE
  5
149
330
118
100
AcDbEntity
  8
center
100
AcDbLine
 10
47.5
 20
-52.125
 30
0.0
 11
47.5
 21
-46.875
 31
0.0
  0
LINE
  5
14A
330
118
100
AcDbEntity
  8
center
100
AcDbLine
 10
3.874999999999999
 20
-49.5
 30
0.0
 11
9.125
 21
-49.5
 31
0.0
  0
LINE
  5
14B
330
118
100
AcDbEntity
  8
center
100
AcDbLine
 10
6.499999999999999
 20
-52.125
 30
0.0
 11
6.499999999999999
 21
-46.875
 31
0.0
  0
LINE
  5
14C
330
118
100
AcDbEntity
  8
center
100
AcDbLine
 10
3.874999999999999
 20
-57.00000000000001
 30
0.0
 11
9.125
 21
-57.00000000000001
 31
0.0
  0
LINE
  5
14D
330
118
100
AcDbEntity
  8
center
100
AcDbLine
 10
44.875
 20
-57.00000000000001
 30
0.0
 11
50.125
 21
-57.00000000000001
 31
0.0
  0
LINE
  5
14E
330
118
100
AcDbEntity
  8
center
100
AcDbLine
 10
44.875
 20
-31.00000000000001
 30
0.0
 11
50.125
 21
-31.00000000000001
 31
0.0
  0
LINE
  5
14F
330
118
100
AcDbEntity
  8
center
100
AcDbLine
 10
3.874999999999996
 20
-23.50000000000001
 30
0.0
 11
9.125000000000002
 21
-23.50000000000001
 31
0.0
  0
LINE
  5
150
330
118
100
AcDbEntity
  8
center
100
AcDbLine
 10
6.499999999999999
 20
-26.12500000000001
 30
0.0
 11
6.499999999999999
 21
-20.875
 31
0.0
  0
LINE
  5
151
330
118
100
AcDbEntity
  8
center
100
AcDbLine
 10
44.875
 20
-23.50000000000001
 30
0.0
 11
50.125
 21
-23.50000000000001
 31
0.0
  0
LINE
  5
152
330
118
100
AcDbEntity
  8
center
100
AcDbLine
 10
47.5
 20
-26.12500000000001
 30
0.0
 11
47.5
 21
-20.875
 31
0.0
  0
LINE
  5
153
330
118
100
AcDbEntity
  8
center
100
AcDbLine
 10
3.874999999999996
 20
-31.00000000000001
 30
0.0
 11
9.125000000000002
 21
-31.00000000000001
 31
0.0
  0
CIRCLE
  5
154
330
118
100
AcDbEntity
  8
bold
100
AcDbCircle
 10
47.5
 20
-57.00000000000001
 30
0.0
 40
1.500000000000001
  0
CIRCLE
  5
155
330
118
100
AcDbEntity
  8
bold
100
AcDbCircle
 10
47.5
 20
-49.5
 30
0.0
 40
1.500000000000001
  0
CIRCLE
  5
156
330
118
100
AcDbEntity
  8
bold
100
AcDbCircle
 10
6.499999999999999
 20
-49.5
 30
0.0
 40
1.500000000000001
  0
CIRCLE
  5
157
330
118
100
AcDbEntity
  8
bold
100
AcDbCircle
 10
6.499999999999999
 20
-23.50000000000001
 30
0.0
 40
1.500000000000001
  0
CIRCLE
  5
158
330
118
100
AcDbEntity
  8
bold
100
AcDbCircle
 10
6.499999999999999
 20
-31.00000000000001
 30
0.0
 40
1.500000000000001
  0
CIRCLE
  5
159
330
118
100
AcDbEntity
  8
bold
100
AcDbCircle
 10
6.499999999999999
 20
-57.00000000000001
 30
0.0
 40
1.500000000000001
  0
CIRCLE
  5
15A
330
118
100
AcDbEntity
  8
bold
100
AcDbCircle
 10
47.5
 20
-31.00000000000001
 30
0.0
 40
1.500000000000001
  0
CIRCLE
  5
15B
330
118
100
AcDbEntity
  8
bold
100
AcDbCircle
 10
47.5
 20
-49.5
 30
0.0
 40
2.5
  0
CIRCLE
  5
15C
330
118
100
AcDbEntity
  8
bold
100
AcDbCircle
 10
6.499999999999999
 20
-49.5
 30
0.0
 40
2.5
  0
LINE
  5
15D
330
118
100
AcDbEntity
  8
bold
100
AcDbLine
 10
15.5
 20
-46.0
 30
0.0
 11
15.5
 21
-68.0
 31
0.0
  0
LINE
  5
15E
330
118
100
AcDbEntity
  8
bold
100
AcDbLine
 10
38.5
 20
-68.0
 30
0.0
 11
38.5
 21
-46.0
 31
0.0
  0
CIRCLE
  5
15F
330
118
100
AcDbEntity
  8
bold
100
AcDbCircle
 10
6.499999999999999
 20
-57.00000000000001
 30
0.0
 40
2.5
  0
CIRCLE
  5
160
330
118
100
AcDbEntity
  8
bold
100
AcDbCircle
 10
47.5
 20
-57.00000000000001
 30
0.0
 40
2.5
  0
LINE
  5
161
330
118
100
AcDbEntity
  8
bold
100
AcDbLine
 10
0.0
 20
-68.0
 30
0.0
 11
15.5
 21
-68.0
 31
0.0
  0
LINE
  5
162
330
118
100
AcDbEntity
  8
bold
100
AcDbLine
 10
38.5
 20
-68.0
 30
0.0
 11
54.0
 21
-68.0
 31
0.0
  0
CIRCLE
  5
163
330
118
100
AcDbEntity
  8
bold
100
AcDbCircle
 10
47.5
 20
-31.00000000000001
 30
0.0
 40
2.500000000000002
  0
CIRCLE
  5
164
330
118
100
AcDbEntity
  8
bold
100
AcDbCircle
 10
6.499999999999999
 20
-23.50000000000001
 30
0.0
 40
2.500000000000002
  0
CIRCLE
  5
165
330
118
100
AcDbEntity
  8
bold
100
AcDbCircle
 10
47.5
 20
-23.50000000000001
 30
0.0
 40
2.500000000000002
  0
CIRCLE
  5
166
330
118
100
AcDbEntity
  8
bold
100
AcDbCircle
 10
6.499999999999999
 20
-31.00000000000001
 30
0.0
 40
2.500000000000002
  0
LINE
  5
167
330
118
100
AcDbEntity
  8
bold
100
AcDbLine
 10
0.0
 20
-11.0
 30
0.0
 11
54.0
 21
-11.0
 31
0.0
  0
LINE
  5
168
330
118
100
AcDbEntity
  8
bold
100
AcDbLine
 10
54.0
 20
-18.0
 30
0.0
 11
0.0
 21
-18.0
 31
0.0
  0
LINE
  5
169
330
118
100
AcDbEntity
  8
bold
100
AcDbLine
 10
54.0
 20
-11.0
 30
0.0
 11
54.0
 21
-68.0
 31
0.0
  0
LINE
  5
16A
330
118
100
AcDbEntity
  8
bold
100
AcDbLine
 10
0.0
 20
-11.0
 30
0.0
 11
0.0
 21
-68.0
 31
0.0
  0
LINE
  5
16B
330
118
100
AcDbEntity
  8
bold
100
AcDbLine
 10
54.0
 20
-46.00000000000001
 30
0.0
 11
0.0
 21
-46.00000000000001
 31
0.0
  0
LINE
  5
16C
330
118
100
AcDbEntity
  8
bold
100
AcDbLine
 10
54.0
 20
-39.00000000000001
 30
0.0
 11
0.0
 21
-39.00000000000001
 31
0.0
  0
ENDBLK
  5
11B
330
118
100
AcDbEntity
  8
0
100
AcDbBlockEnd
  0
BLOCK
  5
16F
330
16D
100
AcDbEntity
  8
0
100
AcDbBlockBegin
  2
5_Basis54x200_0_in_32478_0
 70
     2
 10
0.0
 20
0.0
 30
0.0
  3
5_Basis54x200_0_in_32478_0
  1

  0
ATTDEF
  5
171
330
16D
100
AcDbEntity
  8
attrib
100
AcDbText
 10
59.00000000000001
 20
34.0
 30
0.0
 40
0.5
  1
Basis54x200
100
AcDbAttributeDefinition
  3

  2
NB
 70
     8
280
     0
  0
ATTDEF
  5
172
330
16D
100
AcDbEntity
  8
attrib
100
AcDbText
 10
59.00000000000001
 20
33.5
 30
0.0
 40
0.5
  1
Adapter base
100
AcDbAttributeDefinition
  3

  2
NN
 70
     8
280
     0
  0
ATTDEF
  5
173
330
16D
100
AcDbEntity
  8
attrib
100
AcDbText
 10
59.00000000000001
 20
33.0
 30
0.0
 40
0.5
  1

100
AcDbAttributeDefinition
  3

  2
NT
 70
     8
280
     0
  0
ATTDEF
  5
174
330
16D
100
AcDbEntity
  8
attrib
100
AcDbText
 10
59.00000000000001
 20
32.5
 30
0.0
 40
0.5
  1
$BOM.
100
AcDbAttributeDefinition
  3

  2
NBSYN
 70
     8
280
     0
  0
ATTDEF
  5
175
330
16D
100
AcDbEntity
  8
attrib
100
AcDbText
 10
59.00000000000001
 20
32.0
 30
0.0
 40
0.5
  1
Basis54x200
100
AcDbAttributeDefinition
  3

  2
LINA
 70
     8
280
     0
  0
ATTDEF
  5
176
330
16D
100
AcDbEntity
  8
attrib
100
AcDbText
 10
59.00000000000001
 20
31.5
 30
0.0
 40
0.5
  1
Wöhner
100
AcDbAttributeDefinition
  3

  2
CATALOG
 70
     8
280
     0
  0
ATTDEF
  5
177
330
16D
100
AcDbEntity
  8
attrib
100
AcDbText
 10
59.00000000000001
 20
31.0
 30
0.0
 40
0.5
  1
Basis54x200
100
AcDbAttributeDefinition
  3

  2
BOM
 70
     8
280
     0
  0
ATTDEF
  5
178
330
16D
100
AcDbEntity
  8
attrib
100
AcDbText
 10
59.00000000000001
 20
30.5
 30
0.0
 40
0.5
  1
Basis54x200
100
AcDbAttributeDefinition
  3

  2
ARTNR
 70
     8
280
     0
  0
ATTDEF
  5
179
330
16D
100
AcDbEntity
  8
attrib
100
AcDbText
 10
59.00000000000001
 20
30.0
 30
0.0
 40
0.5
  1
1
100
AcDbAttributeDefinition
  3

  2
QNT
 70
     8
280
     0
  0
ATTDEF
  5
17A
330
16D
100
AcDbEntity
  8
attrib
100
AcDbText
 10
59.00000000000001
 20
29.5
 30
0.0
 40
0.5
  1
54
100
AcDbAttributeDefinition
  3

  2
W
 70
     8
280
     0
  0
ATTDEF
  5
17B
330
16D
100
AcDbEntity
  8
attrib
100
AcDbText
 10
59.00000000000001
 20
29.0
 30
0.0
 40
0.5
  1
200
100
AcDbAttributeDefinition
  3

  2
H
 70
     8
280
     0
  0
ATTDEF
  5
17C
330
16D
100
AcDbEntity
  8
attrib
100
AcDbText
 10
59.00000000000001
 20
28.5
 30
0.0
 40
0.5
  1

100
AcDbAttributeDefinition
  3

  2
VER
 70
     8
280
     0
  0
ATTDEF
  5
17D
330
16D
100
AcDbEntity
  8
attrib
100
AcDbText
 10
59.00000000000001
 20
28.0
 30
0.0
 40
0.5
  1
29.500
100
AcDbAttributeDefinition
  3

  2
NIPPLE
 70
     8
280
     0
  0
ATTDEF
  5
17E
330
16D
100
AcDbEntity
  8
attrib
100
AcDbText
 10
59.00000000000001
 20
27.5
 30
0.0
 40
0.5
  1
27.000
100
AcDbAttributeDefinition
  3

  2
W2
 70
     8
280
     0
  0
ATTDEF
  5
17F
330
16D
100
AcDbEntity
  8
attrib
100
AcDbText
 10
59.00000000000001
 20
27.0
 30
0.0
 40
0.5
  1
woehner
100
AcDbAttributeDefinition
  3

  2
COMPANY
 70
     8
280
     0
  0
ATTDEF
  5
180
330
16D
100
AcDbEntity
  8
attrib
100
AcDbText
 10
59.00000000000001
 20
26.5
 30
0.0
 40
0.5
  1
{$CADENAS_DATA/23d-libs/woehner/sys_60classic/adapters/common_pool/adapter_base.prj},182 {VTYP=3D},{NB=Basis54x200},{LINA=Basis54x200},{NN=Adapter base},{DATE=26.01.2024 06:52:57},{GEOMDATE=25.09.2023 07:19:00},{VERSION=v231002115156},{LINEID=420},{WBVAR=
100
AcDbAttributeDefinition
  3

  2
PSOL_0
 70
     9
280
     0
  0
ATTDEF
  5
181
330
16D
100
AcDbEntity
  8
attrib
100
AcDbText
 10
59.00000000000001
 20
26.0
 30
0.0
 40
0.5
  1
},{WBNUMERIC=}  {NB=Basis54x200},{LINA=Basis54x200},{KT=DUMMY},{BOM=Basis54x200},{ARTNR=Basis54x200},{QNT=1},{W=54},{H=200},{VER=},{NIPPLE=29.500},{W2=27.000}
100
AcDbAttributeDefinition
  3

  2
PSOL_1
 70
     9
280
     0
  0
LINE
  5
182
330
16D
100
AcDbEntity
  8
hidden
100
AcDbLine
 10
0.0
 20
30.0
 30
0.0
 11
54.0
 21
30.0
 31
0.0
  0
LINE
  5
183
330
16D
100
AcDbEntity
  8
hidden
100
AcDbLine
 10
19.0
 20
14.99999999999999
 30
0.0
 11
19.0
 21
-10.00000000000001
 31
0.0
  0
LINE
  5
184
330
16D
100
AcDbEntity
  8
hidden
100
AcDbLine
 10
0.9999999999999974
 20
14.99999999999999
 30
0.0
 11
0.9999999999999974
 21
-10.00000000000001
 31
0.0
  0
LINE
  5
185
330
16D
100
AcDbEntity
  8
hidden
100
AcDbLine
 10
0.9999999999999974
 20
14.99999999999999
 30
0.0
 11
19.0
 21
14.99999999999999
 31
0.0
  0
LINE
  5
186
330
16D
100
AcDbEntity
  8
hidden
100
AcDbLine
 10
46.0
 20
1.599832708584215
 30
0.0
 11
52.00000000000001
 21
1.599832708584215
 31
0.0
  0
LINE
  5
187
330
16D
100
AcDbEntity
  8
hidden
100
AcDbLine
 10
16.0
 20
-70.0
 30
0.0
 11
34.0
 21
-70.0
 31
0.0
  0
LINE
  5
188
330
16D
100
AcDbEntity
  8
hidden
100
AcDbLine
 10
30.0
 20
-130.0
 30
0.0
 11
30.0
 21
-105.0
 31
0.0
  0
LINE
  5
189
330
16D
100
AcDbEntity
  8
hidden
100
AcDbLine
 10
48.0
 20
-130.0
 30
0.0
 11
48.0
 21
-120.0
 31
0.0
  0
LINE
  5
18A
330
16D
100
AcDbEntity
  8
hidden
100
AcDbLine
 10
30.0
 20
-130.0
 30
0.0
 11
48.0
 21
-130.0
 31
0.0
  0
LINE
  5
18B
330
16D
100
AcDbEntity
  8
hidden
100
AcDbLine
 10
0.9999999999999974
 20
-10.00000000000001
 30
0.0
 11
19.0
 21
-10.00000000000001
 31
0.0
  0
LINE
  5
18C
330
16D
100
AcDbEntity
  8
hidden
100
AcDbLine
 10
48.0
 20
-32.0
 30
0.0
 11
52.00000000000001
 21
-32.0
 31
0.0
  0
LINE
  5
18D
330
16D
100
AcDbEntity
  8
hidden
100
AcDbLine
 10
48.0
 20
-28.0
 30
0.0
 11
52.00000000000001
 21
-28.0
 31
0.0
  0
LINE
  5
18E
330
16D
100
AcDbEntity
  8
hidden
100
AcDbLine
 10
49.93065755347642
 20
-22.99999999999999
 30
0.0
 11
52.00000000000001
 21
-22.99999999999999
 31
0.0
  0
LINE
  5
18F
330
16D
100
AcDbEntity
  8
hidden
100
AcDbLine
 10
48.0
 20
-22.99999999999999
 30
0.0
 11
48.4
 21
-23.0
 31
0.0
  0
LINE
  5
190
330
16D
100
AcDbEntity
  8
hidden
100
AcDbLine
 10
32.0
 20
-131.0
 30
0.0
 11
32.0
 21
-122.0
 31
0.0
  0
LINE
  5
191
330
16D
100
AcDbEntity
  8
hidden
100
AcDbLine
 10
32.0
 20
-131.0
 30
0.0
 11
46.0
 21
-131.0
 31
0.0
  0
LINE
  5
192
330
16D
100
AcDbEntity
  8
hidden
100
AcDbLine
 10
32.0
 20
-122.0
 30
0.0
 11
46.0
 21
-122.0
 31
0.0
  0
LINE
  5
193
330
16D
100
AcDbEntity
  8
hidden
100
AcDbLine
 10
32.0
 20
-129.0
 30
0.0
 11
46.0
 21
-129.0
 31
0.0
  0
LINE
  5
194
330
16D
100
AcDbEntity
  8
hidden
100
AcDbLine
 10
17.0
 20
-11.00000000000001
 30
0.0
 11
17.0
 21
-2.000000000000002
 31
0.0
  0
LINE
  5
195
330
16D
100
AcDbEntity
  8
hidden
100
AcDbLine
 10
2.999999999999999
 20
-11.00000000000001
 30
0.0
 11
2.999999999999999
 21
-2.000000000000002
 31
0.0
  0
LINE
  5
196
330
16D
100
AcDbEntity
  8
hidden
100
AcDbLine
 10
2.999999999999999
 20
-2.000000000000002
 30
0.0
 11
17.0
 21
-2.000000000000002
 31
0.0
  0
LINE
  5
197
330
16D
100
AcDbEntity
  8
hidden
100
AcDbLine
 10
32.0
 20
-71.00000000000001
 30
0.0
 11
32.0
 21
-62.0
 31
0.0
  0
LINE
  5
198
330
16D
100
AcDbEntity
  8
hidden
100
AcDbLine
 10
18.0
 20
-71.00000000000001
 30
0.0
 11
18.0
 21
-62.0
 31
0.0
  0
LINE
  5
199
330
16D
100
AcDbEntity
  8
hidden
100
AcDbLine
 10
18.0
 20
-71.00000000000001
 30
0.0
 11
32.0
 21
-71.00000000000001
 31
0.0
  0
LINE
  5
19A
330
16D
100
AcDbEntity
  8
hidden
100
AcDbLine
 10
18.0
 20
-62.0
 30
0.0
 11
32.0
 21
-62.0
 31
0.0
  0
LINE
  5
19B
330
16D
100
AcDbEntity
  8
hidden
100
AcDbLine
 10
18.0
 20
-69.0
 30
0.0
 11
32.0
 21
-69.0
 31
0.0
  0
LINE
  5
19C
330
16D
100
AcDbEntity
  8
hidden
100
AcDbLine
 10
48.0
 20
-13.00000000000001
 30
0.0
 11
52.00000000000001
 21
-13.00000000000001
 31
0.0
  0
LINE
  5
19D
330
16D
100
AcDbEntity
  8
hidden
100
AcDbLine
 10
48.0
 20
-9.800000000000002
 30
0.0
 11
52.00000000000001
 21
-9.800000000000002
 31
0.0
  0
LINE
  5
19E
330
16D
100
AcDbEntity
  8
hidden
100
AcDbLine
 10
46.0
 20
0.0
 30
0.0
 11
46.0
 21
1.599832708584215
 31
0.0
  0
LINE
  5
19F
330
16D
100
AcDbEntity
  8
hidden
100
AcDbLine
 10
16.0
 20
-45.00000000000001
 30
0.0
 11
34.0
 21
-45.00000000000001
 31
0.0
  0
LINE
  5
1A0
330
16D
100
AcDbEntity
  8
hidden
100
AcDbLine
 10
52.00000000000001
 20
-38.00000000000001
 30
0.0
 11
52.00000000000001
 21
1.599832708584215
 31
0.0
  0
LINE
  5
1A1
330
16D
100
AcDbEntity
  8
hidden
100
AcDbLine
 10
48.0
 20
-26.00054698666415
 30
0.0
 11
52.00000000000001
 21
-26.00054698666415
 31
0.0
  0
LINE
  5
1A2
330
16D
100
AcDbEntity
  8
hidden
100
AcDbLine
 10
48.0
 20
-38.00000000000001
 30
0.0
 11
52.00000000000001
 21
-38.00000000000001
 31
0.0
  0
LINE
  5
1A3
330
16D
100
AcDbEntity
  8
hidden
100
AcDbLine
 10
48.0
 20
-22.0
 30
0.0
 11
48.0
 21
0.0
 31
0.0
  0
LINE
  5
1A4
330
16D
100
AcDbEntity
  8
hidden
100
AcDbLine
 10
48.0
 20
-24.4
 30
0.0
 11
48.0
 21
-22.6
 31
0.0
  0
LINE
  5
1A5
330
16D
100
AcDbEntity
  8
hidden
100
AcDbLine
 10
48.0
 20
-38.00000000000001
 30
0.0
 11
48.0
 21
-25.0
 31
0.0
  0
LINE
  5
1A6
330
16D
100
AcDbEntity
  8
hidden
100
AcDbLine
 10
48.0
 20
-117.0
 30
0.0
 11
48.0
 21
-105.0
 31
0.0
  0
LINE
  5
1A7
330
16D
100
AcDbEntity
  8
hidden
100
AcDbLine
 10
48.0
 20
-119.4
 30
0.0
 11
48.0
 21
-117.6
 31
0.0
  0
LINE
  5
1A8
330
16D
100
AcDbEntity
  8
hidden
100
AcDbLine
 10
30.0
 20
-120.0
 30
0.0
 11
47.0
 21
-120.0
 31
0.0
  0
LINE
  5
1A9
330
16D
100
AcDbEntity
  8
hidden
100
AcDbLine
 10
16.0
 20
-60.00000000000001
 30
0.0
 11
34.0
 21
-60.00000000000001
 31
0.0
  0
LINE
  5
1AA
330
16D
100
AcDbEntity
  8
hidden
100
AcDbLine
 10
30.0
 20
-105.0
 30
0.0
 11
48.0
 21
-105.0
 31
0.0
  0
LINE
  5
1AB
330
16D
100
AcDbEntity
  8
hidden
100
AcDbLine
 10
0.0
 20
-162.0
 30
0.0
 11
54.0
 21
-162.0
 31
0.0
  0
LINE
  5
1AC
330
16D
100
AcDbEntity
  8
hidden
100
AcDbLine
 10
16.0
 20
-70.0
 30
0.0
 11
16.0
 21
-45.00000000000001
 31
0.0
  0
LINE
  5
1AD
330
16D
100
AcDbEntity
  8
hidden
100
AcDbLine
 10
34.0
 20
-70.0
 30
0.0
 11
34.0
 21
-45.00000000000001
 31
0.0
  0
LINE
  5
1AE
330
16D
100
AcDbEntity
  8
hidden
100
AcDbLine
 10
0.0
 20
0.0
 30
0.0
 11
54.0
 21
0.0
 31
0.0
  0
LINE
  5
1AF
330
16D
100
AcDbEntity
  8
hidden
100
AcDbLine
 10
49.0
 20
-166.0
 30
0.0
 11
49.0
 21
-9.000000000000007
 31
0.0
  0
LINE
  5
1B0
330
16D
100
AcDbEntity
  8
hidden
100
AcDbLine
 10
49.0
 20
-9.000000000000007
 30
0.0
 11
50.0
 21
-9.000000000000007
 31
0.0
  0
LINE
  5
1B1
330
16D
100
AcDbEntity
  8
hidden
100
AcDbLine
 10
5.000000000000001
 20
-166.0
 30
0.0
 11
5.000000000000001
 21
-9.000000000000007
 31
0.0
  0
LINE
  5
1B2
330
16D
100
AcDbEntity
  8
hidden
100
AcDbLine
 10
4.0
 20
-9.000000000000007
 30
0.0
 11
17.0
 21
-9.000000000000007
 31
0.0
  0
LINE
  5
1B3
330
16D
100
AcDbEntity
  8
hidden
100
AcDbLine
 10
46.0
 20
-147.75
 30
0.0
 11
46.56325030024024
 21
-147.75
 31
0.0
  0
LINE
  5
1B4
330
16D
100
AcDbEntity
  8
hidden
100
AcDbLine
 10
48.43102775304431
 20
-147.75
 30
0.0
 11
50.0
 21
-147.75
 31
0.0
  0
LINE
  5
1B5
330
16D
100
AcDbEntity
  8
hidden
100
AcDbLine
 10
50.0
 20
-145.25
 30
0.0
 11
46.0
 21
-145.25
 31
0.0
  0
LINE
  5
1B6
330
16D
100
AcDbEntity
  8
hidden
100
AcDbLine
 10
46.0
 20
-145.25
 30
0.0
 11
46.0
 21
-147.75
 31
0.0
  0
LINE
  5
1B7
330
16D
100
AcDbEntity
  8
hidden
100
AcDbLine
 10
4.0
 20
-142.75
 30
0.0
 11
5.563250300240242
 21
-142.75
 31
0.0
  0
LINE
  5
1B8
330
16D
100
AcDbEntity
  8
hidden
100
AcDbLine
 10
7.431027753044311
 20
-142.75
 30
0.0
 11
8.0
 21
-142.75
 31
0.0
  0
LINE
  5
1B9
330
16D
100
AcDbEntity
  8
hidden
100
AcDbLine
 10
8.0
 20
-140.25
 30
0.0
 11
4.0
 21
-140.25
 31
0.0
  0
LINE
  5
1BA
330
16D
100
AcDbEntity
  8
hidden
100
AcDbLine
 10
8.0
 20
-140.25
 30
0.0
 11
8.0
 21
-142.75
 31
0.0
  0
LINE
  5
1BB
330
16D
100
AcDbEntity
  8
hidden
100
AcDbLine
 10
4.0
 20
-67.75
 30
0.0
 11
5.563250300240242
 21
-67.75
 31
0.0
  0
LINE
  5
1BC
330
16D
100
AcDbEntity
  8
hidden
100
AcDbLine
 10
7.431027753044311
 20
-67.75
 30
0.0
 11
8.0
 21
-67.75
 31
0.0
  0
LINE
  5
1BD
330
16D
100
AcDbEntity
  8
hidden
100
AcDbLine
 10
8.0
 20
-65.25
 30
0.0
 11
4.0
 21
-65.25
 31
0.0
  0
LINE
  5
1BE
330
16D
100
AcDbEntity
  8
hidden
100
AcDbLine
 10
8.0
 20
-65.25
 30
0.0
 11
8.0
 21
-67.75
 31
0.0
  0
LINE
  5
1BF
330
16D
100
AcDbEntity
  8
hidden
100
AcDbLine
 10
4.0
 20
-162.75
 30
0.0
 11
5.563250300240242
 21
-162.75
 31
0.0
  0
LINE
  5
1C0
330
16D
100
AcDbEntity
  8
hidden
100
AcDbLine
 10
7.431027753044314
 20
-162.75
 30
0.0
 11
8.0
 21
-162.75
 31
0.0
  0
LINE
  5
1C1
330
16D
100
AcDbEntity
  8
hidden
100
AcDbLine
 10
8.0
 20
-160.25
 30
0.0
 11
4.0
 21
-160.25
 31
0.0
  0
LINE
  5
1C2
330
16D
100
AcDbEntity
  8
hidden
100
AcDbLine
 10
8.0
 20
-160.25
 30
0.0
 11
8.0
 21
-162.75
 31
0.0
  0
LINE
  5
1C3
330
16D
100
AcDbEntity
  8
hidden
100
AcDbLine
 10
46.0
 20
-137.75
 30
0.0
 11
46.56325030024024
 21
-137.75
 31
0.0
  0
LINE
  5
1C4
330
16D
100
AcDbEntity
  8
hidden
100
AcDbLine
 10
48.43102775304431
 20
-137.75
 30
0.0
 11
50.0
 21
-137.75
 31
0.0
  0
LINE
  5
1C5
330
16D
100
AcDbEntity
  8
hidden
100
AcDbLine
 10
50.0
 20
-135.25
 30
0.0
 11
46.0
 21
-135.25
 31
0.0
  0
LINE
  5
1C6
330
16D
100
AcDbEntity
  8
hidden
100
AcDbLine
 10
46.0
 20
-135.25
 30
0.0
 11
46.0
 21
-137.75
 31
0.0
  0
LINE
  5
1C7
330
16D
100
AcDbEntity
  8
hidden
100
AcDbLine
 10
4.0
 20
-7.750000000000007
 30
0.0
 11
5.563250300240242
 21
-7.750000000000007
 31
0.0
  0
LINE
  5
1C8
330
16D
100
AcDbEntity
  8
hidden
100
AcDbLine
 10
7.431027753044311
 20
-7.750000000000007
 30
0.0
 11
8.0
 21
-7.750000000000007
 31
0.0
  0
LINE
  5
1C9
330
16D
100
AcDbEntity
  8
hidden
100
AcDbLine
 10
8.0
 20
-5.250000000000004
 30
0.0
 11
4.0
 21
-5.250000000000004
 31
0.0
  0
LINE
  5
1CA
330
16D
100
AcDbEntity
  8
hidden
100
AcDbLine
 10
8.0
 20
-5.250000000000004
 30
0.0
 11
8.0
 21
-7.750000000000007
 31
0.0
  0
LINE
  5
1CB
330
16D
100
AcDbEntity
  8
hidden
100
AcDbLine
 10
46.0
 20
-107.75
 30
0.0
 11
46.56325030024023
 21
-107.75
 31
0.0
  0
LINE
  5
1CC
330
16D
100
AcDbEntity
  8
hidden
100
AcDbLine
 10
48.43102775304432
 20
-107.75
 30
0.0
 11
50.0
 21
-107.75
 31
0.0
  0
LINE
  5
1CD
330
16D
100
AcDbEntity
  8
hidden
100
AcDbLine
 10
50.0
 20
-105.25
 30
0.0
 11
46.0
 21
-105.25
 31
0.0
  0
LINE
  5
1CE
330
16D
100
AcDbEntity
  8
hidden
100
AcDbLine
 10
46.0
 20
-105.25
 30
0.0
 11
46.0
 21
-107.75
 31
0.0
  0
LINE
  5
1CF
330
16D
100
AcDbEntity
  8
hidden
100
AcDbLine
 10
4.0
 20
-132.75
 30
0.0
 11
5.563250300240242
 21
-132.75
 31
0.0
  0
LINE
  5
1D0
330
16D
100
AcDbEntity
  8
hidden
100
AcDbLine
 10
7.431027753044311
 20
-132.75
 30
0.0
 11
8.0
 21
-132.75
 31
0.0
  0
LINE
  5
1D1
330
16D
100
AcDbEntity
  8
hidden
100
AcDbLine
 10
8.0
 20
-130.25
 30
0.0
 11
4.0
 21
-130.25
 31
0.0
  0
LINE
  5
1D2
330
16D
100
AcDbEntity
  8
hidden
100
AcDbLine
 10
8.0
 20
-130.25
 30
0.0
 11
8.0
 21
-132.75
 31
0.0
  0
LINE
  5
1D3
330
16D
100
AcDbEntity
  8
hidden
100
AcDbLine
 10
4.0
 20
-77.75
 30
0.0
 11
5.563250300240242
 21
-77.75
 31
0.0
  0
LINE
  5
1D4
330
16D
100
AcDbEntity
  8
hidden
100
AcDbLine
 10
7.431027753044311
 20
-77.75
 30
0.0
 11
8.0
 21
-77.75
 31
0.0
  0
LINE
  5
1D5
330
16D
100
AcDbEntity
  8
hidden
100
AcDbLine
 10
8.0
 20
-75.25
 30
0.0
 11
4.0
 21
-75.25
 31
0.0
  0
LINE
  5
1D6
330
16D
100
AcDbEntity
  8
hidden
100
AcDbLine
 10
8.0
 20
-75.25
 30
0.0
 11
8.0
 21
-77.75
 31
0.0
  0
LINE
  5
1D7
330
16D
100
AcDbEntity
  8
hidden
100
AcDbLine
 10
4.0
 20
-47.75
 30
0.0
 11
5.563250300240242
 21
-47.75
 31
0.0
  0
LINE
  5
1D8
330
16D
100
AcDbEntity
  8
hidden
100
AcDbLine
 10
7.431027753044311
 20
-47.75
 30
0.0
 11
8.0
 21
-47.75
 31
0.0
  0
LINE
  5
1D9
330
16D
100
AcDbEntity
  8
hidden
100
AcDbLine
 10
8.0
 20
-45.25
 30
0.0
 11
4.0
 21
-45.25
 31
0.0
  0
LINE
  5
1DA
330
16D
100
AcDbEntity
  8
hidden
100
AcDbLine
 10
8.0
 20
-45.25
 30
0.0
 11
8.0
 21
-47.75
 31
0.0
  0
LINE
  5
1DB
330
16D
100
AcDbEntity
  8
hidden
100
AcDbLine
 10
4.0
 20
-122.75
 30
0.0
 11
5.563250300240234
 21
-122.75
 31
0.0
  0
LINE
  5
1DC
330
16D
100
AcDbEntity
  8
hidden
100
AcDbLine
 10
7.431027753044314
 20
-122.75
 30
0.0
 11
8.0
 21
-122.75
 31
0.0
  0
LINE
  5
1DD
330
16D
100
AcDbEntity
  8
hidden
100
AcDbLine
 10
8.0
 20
-120.25
 30
0.0
 11
4.0
 21
-120.25
 31
0.0
  0
LINE
  5
1DE
330
16D
100
AcDbEntity
  8
hidden
100
AcDbLine
 10
8.0
 20
-120.25
 30
0.0
 11
8.0
 21
-122.75
 31
0.0
  0
LINE
  5
1DF
330
16D
100
AcDbEntity
  8
hidden
100
AcDbLine
 10
4.0
 20
-117.75
 30
0.0
 11
5.563250300240242
 21
-117.75
 31
0.0
  0
LINE
  5
1E0
330
16D
100
AcDbEntity
  8
hidden
100
AcDbLine
 10
7.431027753044311
 20
-117.75
 30
0.0
 11
8.0
 21
-117.75
 31
0.0
  0
LINE
  5
1E1
330
16D
100
AcDbEntity
  8
hidden
100
AcDbLine
 10
8.0
 20
-115.25
 30
0.0
 11
4.0
 21
-115.25
 31
0.0
  0
LINE
  5
1E2
330
16D
100
AcDbEntity
  8
hidden
100
AcDbLine
 10
8.0
 20
-115.25
 30
0.0
 11
8.0
 21
-117.75
 31
0.0
  0
LINE
  5
1E3
330
16D
100
AcDbEntity
  8
hidden
100
AcDbLine
 10
46.0
 20
-127.75
 30
0.0
 11
46.56325030024025
 21
-127.75
 31
0.0
  0
LINE
  5
1E4
330
16D
100
AcDbEntity
  8
hidden
100
AcDbLine
 10
48.43102775304431
 20
-127.75
 30
0.0
 11
50.0
 21
-127.75
 31
0.0
  0
LINE
  5
1E5
330
16D
100
AcDbEntity
  8
hidden
100
AcDbLine
 10
50.0
 20
-125.25
 30
0.0
 11
46.0
 21
-125.25
 31
0.0
  0
LINE
  5
1E6
330
16D
100
AcDbEntity
  8
hidden
100
AcDbLine
 10
46.0
 20
-120.25
 30
0.0
 11
46.0
 21
-132.75
 31
0.0
  0
LINE
  5
1E7
330
16D
100
AcDbEntity
  8
hidden
100
AcDbLine
 10
46.0
 20
-117.75
 30
0.0
 11
46.56325030024024
 21
-117.75
 31
0.0
  0
LINE
  5
1E8
330
16D
100
AcDbEntity
  8
hidden
100
AcDbLine
 10
48.43102775304431
 20
-117.75
 30
0.0
 11
50.0
 21
-117.75
 31
0.0
  0
LINE
  5
1E9
330
16D
100
AcDbEntity
  8
hidden
100
AcDbLine
 10
50.0
 20
-115.25
 30
0.0
 11
46.0
 21
-115.25
 31
0.0
  0
LINE
  5
1EA
330
16D
100
AcDbEntity
  8
hidden
100
AcDbLine
 10
46.0
 20
-115.25
 30
0.0
 11
46.0
 21
-117.75
 31
0.0
  0
LINE
  5
1EB
330
16D
100
AcDbEntity
  8
hidden
100
AcDbLine
 10
4.0
 20
-97.75
 30
0.0
 11
5.563250300240242
 21
-97.75
 31
0.0
  0
LINE
  5
1EC
330
16D
100
AcDbEntity
  8
hidden
100
AcDbLine
 10
7.431027753044311
 20
-97.75
 30
0.0
 11
8.0
 21
-97.75
 31
0.0
  0
LINE
  5
1ED
330
16D
100
AcDbEntity
  8
hidden
100
AcDbLine
 10
8.0
 20
-95.25
 30
0.0
 11
4.0
 21
-95.25
 31
0.0
  0
LINE
  5
1EE
330
16D
100
AcDbEntity
  8
hidden
100
AcDbLine
 10
8.0
 20
-95.25
 30
0.0
 11
8.0
 21
-97.75
 31
0.0
  0
LINE
  5
1EF
330
16D
100
AcDbEntity
  8
hidden
100
AcDbLine
 10
46.0
 20
-27.75
 30
0.0
 11
46.56325030024024
 21
-27.75
 31
0.0
  0
LINE
  5
1F0
330
16D
100
AcDbEntity
  8
hidden
100
AcDbLine
 10
48.43102775304431
 20
-27.75
 30
0.0
 11
50.0
 21
-27.75
 31
0.0
  0
LINE
  5
1F1
330
16D
100
AcDbEntity
  8
hidden
100
AcDbLine
 10
50.0
 20
-25.24999999999999
 30
0.0
 11
46.0
 21
-25.24999999999999
 31
0.0
  0
LINE
  5
1F2
330
16D
100
AcDbEntity
  8
hidden
100
AcDbLine
 10
46.0
 20
-25.24999999999999
 30
0.0
 11
46.0
 21
-27.75
 31
0.0
  0
LINE
  5
1F3
330
16D
100
AcDbEntity
  8
hidden
100
AcDbLine
 10
46.0
 20
-17.75000000000001
 30
0.0
 11
46.56325030024024
 21
-17.75000000000001
 31
0.0
  0
LINE
  5
1F4
330
16D
100
AcDbEntity
  8
hidden
100
AcDbLine
 10
48.43102775304431
 20
-17.75000000000001
 30
0.0
 11
50.0
 21
-17.75000000000001
 31
0.0
  0
LINE
  5
1F5
330
16D
100
AcDbEntity
  8
hidden
100
AcDbLine
 10
50.0
 20
-15.25000000000001
 30
0.0
 11
46.0
 21
-15.25000000000001
 31
0.0
  0
LINE
  5
1F6
330
16D
100
AcDbEntity
  8
hidden
100
AcDbLine
 10
46.0
 20
-15.25000000000001
 30
0.0
 11
46.0
 21
-17.75000000000001
 31
0.0
  0
LINE
  5
1F7
330
16D
100
AcDbEntity
  8
hidden
100
AcDbLine
 10
46.0
 20
-7.750000000000007
 30
0.0
 11
46.56325030024024
 21
-7.750000000000007
 31
0.0
  0
LINE
  5
1F8
330
16D
100
AcDbEntity
  8
hidden
100
AcDbLine
 10
48.43102775304431
 20
-7.750000000000007
 30
0.0
 11
50.0
 21
-7.750000000000007
 31
0.0
  0
LINE
  5
1F9
330
16D
100
AcDbEntity
  8
hidden
100
AcDbLine
 10
50.0
 20
-5.250000000000004
 30
0.0
 11
46.0
 21
-5.250000000000004
 31
0.0
  0
LINE
  5
1FA
330
16D
100
AcDbEntity
  8
hidden
100
AcDbLine
 10
46.0
 20
-5.250000000000004
 30
0.0
 11
46.0
 21
-7.750000000000007
 31
0.0
  0
LINE
  5
1FB
330
16D
100
AcDbEntity
  8
hidden
100
AcDbLine
 10
46.0
 20
-162.75
 30
0.0
 11
46.56325030024024
 21
-162.75
 31
0.0
  0
LINE
  5
1FC
330
16D
100
AcDbEntity
  8
hidden
100
AcDbLine
 10
48.43102775304431
 20
-162.75
 30
0.0
 11
50.0
 21
-162.75
 31
0.0
  0
LINE
  5
1FD
330
16D
100
AcDbEntity
  8
hidden
100
AcDbLine
 10
50.0
 20
-160.25
 30
0.0
 11
46.0
 21
-160.25
 31
0.0
  0
LINE
  5
1FE
330
16D
100
AcDbEntity
  8
hidden
100
AcDbLine
 10
46.0
 20
-160.25
 30
0.0
 11
46.0
 21
-162.75
 31
0.0
  0
LINE
  5
1FF
330
16D
100
AcDbEntity
  8
hidden
100
AcDbLine
 10
46.0
 20
-157.75
 30
0.0
 11
46.56325030024024
 21
-157.75
 31
0.0
  0
LINE
  5
200
330
16D
100
AcDbEntity
  8
hidden
100
AcDbLine
 10
48.43102775304431
 20
-157.75
 30
0.0
 11
50.0
 21
-157.75
 31
0.0
  0
LINE
  5
201
330
16D
100
AcDbEntity
  8
hidden
100
AcDbLine
 10
50.0
 20
-155.25
 30
0.0
 11
46.0
 21
-155.25
 31
0.0
  0
LINE
  5
202
330
16D
100
AcDbEntity
  8
hidden
100
AcDbLine
 10
46.0
 20
-155.25
 30
0.0
 11
46.0
 21
-157.75
 31
0.0
  0
LINE
  5
203
330
16D
100
AcDbEntity
  8
hidden
100
AcDbLine
 10
46.0
 20
-142.75
 30
0.0
 11
46.56325030024024
 21
-142.75
 31
0.0
  0
LINE
  5
204
330
16D
100
AcDbEntity
  8
hidden
100
AcDbLine
 10
48.43102775304431
 20
-142.75
 30
0.0
 11
50.0
 21
-142.75
 31
0.0
  0
LINE
  5
205
330
16D
100
AcDbEntity
  8
hidden
100
AcDbLine
 10
50.0
 20
-140.25
 30
0.0
 11
46.0
 21
-140.25
 31
0.0
  0
LINE
  5
206
330
16D
100
AcDbEntity
  8
hidden
100
AcDbLine
 10
46.0
 20
-140.25
 30
0.0
 11
46.0
 21
-142.75
 31
0.0
  0
LINE
  5
207
330
16D
100
AcDbEntity
  8
hidden
100
AcDbLine
 10
4.0
 20
-107.75
 30
0.0
 11
5.563250300240234
 21
-107.75
 31
0.0
  0
LINE
  5
208
330
16D
100
AcDbEntity
  8
hidden
100
AcDbLine
 10
7.431027753044314
 20
-107.75
 30
0.0
 11
8.0
 21
-107.75
 31
0.0
  0
LINE
  5
209
330
16D
100
AcDbEntity
  8
hidden
100
AcDbLine
 10
8.0
 20
-105.25
 30
0.0
 11
4.0
 21
-105.25
 31
0.0
  0
LINE
  5
20A
330
16D
100
AcDbEntity
  8
hidden
100
AcDbLine
 10
8.0
 20
-105.25
 30
0.0
 11
8.0
 21
-107.75
 31
0.0
  0
LINE
  5
20B
330
16D
100
AcDbEntity
  8
hidden
100
AcDbLine
 10
46.0
 20
-37.75000000000001
 30
0.0
 11
46.56325030024024
 21
-37.75000000000001
 31
0.0
  0
LINE
  5
20C
330
16D
100
AcDbEntity
  8
hidden
100
AcDbLine
 10
48.43102775304431
 20
-37.75000000000001
 30
0.0
 11
50.0
 21
-37.75000000000001
 31
0.0
  0
LINE
  5
20D
330
16D
100
AcDbEntity
  8
hidden
100
AcDbLine
 10
50.0
 20
-35.25
 30
0.0
 11
46.0
 21
-35.25
 31
0.0
  0
LINE
  5
20E
330
16D
100
AcDbEntity
  8
hidden
100
AcDbLine
 10
46.0
 20
-35.25
 30
0.0
 11
46.0
 21
-37.75000000000001
 31
0.0
  0
LINE
  5
20F
330
16D
100
AcDbEntity
  8
hidden
100
AcDbLine
 10
46.0
 20
-112.75
 30
0.0
 11
46.56325030024025
 21
-112.75
 31
0.0
  0
LINE
  5
210
330
16D
100
AcDbEntity
  8
hidden
100
AcDbLine
 10
48.43102775304431
 20
-112.75
 30
0.0
 11
50.0
 21
-112.75
 31
0.0
  0
LINE
  5
211
330
16D
100
AcDbEntity
  8
hidden
100
AcDbLine
 10
50.0
 20
-110.25
 30
0.0
 11
46.0
 21
-110.25
 31
0.0
  0
LINE
  5
212
330
16D
100
AcDbEntity
  8
hidden
100
AcDbLine
 10
46.0
 20
-110.25
 30
0.0
 11
46.0
 21
-112.75
 31
0.0
  0
LINE
  5
213
330
16D
100
AcDbEntity
  8
hidden
100
AcDbLine
 10
4.0
 20
-87.75000000000001
 30
0.0
 11
5.563250300240242
 21
-87.75000000000001
 31
0.0
  0
LINE
  5
214
330
16D
100
AcDbEntity
  8
hidden
100
AcDbLine
 10
7.431027753044311
 20
-87.75000000000001
 30
0.0
 11
8.0
 21
-87.75000000000001
 31
0.0
  0
LINE
  5
215
330
16D
100
AcDbEntity
  8
hidden
100
AcDbLine
 10
8.0
 20
-85.25
 30
0.0
 11
4.0
 21
-85.25
 31
0.0
  0
LINE
  5
216
330
16D
100
AcDbEntity
  8
hidden
100
AcDbLine
 10
8.0
 20
-85.25
 30
0.0
 11
8.0
 21
-87.75000000000001
 31
0.0
  0
LINE
  5
217
330
16D
100
AcDbEntity
  8
hidden
100
AcDbLine
 10
46.0
 20
-102.75
 30
0.0
 11
46.56325030024024
 21
-102.75
 31
0.0
  0
LINE
  5
218
330
16D
100
AcDbEntity
  8
hidden
100
AcDbLine
 10
48.43102775304431
 20
-102.75
 30
0.0
 11
50.0
 21
-102.75
 31
0.0
  0
LINE
  5
219
330
16D
100
AcDbEntity
  8
hidden
100
AcDbLine
 10
50.0
 20
-100.25
 30
0.0
 11
46.0
 21
-100.25
 31
0.0
  0
LINE
  5
21A
330
16D
100
AcDbEntity
  8
hidden
100
AcDbLine
 10
46.0
 20
-100.25
 30
0.0
 11
46.0
 21
-102.75
 31
0.0
  0
LINE
  5
21B
330
16D
100
AcDbEntity
  8
hidden
100
AcDbLine
 10
46.0
 20
-97.75
 30
0.0
 11
46.56325030024024
 21
-97.75
 31
0.0
  0
LINE
  5
21C
330
16D
100
AcDbEntity
  8
hidden
100
AcDbLine
 10
48.43102775304431
 20
-97.75
 30
0.0
 11
50.0
 21
-97.75
 31
0.0
  0
LINE
  5
21D
330
16D
100
AcDbEntity
  8
hidden
100
AcDbLine
 10
50.0
 20
-95.25
 30
0.0
 11
46.0
 21
-95.25
 31
0.0
  0
LINE
  5
21E
330
16D
100
AcDbEntity
  8
hidden
100
AcDbLine
 10
46.0
 20
-95.25
 30
0.0
 11
46.0
 21
-97.75
 31
0.0
  0
LINE
  5
21F
330
16D
100
AcDbEntity
  8
hidden
100
AcDbLine
 10
46.0
 20
-87.75000000000001
 30
0.0
 11
46.56325030024024
 21
-87.75000000000001
 31
0.0
  0
LINE
  5
220
330
16D
100
AcDbEntity
  8
hidden
100
AcDbLine
 10
48.43102775304431
 20
-87.75000000000001
 30
0.0
 11
50.0
 21
-87.75000000000001
 31
0.0
  0
LINE
  5
221
330
16D
100
AcDbEntity
  8
hidden
100
AcDbLine
 10
50.0
 20
-85.25
 30
0.0
 11
46.0
 21
-85.25
 31
0.0
  0
LINE
  5
222
330
16D
100
AcDbEntity
  8
hidden
100
AcDbLine
 10
46.0
 20
-85.25
 30
0.0
 11
46.0
 21
-87.75000000000001
 31
0.0
  0
LINE
  5
223
330
16D
100
AcDbEntity
  8
hidden
100
AcDbLine
 10
4.0
 20
-57.75000000000001
 30
0.0
 11
5.563250300240242
 21
-57.75000000000001
 31
0.0
  0
LINE
  5
224
330
16D
100
AcDbEntity
  8
hidden
100
AcDbLine
 10
7.431027753044311
 20
-57.75000000000001
 30
0.0
 11
8.0
 21
-57.75000000000001
 31
0.0
  0
LINE
  5
225
330
16D
100
AcDbEntity
  8
hidden
100
AcDbLine
 10
8.0
 20
-55.25000000000001
 30
0.0
 11
4.0
 21
-55.25000000000001
 31
0.0
  0
LINE
  5
226
330
16D
100
AcDbEntity
  8
hidden
100
AcDbLine
 10
8.0
 20
-55.25000000000001
 30
0.0
 11
8.0
 21
-57.75000000000001
 31
0.0
  0
LINE
  5
227
330
16D
100
AcDbEntity
  8
hidden
100
AcDbLine
 10
46.0
 20
-67.75
 30
0.0
 11
46.56325030024024
 21
-67.75
 31
0.0
  0
LINE
  5
228
330
16D
100
AcDbEntity
  8
hidden
100
AcDbLine
 10
48.43102775304431
 20
-67.75
 30
0.0
 11
50.0
 21
-67.75
 31
0.0
  0
LINE
  5
229
330
16D
100
AcDbEntity
  8
hidden
100
AcDbLine
 10
50.0
 20
-65.25
 30
0.0
 11
46.0
 21
-65.25
 31
0.0
  0
LINE
  5
22A
330
16D
100
AcDbEntity
  8
hidden
100
AcDbLine
 10
46.0
 20
-65.25
 30
0.0
 11
46.0
 21
-67.75
 31
0.0
  0
LINE
  5
22B
330
16D
100
AcDbEntity
  8
hidden
100
AcDbLine
 10
4.0
 20
-37.75000000000001
 30
0.0
 11
5.563250300240242
 21
-37.75000000000001
 31
0.0
  0
LINE
  5
22C
330
16D
100
AcDbEntity
  8
hidden
100
AcDbLine
 10
7.431027753044311
 20
-37.75000000000001
 30
0.0
 11
8.0
 21
-37.75000000000001
 31
0.0
  0
LINE
  5
22D
330
16D
100
AcDbEntity
  8
hidden
100
AcDbLine
 10
8.0
 20
-35.25
 30
0.0
 11
4.0
 21
-35.25
 31
0.0
  0
LINE
  5
22E
330
16D
100
AcDbEntity
  8
hidden
100
AcDbLine
 10
8.0
 20
-35.25
 30
0.0
 11
8.0
 21
-37.75000000000001
 31
0.0
  0
LINE
  5
22F
330
16D
100
AcDbEntity
  8
hidden
100
AcDbLine
 10
46.0
 20
-132.75
 30
0.0
 11
46.56325030024024
 21
-132.75
 31
0.0
  0
LINE
  5
230
330
16D
100
AcDbEntity
  8
hidden
100
AcDbLine
 10
48.43102775304431
 20
-132.75
 30
0.0
 11
50.0
 21
-132.75
 31
0.0
  0
LINE
  5
231
330
16D
100
AcDbEntity
  8
hidden
100
AcDbLine
 10
50.0
 20
-130.25
 30
0.0
 11
46.0
 21
-130.25
 31
0.0
  0
LINE
  5
232
330
16D
100
AcDbEntity
  8
hidden
100
AcDbLine
 10
46.0
 20
-42.75000000000001
 30
0.0
 11
46.56325030024024
 21
-42.75000000000001
 31
0.0
  0
LINE
  5
233
330
16D
100
AcDbEntity
  8
hidden
100
AcDbLine
 10
48.43102775304431
 20
-42.75000000000001
 30
0.0
 11
50.0
 21
-42.75000000000001
 31
0.0
  0
LINE
  5
234
330
16D
100
AcDbEntity
  8
hidden
100
AcDbLine
 10
50.0
 20
-40.25000000000001
 30
0.0
 11
46.0
 21
-40.25000000000001
 31
0.0
  0
LINE
  5
235
330
16D
100
AcDbEntity
  8
hidden
100
AcDbLine
 10
46.0
 20
-40.25000000000001
 30
0.0
 11
46.0
 21
-42.75000000000001
 31
0.0
  0
LINE
  5
236
330
16D
100
AcDbEntity
  8
hidden
100
AcDbLine
 10
4.0
 20
-17.75000000000001
 30
0.0
 11
5.563250300240242
 21
-17.75000000000001
 31
0.0
  0
LINE
  5
237
330
16D
100
AcDbEntity
  8
hidden
100
AcDbLine
 10
7.431027753044311
 20
-17.75000000000001
 30
0.0
 11
8.0
 21
-17.75000000000001
 31
0.0
  0
LINE
  5
238
330
16D
100
AcDbEntity
  8
hidden
100
AcDbLine
 10
8.0
 20
-15.25000000000001
 30
0.0
 11
4.0
 21
-15.25000000000001
 31
0.0
  0
LINE
  5
239
330
16D
100
AcDbEntity
  8
hidden
100
AcDbLine
 10
8.0
 20
-15.25000000000001
 30
0.0
 11
8.0
 21
-17.75000000000001
 31
0.0
  0
LINE
  5
23A
330
16D
100
AcDbEntity
  8
hidden
100
AcDbLine
 10
46.0
 20
-22.74999999999999
 30
0.0
 11
46.56325030024024
 21
-22.74999999999999
 31
0.0
  0
LINE
  5
23B
330
16D
100
AcDbEntity
  8
hidden
100
AcDbLine
 10
48.43102775304431
 20
-22.74999999999999
 30
0.0
 11
50.0
 21
-22.74999999999999
 31
0.0
  0
LINE
  5
23C
330
16D
100
AcDbEntity
  8
hidden
100
AcDbLine
 10
50.0
 20
-20.24999999999999
 30
0.0
 11
46.0
 21
-20.24999999999999
 31
0.0
  0
LINE
  5
23D
330
16D
100
AcDbEntity
  8
hidden
100
AcDbLine
 10
46.0
 20
-20.24999999999999
 30
0.0
 11
46.0
 21
-22.74999999999999
 31
0.0
  0
LINE
  5
23E
330
16D
100
AcDbEntity
  8
hidden
100
AcDbLine
 10
46.0
 20
-12.75000000000001
 30
0.0
 11
46.56325030024024
 21
-12.75000000000001
 31
0.0
  0
LINE
  5
23F
330
16D
100
AcDbEntity
  8
hidden
100
AcDbLine
 10
48.43102775304431
 20
-12.75000000000001
 30
0.0
 11
50.0
 21
-12.75000000000001
 31
0.0
  0
LINE
  5
240
330
16D
100
AcDbEntity
  8
hidden
100
AcDbLine
 10
50.0
 20
-10.25000000000001
 30
0.0
 11
46.0
 21
-10.25000000000001
 31
0.0
  0
LINE
  5
241
330
16D
100
AcDbEntity
  8
hidden
100
AcDbLine
 10
46.0
 20
-10.25000000000001
 30
0.0
 11
46.0
 21
-12.75000000000001
 31
0.0
  0
LINE
  5
242
330
16D
100
AcDbEntity
  8
hidden
100
AcDbLine
 10
4.0
 20
-157.75
 30
0.0
 11
5.563250300240242
 21
-157.75
 31
0.0
  0
LINE
  5
243
330
16D
100
AcDbEntity
  8
hidden
100
AcDbLine
 10
7.431027753044311
 20
-157.75
 30
0.0
 11
8.0
 21
-157.75
 31
0.0
  0
LINE
  5
244
330
16D
100
AcDbEntity
  8
hidden
100
AcDbLine
 10
8.0
 20
-155.25
 30
0.0
 11
4.0
 21
-155.25
 31
0.0
  0
LINE
  5
245
330
16D
100
AcDbEntity
  8
hidden
100
AcDbLine
 10
8.0
 20
-155.25
 30
0.0
 11
8.0
 21
-157.75
 31
0.0
  0
LINE
  5
246
330
16D
100
AcDbEntity
  8
hidden
100
AcDbLine
 10
4.0
 20
-147.75
 30
0.0
 11
5.563250300240242
 21
-147.75
 31
0.0
  0
LINE
  5
247
330
16D
100
AcDbEntity
  8
hidden
100
AcDbLine
 10
7.431027753044314
 20
-147.75
 30
0.0
 11
8.0
 21
-147.75
 31
0.0
  0
LINE
  5
248
330
16D
100
AcDbEntity
  8
hidden
100
AcDbLine
 10
8.0
 20
-145.25
 30
0.0
 11
4.0
 21
-145.25
 31
0.0
  0
LINE
  5
249
330
16D
100
AcDbEntity
  8
hidden
100
AcDbLine
 10
8.0
 20
-145.25
 30
0.0
 11
8.0
 21
-147.75
 31
0.0
  0
LINE
  5
24A
330
16D
100
AcDbEntity
  8
hidden
100
AcDbLine
 10
4.0
 20
-137.75
 30
0.0
 11
5.563250300240242
 21
-137.75
 31
0.0
  0
LINE
  5
24B
330
16D
100
AcDbEntity
  8
hidden
100
AcDbLine
 10
7.431027753044311
 20
-137.75
 30
0.0
 11
8.0
 21
-137.75
 31
0.0
  0
LINE
  5
24C
330
16D
100
AcDbEntity
  8
hidden
100
AcDbLine
 10
8.0
 20
-135.25
 30
0.0
 11
4.0
 21
-135.25
 31
0.0
  0
LINE
  5
24D
330
16D
100
AcDbEntity
  8
hidden
100
AcDbLine
 10
8.0
 20
-135.25
 30
0.0
 11
8.0
 21
-137.75
 31
0.0
  0
LINE
  5
24E
330
16D
100
AcDbEntity
  8
hidden
100
AcDbLine
 10
4.0
 20
-127.75
 30
0.0
 11
5.563250300240244
 21
-127.75
 31
0.0
  0
LINE
  5
24F
330
16D
100
AcDbEntity
  8
hidden
100
AcDbLine
 10
7.431027753044304
 20
-127.75
 30
0.0
 11
8.0
 21
-127.75
 31
0.0
  0
LINE
  5
250
330
16D
100
AcDbEntity
  8
hidden
100
AcDbLine
 10
8.0
 20
-125.25
 30
0.0
 11
4.0
 21
-125.25
 31
0.0
  0
LINE
  5
251
330
16D
100
AcDbEntity
  8
hidden
100
AcDbLine
 10
8.0
 20
-125.25
 30
0.0
 11
8.0
 21
-127.75
 31
0.0
  0
LINE
  5
252
330
16D
100
AcDbEntity
  8
hidden
100
AcDbLine
 10
4.0
 20
-112.75
 30
0.0
 11
5.563250300240244
 21
-112.75
 31
0.0
  0
LINE
  5
253
330
16D
100
AcDbEntity
  8
hidden
100
AcDbLine
 10
7.431027753044304
 20
-112.75
 30
0.0
 11
8.0
 21
-112.75
 31
0.0
  0
LINE
  5
254
330
16D
100
AcDbEntity
  8
hidden
100
AcDbLine
 10
8.0
 20
-110.25
 30
0.0
 11
4.0
 21
-110.25
 31
0.0
  0
LINE
  5
255
330
16D
100
AcDbEntity
  8
hidden
100
AcDbLine
 10
8.0
 20
-110.25
 30
0.0
 11
8.0
 21
-112.75
 31
0.0
  0
LINE
  5
256
330
16D
100
AcDbEntity
  8
hidden
100
AcDbLine
 10
4.0
 20
-102.75
 30
0.0
 11
5.563250300240242
 21
-102.75
 31
0.0
  0
LINE
  5
257
330
16D
100
AcDbEntity
  8
hidden
100
AcDbLine
 10
7.431027753044311
 20
-102.75
 30
0.0
 11
8.0
 21
-102.75
 31
0.0
  0
LINE
  5
258
330
16D
100
AcDbEntity
  8
hidden
100
AcDbLine
 10
8.0
 20
-100.25
 30
0.0
 11
4.0
 21
-100.25
 31
0.0
  0
LINE
  5
259
330
16D
100
AcDbEntity
  8
hidden
100
AcDbLine
 10
8.0
 20
-100.25
 30
0.0
 11
8.0
 21
-102.75
 31
0.0
  0
LINE
  5
25A
330
16D
100
AcDbEntity
  8
hidden
100
AcDbLine
 10
4.0
 20
-92.75
 30
0.0
 11
5.563250300240251
 21
-92.75
 31
0.0
  0
LINE
  5
25B
330
16D
100
AcDbEntity
  8
hidden
100
AcDbLine
 10
7.4310277530443
 20
-92.75
 30
0.0
 11
8.0
 21
-92.75
 31
0.0
  0
LINE
  5
25C
330
16D
100
AcDbEntity
  8
hidden
100
AcDbLine
 10
8.0
 20
-90.25
 30
0.0
 11
4.0
 21
-90.25
 31
0.0
  0
LINE
  5
25D
330
16D
100
AcDbEntity
  8
hidden
100
AcDbLine
 10
8.0
 20
-90.25
 30
0.0
 11
8.0
 21
-92.75
 31
0.0
  0
LINE
  5
25E
330
16D
100
AcDbEntity
  8
hidden
100
AcDbLine
 10
4.0
 20
-82.75
 30
0.0
 11
5.563250300240242
 21
-82.75
 31
0.0
  0
LINE
  5
25F
330
16D
100
AcDbEntity
  8
hidden
100
AcDbLine
 10
7.431027753044311
 20
-82.75
 30
0.0
 11
8.0
 21
-82.75
 31
0.0
  0
LINE
  5
260
330
16D
100
AcDbEntity
  8
hidden
100
AcDbLine
 10
8.0
 20
-80.25
 30
0.0
 11
4.0
 21
-80.25
 31
0.0
  0
LINE
  5
261
330
16D
100
AcDbEntity
  8
hidden
100
AcDbLine
 10
8.0
 20
-80.25
 30
0.0
 11
8.0
 21
-82.75
 31
0.0
  0
LINE
  5
262
330
16D
100
AcDbEntity
  8
hidden
100
AcDbLine
 10
46.0
 20
-92.75
 30
0.0
 11
46.56325030024025
 21
-92.75
 31
0.0
  0
LINE
  5
263
330
16D
100
AcDbEntity
  8
hidden
100
AcDbLine
 10
48.4310277530443
 20
-92.75
 30
0.0
 11
50.0
 21
-92.75
 31
0.0
  0
LINE
  5
264
330
16D
100
AcDbEntity
  8
hidden
100
AcDbLine
 10
50.0
 20
-90.25
 30
0.0
 11
46.0
 21
-90.25
 31
0.0
  0
LINE
  5
265
330
16D
100
AcDbEntity
  8
hidden
100
AcDbLine
 10
46.0
 20
-90.25
 30
0.0
 11
46.0
 21
-92.75
 31
0.0
  0
LINE
  5
266
330
16D
100
AcDbEntity
  8
hidden
100
AcDbLine
 10
4.0
 20
-72.75000000000001
 30
0.0
 11
5.563250300240242
 21
-72.75000000000001
 31
0.0
  0
LINE
  5
267
330
16D
100
AcDbEntity
  8
hidden
100
AcDbLine
 10
7.431027753044311
 20
-72.75000000000001
 30
0.0
 11
8.0
 21
-72.75000000000001
 31
0.0
  0
LINE
  5
268
330
16D
100
AcDbEntity
  8
hidden
100
AcDbLine
 10
8.0
 20
-70.25
 30
0.0
 11
4.0
 21
-70.25
 31
0.0
  0
LINE
  5
269
330
16D
100
AcDbEntity
  8
hidden
100
AcDbLine
 10
8.0
 20
-70.25
 30
0.0
 11
8.0
 21
-72.75000000000001
 31
0.0
  0
LINE
  5
26A
330
16D
100
AcDbEntity
  8
hidden
100
AcDbLine
 10
46.0
 20
-82.75
 30
0.0
 11
46.56325030024024
 21
-82.75
 31
0.0
  0
LINE
  5
26B
330
16D
100
AcDbEntity
  8
hidden
100
AcDbLine
 10
48.43102775304431
 20
-82.75
 30
0.0
 11
50.0
 21
-82.75
 31
0.0
  0
LINE
  5
26C
330
16D
100
AcDbEntity
  8
hidden
100
AcDbLine
 10
50.0
 20
-80.25
 30
0.0
 11
46.0
 21
-80.25
 31
0.0
  0
LINE
  5
26D
330
16D
100
AcDbEntity
  8
hidden
100
AcDbLine
 10
46.0
 20
-80.25
 30
0.0
 11
46.0
 21
-82.75
 31
0.0
  0
LINE
  5
26E
330
16D
100
AcDbEntity
  8
hidden
100
AcDbLine
 10
4.0
 20
-62.75
 30
0.0
 11
5.563250300240242
 21
-62.75
 31
0.0
  0
LINE
  5
26F
330
16D
100
AcDbEntity
  8
hidden
100
AcDbLine
 10
7.431027753044311
 20
-62.75
 30
0.0
 11
8.0
 21
-62.75
 31
0.0
  0
LINE
  5
270
330
16D
100
AcDbEntity
  8
hidden
100
AcDbLine
 10
8.0
 20
-60.25
 30
0.0
 11
4.0
 21
-60.25
 31
0.0
  0
LINE
  5
271
330
16D
100
AcDbEntity
  8
hidden
100
AcDbLine
 10
8.0
 20
-60.25
 30
0.0
 11
8.0
 21
-62.75
 31
0.0
  0
LINE
  5
272
330
16D
100
AcDbEntity
  8
hidden
100
AcDbLine
 10
46.0
 20
-72.75000000000001
 30
0.0
 11
46.56325030024024
 21
-72.75000000000001
 31
0.0
  0
LINE
  5
273
330
16D
100
AcDbEntity
  8
hidden
100
AcDbLine
 10
48.43102775304431
 20
-72.75000000000001
 30
0.0
 11
50.0
 21
-72.75000000000001
 31
0.0
  0
LINE
  5
274
330
16D
100
AcDbEntity
  8
hidden
100
AcDbLine
 10
50.0
 20
-70.25
 30
0.0
 11
46.0
 21
-70.25
 31
0.0
  0
LINE
  5
275
330
16D
100
AcDbEntity
  8
hidden
100
AcDbLine
 10
46.0
 20
-70.25
 30
0.0
 11
46.0
 21
-72.75000000000001
 31
0.0
  0
LINE
  5
276
330
16D
100
AcDbEntity
  8
hidden
100
AcDbLine
 10
46.0
 20
-62.75
 30
0.0
 11
46.56325030024024
 21
-62.75
 31
0.0
  0
LINE
  5
277
330
16D
100
AcDbEntity
  8
hidden
100
AcDbLine
 10
48.43102775304431
 20
-62.75
 30
0.0
 11
50.0
 21
-62.75
 31
0.0
  0
LINE
  5
278
330
16D
100
AcDbEntity
  8
hidden
100
AcDbLine
 10
50.0
 20
-60.25
 30
0.0
 11
46.0
 21
-60.25
 31
0.0
  0
LINE
  5
279
330
16D
100
AcDbEntity
  8
hidden
100
AcDbLine
 10
46.0
 20
-60.25
 30
0.0
 11
46.0
 21
-62.75
 31
0.0
  0
LINE
  5
27A
330
16D
100
AcDbEntity
  8
hidden
100
AcDbLine
 10
4.0
 20
-52.75000000000001
 30
0.0
 11
5.563250300240242
 21
-52.75000000000001
 31
0.0
  0
LINE
  5
27B
330
16D
100
AcDbEntity
  8
hidden
100
AcDbLine
 10
7.431027753044311
 20
-52.75000000000001
 30
0.0
 11
8.0
 21
-52.75000000000001
 31
0.0
  0
LINE
  5
27C
330
16D
100
AcDbEntity
  8
hidden
100
AcDbLine
 10
8.0
 20
-50.25
 30
0.0
 11
4.0
 21
-50.25
 31
0.0
  0
LINE
  5
27D
330
16D
100
AcDbEntity
  8
hidden
100
AcDbLine
 10
8.0
 20
-50.25
 30
0.0
 11
8.0
 21
-52.75000000000001
 31
0.0
  0
LINE
  5
27E
330
16D
100
AcDbEntity
  8
hidden
100
AcDbLine
 10
4.0
 20
-27.75
 30
0.0
 11
5.563250300240242
 21
-27.75
 31
0.0
  0
LINE
  5
27F
330
16D
100
AcDbEntity
  8
hidden
100
AcDbLine
 10
7.431027753044311
 20
-27.75
 30
0.0
 11
8.0
 21
-27.75
 31
0.0
  0
LINE
  5
280
330
16D
100
AcDbEntity
  8
hidden
100
AcDbLine
 10
8.0
 20
-25.24999999999999
 30
0.0
 11
4.0
 21
-25.24999999999999
 31
0.0
  0
LINE
  5
281
330
16D
100
AcDbEntity
  8
hidden
100
AcDbLine
 10
8.0
 20
-25.24999999999999
 30
0.0
 11
8.0
 21
-27.75
 31
0.0
  0
LINE
  5
282
330
16D
100
AcDbEntity
  8
hidden
100
AcDbLine
 10
4.0
 20
-12.75000000000001
 30
0.0
 11
5.563250300240242
 21
-12.75000000000001
 31
0.0
  0
LINE
  5
283
330
16D
100
AcDbEntity
  8
hidden
100
AcDbLine
 10
7.431027753044311
 20
-12.75000000000001
 30
0.0
 11
8.0
 21
-12.75000000000001
 31
0.0
  0
LINE
  5
284
330
16D
100
AcDbEntity
  8
hidden
100
AcDbLine
 10
8.0
 20
-10.25000000000001
 30
0.0
 11
4.0
 21
-10.25000000000001
 31
0.0
  0
LINE
  5
285
330
16D
100
AcDbEntity
  8
hidden
100
AcDbLine
 10
8.0
 20
-10.25000000000001
 30
0.0
 11
8.0
 21
-12.75000000000001
 31
0.0
  0
LINE
  5
286
330
16D
100
AcDbEntity
  8
hidden
100
AcDbLine
 10
4.0
 20
-152.75
 30
0.0
 11
5.563250300240242
 21
-152.75
 31
0.0
  0
LINE
  5
287
330
16D
100
AcDbEntity
  8
hidden
100
AcDbLine
 10
7.431027753044314
 20
-152.75
 30
0.0
 11
8.0
 21
-152.75
 31
0.0
  0
LINE
  5
288
330
16D
100
AcDbEntity
  8
hidden
100
AcDbLine
 10
8.0
 20
-150.25
 30
0.0
 11
4.0
 21
-150.25
 31
0.0
  0
LINE
  5
289
330
16D
100
AcDbEntity
  8
hidden
100
AcDbLine
 10
8.0
 20
-150.25
 30
0.0
 11
8.0
 21
-152.75
 31
0.0
  0
LINE
  5
28A
330
16D
100
AcDbEntity
  8
hidden
100
AcDbLine
 10
46.0
 20
-152.75
 30
0.0
 11
46.56325030024023
 21
-152.75
 31
0.0
  0
LINE
  5
28B
330
16D
100
AcDbEntity
  8
hidden
100
AcDbLine
 10
48.43102775304431
 20
-152.75
 30
0.0
 11
50.0
 21
-152.75
 31
0.0
  0
LINE
  5
28C
330
16D
100
AcDbEntity
  8
hidden
100
AcDbLine
 10
50.0
 20
-150.25
 30
0.0
 11
46.0
 21
-150.25
 31
0.0
  0
LINE
  5
28D
330
16D
100
AcDbEntity
  8
hidden
100
AcDbLine
 10
46.0
 20
-150.25
 30
0.0
 11
46.0
 21
-152.75
 31
0.0
  0
LINE
  5
28E
330
16D
100
AcDbEntity
  8
hidden
100
AcDbLine
 10
46.0
 20
-122.75
 30
0.0
 11
46.56325030024023
 21
-122.75
 31
0.0
  0
LINE
  5
28F
330
16D
100
AcDbEntity
  8
hidden
100
AcDbLine
 10
48.43102775304432
 20
-122.75
 30
0.0
 11
50.0
 21
-122.75
 31
0.0
  0
LINE
  5
290
330
16D
100
AcDbEntity
  8
hidden
100
AcDbLine
 10
50.0
 20
-120.25
 30
0.0
 11
46.0
 21
-120.25
 31
0.0
  0
LINE
  5
291
330
16D
100
AcDbEntity
  8
hidden
100
AcDbLine
 10
46.0
 20
-47.75
 30
0.0
 11
46.56325030024024
 21
-47.75
 31
0.0
  0
LINE
  5
292
330
16D
100
AcDbEntity
  8
hidden
100
AcDbLine
 10
48.43102775304431
 20
-47.75
 30
0.0
 11
50.0
 21
-47.75
 31
0.0
  0
LINE
  5
293
330
16D
100
AcDbEntity
  8
hidden
100
AcDbLine
 10
50.0
 20
-45.25
 30
0.0
 11
46.0
 21
-45.25
 31
0.0
  0
LINE
  5
294
330
16D
100
AcDbEntity
  8
hidden
100
AcDbLine
 10
46.0
 20
-45.25
 30
0.0
 11
46.0
 21
-47.75
 31
0.0
  0
LINE
  5
295
330
16D
100
AcDbEntity
  8
hidden
100
AcDbLine
 10
4.0
 20
-32.75
 30
0.0
 11
5.563250300240242
 21
-32.75
 31
0.0
  0
LINE
  5
296
330
16D
100
AcDbEntity
  8
hidden
100
AcDbLine
 10
7.431027753044311
 20
-32.75
 30
0.0
 11
8.0
 21
-32.75
 31
0.0
  0
LINE
  5
297
330
16D
100
AcDbEntity
  8
hidden
100
AcDbLine
 10
8.0
 20
-30.25
 30
0.0
 11
4.0
 21
-30.25
 31
0.0
  0
LINE
  5
298
330
16D
100
AcDbEntity
  8
hidden
100
AcDbLine
 10
8.0
 20
-30.25
 30
0.0
 11
8.0
 21
-32.75
 31
0.0
  0
LINE
  5
299
330
16D
100
AcDbEntity
  8
hidden
100
AcDbLine
 10
46.0
 20
-32.75
 30
0.0
 11
46.56325030024024
 21
-32.75
 31
0.0
  0
LINE
  5
29A
330
16D
100
AcDbEntity
  8
hidden
100
AcDbLine
 10
48.43102775304431
 20
-32.75
 30
0.0
 11
50.0
 21
-32.75
 31
0.0
  0
LINE
  5
29B
330
16D
100
AcDbEntity
  8
hidden
100
AcDbLine
 10
50.0
 20
-30.25
 30
0.0
 11
46.0
 21
-30.25
 31
0.0
  0
LINE
  5
29C
330
16D
100
AcDbEntity
  8
hidden
100
AcDbLine
 10
46.0
 20
-30.25
 30
0.0
 11
46.0
 21
-32.75
 31
0.0
  0
LINE
  5
29D
330
16D
100
AcDbEntity
  8
hidden
100
AcDbLine
 10
46.0
 20
-77.75
 30
0.0
 11
46.56325030024024
 21
-77.75
 31
0.0
  0
LINE
  5
29E
330
16D
100
AcDbEntity
  8
hidden
100
AcDbLine
 10
48.43102775304431
 20
-77.75
 30
0.0
 11
50.0
 21
-77.75
 31
0.0
  0
LINE
  5
29F
330
16D
100
AcDbEntity
  8
hidden
100
AcDbLine
 10
50.0
 20
-75.25
 30
0.0
 11
46.0
 21
-75.25
 31
0.0
  0
LINE
  5
2A0
330
16D
100
AcDbEntity
  8
hidden
100
AcDbLine
 10
46.0
 20
-75.25
 30
0.0
 11
46.0
 21
-77.75
 31
0.0
  0
LINE
  5
2A1
330
16D
100
AcDbEntity
  8
hidden
100
AcDbLine
 10
4.0
 20
-42.75000000000001
 30
0.0
 11
5.563250300240242
 21
-42.75000000000001
 31
0.0
  0
LINE
  5
2A2
330
16D
100
AcDbEntity
  8
hidden
100
AcDbLine
 10
7.431027753044311
 20
-42.75000000000001
 30
0.0
 11
8.0
 21
-42.75000000000001
 31
0.0
  0
LINE
  5
2A3
330
16D
100
AcDbEntity
  8
hidden
100
AcDbLine
 10
8.0
 20
-40.25000000000001
 30
0.0
 11
4.0
 21
-40.25000000000001
 31
0.0
  0
LINE
  5
2A4
330
16D
100
AcDbEntity
  8
hidden
100
AcDbLine
 10
8.0
 20
-40.25000000000001
 30
0.0
 11
8.0
 21
-42.75000000000001
 31
0.0
  0
LINE
  5
2A5
330
16D
100
AcDbEntity
  8
hidden
100
AcDbLine
 10
4.0
 20
-22.74999999999999
 30
0.0
 11
5.563250300240242
 21
-22.74999999999999
 31
0.0
  0
LINE
  5
2A6
330
16D
100
AcDbEntity
  8
hidden
100
AcDbLine
 10
7.431027753044311
 20
-22.74999999999999
 30
0.0
 11
8.0
 21
-22.74999999999999
 31
0.0
  0
LINE
  5
2A7
330
16D
100
AcDbEntity
  8
hidden
100
AcDbLine
 10
8.0
 20
-20.24999999999999
 30
0.0
 11
4.0
 21
-20.24999999999999
 31
0.0
  0
LINE
  5
2A8
330
16D
100
AcDbEntity
  8
hidden
100
AcDbLine
 10
8.0
 20
-20.24999999999999
 30
0.0
 11
8.0
 21
-22.74999999999999
 31
0.0
  0
LINE
  5
2A9
330
16D
100
AcDbEntity
  8
hidden
100
AcDbLine
 10
46.0
 20
-57.75000000000001
 30
0.0
 11
46.56325030024024
 21
-57.75000000000001
 31
0.0
  0
LINE
  5
2AA
330
16D
100
AcDbEntity
  8
hidden
100
AcDbLine
 10
48.43102775304431
 20
-57.75000000000001
 30
0.0
 11
50.0
 21
-57.75000000000001
 31
0.0
  0
LINE
  5
2AB
330
16D
100
AcDbEntity
  8
hidden
100
AcDbLine
 10
50.0
 20
-55.25000000000001
 30
0.0
 11
46.0
 21
-55.25000000000001
 31
0.0
  0
LINE
  5
2AC
330
16D
100
AcDbEntity
  8
hidden
100
AcDbLine
 10
46.0
 20
-55.25000000000001
 30
0.0
 11
46.0
 21
-57.75000000000001
 31
0.0
  0
LINE
  5
2AD
330
16D
100
AcDbEntity
  8
hidden
100
AcDbLine
 10
46.0
 20
-52.75000000000001
 30
0.0
 11
46.56325030024024
 21
-52.75000000000001
 31
0.0
  0
LINE
  5
2AE
330
16D
100
AcDbEntity
  8
hidden
100
AcDbLine
 10
48.43102775304431
 20
-52.75000000000001
 30
0.0
 11
50.0
 21
-52.75000000000001
 31
0.0
  0
LINE
  5
2AF
330
16D
100
AcDbEntity
  8
hidden
100
AcDbLine
 10
50.0
 20
-50.25
 30
0.0
 11
46.0
 21
-50.25
 31
0.0
  0
LINE
  5
2B0
330
16D
100
AcDbEntity
  8
hidden
100
AcDbLine
 10
46.0
 20
-50.25
 30
0.0
 11
46.0
 21
-52.75000000000001
 31
0.0
  0
ARC
  5
2B1
330
16D
100
AcDbEntity
  8
hidden
100
AcDbCircle
 10
6.500000000000007
 20
-28.50000000000001
 30
0.0
 40
1.199999999999984
100
AcDbArc
 50
294.9513010927028
 51
245.048698907299
  0
CIRCLE
  5
2B2
330
16D
100
AcDbEntity
  8
hidden
100
AcDbCircle
 10
6.499999999999999
 20
-108.5
 30
0.0
 40
1.2
  0
ARC
  5
2B3
330
16D
100
AcDbEntity
  8
hidden
100
AcDbCircle
 10
47.50000000000001
 20
-128.4999999999999
 30
0.0
 40
1.199999999999952
100
AcDbArc
 50
114.9513010946293
 51
65.37568164783528
  0
CIRCLE
  5
2B4
330
16D
100
AcDbEntity
  8
hidden
100
AcDbCircle
 10
6.499999999999999
 20
-158.5
 30
0.0
 40
1.2
  0
ARC
  5
2B5
330
16D
100
AcDbEntity
  8
hidden
100
AcDbCircle
 10
47.49999999999997
 20
-123.5000000000001
 30
0.0
 40
1.199999999999954
100
AcDbArc
 50
294.6243183521666
 51
245.0486989081095
  0
ARC
  5
2B6
330
16D
100
AcDbEntity
  8
hidden
100
AcDbCircle
 10
47.50000000000001
 20
-153.5
 30
0.0
 40
1.2
100
AcDbArc
 50
156.4218215227315
 51
23.57817847717851
  0
CIRCLE
  5
2B7
330
16D
100
AcDbEntity
  8
hidden
100
AcDbCircle
 10
47.5
 20
-63.5
 30
0.0
 40
1.2
  0
LINE
  5
2B8
330
16D
100
AcDbEntity
  8
hidden
100
AcDbLine
 10
50.0
 20
-68.00000000000001
 30
0.0
 11
50.0
 21
-11.0
 31
0.0
  0
LINE
  5
2B9
330
16D
100
AcDbEntity
  8
hidden
100
AcDbLine
 10
50.0
 20
-163.0
 30
0.0
 11
50.0
 21
-106.0
 31
0.0
  0
ARC
  5
2BA
330
16D
100
AcDbEntity
  8
hidden
100
AcDbCircle
 10
47.5
 20
-163.5
 30
0.0
 40
1.2
100
AcDbArc
 50
24.62431835216407
 51
155.3756816478359
  0
CIRCLE
  5
2BB
330
16D
100
AcDbEntity
  8
hidden
100
AcDbCircle
 10
47.5
 20
-158.5
 30
0.0
 40
1.2
  0
ARC
  5
2BC
330
16D
100
AcDbEntity
  8
hidden
100
AcDbCircle
 10
6.499999999999988
 20
-153.5
 30
0.0
 40
1.199999999999985
100
AcDbArc
 50
156.421821521791
 51
23.57817847820126
  0
ARC
  5
2BD
330
16D
100
AcDbEntity
  8
hidden
100
AcDbCircle
 10
6.499999999999988
 20
-143.5000000000001
 30
0.0
 40
1.200000000000003
100
AcDbArc
 50
355.4593326720126
 51
184.5406673279739
  0
ARC
  5
2BE
330
16D
100
AcDbEntity
  8
hidden
100
AcDbCircle
 10
47.50000000000002
 20
-143.4999999999952
 30
0.0
 40
1.200000000000363
100
AcDbArc
 50
355.4593326751014
 51
184.5406673252225
  0
CIRCLE
  5
2BF
330
16D
100
AcDbEntity
  8
hidden
100
AcDbCircle
 10
6.499999999999999
 20
-138.5
 30
0.0
 40
1.2
  0
CIRCLE
  5
2C0
330
16D
100
AcDbEntity
  8
hidden
100
AcDbCircle
 10
47.5
 20
-138.5
 30
0.0
 40
1.2
  0
ARC
  5
2C1
330
16D
100
AcDbEntity
  8
hidden
100
AcDbCircle
 10
6.500000000000033
 20
-128.5
 30
0.0
 40
1.200000000000043
100
AcDbArc
 50
114.9513010928629
 51
65.04869890729148
  0
ARC
  5
2C2
330
16D
100
AcDbEntity
  8
hidden
100
AcDbCircle
 10
6.499999999999985
 20
-123.5
 30
0.0
 40
1.199999999999976
100
AcDbArc
 50
294.9513010927965
 51
245.0486989072645
  0
CIRCLE
  5
2C3
330
16D
100
AcDbEntity
  8
hidden
100
AcDbCircle
 10
47.5
 20
-108.5
 30
0.0
 40
1.2
  0
ARC
  5
2C4
330
16D
100
AcDbEntity
  8
hidden
100
AcDbCircle
 10
6.499999999999998
 20
-68.5
 30
0.0
 40
1.2
100
AcDbArc
 50
24.62431835216409
 51
155.3756816478359
  0
ARC
  5
2C5
330
16D
100
AcDbEntity
  8
hidden
100
AcDbCircle
 10
47.5
 20
-68.49999999999999
 30
0.0
 40
1.199999999999995
100
AcDbArc
 50
24.62431835216345
 51
155.3756816478366
  0
CIRCLE
  5
2C6
330
16D
100
AcDbEntity
  8
hidden
100
AcDbCircle
 10
6.499999999999999
 20
-63.5
 30
0.0
 40
1.2
  0
ARC
  5
2C7
330
16D
100
AcDbEntity
  8
hidden
100
AcDbCircle
 10
6.499999999999999
 20
-58.5
 30
0.0
 40
1.199999999999997
100
AcDbArc
 50
156.4218215217909
 51
23.57817847821657
  0
ARC
  5
2C8
330
16D
100
AcDbEntity
  8
hidden
100
AcDbCircle
 10
47.5
 20
-58.50000000000001
 30
0.0
 40
1.200000000000005
100
AcDbArc
 50
156.4218215098925
 51
23.57817849126424
  0
ARC
  5
2C9
330
16D
100
AcDbEntity
  8
hidden
100
AcDbCircle
 10
6.5
 20
-48.50000000000022
 30
0.0
 40
1.199999999999982
100
AcDbArc
 50
355.4593326719441
 51
184.5406673280443
  0
ARC
  5
2CA
330
16D
100
AcDbEntity
  8
hidden
100
AcDbCircle
 10
47.5
 20
-48.49999999999478
 30
0.0
 40
1.200000000000418
100
AcDbArc
 50
355.4593326316275
 51
184.5406673645313
  0
CIRCLE
  5
2CB
330
16D
100
AcDbEntity
  8
hidden
100
AcDbCircle
 10
6.499999999999999
 20
-43.50000000000001
 30
0.0
 40
1.2
  0
CIRCLE
  5
2CC
330
16D
100
AcDbEntity
  8
hidden
100
AcDbCircle
 10
47.5
 20
-43.50000000000001
 30
0.0
 40
1.2
  0
ARC
  5
2CD
330
16D
100
AcDbEntity
  8
hidden
100
AcDbCircle
 10
6.5
 20
-33.50000000000002
 30
0.0
 40
1.200000000000015
100
AcDbArc
 50
114.9513010927016
 51
65.04869890729826
  0
ARC
  5
2CE
330
16D
100
AcDbEntity
  8
hidden
100
AcDbCircle
 10
47.49999999999999
 20
-33.49999999999999
 30
0.0
 40
1.199999999999987
100
AcDbArc
 50
114.951301088639
 51
65.37568164783535
  0
ARC
  5
2CF
330
16D
100
AcDbEntity
  8
hidden
100
AcDbCircle
 10
47.5
 20
-28.49999999999998
 30
0.0
 40
1.20000000000002
100
AcDbArc
 50
294.6243183521636
 51
245.0486989113577
  0
CIRCLE
  5
2D0
330
16D
100
AcDbEntity
  8
hidden
100
AcDbCircle
 10
6.499999999999999
 20
-13.50000000000001
 30
0.0
 40
1.2
  0
CIRCLE
  5
2D1
330
16D
100
AcDbEntity
  8
hidden
100
AcDbCircle
 10
47.5
 20
-13.50000000000001
 30
0.0
 40
1.2
  0
ARC
  5
2D2
330
16D
100
AcDbEntity
  8
hidden
100
AcDbCircle
 10
6.499999999999998
 20
-163.5
 30
0.0
 40
1.2
100
AcDbArc
 50
24.62431835216409
 51
155.3756816478359
  0
LINE
  5
2D3
330
16D
100
AcDbEntity
  8
hidden
100
AcDbLine
 10
4.0
 20
-68.00000000000001
 30
0.0
 11
4.0
 21
-11.0
 31
0.0
  0
LINE
  5
2D4
330
16D
100
AcDbEntity
  8
hidden
100
AcDbLine
 10
4.0
 20
-163.0
 30
0.0
 11
4.0
 21
-106.0
 31
0.0
  0
LINE
  5
2D5
330
16D
100
AcDbEntity
  8
hidden
100
AcDbLine
 10
9.999999999999998
 20
-68.0
 30
0.0
 11
9.999999999999998
 21
-11.00000000000001
 31
0.0
  0
LINE
  5
2D6
330
16D
100
AcDbEntity
  8
hidden
100
AcDbLine
 10
9.999999999999998
 20
-163.0
 30
0.0
 11
9.999999999999998
 21
-106.0
 31
0.0
  0
LINE
  5
2D7
330
16D
100
AcDbEntity
  8
hidden
100
AcDbLine
 10
44.0
 20
-68.0
 30
0.0
 11
44.0
 21
-11.00000000000001
 31
0.0
  0
LINE
  5
2D8
330
16D
100
AcDbEntity
  8
hidden
100
AcDbLine
 10
43.99999999999999
 20
-163.0
 30
0.0
 11
44.0
 21
-106.0
 31
0.0
  0
CIRCLE
  5
2D9
330
16D
100
AcDbEntity
  8
hidden
100
AcDbCircle
 10
47.49999999999999
 20
-113.5
 30
0.0
 40
1.200000000000004
  0
CIRCLE
  5
2DA
330
16D
100
AcDbEntity
  8
hidden
100
AcDbCircle
 10
6.499999999999993
 20
-113.5
 30
0.0
 40
1.200000000000004
  0
CIRCLE
  5
2DB
330
16D
100
AcDbEntity
  8
hidden
100
AcDbCircle
 10
6.499999999999979
 20
-53.5
 30
0.0
 40
1.200000000000019
  0
CIRCLE
  5
2DC
330
16D
100
AcDbEntity
  8
hidden
100
AcDbCircle
 10
6.500000000000072
 20
-148.5000000000001
 30
0.0
 40
1.199999999999924
  0
CIRCLE
  5
2DD
330
16D
100
AcDbEntity
  8
hidden
100
AcDbCircle
 10
47.49999999999997
 20
-148.5
 30
0.0
 40
1.20000000000004
  0
CIRCLE
  5
2DE
330
16D
100
AcDbEntity
  8
hidden
100
AcDbCircle
 10
6.500000000000211
 20
-133.5000000000001
 30
0.0
 40
1.199999999999786
  0
CIRCLE
  5
2DF
330
16D
100
AcDbEntity
  8
hidden
100
AcDbCircle
 10
47.50000000000006
 20
-133.5
 30
0.0
 40
1.199999999999947
  0
CIRCLE
  5
2E0
330
16D
100
AcDbEntity
  8
hidden
100
AcDbCircle
 10
47.5
 20
-118.4999999999999
 30
0.0
 40
1.199999999999918
  0
CIRCLE
  5
2E1
330
16D
100
AcDbEntity
  8
hidden
100
AcDbCircle
 10
47.49999999999999
 20
-53.5
 30
0.0
 40
1.200000000000014
  0
CIRCLE
  5
2E2
330
16D
100
AcDbEntity
  8
hidden
100
AcDbCircle
 10
6.500000000000004
 20
-38.50000000000001
 30
0.0
 40
1.199999999999994
  0
CIRCLE
  5
2E3
330
16D
100
AcDbEntity
  8
hidden
100
AcDbCircle
 10
47.4999999999998
 20
-38.49999999999996
 30
0.0
 40
1.200000000000202
  0
CIRCLE
  5
2E4
330
16D
100
AcDbEntity
  8
hidden
100
AcDbCircle
 10
47.5
 20
-23.50000000000002
 30
0.0
 40
1.200000000000031
  0
CIRCLE
  5
2E5
330
16D
100
AcDbEntity
  8
hidden
100
AcDbCircle
 10
6.499999999999998
 20
-18.50000000000002
 30
0.0
 40
1.199999999999999
  0
CIRCLE
  5
2E6
330
16D
100
AcDbEntity
  8
hidden
100
AcDbCircle
 10
47.5
 20
-18.50000000000002
 30
0.0
 40
1.199999999999998
  0
LINE
  5
2E7
330
16D
100
AcDbEntity
  8
center
100
AcDbLine
 10
5.239999999999998
 20
-8.500000000000007
 30
0.0
 11
7.76
 21
-8.500000000000007
 31
0.0
  0
LINE
  5
2E8
330
16D
100
AcDbEntity
  8
center
100
AcDbLine
 10
6.499999999999999
 20
-9.760000000000007
 30
0.0
 11
6.499999999999999
 21
-7.240000000000007
 31
0.0
  0
LINE
  5
2E9
330
16D
100
AcDbEntity
  8
center
100
AcDbLine
 10
5.239999999999998
 20
-108.5
 30
0.0
 11
7.76
 21
-108.5
 31
0.0
  0
LINE
  5
2EA
330
16D
100
AcDbEntity
  8
center
100
AcDbLine
 10
6.499999999999999
 20
-109.76
 30
0.0
 11
6.499999999999999
 21
-107.24
 31
0.0
  0
LINE
  5
2EB
330
16D
100
AcDbEntity
  8
center
100
AcDbLine
 10
5.239999999999998
 20
-158.5
 30
0.0
 11
7.76
 21
-158.5
 31
0.0
  0
LINE
  5
2EC
330
16D
100
AcDbEntity
  8
center
100
AcDbLine
 10
6.499999999999999
 20
-159.76
 30
0.0
 11
6.499999999999999
 21
-157.24
 31
0.0
  0
LINE
  5
2ED
330
16D
100
AcDbEntity
  8
center
100
AcDbLine
 10
5.239999999999998
 20
-3.500000000000003
 30
0.0
 11
7.76
 21
-3.500000000000003
 31
0.0
  0
LINE
  5
2EE
330
16D
100
AcDbEntity
  8
center
100
AcDbLine
 10
6.499999999999999
 20
-4.760000000000003
 30
0.0
 11
6.499999999999999
 21
-2.240000000000003
 31
0.0
  0
LINE
  5
2EF
330
16D
100
AcDbEntity
  8
center
100
AcDbLine
 10
46.24
 20
-63.5
 30
0.0
 11
48.76
 21
-63.5
 31
0.0
  0
LINE
  5
2F0
330
16D
100
AcDbEntity
  8
center
100
AcDbLine
 10
47.5
 20
-64.76
 30
0.0
 11
47.5
 21
-62.24
 31
0.0
  0
LINE
  5
2F1
330
16D
100
AcDbEntity
  8
center
100
AcDbLine
 10
46.24
 20
-158.5
 30
0.0
 11
48.76
 21
-158.5
 31
0.0
  0
LINE
  5
2F2
330
16D
100
AcDbEntity
  8
center
100
AcDbLine
 10
47.5
 20
-159.76
 30
0.0
 11
47.5
 21
-157.24
 31
0.0
  0
LINE
  5
2F3
330
16D
100
AcDbEntity
  8
center
100
AcDbLine
 10
5.239999999999998
 20
-138.5
 30
0.0
 11
7.76
 21
-138.5
 31
0.0
  0
LINE
  5
2F4
330
16D
100
AcDbEntity
  8
center
100
AcDbLine
 10
6.499999999999999
 20
-139.76
 30
0.0
 11
6.499999999999999
 21
-137.24
 31
0.0
  0
LINE
  5
2F5
330
16D
100
AcDbEntity
  8
center
100
AcDbLine
 10
46.24
 20
-138.5
 30
0.0
 11
48.76
 21
-138.5
 31
0.0
  0
LINE
  5
2F6
330
16D
100
AcDbEntity
  8
center
100
AcDbLine
 10
47.5
 20
-139.76
 30
0.0
 11
47.5
 21
-137.24
 31
0.0
  0
LINE
  5
2F7
330
16D
100
AcDbEntity
  8
center
100
AcDbLine
 10
46.24
 20
-108.5
 30
0.0
 11
48.76
 21
-108.5
 31
0.0
  0
LINE
  5
2F8
330
16D
100
AcDbEntity
  8
center
100
AcDbLine
 10
47.5
 20
-109.76
 30
0.0
 11
47.5
 21
-107.24
 31
0.0
  0
LINE
  5
2F9
330
16D
100
AcDbEntity
  8
center
100
AcDbLine
 10
5.239999999999998
 20
-103.5
 30
0.0
 11
7.76
 21
-103.5
 31
0.0
  0
LINE
  5
2FA
330
16D
100
AcDbEntity
  8
center
100
AcDbLine
 10
6.499999999999999
 20
-104.76
 30
0.0
 11
6.499999999999999
 21
-102.24
 31
0.0
  0
LINE
  5
2FB
330
16D
100
AcDbEntity
  8
center
100
AcDbLine
 10
46.24
 20
-103.5
 30
0.0
 11
48.76
 21
-103.5
 31
0.0
  0
LINE
  5
2FC
330
16D
100
AcDbEntity
  8
center
100
AcDbLine
 10
47.5
 20
-104.76
 30
0.0
 11
47.5
 21
-102.24
 31
0.0
  0
LINE
  5
2FD
330
16D
100
AcDbEntity
  8
center
100
AcDbLine
 10
5.239999999999998
 20
-98.5
 30
0.0
 11
7.76
 21
-98.5
 31
0.0
  0
LINE
  5
2FE
330
16D
100
AcDbEntity
  8
center
100
AcDbLine
 10
6.499999999999999
 20
-99.76
 30
0.0
 11
6.499999999999999
 21
-97.24
 31
0.0
  0
LINE
  5
2FF
330
16D
100
AcDbEntity
  8
center
100
AcDbLine
 10
46.24
 20
-98.5
 30
0.0
 11
48.76
 21
-98.5
 31
0.0
  0
LINE
  5
300
330
16D
100
AcDbEntity
  8
center
100
AcDbLine
 10
47.5
 20
-99.76
 30
0.0
 11
47.5
 21
-97.24
 31
0.0
  0
LINE
  5
301
330
16D
100
AcDbEntity
  8
center
100
AcDbLine
 10
5.239999999999998
 20
-93.50000000000001
 30
0.0
 11
7.76
 21
-93.50000000000001
 31
0.0
  0
LINE
  5
302
330
16D
100
AcDbEntity
  8
center
100
AcDbLine
 10
6.499999999999999
 20
-94.76000000000002
 30
0.0
 11
6.499999999999999
 21
-92.24000000000001
 31
0.0
  0
LINE
  5
303
330
16D
100
AcDbEntity
  8
center
100
AcDbLine
 10
46.24
 20
-93.50000000000001
 30
0.0
 11
48.76
 21
-93.50000000000001
 31
0.0
  0
LINE
  5
304
330
16D
100
AcDbEntity
  8
center
100
AcDbLine
 10
47.5
 20
-94.76000000000002
 30
0.0
 11
47.5
 21
-92.24000000000001
 31
0.0
  0
LINE
  5
305
330
16D
100
AcDbEntity
  8
center
100
AcDbLine
 10
5.239999999999998
 20
-88.50000000000001
 30
0.0
 11
7.76
 21
-88.50000000000001
 31
0.0
  0
LINE
  5
306
330
16D
100
AcDbEntity
  8
center
100
AcDbLine
 10
6.499999999999999
 20
-89.76000000000002
 30
0.0
 11
6.499999999999999
 21
-87.24000000000001
 31
0.0
  0
LINE
  5
307
330
16D
100
AcDbEntity
  8
center
100
AcDbLine
 10
46.24
 20
-88.50000000000001
 30
0.0
 11
48.76
 21
-88.50000000000001
 31
0.0
  0
LINE
  5
308
330
16D
100
AcDbEntity
  8
center
100
AcDbLine
 10
47.5
 20
-89.76000000000002
 30
0.0
 11
47.5
 21
-87.24000000000001
 31
0.0
  0
LINE
  5
309
330
16D
100
AcDbEntity
  8
center
100
AcDbLine
 10
5.239999999999998
 20
-83.5
 30
0.0
 11
7.76
 21
-83.5
 31
0.0
  0
LINE
  5
30A
330
16D
100
AcDbEntity
  8
center
100
AcDbLine
 10
6.499999999999999
 20
-84.76
 30
0.0
 11
6.499999999999999
 21
-82.24
 31
0.0
  0
LINE
  5
30B
330
16D
100
AcDbEntity
  8
center
100
AcDbLine
 10
46.24
 20
-83.5
 30
0.0
 11
48.76
 21
-83.5
 31
0.0
  0
LINE
  5
30C
330
16D
100
AcDbEntity
  8
center
100
AcDbLine
 10
47.5
 20
-84.76
 30
0.0
 11
47.5
 21
-82.24
 31
0.0
  0
LINE
  5
30D
330
16D
100
AcDbEntity
  8
center
100
AcDbLine
 10
5.239999999999998
 20
-78.5
 30
0.0
 11
7.76
 21
-78.5
 31
0.0
  0
LINE
  5
30E
330
16D
100
AcDbEntity
  8
center
100
AcDbLine
 10
6.499999999999999
 20
-79.76
 30
0.0
 11
6.499999999999999
 21
-77.24
 31
0.0
  0
LINE
  5
30F
330
16D
100
AcDbEntity
  8
center
100
AcDbLine
 10
46.24
 20
-78.5
 30
0.0
 11
48.76
 21
-78.5
 31
0.0
  0
LINE
  5
310
330
16D
100
AcDbEntity
  8
center
100
AcDbLine
 10
47.5
 20
-79.76
 30
0.0
 11
47.5
 21
-77.24
 31
0.0
  0
LINE
  5
311
330
16D
100
AcDbEntity
  8
center
100
AcDbLine
 10
5.239999999999998
 20
-73.50000000000001
 30
0.0
 11
7.76
 21
-73.50000000000001
 31
0.0
  0
LINE
  5
312
330
16D
100
AcDbEntity
  8
center
100
AcDbLine
 10
6.499999999999999
 20
-74.76000000000002
 30
0.0
 11
6.499999999999999
 21
-72.24000000000001
 31
0.0
  0
LINE
  5
313
330
16D
100
AcDbEntity
  8
center
100
AcDbLine
 10
46.24
 20
-73.50000000000001
 30
0.0
 11
48.76
 21
-73.50000000000001
 31
0.0
  0
LINE
  5
314
330
16D
100
AcDbEntity
  8
center
100
AcDbLine
 10
47.5
 20
-74.76000000000002
 30
0.0
 11
47.5
 21
-72.24000000000001
 31
0.0
  0
LINE
  5
315
330
16D
100
AcDbEntity
  8
center
100
AcDbLine
 10
5.239999999999998
 20
-63.5
 30
0.0
 11
7.76
 21
-63.5
 31
0.0
  0
LINE
  5
316
330
16D
100
AcDbEntity
  8
center
100
AcDbLine
 10
6.499999999999999
 20
-64.76
 30
0.0
 11
6.499999999999999
 21
-62.24
 31
0.0
  0
LINE
  5
317
330
16D
100
AcDbEntity
  8
center
100
AcDbLine
 10
5.239999999999998
 20
-43.50000000000001
 30
0.0
 11
7.76
 21
-43.50000000000001
 31
0.0
  0
LINE
  5
318
330
16D
100
AcDbEntity
  8
center
100
AcDbLine
 10
6.499999999999999
 20
-44.76000000000001
 30
0.0
 11
6.499999999999999
 21
-42.24000000000002
 31
0.0
  0
LINE
  5
319
330
16D
100
AcDbEntity
  8
center
100
AcDbLine
 10
46.24
 20
-43.50000000000001
 30
0.0
 11
48.76
 21
-43.50000000000001
 31
0.0
  0
LINE
  5
31A
330
16D
100
AcDbEntity
  8
center
100
AcDbLine
 10
47.5
 20
-44.76000000000001
 30
0.0
 11
47.5
 21
-42.24000000000002
 31
0.0
  0
LINE
  5
31B
330
16D
100
AcDbEntity
  8
center
100
AcDbLine
 10
5.239999999999998
 20
-13.50000000000001
 30
0.0
 11
7.76
 21
-13.50000000000001
 31
0.0
  0
LINE
  5
31C
330
16D
100
AcDbEntity
  8
center
100
AcDbLine
 10
6.499999999999999
 20
-14.76000000000001
 30
0.0
 11
6.499999999999999
 21
-12.24000000000001
 31
0.0
  0
LINE
  5
31D
330
16D
100
AcDbEntity
  8
center
100
AcDbLine
 10
46.24
 20
-13.50000000000001
 30
0.0
 11
48.76
 21
-13.50000000000001
 31
0.0
  0
LINE
  5
31E
330
16D
100
AcDbEntity
  8
center
100
AcDbLine
 10
47.5
 20
-14.76000000000001
 30
0.0
 11
47.5
 21
-12.24000000000001
 31
0.0
  0
LINE
  5
31F
330
16D
100
AcDbEntity
  8
center
100
AcDbLine
 10
46.24
 20
-8.500000000000007
 30
0.0
 11
48.76
 21
-8.500000000000007
 31
0.0
  0
LINE
  5
320
330
16D
100
AcDbEntity
  8
center
100
AcDbLine
 10
47.5
 20
-9.760000000000007
 30
0.0
 11
47.5
 21
-7.240000000000007
 31
0.0
  0
LINE
  5
321
330
16D
100
AcDbEntity
  8
center
100
AcDbLine
 10
46.24
 20
-3.500000000000003
 30
0.0
 11
48.76
 21
-3.500000000000003
 31
0.0
  0
LINE
  5
322
330
16D
100
AcDbEntity
  8
center
100
AcDbLine
 10
47.5
 20
-4.760000000000003
 30
0.0
 11
47.5
 21
-2.240000000000003
 31
0.0
  0
LINE
  5
323
330
16D
100
AcDbEntity
  8
center
100
AcDbLine
 10
3.8
 20
-161.5
 30
0.0
 11
8.2
 21
-161.5
 31
0.0
  0
LINE
  5
324
330
16D
100
AcDbEntity
  8
center
100
AcDbLine
 10
45.8
 20
-161.5
 30
0.0
 11
50.2
 21
-161.5
 31
0.0
  0
LINE
  5
325
330
16D
100
AcDbEntity
  8
center
100
AcDbLine
 10
3.8
 20
-156.5
 30
0.0
 11
8.2
 21
-156.5
 31
0.0
  0
LINE
  5
326
330
16D
100
AcDbEntity
  8
center
100
AcDbLine
 10
45.8
 20
-156.5
 30
0.0
 11
50.2
 21
-156.5
 31
0.0
  0
LINE
  5
327
330
16D
100
AcDbEntity
  8
center
100
AcDbLine
 10
3.8
 20
-151.5
 30
0.0
 11
8.2
 21
-151.5
 31
0.0
  0
LINE
  5
328
330
16D
100
AcDbEntity
  8
center
100
AcDbLine
 10
45.8
 20
-151.5
 30
0.0
 11
50.2
 21
-151.5
 31
0.0
  0
LINE
  5
329
330
16D
100
AcDbEntity
  8
center
100
AcDbLine
 10
3.8
 20
-146.5
 30
0.0
 11
8.2
 21
-146.5
 31
0.0
  0
LINE
  5
32A
330
16D
100
AcDbEntity
  8
center
100
AcDbLine
 10
45.8
 20
-146.5
 30
0.0
 11
50.2
 21
-146.5
 31
0.0
  0
LINE
  5
32B
330
16D
100
AcDbEntity
  8
center
100
AcDbLine
 10
3.8
 20
-141.5
 30
0.0
 11
8.2
 21
-141.5
 31
0.0
  0
LINE
  5
32C
330
16D
100
AcDbEntity
  8
center
100
AcDbLine
 10
45.8
 20
-141.5
 30
0.0
 11
50.2
 21
-141.5
 31
0.0
  0
LINE
  5
32D
330
16D
100
AcDbEntity
  8
center
100
AcDbLine
 10
3.8
 20
-136.5
 30
0.0
 11
8.2
 21
-136.5
 31
0.0
  0
LINE
  5
32E
330
16D
100
AcDbEntity
  8
center
100
AcDbLine
 10
45.8
 20
-136.5
 30
0.0
 11
50.2
 21
-136.5
 31
0.0
  0
LINE
  5
32F
330
16D
100
AcDbEntity
  8
center
100
AcDbLine
 10
3.8
 20
-131.5
 30
0.0
 11
8.2
 21
-131.5
 31
0.0
  0
LINE
  5
330
330
16D
100
AcDbEntity
  8
center
100
AcDbLine
 10
45.8
 20
-131.5
 30
0.0
 11
50.2
 21
-131.5
 31
0.0
  0
LINE
  5
331
330
16D
100
AcDbEntity
  8
center
100
AcDbLine
 10
3.8
 20
-126.5
 30
0.0
 11
8.2
 21
-126.5
 31
0.0
  0
LINE
  5
332
330
16D
100
AcDbEntity
  8
center
100
AcDbLine
 10
45.8
 20
-126.5
 30
0.0
 11
50.2
 21
-126.5
 31
0.0
  0
LINE
  5
333
330
16D
100
AcDbEntity
  8
center
100
AcDbLine
 10
3.8
 20
-121.5
 30
0.0
 11
8.2
 21
-121.5
 31
0.0
  0
LINE
  5
334
330
16D
100
AcDbEntity
  8
center
100
AcDbLine
 10
45.8
 20
-121.5
 30
0.0
 11
50.2
 21
-121.5
 31
0.0
  0
LINE
  5
335
330
16D
100
AcDbEntity
  8
center
100
AcDbLine
 10
3.8
 20
-116.5
 30
0.0
 11
8.2
 21
-116.5
 31
0.0
  0
LINE
  5
336
330
16D
100
AcDbEntity
  8
center
100
AcDbLine
 10
45.8
 20
-116.5
 30
0.0
 11
50.2
 21
-116.5
 31
0.0
  0
LINE
  5
337
330
16D
100
AcDbEntity
  8
center
100
AcDbLine
 10
3.8
 20
-111.5
 30
0.0
 11
8.2
 21
-111.5
 31
0.0
  0
LINE
  5
338
330
16D
100
AcDbEntity
  8
center
100
AcDbLine
 10
45.8
 20
-111.5
 30
0.0
 11
50.2
 21
-111.5
 31
0.0
  0
LINE
  5
339
330
16D
100
AcDbEntity
  8
center
100
AcDbLine
 10
3.8
 20
-106.5
 30
0.0
 11
8.2
 21
-106.5
 31
0.0
  0
LINE
  5
33A
330
16D
100
AcDbEntity
  8
center
100
AcDbLine
 10
45.8
 20
-106.5
 30
0.0
 11
50.2
 21
-106.5
 31
0.0
  0
LINE
  5
33B
330
16D
100
AcDbEntity
  8
center
100
AcDbLine
 10
3.8
 20
-101.5
 30
0.0
 11
8.2
 21
-101.5
 31
0.0
  0
LINE
  5
33C
330
16D
100
AcDbEntity
  8
center
100
AcDbLine
 10
45.8
 20
-101.5
 30
0.0
 11
50.2
 21
-101.5
 31
0.0
  0
LINE
  5
33D
330
16D
100
AcDbEntity
  8
center
100
AcDbLine
 10
3.8
 20
-96.5
 30
0.0
 11
8.2
 21
-96.5
 31
0.0
  0
LINE
  5
33E
330
16D
100
AcDbEntity
  8
center
100
AcDbLine
 10
45.8
 20
-96.5
 30
0.0
 11
50.2
 21
-96.5
 31
0.0
  0
LINE
  5
33F
330
16D
100
AcDbEntity
  8
center
100
AcDbLine
 10
3.8
 20
-91.5
 30
0.0
 11
8.2
 21
-91.5
 31
0.0
  0
LINE
  5
340
330
16D
100
AcDbEntity
  8
center
100
AcDbLine
 10
45.8
 20
-91.5
 30
0.0
 11
50.2
 21
-91.5
 31
0.0
  0
LINE
  5
341
330
16D
100
AcDbEntity
  8
center
100
AcDbLine
 10
3.8
 20
-86.50000000000001
 30
0.0
 11
8.2
 21
-86.50000000000001
 31
0.0
  0
LINE
  5
342
330
16D
100
AcDbEntity
  8
center
100
AcDbLine
 10
45.8
 20
-86.50000000000001
 30
0.0
 11
50.2
 21
-86.50000000000001
 31
0.0
  0
LINE
  5
343
330
16D
100
AcDbEntity
  8
center
100
AcDbLine
 10
3.8
 20
-81.5
 30
0.0
 11
8.2
 21
-81.5
 31
0.0
  0
LINE
  5
344
330
16D
100
AcDbEntity
  8
center
100
AcDbLine
 10
45.8
 20
-81.5
 30
0.0
 11
50.2
 21
-81.5
 31
0.0
  0
LINE
  5
345
330
16D
100
AcDbEntity
  8
center
100
AcDbLine
 10
3.8
 20
-76.5
 30
0.0
 11
8.2
 21
-76.5
 31
0.0
  0
LINE
  5
346
330
16D
100
AcDbEntity
  8
center
100
AcDbLine
 10
45.8
 20
-76.5
 30
0.0
 11
50.2
 21
-76.5
 31
0.0
  0
LINE
  5
347
330
16D
100
AcDbEntity
  8
center
100
AcDbLine
 10
3.8
 20
-71.50000000000001
 30
0.0
 11
8.2
 21
-71.50000000000001
 31
0.0
  0
LINE
  5
348
330
16D
100
AcDbEntity
  8
center
100
AcDbLine
 10
45.8
 20
-71.50000000000001
 30
0.0
 11
50.2
 21
-71.50000000000001
 31
0.0
  0
LINE
  5
349
330
16D
100
AcDbEntity
  8
center
100
AcDbLine
 10
3.8
 20
-66.5
 30
0.0
 11
8.2
 21
-66.5
 31
0.0
  0
LINE
  5
34A
330
16D
100
AcDbEntity
  8
center
100
AcDbLine
 10
45.8
 20
-66.5
 30
0.0
 11
50.2
 21
-66.5
 31
0.0
  0
LINE
  5
34B
330
16D
100
AcDbEntity
  8
center
100
AcDbLine
 10
3.8
 20
-61.5
 30
0.0
 11
8.2
 21
-61.5
 31
0.0
  0
LINE
  5
34C
330
16D
100
AcDbEntity
  8
center
100
AcDbLine
 10
45.8
 20
-61.5
 30
0.0
 11
50.2
 21
-61.5
 31
0.0
  0
LINE
  5
34D
330
16D
100
AcDbEntity
  8
center
100
AcDbLine
 10
3.8
 20
-56.50000000000001
 30
0.0
 11
8.2
 21
-56.50000000000001
 31
0.0
  0
LINE
  5
34E
330
16D
100
AcDbEntity
  8
center
100
AcDbLine
 10
45.8
 20
-56.50000000000001
 30
0.0
 11
50.2
 21
-56.50000000000001
 31
0.0
  0
LINE
  5
34F
330
16D
100
AcDbEntity
  8
center
100
AcDbLine
 10
3.8
 20
-51.50000000000001
 30
0.0
 11
8.2
 21
-51.50000000000001
 31
0.0
  0
LINE
  5
350
330
16D
100
AcDbEntity
  8
center
100
AcDbLine
 10
45.8
 20
-51.50000000000001
 30
0.0
 11
50.2
 21
-51.50000000000001
 31
0.0
  0
LINE
  5
351
330
16D
100
AcDbEntity
  8
center
100
AcDbLine
 10
3.8
 20
-46.5
 30
0.0
 11
8.2
 21
-46.5
 31
0.0
  0
LINE
  5
352
330
16D
100
AcDbEntity
  8
center
100
AcDbLine
 10
45.8
 20
-46.5
 30
0.0
 11
50.2
 21
-46.5
 31
0.0
  0
LINE
  5
353
330
16D
100
AcDbEntity
  8
center
100
AcDbLine
 10
3.8
 20
-41.50000000000001
 30
0.0
 11
8.2
 21
-41.50000000000001
 31
0.0
  0
LINE
  5
354
330
16D
100
AcDbEntity
  8
center
100
AcDbLine
 10
45.8
 20
-41.50000000000001
 30
0.0
 11
50.2
 21
-41.50000000000001
 31
0.0
  0
LINE
  5
355
330
16D
100
AcDbEntity
  8
center
100
AcDbLine
 10
3.8
 20
-36.50000000000001
 30
0.0
 11
8.2
 21
-36.50000000000001
 31
0.0
  0
LINE
  5
356
330
16D
100
AcDbEntity
  8
center
100
AcDbLine
 10
45.8
 20
-36.50000000000001
 30
0.0
 11
50.2
 21
-36.50000000000001
 31
0.0
  0
LINE
  5
357
330
16D
100
AcDbEntity
  8
center
100
AcDbLine
 10
3.8
 20
-31.5
 30
0.0
 11
8.2
 21
-31.5
 31
0.0
  0
LINE
  5
358
330
16D
100
AcDbEntity
  8
center
100
AcDbLine
 10
45.8
 20
-31.5
 30
0.0
 11
50.2
 21
-31.5
 31
0.0
  0
LINE
  5
359
330
16D
100
AcDbEntity
  8
center
100
AcDbLine
 10
3.8
 20
-26.5
 30
0.0
 11
8.2
 21
-26.5
 31
0.0
  0
LINE
  5
35A
330
16D
100
AcDbEntity
  8
center
100
AcDbLine
 10
45.8
 20
-26.5
 30
0.0
 11
50.2
 21
-26.5
 31
0.0
  0
LINE
  5
35B
330
16D
100
AcDbEntity
  8
center
100
AcDbLine
 10
3.8
 20
-21.49999999999999
 30
0.0
 11
8.2
 21
-21.49999999999999
 31
0.0
  0
LINE
  5
35C
330
16D
100
AcDbEntity
  8
center
100
AcDbLine
 10
45.8
 20
-21.49999999999999
 30
0.0
 11
50.2
 21
-21.49999999999999
 31
0.0
  0
LINE
  5
35D
330
16D
100
AcDbEntity
  8
center
100
AcDbLine
 10
3.8
 20
-16.50000000000001
 30
0.0
 11
8.2
 21
-16.50000000000001
 31
0.0
  0
LINE
  5
35E
330
16D
100
AcDbEntity
  8
center
100
AcDbLine
 10
45.8
 20
-16.50000000000001
 30
0.0
 11
50.2
 21
-16.50000000000001
 31
0.0
  0
LINE
  5
35F
330
16D
100
AcDbEntity
  8
center
100
AcDbLine
 10
3.8
 20
-11.50000000000001
 30
0.0
 11
8.2
 21
-11.50000000000001
 31
0.0
  0
LINE
  5
360
330
16D
100
AcDbEntity
  8
center
100
AcDbLine
 10
45.8
 20
-11.50000000000001
 30
0.0
 11
50.2
 21
-11.50000000000001
 31
0.0
  0
LINE
  5
361
330
16D
100
AcDbEntity
  8
center
100
AcDbLine
 10
3.8
 20
-6.500000000000005
 30
0.0
 11
8.2
 21
-6.500000000000005
 31
0.0
  0
LINE
  5
362
330
16D
100
AcDbEntity
  8
center
100
AcDbLine
 10
45.8
 20
-6.500000000000005
 30
0.0
 11
50.2
 21
-6.500000000000005
 31
0.0
  0
LINE
  5
363
330
16D
100
AcDbEntity
  8
center
100
AcDbLine
 10
5.24000000000045
 20
-48.50000000000002
 30
0.0
 11
7.759999999999987
 21
-48.50000000000002
 31
0.0
  0
LINE
  5
364
330
16D
100
AcDbEntity
  8
center
100
AcDbLine
 10
5.239999999999988
 20
-128.5
 30
0.0
 11
7.759999999999984
 21
-128.5
 31
0.0
  0
LINE
  5
365
330
16D
100
AcDbEntity
  8
center
100
AcDbLine
 10
5.240000000000181
 20
-143.5
 30
0.0
 11
7.759999999999994
 21
-143.5
 31
0.0
  0
LINE
  5
366
330
16D
100
AcDbEntity
  8
center
100
AcDbLine
 10
46.23999999998887
 20
-48.4999999999998
 30
0.0
 11
48.76000000000028
 21
-48.4999999999998
 31
0.0
  0
LINE
  5
367
330
16D
100
AcDbEntity
  8
center
100
AcDbLine
 10
5.240000000000001
 20
-33.5
 30
0.0
 11
7.760000000000006
 21
-33.5
 31
0.0
  0
LINE
  5
368
330
16D
100
AcDbEntity
  8
center
100
AcDbLine
 10
5.239999999999993
 20
-163.5
 30
0.0
 11
7.76
 21
-163.5
 31
0.0
  0
LINE
  5
369
330
16D
100
AcDbEntity
  8
center
100
AcDbLine
 10
6.499999999999996
 20
-164.76
 30
0.0
 11
6.499999999999996
 21
-162.24
 31
0.0
  0
LINE
  5
36A
330
16D
100
AcDbEntity
  8
center
100
AcDbLine
 10
46.23999999999993
 20
-148.5
 30
0.0
 11
48.76000000000001
 21
-148.5
 31
0.0
  0
LINE
  5
36B
330
16D
100
AcDbEntity
  8
center
100
AcDbLine
 10
47.49999999999986
 20
-154.7600000000001
 30
0.0
 11
47.49999999999997
 21
-147.24
 31
0.0
  0
LINE
  5
36C
330
16D
100
AcDbEntity
  8
center
100
AcDbLine
 10
5.240000000000436
 20
-133.5000000000001
 30
0.0
 11
7.759999999999986
 21
-133.5000000000001
 31
0.0
  0
LINE
  5
36D
330
16D
100
AcDbEntity
  8
center
100
AcDbLine
 10
6.500000000000211
 20
-134.7599999999998
 30
0.0
 11
6.500000000000211
 21
-132.2400000000003
 31
0.0
  0
LINE
  5
36E
330
16D
100
AcDbEntity
  8
center
100
AcDbLine
 10
5.239999999999796
 20
-123.5
 30
0.0
 11
7.760000000000002
 21
-123.5
 31
0.0
  0
LINE
  5
36F
330
16D
100
AcDbEntity
  8
center
100
AcDbLine
 10
6.499999999999986
 20
-129.76
 30
0.0
 11
6.499999999999899
 21
-122.2399999999999
 31
0.0
  0
LINE
  5
370
330
16D
100
AcDbEntity
  8
center
100
AcDbLine
 10
5.240000000000155
 20
-28.50000000000001
 30
0.0
 11
7.759999999999994
 21
-28.50000000000001
 31
0.0
  0
LINE
  5
371
330
16D
100
AcDbEntity
  8
center
100
AcDbLine
 10
6.500000000000004
 20
-34.76000000000001
 30
0.0
 11
6.500000000000075
 21
-27.24000000000009
 31
0.0
  0
LINE
  5
372
330
16D
100
AcDbEntity
  8
center
100
AcDbLine
 10
46.23999999999997
 20
-53.5
 30
0.0
 11
48.76
 21
-53.5
 31
0.0
  0
LINE
  5
373
330
16D
100
AcDbEntity
  8
center
100
AcDbLine
 10
47.50000000000001
 20
-59.76000000000001
 30
0.0
 11
47.49999999999999
 21
-52.23999999999999
 31
0.0
  0
LINE
  5
374
330
16D
100
AcDbEntity
  8
center
100
AcDbLine
 10
46.24
 20
-18.50000000000002
 30
0.0
 11
48.76
 21
-18.50000000000002
 31
0.0
  0
LINE
  5
375
330
16D
100
AcDbEntity
  8
center
100
AcDbLine
 10
47.5
 20
-19.76000000000002
 30
0.0
 11
47.5
 21
-17.24000000000002
 31
0.0
  0
LINE
  5
376
330
16D
100
AcDbEntity
  8
center
100
AcDbLine
 10
46.23999999999999
 20
-163.5
 30
0.0
 11
48.76000000000001
 21
-163.5
 31
0.0
  0
LINE
  5
377
330
16D
100
AcDbEntity
  8
center
100
AcDbLine
 10
47.5
 20
-164.76
 30
0.0
 11
47.5
 21
-162.24
 31
0.0
  0
LINE
  5
378
330
16D
100
AcDbEntity
  8
center
100
AcDbLine
 10
46.2400000000002
 20
-123.5
 30
0.0
 11
48.76
 21
-123.5
 31
0.0
  0
LINE
  5
379
330
16D
100
AcDbEntity
  8
center
100
AcDbLine
 10
47.5
 20
-129.76
 30
0.0
 11
47.5000000000001
 21
-122.2400000000001
 31
0.0
  0
LINE
  5
37A
330
16D
100
AcDbEntity
  8
center
100
AcDbLine
 10
46.2399999999997
 20
-153.4999999999999
 30
0.0
 11
48.76000000000001
 21
-153.4999999999999
 31
0.0
  0
LINE
  5
37B
330
16D
100
AcDbEntity
  8
center
100
AcDbLine
 10
5.240000000000011
 20
-38.50000000000001
 30
0.0
 11
7.759999999999998
 21
-38.50000000000001
 31
0.0
  0
LINE
  5
37C
330
16D
100
AcDbEntity
  8
center
100
AcDbLine
 10
6.500000000000004
 20
-39.76
 30
0.0
 11
6.500000000000004
 21
-37.24000000000002
 31
0.0
  0
LINE
  5
37D
330
16D
100
AcDbEntity
  8
center
100
AcDbLine
 10
46.23999999999999
 20
-113.5
 30
0.0
 11
48.76
 21
-113.5
 31
0.0
  0
LINE
  5
37E
330
16D
100
AcDbEntity
  8
center
100
AcDbLine
 10
47.49999999999999
 20
-114.76
 30
0.0
 11
47.49999999999999
 21
-112.24
 31
0.0
  0
LINE
  5
37F
330
16D
100
AcDbEntity
  8
center
100
AcDbLine
 10
5.239999999999956
 20
-153.5
 30
0.0
 11
7.760000000000002
 21
-153.5
 31
0.0
  0
LINE
  5
380
330
16D
100
AcDbEntity
  8
center
100
AcDbLine
 10
5.240000000000151
 20
-148.5000000000001
 30
0.0
 11
7.759999999999993
 21
-148.5000000000001
 31
0.0
  0
LINE
  5
381
330
16D
100
AcDbEntity
  8
center
100
AcDbLine
 10
6.499999999999979
 20
-154.76
 30
0.0
 11
6.500000000000072
 21
-147.2400000000001
 31
0.0
  0
LINE
  5
382
330
16D
100
AcDbEntity
  8
center
100
AcDbLine
 10
46.24000000000011
 20
-133.5
 30
0.0
 11
48.76000000000001
 21
-133.5
 31
0.0
  0
LINE
  5
383
330
16D
100
AcDbEntity
  8
center
100
AcDbLine
 10
47.50000000000006
 20
-134.7599999999999
 30
0.0
 11
47.50000000000006
 21
-132.2400000000001
 31
0.0
  0
LINE
  5
384
330
16D
100
AcDbEntity
  8
center
100
AcDbLine
 10
5.239999999999993
 20
-68.5
 30
0.0
 11
7.76
 21
-68.5
 31
0.0
  0
LINE
  5
385
330
16D
100
AcDbEntity
  8
center
100
AcDbLine
 10
6.499999999999996
 20
-69.76
 30
0.0
 11
6.499999999999996
 21
-67.24
 31
0.0
  0
LINE
  5
386
330
16D
100
AcDbEntity
  8
center
100
AcDbLine
 10
46.23999999999999
 20
-33.5
 30
0.0
 11
48.76000000000001
 21
-33.5
 31
0.0
  0
LINE
  5
387
330
16D
100
AcDbEntity
  8
center
100
AcDbLine
 10
5.239999999999999
 20
-18.50000000000002
 30
0.0
 11
7.759999999999997
 21
-18.50000000000002
 31
0.0
  0
LINE
  5
388
330
16D
100
AcDbEntity
  8
center
100
AcDbLine
 10
6.499999999999998
 20
-19.76000000000002
 30
0.0
 11
6.499999999999998
 21
-17.24000000000002
 31
0.0
  0
LINE
  5
389
330
16D
100
AcDbEntity
  8
center
100
AcDbLine
 10
5.239999999999958
 20
-53.5
 30
0.0
 11
7.759999999999999
 21
-53.5
 31
0.0
  0
LINE
  5
38A
330
16D
100
AcDbEntity
  8
center
100
AcDbLine
 10
6.500000000000039
 20
-59.75999999999998
 30
0.0
 11
6.499999999999979
 21
-52.23999999999998
 31
0.0
  0
LINE
  5
38B
330
16D
100
AcDbEntity
  8
center
100
AcDbLine
 10
46.23999999998977
 20
-143.4999999999998
 30
0.0
 11
48.76000000000025
 21
-143.4999999999998
 31
0.0
  0
LINE
  5
38C
330
16D
100
AcDbEntity
  8
center
100
AcDbLine
 10
46.23999999999959
 20
-38.49999999999996
 30
0.0
 11
48.76000000000001
 21
-38.49999999999996
 31
0.0
  0
LINE
  5
38D
330
16D
100
AcDbEntity
  8
center
100
AcDbLine
 10
47.4999999999998
 20
-39.76000000000017
 30
0.0
 11
47.4999999999998
 21
-37.23999999999975
 31
0.0
  0
LINE
  5
38E
330
16D
100
AcDbEntity
  8
center
100
AcDbLine
 10
46.23999999999999
 20
-68.5
 30
0.0
 11
48.76000000000001
 21
-68.5
 31
0.0
  0
LINE
  5
38F
330
16D
100
AcDbEntity
  8
center
100
AcDbLine
 10
47.5
 20
-69.76
 30
0.0
 11
47.5
 21
-67.24
 31
0.0
  0
LINE
  5
390
330
16D
100
AcDbEntity
  8
center
100
AcDbLine
 10
46.24000000000001
 20
-58.50000000000001
 30
0.0
 11
48.76000000000001
 21
-58.50000000000001
 31
0.0
  0
LINE
  5
391
330
16D
100
AcDbEntity
  8
center
100
AcDbLine
 10
5.240000000000084
 20
-58.50000000000003
 30
0.0
 11
7.759999999999994
 21
-58.50000000000003
 31
0.0
  0
LINE
  5
392
330
16D
100
AcDbEntity
  8
center
100
AcDbLine
 10
5.239999999999988
 20
-113.5
 30
0.0
 11
7.759999999999998
 21
-113.5
 31
0.0
  0
LINE
  5
393
330
16D
100
AcDbEntity
  8
center
100
AcDbLine
 10
6.499999999999993
 20
-114.76
 30
0.0
 11
6.499999999999993
 21
-112.24
 31
0.0
  0
LINE
  5
394
330
16D
100
AcDbEntity
  8
center
100
AcDbLine
 10
46.23999999999998
 20
-128.5
 30
0.0
 11
48.76000000000002
 21
-128.5
 31
0.0
  0
LINE
  5
395
330
16D
100
AcDbEntity
  8
center
100
AcDbLine
 10
46.23999999999835
 20
-28.4999999999999
 30
0.0
 11
48.76000000000004
 21
-28.4999999999999
 31
0.0
  0
LINE
  5
396
330
16D
100
AcDbEntity
  8
center
100
AcDbLine
 10
47.5
 20
-34.76000000000001
 30
0.0
 11
47.4999999999992
 21
-27.23999999999905
 31
0.0
  0
LINE
  5
397
330
16D
100
AcDbEntity
  8
bold
100
AcDbLine
 10
0.0
 20
-166.0
 30
0.0
 11
54.0
 21
-166.0
 31
0.0
  0
LINE
  5
398
330
16D
100
AcDbEntity
  8
bold
100
AcDbLine
 10
53.99999999999999
 20
-106.0
 30
0.0
 11
54.00000000000001
 21
-67.99999999999999
 31
0.0
  0
LINE
  5
399
330
16D
100
AcDbEntity
  8
bold
100
AcDbLine
 10
54.0
 20
-166.0
 30
0.0
 11
54.00000000000001
 21
-163.0
 31
0.0
  0
LINE
  5
39A
330
16D
100
AcDbEntity
  8
bold
100
AcDbLine
 10
0.0
 20
-106.0
 30
0.0
 11
0.0
 21
-67.99999999999999
 31
0.0
  0
LINE
  5
39B
330
16D
100
AcDbEntity
  8
bold
100
AcDbLine
 10
0.0
 20
-166.0
 30
0.0
 11
0.0
 21
-163.0
 31
0.0
  0
LINE
  5
39C
330
16D
100
AcDbEntity
  8
bold
100
AcDbLine
 10
50.0
 20
-9.000000000000007
 30
0.0
 11
54.0
 21
-9.000000000000007
 31
0.0
  0
LINE
  5
39D
330
16D
100
AcDbEntity
  8
bold
100
AcDbLine
 10
9.999999999999998
 20
-1.000000000000001
 30
0.0
 11
44.0
 21
-1.000000000000001
 31
0.0
  0
CIRCLE
  5
39E
330
16D
100
AcDbEntity
  8
bold
100
AcDbCircle
 10
6.499999999999999
 20
-8.500000000000007
 30
0.0
 40
1.2
  0
ARC
  5
39F
330
16D
100
AcDbEntity
  8
bold
100
AcDbCircle
 10
6.500000000000004
 20
-28.49999999999998
 30
0.0
 40
1.20000000000002
100
AcDbArc
 50
245.0486989072998
 51
294.9513010927021
  0
LINE
  5
3A0
330
16D
100
AcDbEntity
  8
bold
100
AcDbLine
 10
0.0
 20
-11.00000000000001
 30
0.0
 11
0.0
 21
34.0
 31
0.0
  0
ARC
  5
3A1
330
16D
100
AcDbEntity
  8
bold
100
AcDbCircle
 10
47.5
 20
-128.4999999999999
 30
0.0
 40
1.199999999999865
100
AcDbArc
 50
65.37568164783299
 51
114.9513010946304
  0
CIRCLE
  5
3A2
330
16D
100
AcDbEntity
  8
bold
100
AcDbCircle
 10
6.499999999999999
 20
-118.5
 30
0.0
 40
1.2
  0
ARC
  5
3A3
330
16D
100
AcDbEntity
  8
bold
100
AcDbCircle
 10
47.50000000000001
 20
-123.4999999999999
 30
0.0
 40
1.200000000000068
100
AcDbArc
 50
245.0486989081108
 51
294.6243183521622
  0
CIRCLE
  5
3A4
330
16D
100
AcDbEntity
  8
bold
100
AcDbCircle
 10
6.499999999999999
 20
-3.500000000000003
 30
0.0
 40
1.2
  0
ARC
  5
3A5
330
16D
100
AcDbEntity
  8
bold
100
AcDbCircle
 10
47.5
 20
-153.5
 30
0.0
 40
1.19999999999999
100
AcDbArc
 50
23.57817847717837
 51
156.4218215227314
  0
LINE
  5
3A6
330
16D
100
AcDbEntity
  8
bold
100
AcDbLine
 10
50.0
 20
-11.0
 30
0.0
 11
50.0
 21
-1.000000000000029
 31
0.0
  0
LINE
  5
3A7
330
16D
100
AcDbEntity
  8
bold
100
AcDbLine
 10
50.0
 20
-106.0
 30
0.0
 11
50.0
 21
-68.00000000000001
 31
0.0
  0
LINE
  5
3A8
330
16D
100
AcDbEntity
  8
bold
100
AcDbLine
 10
50.0
 20
-166.0
 30
0.0
 11
50.0
 21
-163.0
 31
0.0
  0
LINE
  5
3A9
330
16D
100
AcDbEntity
  8
bold
100
AcDbLine
 10
47.5
 20
24.90000000000001
 30
0.0
 11
51.50000000000001
 21
24.90000000000001
 31
0.0
  0
LINE
  5
3AA
330
16D
100
AcDbEntity
  8
bold
100
AcDbLine
 10
47.5
 20
32.90000000000001
 30
0.0
 11
47.5
 21
24.90000000000001
 31
0.0
  0
LINE
  5
3AB
330
16D
100
AcDbEntity
  8
bold
100
AcDbLine
 10
51.50000000000001
 20
32.90000000000001
 30
0.0
 11
47.5
 21
32.90000000000001
 31
0.0
  0
LINE
  5
3AC
330
16D
100
AcDbEntity
  8
bold
100
AcDbLine
 10
51.50000000000001
 20
24.90000000000001
 30
0.0
 11
51.50000000000001
 21
32.90000000000001
 31
0.0
  0
ARC
  5
3AD
330
16D
100
AcDbEntity
  8
bold
100
AcDbCircle
 10
47.5
 20
-163.5
 30
0.0
 40
1.200000000000012
100
AcDbArc
 50
155.3756816478347
 51
24.6243183521653
  0
ARC
  5
3AE
330
16D
100
AcDbEntity
  8
bold
100
AcDbCircle
 10
6.499999999999992
 20
-153.5
 30
0.0
 40
1.199999999999998
100
AcDbArc
 50
23.57817847820134
 51
156.4218215217911
  0
ARC
  5
3AF
330
16D
100
AcDbEntity
  8
bold
100
AcDbCircle
 10
6.499999999999999
 20
-143.5
 30
0.0
 40
1.199999999999999
100
AcDbArc
 50
184.5406673279779
 51
355.4593326720084
  0
ARC
  5
3B0
330
16D
100
AcDbEntity
  8
bold
100
AcDbCircle
 10
47.50000000000001
 20
-143.5
 30
0.0
 40
1.200000000000001
100
AcDbArc
 50
184.5406673249939
 51
355.4593326753301
  0
ARC
  5
3B1
330
16D
100
AcDbEntity
  8
bold
100
AcDbCircle
 10
6.499999999999996
 20
-128.5
 30
0.0
 40
1.200000000000001
100
AcDbArc
 50
65.04869890728935
 51
114.9513010928619
  0
ARC
  5
3B2
330
16D
100
AcDbEntity
  8
bold
100
AcDbCircle
 10
6.500000000000003
 20
-123.5000000000001
 30
0.0
 40
1.199999999999904
100
AcDbArc
 50
245.0486989072624
 51
294.9513010927971
  0
CIRCLE
  5
3B3
330
16D
100
AcDbEntity
  8
bold
100
AcDbCircle
 10
6.499999999999999
 20
-103.5
 30
0.0
 40
1.2
  0
CIRCLE
  5
3B4
330
16D
100
AcDbEntity
  8
bold
100
AcDbCircle
 10
47.5
 20
-103.5
 30
0.0
 40
1.2
  0
CIRCLE
  5
3B5
330
16D
100
AcDbEntity
  8
bold
100
AcDbCircle
 10
6.499999999999999
 20
-98.5
 30
0.0
 40
1.2
  0
CIRCLE
  5
3B6
330
16D
100
AcDbEntity
  8
bold
100
AcDbCircle
 10
47.5
 20
-98.5
 30
0.0
 40
1.2
  0
CIRCLE
  5
3B7
330
16D
100
AcDbEntity
  8
bold
100
AcDbCircle
 10
6.499999999999999
 20
-93.50000000000001
 30
0.0
 40
1.2
  0
CIRCLE
  5
3B8
330
16D
100
AcDbEntity
  8
bold
100
AcDbCircle
 10
47.5
 20
-93.50000000000001
 30
0.0
 40
1.2
  0
CIRCLE
  5
3B9
330
16D
100
AcDbEntity
  8
bold
100
AcDbCircle
 10
6.499999999999999
 20
-88.50000000000001
 30
0.0
 40
1.2
  0
CIRCLE
  5
3BA
330
16D
100
AcDbEntity
  8
bold
100
AcDbCircle
 10
47.5
 20
-88.50000000000001
 30
0.0
 40
1.2
  0
CIRCLE
  5
3BB
330
16D
100
AcDbEntity
  8
bold
100
AcDbCircle
 10
6.499999999999999
 20
-83.5
 30
0.0
 40
1.2
  0
CIRCLE
  5
3BC
330
16D
100
AcDbEntity
  8
bold
100
AcDbCircle
 10
47.5
 20
-83.5
 30
0.0
 40
1.2
  0
CIRCLE
  5
3BD
330
16D
100
AcDbEntity
  8
bold
100
AcDbCircle
 10
6.499999999999999
 20
-78.5
 30
0.0
 40
1.2
  0
CIRCLE
  5
3BE
330
16D
100
AcDbEntity
  8
bold
100
AcDbCircle
 10
47.5
 20
-78.5
 30
0.0
 40
1.2
  0
CIRCLE
  5
3BF
330
16D
100
AcDbEntity
  8
bold
100
AcDbCircle
 10
6.499999999999999
 20
-73.50000000000001
 30
0.0
 40
1.2
  0
CIRCLE
  5
3C0
330
16D
100
AcDbEntity
  8
bold
100
AcDbCircle
 10
47.5
 20
-73.50000000000001
 30
0.0
 40
1.2
  0
ARC
  5
3C1
330
16D
100
AcDbEntity
  8
bold
100
AcDbCircle
 10
6.500000000000001
 20
-68.5
 30
0.0
 40
1.200000000000001
100
AcDbArc
 50
155.375681647836
 51
24.62431835216414
  0
ARC
  5
3C2
330
16D
100
AcDbEntity
  8
bold
100
AcDbCircle
 10
47.5
 20
-68.5
 30
0.0
 40
1.2
100
AcDbArc
 50
155.3756816478359
 51
24.62431835216407
  0
ARC
  5
3C3
330
16D
100
AcDbEntity
  8
bold
100
AcDbCircle
 10
6.499999999999998
 20
-58.50000000000002
 30
0.0
 40
1.200000000000005
100
AcDbArc
 50
23.57817847821749
 51
156.42182152179
  0
ARC
  5
3C4
330
16D
100
AcDbEntity
  8
bold
100
AcDbCircle
 10
47.5
 20
-58.50000000000001
 30
0.0
 40
1.200000000000004
100
AcDbArc
 50
23.57817849126424
 51
156.4218215098925
  0
ARC
  5
3C5
330
16D
100
AcDbEntity
  8
bold
100
AcDbCircle
 10
6.5
 20
-48.50000000000001
 30
0.0
 40
1.200000000000001
100
AcDbArc
 50
184.5406673280545
 51
355.4593326719339
  0
ARC
  5
3C6
330
16D
100
AcDbEntity
  8
bold
100
AcDbCircle
 10
47.50000000000001
 20
-48.5
 30
0.0
 40
1.200000000000002
100
AcDbArc
 50
184.5406673642827
 51
355.459332631876
  0
ARC
  5
3C7
330
16D
100
AcDbEntity
  8
bold
100
AcDbCircle
 10
6.500000000000001
 20
-33.50000000000001
 30
0.0
 40
1.200000000000003
100
AcDbArc
 50
65.048698907298
 51
114.951301092702
  0
ARC
  5
3C8
330
16D
100
AcDbEntity
  8
bold
100
AcDbCircle
 10
47.49999999999999
 20
-33.49999999999996
 30
0.0
 40
1.199999999999958
100
AcDbArc
 50
65.37568164783464
 51
114.9513010886397
  0
ARC
  5
3C9
330
16D
100
AcDbEntity
  8
bold
100
AcDbCircle
 10
47.49999999999999
 20
-28.50000000000002
 30
0.0
 40
1.199999999999981
100
AcDbArc
 50
245.0486989113572
 51
294.6243183521648
  0
CIRCLE
  5
3CA
330
16D
100
AcDbEntity
  8
bold
100
AcDbCircle
 10
6.499999999999999
 20
-23.49999999999999
 30
0.0
 40
1.2
  0
CIRCLE
  5
3CB
330
16D
100
AcDbEntity
  8
bold
100
AcDbCircle
 10
47.5
 20
-8.500000000000007
 30
0.0
 40
1.2
  0
CIRCLE
  5
3CC
330
16D
100
AcDbEntity
  8
bold
100
AcDbCircle
 10
47.5
 20
-3.500000000000003
 30
0.0
 40
1.2
  0
ARC
  5
3CD
330
16D
100
AcDbEntity
  8
bold
100
AcDbCircle
 10
6.499999999999997
 20
-163.5
 30
0.0
 40
1.20000000000001
100
AcDbArc
 50
155.3756816478347
 51
24.6243183521653
  0
LINE
  5
3CE
330
16D
100
AcDbEntity
  8
bold
100
AcDbLine
 10
50.0
 20
-1.000000000000029
 30
0.0
 11
54.0
 21
-1.000000000000029
 31
0.0
  0
LINE
  5
3CF
330
16D
100
AcDbEntity
  8
bold
100
AcDbLine
 10
54.0
 20
-11.00000000000001
 30
0.0
 11
54.0
 21
34.0
 31
0.0
  0
LINE
  5
3D0
330
16D
100
AcDbEntity
  8
bold
100
AcDbLine
 10
0.0
 20
34.0
 30
0.0
 11
54.0
 21
34.0
 31
0.0
  0
LINE
  5
3D1
330
16D
100
AcDbEntity
  8
bold
100
AcDbLine
 10
4.0
 20
-11.0
 30
0.0
 11
4.0
 21
-1.000000000000029
 31
0.0
  0
LINE
  5
3D2
330
16D
100
AcDbEntity
  8
bold
100
AcDbLine
 10
4.0
 20
-106.0
 30
0.0
 11
4.0
 21
-68.00000000000001
 31
0.0
  0
LINE
  5
3D3
330
16D
100
AcDbEntity
  8
bold
100
AcDbLine
 10
4.0
 20
-166.0
 30
0.0
 11
4.0
 21
-163.0
 31
0.0
  0
LINE
  5
3D4
330
16D
100
AcDbEntity
  8
bold
100
AcDbLine
 10
9.999999999999998
 20
-11.00000000000001
 30
0.0
 11
9.999999999999998
 21
6.999999999999979
 31
0.0
  0
LINE
  5
3D5
330
16D
100
AcDbEntity
  8
bold
100
AcDbLine
 10
9.999999999999998
 20
-106.0
 30
0.0
 11
9.999999999999998
 21
-68.0
 31
0.0
  0
LINE
  5
3D6
330
16D
100
AcDbEntity
  8
bold
100
AcDbLine
 10
9.999999999999998
 20
-166.0
 30
0.0
 11
9.999999999999998
 21
-163.0
 31
0.0
  0
LINE
  5
3D7
330
16D
100
AcDbEntity
  8
bold
100
AcDbLine
 10
9.999999999999998
 20
6.999999999999979
 30
0.0
 11
44.0
 21
6.999999999999979
 31
0.0
  0
LINE
  5
3D8
330
16D
100
AcDbEntity
  8
bold
100
AcDbLine
 10
44.0
 20
-11.00000000000001
 30
0.0
 11
44.0
 21
6.999999999999979
 31
0.0
  0
LINE
  5
3D9
330
16D
100
AcDbEntity
  8
bold
100
AcDbLine
 10
44.0
 20
-106.0
 30
0.0
 11
44.0
 21
-68.0
 31
0.0
  0
LINE
  5
3DA
330
16D
100
AcDbEntity
  8
bold
100
AcDbLine
 10
44.0
 20
-166.0
 30
0.0
 11
43.99999999999999
 21
-163.0
 31
0.0
  0
LINE
  5
3DB
330
16D
100
AcDbEntity
  8
bold
100
AcDbLine
 10
0.0
 20
-9.000000000000007
 30
0.0
 11
4.0
 21
-9.000000000000007
 31
0.0
  0
LINE
  5
3DC
330
16D
100
AcDbEntity
  8
bold
100
AcDbLine
 10
0.0
 20
-1.000000000000029
 30
0.0
 11
4.0
 21
-1.000000000000029
 31
0.0
  0
ENDBLK
  5
170
330
16D
100
AcDbEntity
  8
0
100
AcDbBlockEnd
  0
BLOCK
  5
3E1
330
3E0
100
AcDbEntity
  8
0
100
AcDbBlockBegin
  2
*D6
 70
     1
 10
0.0
 20
0.0
 30
0.0
  3
*D6
  1

  0
LINE
  5
3E3
330
3E0
100
AcDbEntity
  8
dimension
 62
     0
370
    -2
100
AcDbLine
 10
0.0
 20
-166.0
 30
0.0
 11
0.0
 21
-194.0
 31
0.0
  0
LINE
  5
3E4
330
3E0
100
AcDbEntity
  8
dimension
 62
     0
370
    -2
100
AcDbLine
 10
54.0
 20
-166.0
 30
0.0
 11
54.0
 21
-194.0
 31
0.0
  0
LINE
  5
3E5
330
3E0
100
AcDbEntity
  8
dimension
 62
     0
370
    -2
100
AcDbLine
 10
8.0
 20
-194.0
 30
0.0
 11
46.0
 21
-194.0
 31
0.0
  0
SOLID
  5
3E6
330
3E0
100
AcDbEntity
  8
dimension
 62
     0
100
AcDbTrace
 10
8.0
 20
-192.6666666666667
 30
0.0
 11
8.0
 21
-195.3333333333333
 31
0.0
 12
0.0
 22
-194.0
 32
0.0
 13
0.0
 23
-194.0
 33
0.0
  0
SOLID
  5
3E7
330
3E0
100
AcDbEntity
  8
dimension
 62
     0
100
AcDbTrace
 10
46.0
 20
-195.3333333333333
 30
0.0
 11
46.0
 21
-192.6666666666667
 31
0.0
 12
54.0
 22
-194.0
 32
0.0
 13
54.0
 23
-194.0
 33
0.0
  0
MTEXT
  5
3E8
330
3E0
100
AcDbEntity
  8
dimension
 62
     0
100
AcDbMText
 10
27.0
 20
-187.6
 30
0.0
 40
8.0
 41
0.0
 46
0.0
 71
     5
 72
     1
  1
54
 73
     1
 44
1.0
  0
POINT
  5
3E9
330
3E0
100
AcDbEntity
  8
Defpoints
 62
     0
100
AcDbPoint
 10
0.0
 20
-166.0
 30
0.0
  0
POINT
  5
3EA
330
3E0
100
AcDbEntity
  8
Defpoints
 62
     0
100
AcDbPoint
 10
54.0
 20
-166.0
 30
0.0
  0
POINT
  5
3EB
330
3E0
100
AcDbEntity
  8
Defpoints
 62
     0
100
AcDbPoint
 10
54.0
 20
-194.0
 30
0.0
  0
ENDBLK
  5
3E2
330
3E0
100
AcDbEntity
  8
0
100
AcDbBlockEnd
  0
BLOCK
  5
3EE
330
3ED
100
AcDbEntity
  8
0
100
AcDbBlockBegin
  2
*D7
 70
     1
 10
0.0
 20
0.0
 30
0.0
  3
*D7
  1

  0
LINE
  5
3F0
330
3ED
100
AcDbEntity
  8
dimension
 62
     0
370
    -2
100
AcDbLine
 10
27.0
 20
-28.5
 30
0.0
 11
-28.0
 21
-28.5
 31
0.0
  0
LINE
  5
3F1
330
3ED
100
AcDbEntity
  8
dimension
 62
     0
370
    -2
100
AcDbLine
 10
0.0
 20
34.0
 30
0.0
 11
-28.0
 21
34.0
 31
0.0
  0
LINE
  5
3F2
330
3ED
100
AcDbEntity
  8
dimension
 62
     0
370
    -2
100
AcDbLine
 10
-28.0
 20
-20.5
 30
0.0
 11
-28.0
 21
-11.65
 31
0.0
  0
LINE
  5
3F3
330
3ED
100
AcDbEntity
  8
dimension
 62
     0
370
    -2
100
AcDbLine
 10
-28.0
 20
26.0
 30
0.0
 11
-28.0
 21
17.15
 31
0.0
  0
SOLID
  5
3F4
330
3ED
100
AcDbEntity
  8
dimension
 62
     0
100
AcDbTrace
 10
-29.33333333333333
 20
-20.5
 30
0.0
 11
-26.66666666666667
 21
-20.5
 31
0.0
 12
-28.0
 22
-28.5
 32
0.0
 13
-28.0
 23
-28.5
 33
0.0
  0
SOLID
  5
3F5
330
3ED
100
AcDbEntity
  8
dimension
 62
     0
100
AcDbTrace
 10
-26.66666666666666
 20
26.0
 30
0.0
 11
-29.33333333333333
 21
26.0
 31
0.0
 12
-28.0
 22
34.0
 32
0.0
 13
-28.0
 23
34.0
 33
0.0
  0
MTEXT
  5
3F6
330
3ED
100
AcDbEntity
  8
dimension
 62
     0
100
AcDbMText
 10
-28.0
 20
2.75
 30
0.0
 40
8.0
 41
0.0
 46
0.0
 71
     5
 72
     1
  1
62.5
 11
6.123233995736766E-17
 21
1.0
 31
0.0
 73
     1
 44
1.0
  0
POINT
  5
3F7
330
3ED
100
AcDbEntity
  8
Defpoints
 62
     0
100
AcDbPoint
 10
27.0
 20
-28.5
 30
0.0
  0
POINT
  5
3F8
330
3ED
100
AcDbEntity
  8
Defpoints
 62
     0
100
AcDbPoint
 10
0.0
 20
34.0
 30
0.0
  0
POINT
  5
3F9
330
3ED
100
AcDbEntity
  8
Defpoints
 62
     0
100
AcDbPoint
 10
-28.0
 20
34.0
 30
0.0
  0
ENDBLK
  5
3EF
330
3ED
100
AcDbEntity
  8
0
100
AcDbBlockEnd
  0
BLOCK
  5
3FC
330
3FB
100
AcDbEntity
  8
0
100
AcDbBlockBegin
  2
*D8
 70
     1
 10
0.0
 20
0.0
 30
0.0
  3
*D8
  1

  0
LINE
  5
3FE
330
3FB
100
AcDbEntity
  8
dimension
 62
     0
370
    -2
100
AcDbLine
 10
27.0
 20
-28.5
 30
0.0
 11
-28.0
 21
-28.5
 31
0.0
  0
LINE
  5
3FF
330
3FB
100
AcDbEntity
  8
dimension
 62
     0
370
    -2
100
AcDbLine
 10
27.0
 20
-123.5
 30
0.0
 11
-28.0
 21
-123.5
 31
0.0
  0
LINE
  5
400
330
3FB
100
AcDbEntity
  8
dimension
 62
     0
370
    -2
100
AcDbLine
 10
-28.0
 20
-36.5
 30
0.0
 11
-28.0
 21
-67.12380952380953
 31
0.0
  0
LINE
  5
401
330
3FB
100
AcDbEntity
  8
dimension
 62
     0
370
    -2
100
AcDbLine
 10
-28.0
 20
-115.5
 30
0.0
 11
-28.0
 21
-84.87619047619047
 31
0.0
  0
SOLID
  5
402
330
3FB
100
AcDbEntity
  8
dimension
 62
     0
100
AcDbTrace
 10
-26.66666666666667
 20
-36.5
 30
0.0
 11
-29.33333333333333
 21
-36.5
 31
0.0
 12
-28.0
 22
-28.5
 32
0.0
 13
-28.0
 23
-28.5
 33
0.0
  0
SOLID
  5
403
330
3FB
100
AcDbEntity
  8
dimension
 62
     0
100
AcDbTrace
 10
-29.33333333333333
 20
-115.5
 30
0.0
 11
-26.66666666666667
 21
-115.5
 31
0.0
 12
-28.0
 22
-123.5
 32
0.0
 13
-28.0
 23
-123.5
 33
0.0
  0
MTEXT
  5
404
330
3FB
100
AcDbEntity
  8
dimension
 62
     0
100
AcDbMText
 10
-28.0
 20
-76.0
 30
0.0
 40
8.0
 41
0.0
 46
0.0
 71
     5
 72
     1
  1
95
 11
6.123233995736766E-17
 21
1.0
 31
0.0
 73
     1
 44
1.0
  0
POINT
  5
405
330
3FB
100
AcDbEntity
  8
Defpoints
 62
     0
100
AcDbPoint
 10
27.0
 20
-28.5
 30
0.0
  0
POINT
  5
406
330
3FB
100
AcDbEntity
  8
Defpoints
 62
     0
100
AcDbPoint
 10
27.0
 20
-123.5
 30
0.0
  0
POINT
  5
407
330
3FB
100
AcDbEntity
  8
Defpoints
 62
     0
100
AcDbPoint
 10
-28.0
 20
-123.5
 30
0.0
  0
ENDBLK
  5
3FD
330
3FB
100
AcDbEntity
  8
0
100
AcDbBlockEnd
  0
BLOCK
  5
40A
330
409
100
AcDbEntity
  8
0
100
AcDbBlockBegin
  2
*D9
 70
     1
 10
0.0
 20
0.0
 30
0.0
  3
*D9
  1

  0
LINE
  5
40C
330
409
100
AcDbEntity
  8
dimension
 62
     0
370
    -2
100
AcDbLine
 10
0.0
 20
34.0
 30
0.0
 11
-51.99999999999999
 21
34.0
 31
0.0
  0
LINE
  5
40D
330
409
100
AcDbEntity
  8
dimension
 62
     0
370
    -2
100
AcDbLine
 10
0.0
 20
-166.0
 30
0.0
 11
-52.00000000000001
 21
-166.0
 31
0.0
  0
LINE
  5
40E
330
409
100
AcDbEntity
  8
dimension
 62
     0
370
    -2
100
AcDbLine
 10
-51.99999999999999
 20
26.0
 30
0.0
 11
-52.0
 21
-53.31428571428572
 31
0.0
  0
LINE
  5
40F
330
409
100
AcDbEntity
  8
dimension
 62
     0
370
    -2
100
AcDbLine
 10
-52.00000000000001
 20
-158.0
 30
0.0
 11
-52.0
 21
-78.68571428571428
 31
0.0
  0
SOLID
  5
410
330
409
100
AcDbEntity
  8
dimension
 62
     0
100
AcDbTrace
 10
-50.66666666666666
 20
26.0
 30
0.0
 11
-53.33333333333333
 21
26.0
 31
0.0
 12
-51.99999999999999
 22
34.0
 32
0.0
 13
-51.99999999999999
 23
34.0
 33
0.0
  0
SOLID
  5
411
330
409
100
AcDbEntity
  8
dimension
 62
     0
100
AcDbTrace
 10
-53.33333333333334
 20
-158.0
 30
0.0
 11
-50.66666666666667
 21
-158.0
 31
0.0
 12
-52.00000000000001
 22
-166.0
 32
0.0
 13
-52.00000000000001
 23
-166.0
 33
0.0
  0
MTEXT
  5
412
330
409
100
AcDbEntity
  8
dimension
 62
     0
100
AcDbMText
 10
-52.0
 20
-66.0
 30
0.0
 40
8.0
 41
0.0
 46
0.0
 71
     5
 72
     1
  1
200
 11
6.123233995736766E-17
 21
1.0
 31
0.0
 73
     1
 44
1.0
  0
POINT
  5
413
330
409
100
AcDbEntity
  8
Defpoints
 62
     0
100
AcDbPoint
 10
0.0
 20
34.0
 30
0.0
  0
POINT
  5
414
330
409
100
AcDbEntity
  8
Defpoints
 62
     0
100
AcDbPoint
 10
0.0
 20
-166.0
 30
0.0
  0
POINT
  5
415
330
409
100
AcDbEntity
  8
Defpoints
 62
     0
100
AcDbPoint
 10
-52.00000000000001
 20
-166.0
 30
0.0
  0
ENDBLK
  5
40B
330
409
100
AcDbEntity
  8
0
100
AcDbBlockEnd
  0
ENDSEC
  0
SECTION
  2
ENTITIES
  0
ATTDEF
  5
5F
330
1F
100
AcDbEntity
  8
attrib
100
AcDbText
 10
59.00000000000001
 20
34.0
 30
0.0
 40
0.5
  1
32478
100
AcDbAttributeDefinition
  3

  2
NB
 70
     8
280
     0
  0
ATTDEF
  5
60
330
1F
100
AcDbEntity
  8
attrib
100
AcDbText
 10
59.00000000000001
 20
33.5
 30
0.0
 40
0.5
  1
Component supports
100
AcDbAttributeDefinition
  3

  2
NN
 70
     8
280
     0
  0
ATTDEF
  5
61
330
1F
100
AcDbEntity
  8
attrib
100
AcDbText
 10
59.00000000000001
 20
33.0
 30
0.0
 40
0.5
  1

100
AcDbAttributeDefinition
  3

  2
NT
 70
     8
280
     0
  0
ATTDEF
  5
62
330
1F
100
AcDbEntity
  8
attrib
100
AcDbText
 10
59.00000000000001
 20
32.5
 30
0.0
 40
0.5
  1
$ARTNR.$CABLE.
100
AcDbAttributeDefinition
  3

  2
NBSYN
 70
     8
280
     0
  0
ATTDEF
  5
63
330
1F
100
AcDbEntity
  8
attrib
100
AcDbText
 10
59.00000000000001
 20
32.0
 30
0.0
 40
0.5
  1
32478000
100
AcDbAttributeDefinition
  3

  2
LINA
 70
     8
280
     0
  0
ATTDEF
  5
64
330
1F
100
AcDbEntity
  8
attrib
100
AcDbText
 10
59.00000000000001
 20
31.5
 30
0.0
 40
0.5
  1
Wöhner
100
AcDbAttributeDefinition
  3

  2
CATALOG
 70
     8
280
     0
  0
ATTDEF
  5
65
330
1F
100
AcDbEntity
  8
attrib
100
AcDbText
 10
59.00000000000001
 20
31.0
 30
0.0
 40
0.5
  1
32478
100
AcDbAttributeDefinition
  3

  2
ARTNR
 70
     8
280
     0
  0
ATTDEF
  5
66
330
1F
100
AcDbEntity
  8
attrib
100
AcDbText
 10
59.00000000000001
 20
30.5
 30
0.0
 40
0.5
  1
12, 15, 20, 25, 30 x 5, 10 and section busbars
100
AcDbAttributeDefinition
  3

  2
BUSB
 70
     8
280
     0
  0
ATTDEF
  5
67
330
1F
100
AcDbEntity
  8
attrib
100
AcDbText
 10
59.00000000000001
 20
30.0
 30
0.0
 40
0.5
  1
EQUES®60Classic
100
AcDbAttributeDefinition
  3

  2
POF
 70
     8
280
     0
  0
ATTDEF
  5
68
330
1F
100
AcDbEntity
  8
attrib
100
AcDbText
 10
59.00000000000001
 20
29.5
 30
0.0
 40
0.5
  1
EEC6000-L
100
AcDbAttributeDefinition
  3

  2
TYPE
 70
     8
280
     0
  0
ATTDEF
  5
69
330
1F
100
AcDbEntity
  8
attrib
100
AcDbText
 10
59.00000000000001
 20
29.0
 30
0.0
 40
0.5
  1
4
100
AcDbAttributeDefinition
  3

  2
QNT
 70
     8
280
     0
  0
ATTDEF
  5
6A
330
1F
100
AcDbEntity
  8
attrib
100
AcDbText
 10
59.00000000000001
 20
28.5
 30
0.0
 40
0.5
  1
54
100
AcDbAttributeDefinition
  3

  2
W
 70
     8
280
     0
  0
ATTDEF
  5
6B
330
1F
100
AcDbEntity
  8
attrib
100
AcDbText
 10
59.00000000000001
 20
28.0
 30
0.0
 40
0.5
  1
200
100
AcDbAttributeDefinition
  3

  2
H
 70
     8
280
     0
  0
ATTDEF
  5
6C
330
1F
100
AcDbEntity
  8
attrib
100
AcDbText
 10
59.00000000000001
 20
27.5
 30
0.0
 40
0.5
  1
63
100
AcDbAttributeDefinition
  3

  2
D
 70
     8
280
     0
  0
ATTDEF
  5
6D
330
1F
100
AcDbEntity
  8
attrib
100
AcDbText
 10
59.00000000000001
 20
27.0
 30
0.0
 40
0.5
  1
62.5
100
AcDbAttributeDefinition
  3

  2
C
 70
     8
280
     0
  0
ATTDEF
  5
6E
330
1F
100
AcDbEntity
  8
attrib
100
AcDbText
 10
59.00000000000001
 20
26.5
 30
0.0
 40
0.5
  1
95
100
AcDbAttributeDefinition
  3

  2
DD
 70
     8
280
     0
  0
ATTDEF
  5
6F
330
1F
100
AcDbEntity
  8
attrib
100
AcDbText
 10
59.00000000000001
 20
26.0
 30
0.0
 40
0.5
  1
-
100
AcDbAttributeDefinition
  3

  2
E
 70
     8
280
     0
  0
ATTDEF
  5
70
330
1F
100
AcDbEntity
  8
attrib
100
AcDbText
 10
59.00000000000001
 20
25.5
 30
0.0
 40
0.5
  1
Product link
100
AcDbAttributeDefinition
  3

  2
LINK
 70
     8
280
     0
  0
ATTDEF
  5
71
330
1F
100
AcDbEntity
  8
attrib
100
AcDbText
 10
59.00000000000001
 20
25.0
 30
0.0
 40
0.5
  1
woehner
100
AcDbAttributeDefinition
  3

  2
COMPANY
 70
     8
280
     0
  0
ATTDEF
  5
72
330
1F
100
AcDbEntity
  8
attrib
100
AcDbText
 10
59.00000000000001
 20
24.5
 30
0.0
 40
0.5
  1
{$CADENAS_DATA/23d-libs/woehner/sys_60classic/adapters/component_supports_asmtab.prj},192 {VTYP=3D},{STYP=ASSTAB},{NB=32478},{LINA=32478000},{NN=Geräteträger},{DATE=26.01.2024 06:39:57},{GEOMDATE=29.09.2023 13:50:48},{VERSION=v230929135048},{LINEID=830},{
100
AcDbAttributeDefinition
  3

  2
PSOL_0
 70
     9
280
     0
  0
ATTDEF
  5
73
330
1F
100
AcDbEntity
  8
attrib
100
AcDbText
 10
59.00000000000001
 20
24.0
 30
0.0
 40
0.5
  1
WBVAR=CABLE},{WBNUMERIC=}  {NB=32478},{LINA=32478000},{KT=DUMMY},{WIRE=},{CABLE=},{ARTNRBASE=},{BOM=32478000},{ARTNR=32478},{BUSB=12, 15, 20, 25, 30 x 5, 10 and section busbars},{POF=EQUES®60Classic},{TYPE=EEC6000-L},{QNT=4},{W=54},{H=200},{D=63},{C=62.5}
100
AcDbAttributeDefinition
  3

  2
PSOL_1
 70
     9
280
     0
  0
ATTDEF
  5
74
330
1F
100
AcDbEntity
  8
attrib
100
AcDbText
 10
59.00000000000001
 20
23.5
 30
0.0
 40
0.5
  1
,{DD=95},{E=-},{CONCA=},{SCR=},{IPR=},{IPRF=},{SEARCH=},{EDZ=},{IODD=},{DIST=8.0},{LINK=Product link},{LINKX=https://www.woehner.de/de/produkte/32478.html},{PPATH=adapters_16_32/parts/universal_adapters_16_32_asmtpl.prj},{AAO677=Wöhner},{MANUFACTURER_URL=
100
AcDbAttributeDefinition
  3

  2
PSOL_2
 70
     9
280
     0
  0
ATTDEF
  5
75
330
1F
100
AcDbEntity
  8
attrib
100
AcDbText
 10
59.00000000000001
 20
23.0
 30
0.0
 40
0.5
  1
www.woehner.de},{AAQ326=www.woehner.de/de/produkte/32478.html },{AAO676=32478},{TC=EEC6000-L},{EAN=4021267324841},{CTN=85369095},{MASS=0,277},{AAU731=EQUES®60Classic},{DESCRIPTION_LONG=busbar component support, 2 adjustable mounting rails, 54 x 200, witho
100
AcDbAttributeDefinition
  3

  2
PSOL_3
 70
     9
280
     0
  0
ATTDEF
  5
76
330
1F
100
AcDbEntity
  8
attrib
100
AcDbText
 10
59.00000000000001
 20
22.5
 30
0.0
 40
0.5
  1
ut electrical connection},{DESCRIPTION_SHORT=busbar component support},{AAB414=No connection},{AAB509=54},{AAC144=2}
100
AcDbAttributeDefinition
  3

  2
PSOL_4
 70
     9
280
     0
  0
INSERT
  5
78
330
1F
100
AcDbEntity
  8
0
100
AcDbBlockReference
  2
1_80034CrossBoardScrew_1_0_in_32478_0
 10
0.0
 20
0.0
 30
0.0
  0
INSERT
  5
9F
330
1F
100
AcDbEntity
  8
0
100
AcDbBlockReference
  2
2_32948b_1_0_in_32478_0
 10
0.0
 20
0.0
 30
0.0
  0
INSERT
  5
F6
330
1F
100
AcDbEntity
  8
0
100
AcDbBlockReference
  2
3_80034CrossBoardScrew_2_0_in_32478_0
 10
0.0
 20
0.0
 30
0.0
  0
INSERT
  5
119
330
1F
100
AcDbEntity
  8
0
100
AcDbBlockReference
  2
4_32948b_2_0_in_32478_0
 10
0.0
 20
0.0
 30
0.0
  0
INSERT
  5
16E
330
1F
100
AcDbEntity
  8
0
100
AcDbBlockReference
  2
5_Basis54x200_0_in_32478_0
 10
0.0
 20
0.0
 30
0.0
  0
DIMENSION
  5
3DE
330
1F
100
AcDbEntity
  8
dimension
100
AcDbDimension
280
     0
  2
*D6
 10
54.0
 20
-194.0
 30
0.0
 11
27.0
 21
-194.0
 31
0.0
 70
   160
  1
54
 71
     5
 42
54.0
 73
     0
 74
     0
 75
     0
  3
ISO-25
100
AcDbAlignedDimension
 13
0.0
 23
-166.0
 33
0.0
 14
54.0
 24
-166.0
 34
0.0
100
AcDbRotatedDimension
1001
ACAD
1000
DSTYLE
1002
{
1070
   147
1040
2.4
1070
    42
1040
0.0
1070
    44
1040
0.0
1070
    41
1040
8.0
1070
   140
1040
8.0
1002
}
  0
DIMENSION
  5
3EC
330
1F
100
AcDbEntity
  8
dimension
100
AcDbDimension
280
     0
  2
*D7
 10
-28.0
 20
34.0
 30
0.0
 11
-28.0
 21
2.75
 31
0.0
 70
   160
  1
62.5
 71
     5
 42
62.5
 73
     0
 74
     0
 75
     0
 53
90.0
  3
ISO-25
100
AcDbAlignedDimension
 13
27.0
 23
-28.5
 33
0.0
 14
0.0
 24
34.0
 34
0.0
 50
90.0
100
AcDbRotatedDimension
1001
ACAD
1000
DSTYLE
1002
{
1070
   147
1040
2.4
1070
    42
1040
0.0
1070
    44
1040
0.0
1070
    41
1040
8.0
1070
   140
1040
8.0
1002
}
  0
DIMENSION
  5
3FA
330
1F
100
AcDbEntity
  8
dimension
100
AcDbDimension
280
     0
  2
*D8
 10
-28.0
 20
-123.5
 30
0.0
 11
-28.0
 21
-76.0
 31
0.0
 70
   160
  1
95
 71
     5
 42
95.0
 73
     0
 74
     0
 75
     0
 53
90.0
  3
ISO-25
100
AcDbAlignedDimension
 13
27.0
 23
-28.5
 33
0.0
 14
27.0
 24
-123.5
 34
0.0
 50
90.0
100
AcDbRotatedDimension
1001
ACAD
1000
DSTYLE
1002
{
1070
   147
1040
2.4
1070
    42
1040
0.0
1070
    44
1040
0.0
1070
    41
1040
8.0
1070
   140
1040
8.0
1002
}
  0
DIMENSION
  5
408
330
1F
100
AcDbEntity
  8
dimension
100
AcDbDimension
280
     0
  2
*D9
 10
-52.00000000000001
 20
-166.0
 30
0.0
 11
-52.0
 21
-66.0
 31
0.0
 70
   160
  1
200
 71
     5
 42
200.0
 73
     0
 74
     0
 75
     0
 53
90.0
  3
ISO-25
100
AcDbAlignedDimension
 13
0.0
 23
34.0
 33
0.0
 14
0.0
 24
-166.0
 34
0.0
 50
90.0
100
AcDbRotatedDimension
1001
ACAD
1000
DSTYLE
1002
{
1070
   147
1040
2.4
1070
    42
1040
0.0
1070
    44
1040
0.0
1070
    41
1040
8.0
1070
   140
1040
8.0
1002
}
  0
POINT
  5
417
330
1F
100
AcDbEntity
  8
connection
100
AcDbPoint
 10
6.5
 20
-118.5
 30
0.0
  0
POINT
  5
418
330
1F
100
AcDbEntity
  8
connection
100
AcDbPoint
 10
47.5
 20
-118.5
 30
0.0
  0
POINT
  5
419
330
1F
100
AcDbEntity
  8
connection
100
AcDbPoint
 10
6.5
 20
-126.0
 30
0.0
  0
POINT
  5
41A
330
1F
100
AcDbEntity
  8
connection
100
AcDbPoint
 10
6.5
 20
-152.0
 30
0.0
  0
POINT
  5
41B
330
1F
100
AcDbEntity
  8
connection
100
AcDbPoint
 10
47.5
 20
-152.0
 30
0.0
  0
POINT
  5
41C
330
1F
100
AcDbEntity
  8
connection
100
AcDbPoint
 10
27.0
 20
-163.0
 30
0.0
  0
POINT
  5
41D
330
1F
100
AcDbEntity
  8
connection
100
AcDbPoint
 10
27.0
 20
-163.0
 30
0.0
  0
POINT
  5
41E
330
1F
100
AcDbEntity
  8
connection
100
AcDbPoint
 10
27.0
 20
-123.0
 30
0.0
  0
POINT
  5
41F
330
1F
100
AcDbEntity
  8
connection
100
AcDbPoint
 10
0.0
 20
-123.5
 30
0.0
  0
POINT
  5
420
330
1F
100
AcDbEntity
  8
connection
100
AcDbPoint
 10
0.0
 20
-163.0
 30
0.0
  0
POINT
  5
421
330
1F
100
AcDbEntity
  8
connection
100
AcDbPoint
 10
6.5
 20
-118.5
 30
0.0
  0
POINT
  5
422
330
1F
100
AcDbEntity
  8
connection
100
AcDbPoint
 10
47.5
 20
-118.5
 30
0.0
  0
POINT
  5
423
330
1F
100
AcDbEntity
  8
connection
100
AcDbPoint
 10
47.5
 20
-23.5
 30
0.0
  0
POINT
  5
424
330
1F
100
AcDbEntity
  8
connection
100
AcDbPoint
 10
6.5
 20
-23.5
 30
0.0
  0
POINT
  5
425
330
1F
100
AcDbEntity
  8
connection
100
AcDbPoint
 10
47.5
 20
-23.5
 30
0.0
  0
POINT
  5
426
330
1F
100
AcDbEntity
  8
connection
100
AcDbPoint
 10
6.5
 20
-31.0
 30
0.0
  0
POINT
  5
427
330
1F
100
AcDbEntity
  8
connection
100
AcDbPoint
 10
6.5
 20
-57.0
 30
0.0
  0
POINT
  5
428
330
1F
100
AcDbEntity
  8
connection
100
AcDbPoint
 10
47.5
 20
-57.0
 30
0.0
  0
POINT
  5
429
330
1F
100
AcDbEntity
  8
connection
100
AcDbPoint
 10
27.0
 20
-68.0
 30
0.0
  0
POINT
  5
42A
330
1F
100
AcDbEntity
  8
connection
100
AcDbPoint
 10
27.0
 20
-68.0
 30
0.0
  0
POINT
  5
42B
330
1F
100
AcDbEntity
  8
connection
100
AcDbPoint
 10
27.0
 20
-28.0
 30
0.0
  0
POINT
  5
42C
330
1F
100
AcDbEntity
  8
connection
100
AcDbPoint
 10
0.0
 20
-28.5
 30
0.0
  0
POINT
  5
42D
330
1F
100
AcDbEntity
  8
connection
100
AcDbPoint
 10
0.0
 20
-68.0
 30
0.0
  0
POINT
  5
42E
330
1F
100
AcDbEntity
  8
connection
100
AcDbPoint
 10
6.5
 20
-23.5
 30
0.0
  0
POINT
  5
42F
330
1F
100
AcDbEntity
  8
connection
100
AcDbPoint
 10
47.5
 20
-23.5
 30
0.0
  0
POINT
  5
430
330
1F
100
AcDbEntity
  8
connection
100
AcDbPoint
 10
7.0
 20
-6.0
 30
0.0
  0
POINT
  5
431
330
1F
100
AcDbEntity
  8
connection
100
AcDbPoint
 10
27.0
 20
-66.0
 30
0.0
  0
POINT
  5
432
330
1F
100
AcDbEntity
  8
connection
100
AcDbPoint
 10
47.0
 20
-106.0
 30
0.0
  0
POINT
  5
433
330
1F
100
AcDbEntity
  8
connection
100
AcDbPoint
 10
16.5
 20
19.0
 30
0.0
  0
POINT
  5
434
330
1F
100
AcDbEntity
  8
connection
100
AcDbPoint
 10
27.0
 20
19.0
 30
0.0
  0
POINT
  5
435
330
1F
100
AcDbEntity
  8
connection
100
AcDbPoint
 10
37.5
 20
19.0
 30
0.0
  0
POINT
  5
436
330
1F
100
AcDbEntity
  8
connection
100
AcDbPoint
 10
7.149999999999999
 20
-33.5
 30
0.0
  0
POINT
  5
437
330
1F
100
AcDbEntity
  8
connection
100
AcDbPoint
 10
7.149999999999999
 20
-73.5
 30
0.0
  0
POINT
  5
438
330
1F
100
AcDbEntity
  8
connection
100
AcDbPoint
 10
27.0
 20
-166.0
 30
0.0
  0
POINT
  5
439
330
1F
100
AcDbEntity
  8
connection
100
AcDbPoint
 10
27.0
 20
34.0
 30
0.0
  0
POINT
  5
43A
330
1F
100
AcDbEntity
  8
connection
100
AcDbPoint
 10
0.0
 20
-166.0
 30
0.0
  0
POINT
  5
43B
330
1F
100
AcDbEntity
  8
connection
100
AcDbPoint
 10
0.0
 20
0.0
 30
0.0
  0
POINT
  5
43C
330
1F
100
AcDbEntity
  8
connection
100
AcDbPoint
 10
27.0
 20
-166.0
 30
0.0
  0
POINT
  5
43D
330
1F
100
AcDbEntity
  8
connection
100
AcDbPoint
 10
8.5
 20
-136.5
 30
0.0
  0
POINT
  5
43E
330
1F
100
AcDbEntity
  8
connection
100
AcDbPoint
 10
24.0
 20
2.0
 30
0.0
  0
POINT
  5
43F
330
1F
100
AcDbEntity
  8
connection
100
AcDbPoint
 10
16.5
 20
19.0
 30
0.0
  0
POINT
  5
440
330
1F
100
AcDbEntity
  8
connection
100
AcDbPoint
 10
27.0
 20
19.0
 30
0.0
  0
POINT
  5
441
330
1F
100
AcDbEntity
  8
connection
100
AcDbPoint
 10
37.5
 20
19.0
 30
0.0
  0
POINT
  5
442
330
1F
100
AcDbEntity
  8
connection
100
AcDbPoint
 10
6.5
 20
-163.5
 30
0.0
  0
POINT
  5
443
330
1F
100
AcDbEntity
  8
connection
100
AcDbPoint
 10
27.0
 20
21.0
 30
0.0
  0
POINT
  5
444
330
1F
100
AcDbEntity
  8
connection
100
AcDbPoint
 10
-4.5
 20
-166.0
 30
0.0
  0
POINT
  5
445
330
1F
100
AcDbEntity
  8
connection
100
AcDbPoint
 10
58.5
 20
-166.0
 30
0.0
  0
POINT
  5
446
330
1F
100
AcDbEntity
  8
connection
100
AcDbPoint
 10
14.0
 20
29.5
 30
0.0
  0
POINT
  5
447
330
1F
100
AcDbEntity
  8
connection
100
AcDbPoint
 10
29.0
 20
29.5
 30
0.0
  0
POINT
  5
448
330
1F
100
AcDbEntity
  8
connection
100
AcDbPoint
 10
44.0
 20
29.5
 30
0.0
  0
POINT
  5
449
330
1F
100
AcDbEntity
  8
connection
100
AcDbPoint
 10
13.5
 20
34.0
 30
0.0
  0
POINT
  5
44A
330
1F
100
AcDbEntity
  8
connection
100
AcDbPoint
 10
26.7
 20
34.0
 30
0.0
  0
POINT
  5
44B
330
1F
100
AcDbEntity
  8
connection
100
AcDbPoint
 10
39.9
 20
34.0
 30
0.0
  0
POINT
  5
44C
330
1F
100
AcDbEntity
  8
connection
100
AcDbPoint
 10
14.0
 20
27.5
 30
0.0
  0
POINT
  5
44D
330
1F
100
AcDbEntity
  8
connection
100
AcDbPoint
 10
27.0
 20
27.5
 30
0.0
  0
POINT
  5
44E
330
1F
100
AcDbEntity
  8
connection
100
AcDbPoint
 10
40.0
 20
27.5
 30
0.0
  0
POINT
  5
44F
330
1F
100
AcDbEntity
  8
connection
100
AcDbPoint
 10
27.0
 20
34.0
 30
0.0
  0
POINT
  5
450
330
1F
100
AcDbEntity
  8
connection
100
AcDbPoint
 10
27.0
 20
-66.0
 30
0.0
  0
POINT
  5
451
330
1F
100
AcDbEntity
  8
connection
100
AcDbPoint
 10
0.0
 20
-28.5
 30
0.0
  0
POINT
  5
452
330
1F
100
AcDbEntity
  8
connection
100
AcDbPoint
 10
27.0
 20
-1.0
 30
0.0
  0
POINT
  5
453
330
1F
100
AcDbEntity
  8
connection
100
AcDbPoint
 10
0.0
 20
34.0
 30
0.0
  0
ENDSEC
  0
SECTION
  2
OBJECTS
  0
DICTIONARY
  5
C
330
0
100
AcDbDictionary
281
     1
  3
ACAD_DETAILVIEWSTYLE
350
45B
  3
ACAD_GROUP
350
D
  3
ACAD_LAYOUT
350
1A
  3
ACAD_MATERIAL
350
43
  3
ACAD_MLEADERSTYLE
350
5B
  3
ACAD_MLINESTYLE
350
17
  3
ACAD_PLOTSETTINGS
350
19
  3
ACAD_PLOTSTYLENAME
350
E
  3
ACAD_SCALELIST
350
47
  3
ACAD_SECTIONVIEWSTYLE
350
45C
  3
ACAD_TABLESTYLE
350
59
  3
ACAD_VISUALSTYLE
350
2A
  3
ACDB_RECOMPOSE_DATA
350
458
  3
AcDbVariableDictionary
350
454
  0
SUN
  5
5D
330
29
100
AcDbSun
 90
        1
290
     0
 63
     7
421
 16777215
 40
1.0
291
     1
 91
  2455826
 92
 54000000
292
     0
 70
     2
 71
   256
280
     1
  0
DICTIONARY
  5
45B
102
{ACAD_REACTORS
330
C
102
}
330
C
100
AcDbDictionary
281
     1
  0
DICTIONARY
  5
D
102
{ACAD_REACTORS
330
C
102
}
330
C
100
AcDbDictionary
281
     1
  0
DICTIONARY
  5
1A
102
{ACAD_REACTORS
330
C
102
}
330
C
100
AcDbDictionary
281
     1
  3
Layout1
350
1E
  3
Layout2
350
26
  3
Model
350
22
  0
DICTIONARY
  5
43
102
{ACAD_REACTORS
330
C
102
}
330
C
100
AcDbDictionary
281
     1
  3
ByBlock
350
45
  3
ByLayer
350
44
  3
Global
350
46
  0
DICTIONARY
  5
5B
102
{ACAD_REACTORS
330
C
102
}
330
C
100
AcDbDictionary
281
     1
  3
Standard
350
5C
  0
DICTIONARY
  5
17
102
{ACAD_REACTORS
330
C
102
}
330
C
100
AcDbDictionary
281
     1
  3
Standard
350
18
  0
DICTIONARY
  5
19
102
{ACAD_REACTORS
330
C
102
}
330
C
100
AcDbDictionary
281
     1
  0
ACDBDICTIONARYWDFLT
  5
E
102
{ACAD_REACTORS
330
C
102
}
330
C
100
AcDbDictionary
281
     1
  3
Normal
350
F
100
AcDbDictionaryWithDefault
340
F
  0
DICTIONARY
  5
47
102
{ACAD_REACTORS
330
C
102
}
330
C
100
AcDbDictionary
281
     1
  3
A0
350
48
  3
A1
350
49
  3
A2
350
4A
  3
A3
350
4B
  3
A4
350
4C
  3
A5
350
4D
  3
A6
350
4E
  3
A7
350
4F
  3
A8
350
50
  3
A9
350
51
  3
B0
350
52
  3
B1
350
53
  3
B2
350
54
  3
B3
350
55
  3
B4
350
56
  3
B5
350
57
  3
B6
350
58
  0
DICTIONARY
  5
45C
102
{ACAD_REACTORS
330
C
102
}
330
C
100
AcDbDictionary
281
     1
  0
DICTIONARY
  5
59
102
{ACAD_REACTORS
330
C
102
}
330
C
100
AcDbDictionary
281
     1
  3
Standard
350
5A
  0
DICTIONARY
  5
2A
102
{ACAD_REACTORS
330
C
102
}
330
C
100
AcDbDictionary
281
     1
  3
2dWireframe
350
2F
  3
Basic
350
32
  3
Brighten
350
36
  3
ColorChange
350
3A
  3
Conceptual
350
34
  3
Dim
350
35
  3
EdgeColorOff
350
3D
  3
Facepattern
350
39
  3
Flat
350
2B
  3
FlatWithEdges
350
2C
  3
Gouraud
350
2D
  3
GouraudWithEdges
350
2E
  3
Hidden
350
31
  3
JitterOff
350
3B
  3
Linepattern
350
38
  3
OverhangOff
350
3C
  3
Realistic
350
33
  3
Shaded
350
42
  3
Shaded with edges
350
41
  3
Shades of Gray
350
3E
  3
Sketchy
350
3F
  3
Thicken
350
37
  3
Wireframe
350
30
  3
X-Ray
350
40
  0
XRECORD
  5
458
102
{ACAD_REACTORS
330
C
102
}
330
C
100
AcDbXrecord
280
     1
 90
        1
330
5A
  0
DICTIONARY
  5
454
102
{ACAD_REACTORS
330
C
102
}
330
C
100
AcDbDictionary
281
     1
  3
CANNOSCALE
350
455
  3
CENTEREXE
350
45D
  3
CENTERLTYPEFILE
350
45E
  3
CMLEADERSTYLE
350
45A
  3
CTABLESTYLE
350
459
  0
LAYOUT
  5
1E
102
{ACAD_REACTORS
330
1A
102
}
330
1A
100
AcDbPlotSettings
  1

  2
none_device
  4

  6

 40
0.0
 41
0.0
 42
0.0
 43
0.0
 44
0.0
 45
0.0
 46
0.0
 47
0.0
 48
0.0
 49
0.0
140
0.0
141
0.0
142
1.0
143
1.0
 70
   688
 72
     1
 73
     0
 74
     5
  7

 75
    16
 76
     0
 77
     2
 78
   300
147
1.0
148
0.0
149
0.0
100
AcDbLayout
  1
Layout1
 70
     1
 71
     1
 10
0.0
 20
0.0
 11
420.0
 21
297.0
 12
0.0
 22
0.0
 32
0.0
 14
1.000000000000000E+20
 24
1.000000000000000E+20
 34
1.000000000000000E+20
 15
-1.000000000000000E+20
 25
-1.000000000000000E+20
 35
-1.000000000000000E+20
146
0.0
 13
0.0
 23
0.0
 33
0.0
 16
1.0
 26
0.0
 36
0.0
 17
0.0
 27
1.0
 37
0.0
 76
     0
330
1B
  0
LAYOUT
  5
26
102
{ACAD_REACTORS
330
1A
102
}
330
1A
100
AcDbPlotSettings
  1

  2
none_device
  4

  6

 40
0.0
 41
0.0
 42
0.0
 43
0.0
 44
0.0
 45
0.0
 46
0.0
 47
0.0
 48
0.0
 49
0.0
140
0.0
141
0.0
142
1.0
143
1.0
 70
   688
 72
     1
 73
     0
 74
     5
  7

 75
    16
 76
     0
 77
     2
 78
   300
147
1.0
148
0.0
149
0.0
100
AcDbLayout
  1
Layout2
 70
     1
 71
     2
 10
0.0
 20
0.0
 11
0.0
 21
0.0
 12
0.0
 22
0.0
 32
0.0
 14
0.0
 24
0.0
 34
0.0
 15
0.0
 25
0.0
 35
0.0
146
0.0
 13
0.0
 23
0.0
 33
0.0
 16
1.0
 26
0.0
 36
0.0
 17
0.0
 27
1.0
 37
0.0
 76
     0
330
23
  0
LAYOUT
  5
22
102
{ACAD_REACTORS
330
1A
102
}
330
1A
100
AcDbPlotSettings
  1

  2
none_device
  4
Letter_(8.50_x_11.00_Inches)
  6

 40
6.35
 41
6.35
 42
6.35000508
 43
6.35000508
 44
215.9
 45
279.4
 46
0.0
 47
0.0
 48
0.0
 49
0.0
140
0.0
141
0.0
142
1.0
143
1.0
 70
  1712
 72
     1
 73
     0
 74
     0
  7

 75
     0
 76
     0
 77
     2
 78
   300
147
1.0
148
0.0
149
0.0
100
AcDbLayout
  1
Model
 70
     1
 71
     0
 10
0.0
 20
0.0
 11
420.0
 21
297.0
 12
0.0
 22
0.0
 32
0.0
 14
-56.0
 24
-195.3333333333333
 34
0.0
 15
62.45238095238096
 25
34.5
 35
0.0
146
0.0
 13
0.0
 23
0.0
 33
0.0
 16
1.0
 26
0.0
 36
0.0
 17
0.0
 27
1.0
 37
0.0
 76
     0
330
1F
331
29
  0
MATERIAL
  5
45
102
{ACAD_REACTORS
330
43
102
}
330
43
100
AcDbMaterial
  1
ByBlock
 72
     1
 94
      127
  0
MATERIAL
  5
44
102
{ACAD_REACTORS
330
43
102
}
330
43
100
AcDbMaterial
  1
ByLayer
 72
     1
 94
      127
  0
MATERIAL
  5
46
102
{ACAD_REACTORS
330
43
102
}
330
43
100
AcDbMaterial
  1
Global
 72
     1
 94
      127
  0
MLEADERSTYLE
  5
5C
102
{ACAD_REACTORS
330
5B
102
}
330
5B
100
AcDbMLeaderStyle
179
     2
170
     2
171
     1
172
     0
 90
        2
 40
0.0
 41
0.0
173
     1
 91
-1056964608
340
14
 92
       -2
290
     1
 42
2.0
291
     1
 43
8.0
  3
Standard
341
0
 44
4.0
300

342
11
174
     1
178
     6
175
     1
176
     0
 93
-1056964608
 45
4.0
292
     0
297
     0
 46
4.0
343
0
 94
-1056964608
 47
1.0
 49
1.0
140
1.0
293
     1
141
0.0
294
     1
177
     0
142
1.0
295
     0
296
     0
143
3.75
271
     0
272
     9
273
     9
298
     0
  0
MLINESTYLE
  5
18
102
{ACAD_REACTORS
330
17
102
}
330
17
100
AcDbMlineStyle
  2
Standard
 70
     0
  3

 62
   256
 51
90.0
 52
90.0
 71
     2
 49
0.5
 62
   256
  6
BYLAYER
 49
-0.5
 62
   256
  6
BYLAYER
  0
ACDBPLACEHOLDER
  5
F
102
{ACAD_REACTORS
330
E
102
}
330
E
  0
SCALE
  5
48
102
{ACAD_REACTORS
330
47
102
}
330
47
100
AcDbScale
 70
     0
300
1:1
140
1.0
141
1.0
290
     1
  0
SCALE
  5
49
102
{ACAD_REACTORS
330
47
102
}
330
47
100
AcDbScale
 70
     0
300
1:2
140
1.0
141
2.0
290
     0
  0
SCALE
  5
4A
102
{ACAD_REACTORS
330
47
102
}
330
47
100
AcDbScale
 70
     0
300
1:4
140
1.0
141
4.0
290
     0
  0
SCALE
  5
4B
102
{ACAD_REACTORS
330
47
102
}
330
47
100
AcDbScale
 70
     0
300
1:5
140
1.0
141
5.0
290
     0
  0
SCALE
  5
4C
102
{ACAD_REACTORS
330
47
102
}
330
47
100
AcDbScale
 70
     0
300
1:8
140
1.0
141
8.0
290
     0
  0
SCALE
  5
4D
102
{ACAD_REACTORS
330
47
102
}
330
47
100
AcDbScale
 70
     0
300
1:10
140
1.0
141
10.0
290
     0
  0
SCALE
  5
4E
102
{ACAD_REACTORS
330
47
102
}
330
47
100
AcDbScale
 70
     0
300
1:16
140
1.0
141
16.0
290
     0
  0
SCALE
  5
4F
102
{ACAD_REACTORS
330
47
102
}
330
47
100
AcDbScale
 70
     0
300
1:20
140
1.0
141
20.0
290
     0
  0
SCALE
  5
50
102
{ACAD_REACTORS
330
47
102
}
330
47
100
AcDbScale
 70
     0
300
1:30
140
1.0
141
30.0
290
     0
  0
SCALE
  5
51
102
{ACAD_REACTORS
330
47
102
}
330
47
100
AcDbScale
 70
     0
300
1:40
140
1.0
141
40.0
290
     0
  0
SCALE
  5
52
102
{ACAD_REACTORS
330
47
102
}
330
47
100
AcDbScale
 70
     0
300
1:50
140
1.0
141
50.0
290
     0
  0
SCALE
  5
53
102
{ACAD_REACTORS
330
47
102
}
330
47
100
AcDbScale
 70
     0
300
1:100
140
1.0
141
100.0
290
     0
  0
SCALE
  5
54
102
{ACAD_REACTORS
330
47
102
}
330
47
100
AcDbScale
 70
     0
300
2:1
140
2.0
141
1.0
290
     0
  0
SCALE
  5
55
102
{ACAD_REACTORS
330
47
102
}
330
47
100
AcDbScale
 70
     0
300
4:1
140
4.0
141
1.0
290
     0
  0
SCALE
  5
56
102
{ACAD_REACTORS
330
47
102
}
330
47
100
AcDbScale
 70
     0
300
8:1
140
8.0
141
1.0
290
     0
  0
SCALE
  5
57
102
{ACAD_REACTORS
330
47
102
}
330
47
100
AcDbScale
 70
     0
300
10:1
140
10.0
141
1.0
290
     0
  0
SCALE
  5
58
102
{ACAD_REACTORS
330
47
102
}
330
47
100
AcDbScale
 70
     0
300
100:1
140
100.0
141
1.0
290
     0
  0
TABLESTYLE
  5
5A
102
{ACAD_REACTORS
330
59
102
}
102
{ACAD_XDICTIONARY
360
456
102
}
330
59
100
AcDbTableStyle
  3
Standard
 70
     0
 71
     0
 40
0.06
 41
0.06
280
     0
281
     0
  7
Standard
140
4.5
170
     2
 62
     0
 63
   257
283
     0
 90
        4
 91
        0
  1

274
    -2
284
     1
 64
     0
275
    -2
285
     1
 65
     0
276
    -2
286
     1
 66
     0
277
    -2
287
     1
 67
     0
278
    -2
288
     1
 68
     0
279
    -2
289
     1
 69
     0
  7
Standard
140
6.0
170
     5
 62
     0
 63
   257
283
     0
 90
        4
 91
        0
  1

274
    -2
284
     1
 64
     0
275
    -2
285
     1
 65
     0
276
    -2
286
     1
 66
     0
277
    -2
287
     1
 67
     0
278
    -2
288
     1
 68
     0
279
    -2
289
     1
 69
     0
  7
Standard
140
4.5
170
     5
 62
     0
 63
   257
283
     0
 90
        4
 91
        0
  1

274
    -2
284
     1
 64
     0
275
    -2
285
     1
 65
     0
276
    -2
286
     1
 66
     0
277
    -2
287
     1
 67
     0
278
    -2
288
     1
 68
     0
279
    -2
289
     1
 69
     0
  0
VISUALSTYLE
  5
2F
102
{ACAD_REACTORS
330
2A
102
}
330
2A
100
AcDbVisualStyle
  2
2dWireframe
 70
     4
177
     3
291
     0
 70
    58
 90
        0
176
     1
 90
        2
176
     1
 90
        0
176
     1
 90
        0
176
     1
 40
0.6
176
     1
 40
30.0
176
     1
 62
     7
420
 16777215
176
     1
 90
        1
176
     1
 90
        4
176
     1
 62
     7
176
     1
 62
   257
176
     1
 90
        1
176
     1
 90
        1
176
     1
 40
1.0
176
     1
 90
        0
176
     1
 62
   257
176
     1
 40
1.0
176
     1
 90
        1
176
     1
 90
        6
176
     1
 90
        2
176
     1
 62
     7
176
     1
 90
        5
176
     1
 90
        0
176
     1
 90
        0
176
     1
290
     0
176
     1
 90
        1
176
     1
 40
0.0
176
     1
 90
        0
176
     1
290
     1
176
     1
290
     1
176
     1
290
     0
176
     1
290
     0
176
     1
290
     0
176
     1
290
     0
176
     1
290
     0
176
     1
290
     0
176
     1
290
     0
176
     1
 90
       50
176
     1
 40
0.0
176
     1
 40
1.0
176
     1
 90
        0
176
     1
 62
    18
420
        0
176
     1
 90
       50
176
     1
 90
        3
176
     1
 62
     5
420
      255
176
     1
290
     0
176
     1
 90
       50
176
     1
 90
       50
176
     1
 90
       50
176
     1
290
     0
176
     1
 90
       50
176
     1
 62
   256
176
     0
 40
1.0
176
     0
 90
        2
176
     1
  1
strokes_ogs.tif
176
     1
290
     0
176
     1
 40
1.0
176
     1
 40
1.0
176
     1
  0
VISUALSTYLE
  5
32
102
{ACAD_REACTORS
330
2A
102
}
330
2A
100
AcDbVisualStyle
  2
Basic
 70
     7
177
     3
291
     1
 70
    58
 90
        1
176
     1
 90
        0
176
     1
 90
        1
176
     1
 90
        0
176
     1
 40
0.6
176
     1
 40
30.0
176
     1
 62
     7
420
 16777215
176
     1
 90
        0
176
     1
 90
        4
176
     1
 62
     7
176
     1
 62
   257
176
     1
 90
        1
176
     1
 90
        1
176
     1
 40
1.0
176
     1
 90
        8
176
     1
 62
     7
176
     1
 40
1.0
176
     1
 90
        1
176
     1
 90
        6
176
     1
 90
        2
176
     1
 62
     7
176
     1
 90
        5
176
     1
 90
        0
176
     1
 90
        0
176
     1
290
     0
176
     1
 90
        1
176
     1
 40
0.0
176
     1
 90
        0
176
     1
290
     0
176
     1
290
     1
176
     1
290
     1
176
     1
290
     0
176
     1
290
     0
176
     1
290
     0
176
     1
290
     0
176
     1
290
     0
176
     1
290
     0
176
     1
 90
       50
176
     1
 40
0.0
176
     1
 40
1.0
176
     1
 90
        0
176
     1
 62
    18
420
        0
176
     1
 90
       50
176
     1
 90
        3
176
     1
 62
     5
420
      255
176
     1
290
     0
176
     1
 90
       50
176
     1
 90
       50
176
     1
 90
       50
176
     1
290
     0
176
     1
 90
       50
176
     1
 62
   256
176
     0
 40
1.0
176
     0
 90
        2
176
     1
  1
strokes_ogs.tif
176
     1
290
     0
176
     1
 40
1.0
176
     1
 40
1.0
176
     1
  0
VISUALSTYLE
  5
36
102
{ACAD_REACTORS
330
2A
102
}
330
2A
100
AcDbVisualStyle
  2
Brighten
 70
    12
177
     3
291
     1
 70
    58
 90
        2
176
     1
 90
        2
176
     1
 90
        0
176
     1
 90
        0
176
     1
 40
0.6
176
     1
 40
30.0
176
     1
 62
     7
420
 16777215
176
     1
 90
        1
176
     1
 90
        4
176
     1
 62
     7
176
     1
 62
   257
176
     1
 90
        1
176
     1
 90
        1
176
     1
 40
1.0
176
     1
 90
        8
176
     1
 62
     7
176
     1
 40
1.0
176
     1
 90
        1
176
     1
 90
        6
176
     1
 90
        2
176
     1
 62
     7
176
     1
 90
        5
176
     1
 90
        0
176
     1
 90
        0
176
     1
290
     0
176
     1
 90
        1
176
     1
 40
50.0
176
     1
 90
        0
176
     1
290
     0
176
     1
290
     1
176
     1
290
     1
176
     1
290
     0
176
     1
290
     0
176
     1
290
     0
176
     1
290
     0
176
     1
290
     0
176
     1
290
     0
176
     1
 90
       50
176
     1
 40
0.0
176
     1
 40
1.0
176
     1
 90
        0
176
     1
 62
    18
420
        0
176
     1
 90
       50
176
     1
 90
        3
176
     1
 62
     5
420
      255
176
     1
290
     0
176
     1
 90
       50
176
     1
 90
       50
176
     1
 90
       50
176
     1
290
     0
176
     1
 90
       50
176
     1
 62
   256
176
     0
 40
1.0
176
     0
 90
        2
176
     1
  1
strokes_ogs.tif
176
     1
290
     0
176
     1
 40
1.0
176
     1
 40
1.0
176
     1
  0
VISUALSTYLE
  5
3A
102
{ACAD_REACTORS
330
2A
102
}
330
2A
100
AcDbVisualStyle
  2
ColorChange
 70
    16
177
     3
291
     1
 70
    58
 90
        2
176
     1
 90
        2
176
     1
 90
        3
176
     1
 90
        0
176
     1
 40
0.6
176
     1
 40
30.0
176
     1
 62
     8
420
  8421504
176
     1
 90
        1
176
     1
 90
        4
176
     1
 62
     7
176
     1
 62
   257
176
     1
 90
        1
176
     1
 90
        1
176
     1
 40
1.0
176
     1
 90
        8
176
     1
 62
     8
420
  8421504
176
     1
 40
1.0
176
     1
 90
        1
176
     1
 90
        6
176
     1
 90
        2
176
     1
 62
     7
176
     1
 90
        5
176
     1
 90
        0
176
     1
 90
        0
176
     1
290
     0
176
     1
 90
        1
176
     1
 40
0.0
176
     1
 90
        0
176
     1
290
     0
176
     1
290
     1
176
     1
290
     1
176
     1
290
     0
176
     1
290
     0
176
     1
290
     0
176
     1
290
     0
176
     1
290
     0
176
     1
290
     0
176
     1
 90
       50
176
     1
 40
0.0
176
     1
 40
1.0
176
     1
 90
        0
176
     1
 62
    18
420
        0
176
     1
 90
       50
176
     1
 90
        3
176
     1
 62
     5
420
      255
176
     1
290
     0
176
     1
 90
       50
176
     1
 90
       50
176
     1
 90
       50
176
     1
290
     0
176
     1
 90
       50
176
     1
 62
   256
176
     0
 40
1.0
176
     0
 90
        2
176
     1
  1
strokes_ogs.tif
176
     1
290
     0
176
     1
 40
1.0
176
     1
 40
1.0
176
     1
  0
VISUALSTYLE
  5
34
102
{ACAD_REACTORS
330
2A
102
}
330
2A
100
AcDbVisualStyle
  2
Conceptual
 70
     9
177
     3
291
     0
 70
    58
 90
        3
176
     1
 90
        2
176
     1
 90
        0
176
     1
 90
        0
176
     1
 40
0.6
176
     1
 40
30.0
176
     1
 62
     7
420
 16777215
176
     1
 90
        2
176
     1
 90
        2
176
     1
 62
     7
176
     1
 62
   257
176
     1
 90
        1
176
     1
 90
        1
176
     1
 40
179.0
176
     1
 90
        8
176
     1
 62
     7
176
     1
 40
1.0
176
     1
 90
        1
176
     1
 90
        6
176
     1
 90
        2
176
     1
 62
     7
176
     1
 90
        3
176
     1
 90
        0
176
     1
 90
        0
176
     1
290
     0
176
     1
 90
        1
176
     1
 40
0.0
176
     1
 90
        0
176
     1
290
     0
176
     1
290
     1
176
     1
290
     1
176
     1
290
     0
176
     1
290
     0
176
     1
290
     0
176
     1
290
     0
176
     1
290
     0
176
     1
290
     0
176
     1
 90
       50
176
     1
 40
0.0
176
     1
 40
1.0
176
     1
 90
        0
176
     1
 62
    18
420
        0
176
     1
 90
       50
176
     1
 90
        3
176
     1
 62
     5
420
      255
176
     1
290
     0
176
     1
 90
       50
176
     1
 90
       50
176
     1
 90
       50
176
     1
290
     0
176
     1
 90
       50
176
     1
 62
   256
176
     0
 40
1.0
176
     0
 90
        2
176
     1
  1
strokes_ogs.tif
176
     1
290
     0
176
     1
 40
1.0
176
     1
 40
1.0
176
     1
  0
VISUALSTYLE
  5
35
102
{ACAD_REACTORS
330
2A
102
}
330
2A
100
AcDbVisualStyle
  2
Dim
 70
    11
177
     3
291
     1
 70
    58
 90
        2
176
     1
 90
        2
176
     1
 90
        0
176
     1
 90
        0
176
     1
 40
0.6
176
     1
 40
30.0
176
     1
 62
     7
420
 16777215
176
     1
 90
        1
176
     1
 90
        4
176
     1
 62
     7
176
     1
 62
   257
176
     1
 90
        1
176
     1
 90
        1
176
     1
 40
1.0
176
     1
 90
        8
176
     1
 62
     7
176
     1
 40
1.0
176
     1
 90
        1
176
     1
 90
        6
176
     1
 90
        2
176
     1
 62
     7
176
     1
 90
        5
176
     1
 90
        0
176
     1
 90
        0
176
     1
290
     0
176
     1
 90
        1
176
     1
 40
-50.0
176
     1
 90
        0
176
     1
290
     0
176
     1
290
     1
176
     1
290
     1
176
     1
290
     0
176
     1
290
     0
176
     1
290
     0
176
     1
290
     0
176
     1
290
     0
176
     1
290
     0
176
     1
 90
       50
176
     1
 40
0.0
176
     1
 40
1.0
176
     1
 90
        0
176
     1
 62
    18
420
        0
176
     1
 90
       50
176
     1
 90
        3
176
     1
 62
     5
420
      255
176
     1
290
     0
176
     1
 90
       50
176
     1
 90
       50
176
     1
 90
       50
176
     1
290
     0
176
     1
 90
       50
176
     1
 62
   256
176
     0
 40
1.0
176
     0
 90
        2
176
     1
  1
strokes_ogs.tif
176
     1
290
     0
176
     1
 40
1.0
176
     1
 40
1.0
176
     1
  0
VISUALSTYLE
  5
3D
102
{ACAD_REACTORS
330
2A
102
}
330
2A
100
AcDbVisualStyle
  2
EdgeColorOff
 70
    22
177
     3
291
     1
 70
    58
 90
        2
176
     0
 90
        2
176
     0
 90
        0
176
     0
 90
        0
176
     0
 40
0.6
176
     0
 40
30.0
176
     0
 62
     7
420
 16777215
176
     0
 90
        1
176
     0
 90
        4
176
     0
 62
     7
176
     0
 62
   257
176
     0
 90
        1
176
     0
 90
        1
176
     0
 40
1.0
176
     0
 90
        8
176
     2
 62
     7
176
     0
 40
1.0
176
     0
 90
        1
176
     0
 90
        6
176
     0
 90
        2
176
     0
 62
     7
176
     0
 90
        5
176
     0
 90
        0
176
     0
 90
        0
176
     0
290
     0
176
     0
 90
        1
176
     0
 40
0.0
176
     0
 90
        0
176
     0
290
     0
176
     0
290
     1
176
     0
290
     1
176
     0
290
     0
176
     0
290
     0
176
     0
290
     0
176
     0
290
     0
176
     0
290
     0
176
     0
290
     0
176
     0
 90
       50
176
     0
 40
0.0
176
     0
 40
1.0
176
     0
 90
        0
176
     0
 62
    18
420
        0
176
     0
 90
       50
176
     0
 90
        3
176
     0
 62
     5
420
      255
176
     0
290
     0
176
     0
 90
       50
176
     0
 90
       50
176
     0
 90
       50
176
     0
290
     0
176
     0
 90
       50
176
     0
 62
   256
176
     0
 40
1.0
176
     0
 90
        2
176
     0
  1
strokes_ogs.tif
176
     0
290
     0
176
     0
 40
1.0
176
     0
 40
1.0
176
     0
  0
VISUALSTYLE
  5
39
102
{ACAD_REACTORS
330
2A
102
}
330
2A
100
AcDbVisualStyle
  2
Facepattern
 70
    15
177
     3
291
     1
 70
    58
 90
        2
176
     1
 90
        2
176
     1
 90
        0
176
     1
 90
        0
176
     1
 40
0.6
176
     1
 40
30.0
176
     1
 62
     7
420
 16777215
176
     1
 90
        1
176
     1
 90
        4
176
     1
 62
     7
176
     1
 62
   257
176
     1
 90
        1
176
     1
 90
        1
176
     1
 40
1.0
176
     1
 90
        8
176
     1
 62
     7
176
     1
 40
1.0
176
     1
 90
        1
176
     1
 90
        6
176
     1
 90
        2
176
     1
 62
     7
176
     1
 90
        5
176
     1
 90
        0
176
     1
 90
        0
176
     1
290
     0
176
     1
 90
        1
176
     1
 40
0.0
176
     1
 90
        0
176
     1
290
     0
176
     1
290
     1
176
     1
290
     1
176
     1
290
     0
176
     1
290
     0
176
     1
290
     0
176
     1
290
     0
176
     1
290
     0
176
     1
290
     0
176
     1
 90
       50
176
     1
 40
0.0
176
     1
 40
1.0
176
     1
 90
        0
176
     1
 62
    18
420
        0
176
     1
 90
       50
176
     1
 90
        3
176
     1
 62
     5
420
      255
176
     1
290
     0
176
     1
 90
       50
176
     1
 90
       50
176
     1
 90
       50
176
     1
290
     0
176
     1
 90
       50
176
     1
 62
   256
176
     0
 40
1.0
176
     0
 90
        2
176
     1
  1
strokes_ogs.tif
176
     1
290
     0
176
     1
 40
1.0
176
     1
 40
1.0
176
     1
  0
VISUALSTYLE
  5
2B
102
{ACAD_REACTORS
330
2A
102
}
330
2A
100
AcDbVisualStyle
  2
Flat
 70
     0
177
     3
291
     1
 70
    58
 90
        2
176
     1
 90
        1
176
     1
 90
        1
176
     1
 90
        2
176
     1
 40
0.6
176
     1
 40
30.0
176
     1
 62
     7
420
 16777215
176
     1
 90
        0
176
     1
 90
        0
176
     1
 62
     7
176
     1
 62
   257
176
     1
 90
        1
176
     1
 90
        1
176
     1
 40
1.0
176
     1
 90
        8
176
     1
 62
     7
176
     1
 40
1.0
176
     1
 90
        1
176
     1
 90
        6
176
     1
 90
        2
176
     1
 62
     7
176
     1
 90
        5
176
     1
 90
        0
176
     1
 90
        0
176
     1
290
     0
176
     1
 90
       13
176
     1
 40
0.0
176
     1
 90
        0
176
     1
290
     0
176
     1
290
     1
176
     1
290
     1
176
     1
290
     0
176
     1
290
     0
176
     1
290
     0
176
     1
290
     0
176
     1
290
     0
176
     1
290
     0
176
     1
 90
       50
176
     1
 40
0.0
176
     1
 40
1.0
176
     1
 90
        0
176
     1
 62
    18
420
        0
176
     1
 90
       50
176
     1
 90
        3
176
     1
 62
     5
420
      255
176
     1
290
     0
176
     1
 90
       50
176
     1
 90
       50
176
     1
 90
       50
176
     1
290
     0
176
     1
 90
       50
176
     1
 62
   256
176
     0
 40
1.0
176
     0
 90
        2
176
     1
  1
strokes_ogs.tif
176
     1
290
     0
176
     1
 40
1.0
176
     1
 40
1.0
176
     1
  0
VISUALSTYLE
  5
2C
102
{ACAD_REACTORS
330
2A
102
}
330
2A
100
AcDbVisualStyle
  2
FlatWithEdges
 70
     1
177
     3
291
     1
 70
    58
 90
        2
176
     1
 90
        1
176
     1
 90
        1
176
     1
 90
        2
176
     1
 40
0.6
176
     1
 40
30.0
176
     1
 62
     7
420
 16777215
176
     1
 90
        1
176
     1
 90
        0
176
     1
 62
     7
176
     1
 62
   257
176
     1
 90
        1
176
     1
 90
        1
176
     1
 40
1.0
176
     1
 90
        0
176
     1
 62
   257
176
     1
 40
1.0
176
     1
 90
        1
176
     1
 90
        6
176
     1
 90
        2
176
     1
 62
     7
176
     1
 90
        5
176
     1
 90
        0
176
     1
 90
        0
176
     1
290
     0
176
     1
 90
       13
176
     1
 40
0.0
176
     1
 90
        0
176
     1
290
     0
176
     1
290
     1
176
     1
290
     1
176
     1
290
     0
176
     1
290
     0
176
     1
290
     0
176
     1
290
     0
176
     1
290
     0
176
     1
290
     0
176
     1
 90
       50
176
     1
 40
0.0
176
     1
 40
1.0
176
     1
 90
        0
176
     1
 62
    18
420
        0
176
     1
 90
       50
176
     1
 90
        3
176
     1
 62
     5
420
      255
176
     1
290
     0
176
     1
 90
       50
176
     1
 90
       50
176
     1
 90
       50
176
     1
290
     0
176
     1
 90
       50
176
     1
 62
   256
176
     0
 40
1.0
176
     0
 90
        2
176
     1
  1
strokes_ogs.tif
176
     1
290
     0
176
     1
 40
1.0
176
     1
 40
1.0
176
     1
  0
VISUALSTYLE
  5
2D
102
{ACAD_REACTORS
330
2A
102
}
330
2A
100
AcDbVisualStyle
  2
Gouraud
 70
     2
177
     3
291
     1
 70
    58
 90
        2
176
     1
 90
        2
176
     1
 90
        1
176
     1
 90
        2
176
     1
 40
0.6
176
     1
 40
30.0
176
     1
 62
     7
420
 16777215
176
     1
 90
        0
176
     1
 90
        0
176
     1
 62
     7
176
     1
 62
   257
176
     1
 90
        1
176
     1
 90
        1
176
     1
 40
1.0
176
     1
 90
        0
176
     1
 62
     7
176
     1
 40
1.0
176
     1
 90
        1
176
     1
 90
        6
176
     1
 90
        2
176
     1
 62
     7
176
     1
 90
        5
176
     1
 90
        0
176
     1
 90
        0
176
     1
290
     0
176
     1
 90
       13
176
     1
 40
0.0
176
     1
 90
        0
176
     1
290
     0
176
     1
290
     1
176
     1
290
     1
176
     1
290
     0
176
     1
290
     0
176
     1
290
     0
176
     1
290
     0
176
     1
290
     0
176
     1
290
     0
176
     1
 90
       50
176
     1
 40
0.0
176
     1
 40
1.0
176
     1
 90
        0
176
     1
 62
    18
420
        0
176
     1
 90
       50
176
     1
 90
        3
176
     1
 62
     5
420
      255
176
     1
290
     0
176
     1
 90
       50
176
     1
 90
       50
176
     1
 90
       50
176
     1
290
     0
176
     1
 90
       50
176
     1
 62
   256
176
     0
 40
1.0
176
     0
 90
        2
176
     1
  1
strokes_ogs.tif
176
     1
290
     0
176
     1
 40
1.0
176
     1
 40
1.0
176
     1
  0
VISUALSTYLE
  5
2E
102
{ACAD_REACTORS
330
2A
102
}
330
2A
100
AcDbVisualStyle
  2
GouraudWithEdges
 70
     3
177
     3
291
     1
 70
    58
 90
        2
176
     1
 90
        2
176
     1
 90
        1
176
     1
 90
        2
176
     1
 40
0.6
176
     1
 40
30.0
176
     1
 62
     7
420
 16777215
176
     1
 90
        1
176
     1
 90
        0
176
     1
 62
     7
176
     1
 62
   257
176
     1
 90
        1
176
     1
 90
        1
176
     1
 40
1.0
176
     1
 90
        0
176
     1
 62
   257
176
     1
 40
1.0
176
     1
 90
        1
176
     1
 90
        6
176
     1
 90
        2
176
     1
 62
     7
176
     1
 90
        5
176
     1
 90
        0
176
     1
 90
        0
176
     1
290
     0
176
     1
 90
       13
176
     1
 40
0.0
176
     1
 90
        0
176
     1
290
     0
176
     1
290
     1
176
     1
290
     1
176
     1
290
     0
176
     1
290
     0
176
     1
290
     0
176
     1
290
     0
176
     1
290
     0
176
     1
290
     0
176
     1
 90
       50
176
     1
 40
0.0
176
     1
 40
1.0
176
     1
 90
        0
176
     1
 62
    18
420
        0
176
     1
 90
       50
176
     1
 90
        3
176
     1
 62
     5
420
      255
176
     1
290
     0
176
     1
 90
       50
176
     1
 90
       50
176
     1
 90
       50
176
     1
290
     0
176
     1
 90
       50
176
     1
 62
   256
176
     0
 40
1.0
176
     0
 90
        2
176
     1
  1
strokes_ogs.tif
176
     1
290
     0
176
     1
 40
1.0
176
     1
 40
1.0
176
     1
  0
VISUALSTYLE
  5
31
102
{ACAD_REACTORS
330
2A
102
}
330
2A
100
AcDbVisualStyle
  2
Hidden
 70
     6
177
     3
291
     0
 70
    58
 90
        1
176
     1
 90
        2
176
     1
 90
        2
176
     1
 90
        0
176
     1
 40
0.6
176
     1
 40
30.0
176
     1
 62
     7
420
 16777215
176
     1
 90
        2
176
     1
 90
        2
176
     1
 62
     7
176
     1
 62
   257
176
     1
 90
        2
176
     1
 90
        1
176
     1
 40
40.0
176
     1
 90
        0
176
     1
 62
   257
176
     1
 40
1.0
176
     1
 90
        1
176
     1
 90
        6
176
     1
 90
        2
176
     1
 62
     7
176
     1
 90
        3
176
     1
 90
        0
176
     1
 90
        0
176
     1
290
     0
176
     1
 90
        1
176
     1
 40
0.0
176
     1
 90
        0
176
     1
290
     0
176
     1
290
     1
176
     1
290
     1
176
     1
290
     0
176
     1
290
     0
176
     1
290
     0
176
     1
290
     0
176
     1
290
     0
176
     1
290
     0
176
     1
 90
       50
176
     1
 40
0.0
176
     1
 40
1.0
176
     1
 90
        0
176
     1
 62
    18
420
        0
176
     1
 90
       50
176
     1
 90
        3
176
     1
 62
     5
420
      255
176
     1
290
     0
176
     1
 90
       50
176
     1
 90
       50
176
     1
 90
       50
176
     1
290
     0
176
     1
 90
       50
176
     1
 62
   256
176
     0
 40
1.0
176
     0
 90
        2
176
     1
  1
strokes_ogs.tif
176
     1
290
     0
176
     1
 40
1.0
176
     1
 40
1.0
176
     1
  0
VISUALSTYLE
  5
3B
102
{ACAD_REACTORS
330
2A
102
}
330
2A
100
AcDbVisualStyle
  2
JitterOff
 70
    20
177
     3
291
     1
 70
    58
 90
        2
176
     0
 90
        2
176
     0
 90
        0
176
     0
 90
        0
176
     0
 40
0.6
176
     0
 40
30.0
176
     0
 62
     7
420
 16777215
176
     0
 90
        1
176
     0
 90
        4
176
     0
 62
     7
176
     0
 62
   257
176
     0
 90
        1
176
     0
 90
        1
176
     0
 40
1.0
176
     0
 90
       10
176
     2
 62
     7
176
     0
 40
1.0
176
     0
 90
        1
176
     0
 90
        6
176
     0
 90
        2
176
     0
 62
     7
176
     0
 90
        5
176
     0
 90
        0
176
     0
 90
        0
176
     0
290
     0
176
     0
 90
        1
176
     0
 40
0.0
176
     0
 90
        0
176
     0
290
     0
176
     0
290
     1
176
     0
290
     1
176
     0
290
     0
176
     0
290
     0
176
     0
290
     0
176
     0
290
     0
176
     0
290
     0
176
     0
290
     0
176
     0
 90
       50
176
     0
 40
0.0
176
     0
 40
1.0
176
     0
 90
        0
176
     0
 62
    18
420
        0
176
     0
 90
       50
176
     0
 90
        3
176
     0
 62
     5
420
      255
176
     0
290
     0
176
     0
 90
       50
176
     0
 90
       50
176
     0
 90
       50
176
     0
290
     0
176
     0
 90
       50
176
     0
 62
   256
176
     0
 40
1.0
176
     0
 90
        2
176
     0
  1
strokes_ogs.tif
176
     0
290
     0
176
     0
 40
1.0
176
     0
 40
1.0
176
     0
  0
VISUALSTYLE
  5
38
102
{ACAD_REACTORS
330
2A
102
}
330
2A
100
AcDbVisualStyle
  2
Linepattern
 70
    14
177
     3
291
     1
 70
    58
 90
        2
176
     1
 90
        2
176
     1
 90
        0
176
     1
 90
        0
176
     1
 40
0.6
176
     1
 40
30.0
176
     1
 62
     7
420
 16777215
176
     1
 90
        1
176
     1
 90
        4
176
     1
 62
     7
176
     1
 62
   257
176
     1
 90
        7
176
     1
 90
        7
176
     1
 40
1.0
176
     1
 90
        8
176
     1
 62
     7
176
     1
 40
1.0
176
     1
 90
        1
176
     1
 90
        6
176
     1
 90
        2
176
     1
 62
     7
176
     1
 90
        5
176
     1
 90
        0
176
     1
 90
        0
176
     1
290
     0
176
     1
 90
        1
176
     1
 40
0.0
176
     1
 90
        0
176
     1
290
     0
176
     1
290
     1
176
     1
290
     1
176
     1
290
     0
176
     1
290
     0
176
     1
290
     0
176
     1
290
     0
176
     1
290
     0
176
     1
290
     0
176
     1
 90
       50
176
     1
 40
0.0
176
     1
 40
1.0
176
     1
 90
        0
176
     1
 62
    18
420
        0
176
     1
 90
       50
176
     1
 90
        3
176
     1
 62
     5
420
      255
176
     1
290
     0
176
     1
 90
       50
176
     1
 90
       50
176
     1
 90
       50
176
     1
290
     0
176
     1
 90
       50
176
     1
 62
   256
176
     0
 40
1.0
176
     0
 90
        2
176
     1
  1
strokes_ogs.tif
176
     1
290
     0
176
     1
 40
1.0
176
     1
 40
1.0
176
     1
  0
VISUALSTYLE
  5
3C
102
{ACAD_REACTORS
330
2A
102
}
330
2A
100
AcDbVisualStyle
  2
OverhangOff
 70
    21
177
     3
291
     1
 70
    58
 90
        2
176
     0
 90
        2
176
     0
 90
        0
176
     0
 90
        0
176
     0
 40
0.6
176
     0
 40
30.0
176
     0
 62
     7
420
 16777215
176
     0
 90
        1
176
     0
 90
        4
176
     0
 62
     7
176
     0
 62
   257
176
     0
 90
        1
176
     0
 90
        1
176
     0
 40
1.0
176
     0
 90
        9
176
     2
 62
     7
176
     0
 40
1.0
176
     0
 90
        1
176
     0
 90
        6
176
     0
 90
        2
176
     0
 62
     7
176
     0
 90
        5
176
     0
 90
        0
176
     0
 90
        0
176
     0
290
     0
176
     0
 90
        1
176
     0
 40
0.0
176
     0
 90
        0
176
     0
290
     0
176
     0
290
     1
176
     0
290
     1
176
     0
290
     0
176
     0
290
     0
176
     0
290
     0
176
     0
290
     0
176
     0
290
     0
176
     0
290
     0
176
     0
 90
       50
176
     0
 40
0.0
176
     0
 40
1.0
176
     0
 90
        0
176
     0
 62
    18
420
        0
176
     0
 90
       50
176
     0
 90
        3
176
     0
 62
     5
420
      255
176
     0
290
     0
176
     0
 90
       50
176
     0
 90
       50
176
     0
 90
       50
176
     0
290
     0
176
     0
 90
       50
176
     0
 62
   256
176
     0
 40
1.0
176
     0
 90
        2
176
     0
  1
strokes_ogs.tif
176
     0
290
     0
176
     0
 40
1.0
176
     0
 40
1.0
176
     0
  0
VISUALSTYLE
  5
33
102
{ACAD_REACTORS
330
2A
102
}
330
2A
100
AcDbVisualStyle
  2
Realistic
 70
     8
177
     3
291
     0
 70
    58
 90
        2
176
     1
 90
        3
176
     1
 90
        0
176
     1
 90
        2
176
     1
 40
0.6
176
     1
 40
30.0
176
     1
 62
     7
420
 16777215
176
     1
 90
        0
176
     1
 90
        0
176
     1
 62
     7
176
     1
 62
   257
176
     1
 90
        1
176
     1
 90
        1
176
     1
 40
1.0
176
     1
 90
        8
176
     1
 62
   257
176
     1
 40
1.0
176
     1
 90
        1
176
     1
 90
        6
176
     1
 90
        2
176
     1
 62
     7
176
     1
 90
        3
176
     1
 90
        0
176
     1
 90
        0
176
     1
290
     0
176
     1
 90
       13
176
     1
 40
0.0
176
     1
 90
        0
176
     1
290
     0
176
     1
290
     1
176
     1
290
     1
176
     1
290
     0
176
     1
290
     0
176
     1
290
     0
176
     1
290
     0
176
     1
290
     0
176
     1
290
     0
176
     1
 90
       50
176
     1
 40
0.0
176
     1
 40
1.0
176
     1
 90
        0
176
     1
 62
    18
420
        0
176
     1
 90
       50
176
     1
 90
        3
176
     1
 62
     5
420
      255
176
     1
290
     0
176
     1
 90
       50
176
     1
 90
       50
176
     1
 90
       50
176
     1
290
     0
176
     1
 90
       50
176
     1
 62
   256
176
     0
 40
1.0
176
     0
 90
        2
176
     1
  1
strokes_ogs.tif
176
     1
290
     0
176
     1
 40
1.0
176
     1
 40
1.0
176
     1
  0
VISUALSTYLE
  5
42
102
{ACAD_REACTORS
330
2A
102
}
330
2A
100
AcDbVisualStyle
  2
Shaded
 70
    27
177
     3
291
     0
 70
    58
 90
        2
176
     1
 90
        2
176
     1
 90
        1
176
     1
 90
        2
176
     1
 40
0.6
176
     1
 40
30.0
176
     1
 62
     7
420
 16777215
176
     1
 90
        0
176
     1
 90
        4
176
     1
 62
     7
176
     1
 62
   257
176
     1
 90
        1
176
     1
 90
        1
176
     1
 40
1.0
176
     1
 90
        8
176
     1
 62
   257
176
     1
 40
1.0
176
     1
 90
        1
176
     1
 90
        6
176
     1
 90
        2
176
     1
 62
     8
420
  7895160
176
     1
 90
        3
176
     1
 90
        0
176
     1
 90
        0
176
     1
290
     0
176
     1
 90
        5
176
     1
 40
0.0
176
     1
 90
        0
176
     1
290
     0
176
     1
290
     1
176
     1
290
     1
176
     1
290
     0
176
     1
290
     0
176
     1
290
     0
176
     1
290
     0
176
     1
290
     0
176
     1
290
     0
176
     1
 90
       50
176
     1
 40
0.0
176
     1
 40
1.0
176
     1
 90
        0
176
     1
 62
    18
420
        0
176
     1
 90
       50
176
     1
 90
        3
176
     1
 62
     5
420
      255
176
     1
290
     0
176
     1
 90
       50
176
     1
 90
       50
176
     1
 90
       50
176
     1
290
     0
176
     1
 90
       50
176
     1
 62
   256
176
     0
 40
1.0
176
     0
 90
        2
176
     1
  1
strokes_ogs.tif
176
     1
290
     0
176
     1
 40
1.0
176
     1
 40
1.0
176
     1
  0
VISUALSTYLE
  5
41
102
{ACAD_REACTORS
330
2A
102
}
330
2A
100
AcDbVisualStyle
  2
Shaded with edges
 70
    26
177
     3
291
     0
 70
    58
 90
        2
176
     1
 90
        2
176
     1
 90
        1
176
     1
 90
        2
176
     1
 40
0.6
176
     1
 40
30.0
176
     1
 62
     7
420
 16777215
176
     1
 90
        1
176
     1
 90
       10
176
     1
 62
     7
176
     1
 62
   257
176
     1
 90
        2
176
     1
 90
        1
176
     1
 40
1.0
176
     1
 90
        8
176
     1
 62
   257
176
     1
 40
1.0
176
     1
 90
        1
176
     1
 90
        6
176
     1
 90
        2
176
     1
 62
     7
176
     1
 90
        3
176
     1
 90
        0
176
     1
 90
        0
176
     1
290
     0
176
     1
 90
        5
176
     1
 40
0.0
176
     1
 90
        0
176
     1
290
     0
176
     1
290
     1
176
     1
290
     1
176
     1
290
     0
176
     1
290
     0
176
     1
290
     0
176
     1
290
     0
176
     1
290
     0
176
     1
290
     0
176
     1
 90
       50
176
     1
 40
0.0
176
     1
 40
1.0
176
     1
 90
        0
176
     1
 62
    18
420
        0
176
     1
 90
       50
176
     1
 90
        3
176
     1
 62
     5
420
      255
176
     1
290
     0
176
     1
 90
       50
176
     1
 90
       50
176
     1
 90
       50
176
     1
290
     0
176
     1
 90
       50
176
     1
 62
   256
176
     0
 40
1.0
176
     0
 90
        2
176
     1
  1
strokes_ogs.tif
176
     1
290
     0
176
     1
 40
1.0
176
     1
 40
1.0
176
     1
  0
VISUALSTYLE
  5
3E
102
{ACAD_REACTORS
330
2A
102
}
330
2A
100
AcDbVisualStyle
  2
Shades of Gray
 70
    23
177
     3
291
     0
 70
    58
 90
        2
176
     1
 90
        2
176
     1
 90
        3
176
     1
 90
        0
176
     1
 40
0.6
176
     1
 40
30.0
176
     1
 62
     7
420
 16777215
176
     1
 90
        2
176
     1
 90
        2
176
     1
 62
     7
176
     1
 62
     7
176
     1
 90
        1
176
     1
 90
        1
176
     1
 40
40.0
176
     1
 90
        8
176
     1
 62
     7
176
     1
 40
1.0
176
     1
 90
        1
176
     1
 90
        6
176
     1
 90
        2
176
     1
 62
     7
176
     1
 90
        3
176
     1
 90
        0
176
     1
 90
        0
176
     1
290
     0
176
     1
 90
        1
176
     1
 40
0.0
176
     1
 90
        0
176
     1
290
     0
176
     1
290
     1
176
     1
290
     1
176
     1
290
     0
176
     1
290
     0
176
     1
290
     0
176
     1
290
     0
176
     1
290
     0
176
     1
290
     0
176
     1
 90
       50
176
     1
 40
0.0
176
     1
 40
1.0
176
     1
 90
        0
176
     1
 62
    18
420
        0
176
     1
 90
       50
176
     1
 90
        3
176
     1
 62
     5
420
      255
176
     1
290
     0
176
     1
 90
       50
176
     1
 90
       50
176
     1
 90
       50
176
     1
290
     0
176
     1
 90
       50
176
     1
 62
   256
176
     0
 40
1.0
176
     0
 90
        2
176
     1
  1
strokes_ogs.tif
176
     1
290
     0
176
     1
 40
1.0
176
     1
 40
1.0
176
     1
  0
VISUALSTYLE
  5
3F
102
{ACAD_REACTORS
330
2A
102
}
330
2A
100
AcDbVisualStyle
  2
Sketchy
 70
    24
177
     3
291
     0
 70
    58
 90
        1
176
     1
 90
        2
176
     1
 90
        2
176
     1
 90
        0
176
     1
 40
0.6
176
     1
 40
30.0
176
     1
 62
     7
420
 16777215
176
     1
 90
        2
176
     1
 90
        2
176
     1
 62
     7
176
     1
 62
     7
176
     1
 90
        1
176
     1
 90
        1
176
     1
 40
40.0
176
     1
 90
       11
176
     1
 62
     7
176
     1
 40
1.0
176
     1
 90
        1
176
     1
 90
        6
176
     1
 90
        2
176
     1
 62
     7
176
     1
 90
        6
176
     1
 90
        0
176
     1
 90
        0
176
     1
290
     0
176
     1
 90
        1
176
     1
 40
0.0
176
     1
 90
        0
176
     1
290
     0
176
     1
290
     1
176
     1
290
     1
176
     1
290
     0
176
     1
290
     0
176
     1
290
     0
176
     1
290
     0
176
     1
290
     0
176
     1
290
     0
176
     1
 90
       50
176
     1
 40
0.0
176
     1
 40
1.0
176
     1
 90
        0
176
     1
 62
    18
420
        0
176
     1
 90
       50
176
     1
 90
        3
176
     1
 62
     5
420
      255
176
     1
290
     0
176
     1
 90
       50
176
     1
 90
       50
176
     1
 90
       50
176
     1
290
     0
176
     1
 90
       50
176
     1
 62
   256
176
     0
 40
1.0
176
     0
 90
        2
176
     1
  1
strokes_ogs.tif
176
     1
290
     0
176
     1
 40
1.0
176
     1
 40
1.0
176
     1
  0
VISUALSTYLE
  5
37
102
{ACAD_REACTORS
330
2A
102
}
330
2A
100
AcDbVisualStyle
  2
Thicken
 70
    13
177
     3
291
     1
 70
    58
 90
        2
176
     1
 90
        2
176
     1
 90
        0
176
     1
 90
        0
176
     1
 40
0.6
176
     1
 40
30.0
176
     1
 62
     7
420
 16777215
176
     1
 90
        1
176
     1
 90
        4
176
     1
 62
     7
176
     1
 62
   257
176
     1
 90
        1
176
     1
 90
        1
176
     1
 40
1.0
176
     1
 90
       12
176
     1
 62
     7
176
     1
 40
1.0
176
     1
 90
        1
176
     1
 90
        6
176
     1
 90
        2
176
     1
 62
     7
176
     1
 90
        5
176
     1
 90
        0
176
     1
 90
        0
176
     1
290
     0
176
     1
 90
        1
176
     1
 40
0.0
176
     1
 90
        0
176
     1
290
     0
176
     1
290
     1
176
     1
290
     1
176
     1
290
     0
176
     1
290
     0
176
     1
290
     0
176
     1
290
     0
176
     1
290
     0
176
     1
290
     0
176
     1
 90
       50
176
     1
 40
0.0
176
     1
 40
1.0
176
     1
 90
        0
176
     1
 62
    18
420
        0
176
     1
 90
       50
176
     1
 90
        3
176
     1
 62
     5
420
      255
176
     1
290
     0
176
     1
 90
       50
176
     1
 90
       50
176
     1
 90
       50
176
     1
290
     0
176
     1
 90
       50
176
     1
 62
   256
176
     0
 40
1.0
176
     0
 90
        2
176
     1
  1
strokes_ogs.tif
176
     1
290
     0
176
     1
 40
1.0
176
     1
 40
1.0
176
     1
  0
VISUALSTYLE
  5
30
102
{ACAD_REACTORS
330
2A
102
}
330
2A
100
AcDbVisualStyle
  2
Wireframe
 70
     5
177
     3
291
     0
 70
    58
 90
        0
176
     1
 90
        2
176
     1
 90
        0
176
     1
 90
        0
176
     1
 40
0.6
176
     1
 40
30.0
176
     1
 62
     7
420
 16777215
176
     1
 90
        1
176
     1
 90
        4
176
     1
 62
     7
176
     1
 62
   257
176
     1
 90
        1
176
     1
 90
        1
176
     1
 40
1.0
176
     1
 90
        0
176
     1
 62
   257
176
     1
 40
1.0
176
     1
 90
        1
176
     1
 90
        6
176
     1
 90
        2
176
     1
 62
     7
176
     1
 90
        3
176
     1
 90
        0
176
     1
 90
        0
176
     1
290
     0
176
     1
 90
        1
176
     1
 40
0.0
176
     1
 90
        0
176
     1
290
     0
176
     1
290
     1
176
     1
290
     1
176
     1
290
     0
176
     1
290
     0
176
     1
290
     0
176
     1
290
     0
176
     1
290
     0
176
     1
290
     0
176
     1
 90
       50
176
     1
 40
0.0
176
     1
 40
1.0
176
     1
 90
        0
176
     1
 62
    18
420
        0
176
     1
 90
       50
176
     1
 90
        3
176
     1
 62
     5
420
      255
176
     1
290
     0
176
     1
 90
       50
176
     1
 90
       50
176
     1
 90
       50
176
     1
290
     0
176
     1
 90
       50
176
     1
 62
   256
176
     0
 40
1.0
176
     0
 90
        2
176
     1
  1
strokes_ogs.tif
176
     1
290
     0
176
     1
 40
1.0
176
     1
 40
1.0
176
     1
  0
VISUALSTYLE
  5
40
102
{ACAD_REACTORS
330
2A
102
}
330
2A
100
AcDbVisualStyle
  2
X-Ray
 70
    25
177
     3
291
     0
 70
    58
 90
        2
176
     1
 90
        2
176
     1
 90
        1
176
     1
 90
        1
176
     1
 40
0.5
176
     1
 40
30.0
176
     1
 62
     7
420
 16777215
176
     1
 90
        1
176
     1
 90
        0
176
     1
 62
     7
176
     1
 62
   257
176
     1
 90
        1
176
     1
 90
        1
176
     1
 40
1.0
176
     1
 90
        8
176
     1
 62
     7
176
     1
 40
1.0
176
     1
 90
        1
176
     1
 90
        6
176
     1
 90
        2
176
     1
 62
     7
176
     1
 90
        3
176
     1
 90
        0
176
     1
 90
        0
176
     1
290
     0
176
     1
 90
       13
176
     1
 40
0.0
176
     1
 90
        0
176
     1
290
     0
176
     1
290
     1
176
     1
290
     1
176
     1
290
     0
176
     1
290
     0
176
     1
290
     0
176
     1
290
     0
176
     1
290
     0
176
     1
290
     0
176
     1
 90
       50
176
     1
 40
0.0
176
     1
 40
1.0
176
     1
 90
        0
176
     1
 62
    18
420
        0
176
     1
 90
       50
176
     1
 90
        3
176
     1
 62
     5
420
      255
176
     1
290
     0
176
     1
 90
       50
176
     1
 90
       50
176
     1
 90
       50
176
     1
290
     0
176
     1
 90
       50
176
     1
 62
   256
176
     0
 40
1.0
176
     0
 90
        2
176
     1
  1
strokes_ogs.tif
176
     1
290
     0
176
     1
 40
1.0
176
     1
 40
1.0
176
     1
  0
DICTIONARYVAR
  5
455
102
{ACAD_REACTORS
330
454
102
}
330
454
100
DictionaryVariables
280
     0
  1
1:1
  0
DICTIONARYVAR
  5
45D
102
{ACAD_REACTORS
330
454
102
}
330
454
100
DictionaryVariables
280
     0
  1
3.500000
  0
DICTIONARYVAR
  5
45E
102
{ACAD_REACTORS
330
454
102
}
330
454
100
DictionaryVariables
280
     0
  1
acadiso.lin
  0
DICTIONARYVAR
  5
45A
102
{ACAD_REACTORS
330
454
102
}
330
454
100
DictionaryVariables
280
     0
  1
Standard
  0
DICTIONARYVAR
  5
459
102
{ACAD_REACTORS
330
454
102
}
330
454
100
DictionaryVariables
280
     0
  1
Standard
  0
DICTIONARY
  5
456
330
5A
100
AcDbDictionary
280
     1
281
     1
  3
ACAD_ROUNDTRIP_2008_TABLESTYLE_CELLSTYLEMAP
360
457
  0
CELLSTYLEMAP
  5
457
102
{ACAD_REACTORS
330
456
102
}
330
456
100
AcDbCellStyleMap
 90
        3
300
CELLSTYLE
  1
TABLEFORMAT_BEGIN
 90
        5
170
     1
 91
        0
 92
    32768
 62
   257
 93
        1
300
CONTENTFORMAT
  1
CONTENTFORMAT_BEGIN
 90
        0
 91
        0
 92
        4
 93
        0
300

 40
0.0
140
1.0
 94
        5
 62
     0
340
11
144
6.0
309
CONTENTFORMAT_END
171
     1
301
MARGIN
  1
CELLMARGIN_BEGIN
 40
1.5
 40
1.5
 40
1.5
 40
1.5
 40
1.5
 40
1.5
309
CELLMARGIN_END
 94
        6
 95
        1
302
GRIDFORMAT
  1
GRIDFORMAT_BEGIN
 90
        0
 91
        1
 62
     0
 92
       -2
340
14
 93
        0
 40
0.045
309
GRIDFORMAT_END
 95
        2
302
GRIDFORMAT
  1
GRIDFORMAT_BEGIN
 90
        0
 91
        1
 62
     0
 92
       -2
340
14
 93
        0
 40
0.045
309
GRIDFORMAT_END
 95
        4
302
GRIDFORMAT
  1
GRIDFORMAT_BEGIN
 90
        0
 91
        1
 62
     0
 92
       -2
340
14
 93
        0
 40
0.045
309
GRIDFORMAT_END
 95
        8
302
GRIDFORMAT
  1
GRIDFORMAT_BEGIN
 90
        0
 91
        1
 62
     0
 92
       -2
340
14
 93
        0
 40
0.045
309
GRIDFORMAT_END
 95
       16
302
GRIDFORMAT
  1
GRIDFORMAT_BEGIN
 90
        0
 91
        1
 62
     0
 92
       -2
340
14
 93
        0
 40
0.045
309
GRIDFORMAT_END
 95
       32
302
GRIDFORMAT
  1
GRIDFORMAT_BEGIN
 90
        0
 91
        1
 62
     0
 92
       -2
340
14
 93
        0
 40
0.045
309
GRIDFORMAT_END
309
TABLEFORMAT_END
  1
CELLSTYLE_BEGIN
 90
        1
 91
        1
300
_TITLE
309
CELLSTYLE_END
300
CELLSTYLE
  1
TABLEFORMAT_BEGIN
 90
        5
170
     1
 91
        0
 92
        0
 62
   257
 93
        1
300
CONTENTFORMAT
  1
CONTENTFORMAT_BEGIN
 90
        0
 91
        0
 92
        4
 93
        0
300

 40
0.0
140
1.0
 94
        5
 62
     0
340
11
144
4.5
309
CONTENTFORMAT_END
171
     1
301
MARGIN
  1
CELLMARGIN_BEGIN
 40
1.5
 40
1.5
 40
1.5
 40
1.5
 40
1.5
 40
1.5
309
CELLMARGIN_END
 94
        6
 95
        1
302
GRIDFORMAT
  1
GRIDFORMAT_BEGIN
 90
        0
 91
        1
 62
     0
 92
       -2
340
14
 93
        0
 40
0.045
309
GRIDFORMAT_END
 95
        2
302
GRIDFORMAT
  1
GRIDFORMAT_BEGIN
 90
        0
 91
        1
 62
     0
 92
       -2
340
14
 93
        0
 40
0.045
309
GRIDFORMAT_END
 95
        4
302
GRIDFORMAT
  1
GRIDFORMAT_BEGIN
 90
        0
 91
        1
 62
     0
 92
       -2
340
14
 93
        0
 40
0.045
309
GRIDFORMAT_END
 95
        8
302
GRIDFORMAT
  1
GRIDFORMAT_BEGIN
 90
        0
 91
        1
 62
     0
 92
       -2
340
14
 93
        0
 40
0.045
309
GRIDFORMAT_END
 95
       16
302
GRIDFORMAT
  1
GRIDFORMAT_BEGIN
 90
        0
 91
        1
 62
     0
 92
       -2
340
14
 93
        0
 40
0.045
309
GRIDFORMAT_END
 95
       32
302
GRIDFORMAT
  1
GRIDFORMAT_BEGIN
 90
        0
 91
        1
 62
     0
 92
       -2
340
14
 93
        0
 40
0.045
309
GRIDFORMAT_END
309
TABLEFORMAT_END
  1
CELLSTYLE_BEGIN
 90
        2
 91
        1
300
_HEADER
309
CELLSTYLE_END
300
CELLSTYLE
  1
TABLEFORMAT_BEGIN
 90
        5
170
     1
 91
        0
 92
        0
 62
   257
 93
        1
300
CONTENTFORMAT
  1
CONTENTFORMAT_BEGIN
 90
        0
 91
        0
 92
        4
 93
        0
300

 40
0.0
140
1.0
 94
        2
 62
     0
340
11
144
4.5
309
CONTENTFORMAT_END
171
     1
301
MARGIN
  1
CELLMARGIN_BEGIN
 40
1.5
 40
1.5
 40
1.5
 40
1.5
 40
1.5
 40
1.5
309
CELLMARGIN_END
 94
        6
 95
        1
302
GRIDFORMAT
  1
GRIDFORMAT_BEGIN
 90
        0
 91
        1
 62
     0
 92
       -2
340
14
 93
        0
 40
0.045
309
GRIDFORMAT_END
 95
        2
302
GRIDFORMAT
  1
GRIDFORMAT_BEGIN
 90
        0
 91
        1
 62
     0
 92
       -2
340
14
 93
        0
 40
0.045
309
GRIDFORMAT_END
 95
        4
302
GRIDFORMAT
  1
GRIDFORMAT_BEGIN
 90
        0
 91
        1
 62
     0
 92
       -2
340
14
 93
        0
 40
0.045
309
GRIDFORMAT_END
 95
        8
302
GRIDFORMAT
  1
GRIDFORMAT_BEGIN
 90
        0
 91
        1
 62
     0
 92
       -2
340
14
 93
        0
 40
0.045
309
GRIDFORMAT_END
 95
       16
302
GRIDFORMAT
  1
GRIDFORMAT_BEGIN
 90
        0
 91
        1
 62
     0
 92
       -2
340
14
 93
        0
 40
0.045
309
GRIDFORMAT_END
 95
       32
302
GRIDFORMAT
  1
GRIDFORMAT_BEGIN
 90
        0
 91
        1
 62
     0
 92
       -2
340
14
 93
        0
 40
0.045
309
GRIDFORMAT_END
309
TABLEFORMAT_END
  1
CELLSTYLE_BEGIN
 90
        3
 91
        2
300
_DATA
309
CELLSTYLE_END
  0
ENDSEC
  0
EOF
