  0
SECTION
  2
HEADER
  9
$ACADVER
  1
AC1027
  9
$ACADMAINTVER
 70
   105
  9
$DWGCODEPAGE
  3
ANSI_1252
  9
$COMMENTS
  1
File was created by Cadenas
  9
$LASTSAVEDBY
  1
psAdmin
  9
$CUSTOMPROPERTYTAG
  1
NB
  9
$CUSTOMPROPERTY
  1
32590
  9
$CUSTOMPROPERTYTAG
  1
NN
  9
$CUSTOMPROPERTY
  1
Adapters 12 to 32 A, 3P
  9
$CUSTOMPROPERTYTAG
  1
NT
  9
$CUSTOMPROPERTY
  1

  9
$CUSTOMPROPERTYTAG
  1
NBSYN
  9
$CUSTOMPROPERTY
  1
$ARTNR.$CABLE.
  9
$CUSTOMPROPERTYTAG
  1
LINA
  9
$CUSTOMPROPERTY
  1
32590000
  9
$CUSTOMPROPERTYTAG
  1
CATALOG
  9
$CUSTOMPROPERTY
  1
Wöhner
  9
$CUSTOMPROPERTYTAG
  1
ARTNR
  9
$CUSTOMPROPERTY
  1
32590
  9
$CUSTOMPROPERTYTAG
  1
BUSB
  9
$CUSTOMPROPERTY
  1
12 x 5, 10
  9
$CUSTOMPROPERTYTAG
  1
POF
  9
$CUSTOMPROPERTY
  1
EQUES®30Compact
  9
$CUSTOMPROPERTYTAG
  1
TYPE
  9
$CUSTOMPROPERTY
  1
EEC6025C-L
  9
$CUSTOMPROPERTYTAG
  1
QNT
  9
$CUSTOMPROPERTY
  1
4
  9
$CUSTOMPROPERTYTAG
  1
W
  9
$CUSTOMPROPERTY
  1
45.0
  9
$CUSTOMPROPERTYTAG
  1
H
  9
$CUSTOMPROPERTY
  1
160
  9
$CUSTOMPROPERTYTAG
  1
D
  9
$CUSTOMPROPERTY
  1
63
  9
$CUSTOMPROPERTYTAG
  1
LINK
  9
$CUSTOMPROPERTY
  1
Product link
  9
$CUSTOMPROPERTYTAG
  1
COMPANY
  9
$CUSTOMPROPERTY
  1
woehner
  9
$REQUIREDVERSIONS
160
                 0
  9
$INSBASE
 10
0.0
 20
0.0
 30
0.0
  9
$EXTMIN
 10
-54.5
 20
-29.33333333333333
 30
0.0
  9
$EXTMAX
 10
33.20238095238096
 20
162.5
 30
0.0
  9
$LIMMIN
 10
0.0
 20
0.0
  9
$LIMMAX
 10
420.0
 20
297.0
  9
$ORTHOMODE
 70
     0
  9
$REGENMODE
 70
     1
  9
$FILLMODE
 70
     1
  9
$QTEXTMODE
 70
     0
  9
$MIRRTEXT
 70
     1
  9
$LTSCALE
 40
1.0
  9
$ATTMODE
 70
     1
  9
$TEXTSIZE
 40
2.5
  9
$TRACEWID
 40
1.0
  9
$TEXTSTYLE
  7
Standard
  9
$CLAYER
  8
0
  9
$CELTYPE
  6
ByLayer
  9
$CECOLOR
 62
   256
  9
$CELTSCALE
 40
1.0
  9
$DISPSILH
 70
     0
  9
$DIMSCALE
 40
1.0
  9
$DIMASZ
 40
2.5
  9
$DIMEXO
 40
0.625
  9
$DIMDLI
 40
3.75
  9
$DIMRND
 40
0.0
  9
$DIMDLE
 40
0.0
  9
$DIMEXE
 40
1.25
  9
$DIMTP
 40
0.0
  9
$DIMTM
 40
0.0
  9
$DIMTXT
 40
2.5
  9
$DIMCEN
 40
2.5
  9
$DIMTSZ
 40
0.0
  9
$DIMTOL
 70
     0
  9
$DIMLIM
 70
     0
  9
$DIMTIH
 70
     0
  9
$DIMTOH
 70
     0
  9
$DIMSE1
 70
     0
  9
$DIMSE2
 70
     0
  9
$DIMTAD
 70
     1
  9
$DIMZIN
 70
     8
  9
$DIMBLK
  1

  9
$DIMASO
 70
     1
  9
$DIMSHO
 70
     1
  9
$DIMPOST
  1

  9
$DIMAPOST
  1

  9
$DIMALT
 70
     0
  9
$DIMALTD
 70
     3
  9
$DIMALTF
 40
0.03937007874016
  9
$DIMLFAC
 40
1.0
  9
$DIMTOFL
 70
     1
  9
$DIMTVP
 40
0.0
  9
$DIMTIX
 70
     0
  9
$DIMSOXD
 70
     0
  9
$DIMSAH
 70
     0
  9
$DIMBLK1
  1

  9
$DIMBLK2
  1

  9
$DIMSTYLE
  2
ISO-25
  9
$DIMCLRD
 70
     0
  9
$DIMCLRE
 70
     0
  9
$DIMCLRT
 70
     0
  9
$DIMTFAC
 40
1.0
  9
$DIMGAP
 40
0.625
  9
$DIMJUST
 70
     0
  9
$DIMSD1
 70
     0
  9
$DIMSD2
 70
     0
  9
$DIMTOLJ
 70
     0
  9
$DIMTZIN
 70
     8
  9
$DIMALTZ
 70
     0
  9
$DIMALTTZ
 70
     0
  9
$DIMUPT
 70
     0
  9
$DIMDEC
 70
     2
  9
$DIMTDEC
 70
     2
  9
$DIMALTU
 70
     2
  9
$DIMALTTD
 70
     3
  9
$DIMTXSTY
  7
Standard
  9
$DIMAUNIT
 70
     0
  9
$DIMADEC
 70
     0
  9
$DIMALTRND
 40
0.0
  9
$DIMAZIN
 70
     0
  9
$DIMDSEP
 70
    44
  9
$DIMATFIT
 70
     3
  9
$DIMFRAC
 70
     0
  9
$DIMLDRBLK
  1

  9
$DIMLUNIT
 70
     2
  9
$DIMLWD
 70
    -2
  9
$DIMLWE
 70
    -2
  9
$DIMTMOVE
 70
     0
  9
$DIMFXL
 40
1.0
  9
$DIMFXLON
 70
     0
  9
$DIMJOGANG
 40
0.7853981633974483
  9
$DIMTFILL
 70
     0
  9
$DIMTFILLCLR
 70
     0
  9
$DIMARCSYM
 70
     0
  9
$DIMLTYPE
  6

  9
$DIMLTEX1
  6

  9
$DIMLTEX2
  6

  9
$DIMTXTDIRECTION
 70
     0
  9
$LUNITS
 70
     2
  9
$LUPREC
 70
     4
  9
$SKETCHINC
 40
1.0
  9
$FILLETRAD
 40
10.0
  9
$AUNITS
 70
     0
  9
$AUPREC
 70
     0
  9
$MENU
  1
.
  9
$ELEVATION
 40
0.0
  9
$PELEVATION
 40
0.0
  9
$THICKNESS
 40
0.0
  9
$LIMCHECK
 70
     0
  9
$CHAMFERA
 40
0.0
  9
$CHAMFERB
 40
0.0
  9
$CHAMFERC
 40
0.0
  9
$CHAMFERD
 40
0.0
  9
$SKPOLY
 70
     0
  9
$TDCREATE
 40
2460299.559770683
  9
$TDUCREATE
 40
2460299.518104016
  9
$TDUPDATE
 40
2460299.559771053
  9
$TDUUPDATE
 40
2460299.518104387
  9
$TDINDWG
 40
0.0000000116
  9
$TDUSRTIMER
 40
0.0000000116
  9
$USRTIMER
 70
     1
  9
$ANGBASE
 50
0.0
  9
$ANGDIR
 70
     0
  9
$PDMODE
 70
     0
  9
$PDSIZE
 40
0.0
  9
$PLINEWID
 40
0.0
  9
$SPLFRAME
 70
     0
  9
$SPLINETYPE
 70
     6
  9
$SPLINESEGS
 70
     8
  9
$HANDSEED
  5
342
  9
$SURFTAB1
 70
     6
  9
$SURFTAB2
 70
     6
  9
$SURFTYPE
 70
     6
  9
$SURFU
 70
     6
  9
$SURFV
 70
     6
  9
$UCSBASE
  2

  9
$UCSNAME
  2

  9
$UCSORG
 10
0.0
 20
0.0
 30
0.0
  9
$UCSXDIR
 10
1.0
 20
0.0
 30
0.0
  9
$UCSYDIR
 10
0.0
 20
1.0
 30
0.0
  9
$UCSORTHOREF
  2

  9
$UCSORTHOVIEW
 70
     0
  9
$UCSORGTOP
 10
0.0
 20
0.0
 30
0.0
  9
$UCSORGBOTTOM
 10
0.0
 20
0.0
 30
0.0
  9
$UCSORGLEFT
 10
0.0
 20
0.0
 30
0.0
  9
$UCSORGRIGHT
 10
0.0
 20
0.0
 30
0.0
  9
$UCSORGFRONT
 10
0.0
 20
0.0
 30
0.0
  9
$UCSORGBACK
 10
0.0
 20
0.0
 30
0.0
  9
$PUCSBASE
  2

  9
$PUCSNAME
  2

  9
$PUCSORG
 10
0.0
 20
0.0
 30
0.0
  9
$PUCSXDIR
 10
1.0
 20
0.0
 30
0.0
  9
$PUCSYDIR
 10
0.0
 20
1.0
 30
0.0
  9
$PUCSORTHOREF
  2

  9
$PUCSORTHOVIEW
 70
     0
  9
$PUCSORGTOP
 10
0.0
 20
0.0
 30
0.0
  9
$PUCSORGBOTTOM
 10
0.0
 20
0.0
 30
0.0
  9
$PUCSORGLEFT
 10
0.0
 20
0.0
 30
0.0
  9
$PUCSORGRIGHT
 10
0.0
 20
0.0
 30
0.0
  9
$PUCSORGFRONT
 10
0.0
 20
0.0
 30
0.0
  9
$PUCSORGBACK
 10
0.0
 20
0.0
 30
0.0
  9
$USERI1
 70
     0
  9
$USERI2
 70
     0
  9
$USERI3
 70
     0
  9
$USERI4
 70
     0
  9
$USERI5
 70
     0
  9
$USERR1
 40
0.0
  9
$USERR2
 40
0.0
  9
$USERR3
 40
0.0
  9
$USERR4
 40
0.0
  9
$USERR5
 40
0.0
  9
$WORLDVIEW
 70
     1
  9
$SHADEDGE
 70
     3
  9
$SHADEDIF
 70
    70
  9
$TILEMODE
 70
     1
  9
$MAXACTVP
 70
    64
  9
$PINSBASE
 10
0.0
 20
0.0
 30
0.0
  9
$PLIMCHECK
 70
     0
  9
$PEXTMIN
 10
1.000000000000000E+20
 20
1.000000000000000E+20
 30
1.000000000000000E+20
  9
$PEXTMAX
 10
-1.000000000000000E+20
 20
-1.000000000000000E+20
 30
-1.000000000000000E+20
  9
$PLIMMIN
 10
0.0
 20
0.0
  9
$PLIMMAX
 10
420.0
 20
297.0
  9
$UNITMODE
 70
     0
  9
$VISRETAIN
 70
     1
  9
$PLINEGEN
 70
     0
  9
$PSLTSCALE
 70
     1
  9
$TREEDEPTH
 70
  3020
  9
$CMLSTYLE
  2
Standard
  9
$CMLJUST
 70
     0
  9
$CMLSCALE
 40
20.0
  9
$PROXYGRAPHICS
 70
     1
  9
$MEASUREMENT
 70
     1
  9
$CELWEIGHT
370
    -1
  9
$ENDCAPS
280
     0
  9
$JOINSTYLE
280
     0
  9
$LWDISPLAY
290
     0
  9
$INSUNITS
 70
     4
  9
$HYPERLINKBASE
  1

  9
$STYLESHEET
  1

  9
$XEDIT
290
     1
  9
$CEPSNTYPE
380
     0
  9
$PSTYLEMODE
290
     1
  9
$FINGERPRINTGUID
  2
{55d26c1f-0cbe-44bc-8d6d-a1e968fd875f}
  9
$VERSIONGUID
  2
{FAEB1C32-E019-11D5-929B-00C0DF256EC4}
  9
$EXTNAMES
290
     1
  9
$PSVPSCALE
 40
0.0
  9
$OLESTARTUP
290
     0
  9
$SORTENTS
280
   127
  9
$INDEXCTL
280
     0
  9
$HIDETEXT
280
     1
  9
$XCLIPFRAME
280
     2
  9
$HALOGAP
280
     0
  9
$OBSCOLOR
 70
   257
  9
$OBSLTYPE
280
     0
  9
$INTERSECTIONDISPLAY
280
     0
  9
$INTERSECTIONCOLOR
 70
   257
  9
$DIMASSOC
280
     2
  9
$PROJECTNAME
  1

  9
$CAMERADISPLAY
290
     0
  9
$LENSLENGTH
 40
50.0
  9
$CAMERAHEIGHT
 40
0.0
  9
$STEPSPERSEC
 40
2.0
  9
$STEPSIZE
 40
6.0
  9
$3DDWFPREC
 40
2.0
  9
$PSOLWIDTH
 40
5.0
  9
$PSOLHEIGHT
 40
80.0
  9
$LOFTANG1
 40
1.570796326794897
  9
$LOFTANG2
 40
1.570796326794897
  9
$LOFTMAG1
 40
0.0
  9
$LOFTMAG2
 40
0.0
  9
$LOFTPARAM
 70
     7
  9
$LOFTNORMALS
280
     1
  9
$LATITUDE
 40
37.795
  9
$LONGITUDE
 40
-122.394
  9
$NORTHDIRECTION
 40
0.0
  9
$TIMEZONE
 70
 -8000
  9
$LIGHTGLYPHDISPLAY
280
     1
  9
$TILEMODELIGHTSYNCH
280
     1
  9
$CMATERIAL
347
44
  9
$SOLIDHIST
280
     0
  9
$SHOWHIST
280
     1
  9
$DWFFRAME
280
     2
  9
$DGNFRAME
280
     2
  9
$REALWORLDSCALE
290
     1
  9
$INTERFERECOLOR
 62
   256
  9
$CSHADOW
280
     0
  9
$SHADOWPLANELOCATION
 40
0.0
  0
ENDSEC
  0
SECTION
  2
CLASSES
  0
CLASS
  1
ACDBDICTIONARYWDFLT
  2
AcDbDictionaryWithDefault
  3
ObjectDBX Classes
 90
        0
 91
        3
280
     0
281
     0
  0
CLASS
  1
VISUALSTYLE
  2
AcDbVisualStyle
  3
ObjectDBX Classes
 90
     4095
 91
        3
280
     0
281
     0
  0
CLASS
  1
MATERIAL
  2
AcDbMaterial
  3
ObjectDBX Classes
 90
     1153
 91
        3
280
     0
281
     0
  0
CLASS
  1
SCALE
  2
AcDbScale
  3
ObjectDBX Classes
 90
     1153
 91
        3
280
     0
281
     0
  0
CLASS
  1
TABLESTYLE
  2
AcDbTableStyle
  3
ObjectDBX Classes
 90
     4095
 91
        3
280
     0
281
     0
  0
CLASS
  1
MLEADERSTYLE
  2
AcDbMLeaderStyle
  3
ACDB_MLEADERSTYLE_CLASS
 90
     4095
 91
        3
280
     0
281
     0
  0
CLASS
  1
SUN
  2
AcDbSun
  3
SCENEOE
 90
     1153
 91
        3
280
     0
281
     0
  0
CLASS
  1
DICTIONARYVAR
  2
AcDbDictionaryVar
  3
ObjectDBX Classes
 90
        0
 91
        3
280
     0
281
     0
  0
CLASS
  1
CELLSTYLEMAP
  2
AcDbCellStyleMap
  3
ObjectDBX Classes
 90
     1152
 91
        3
280
     0
281
     0
  0
ENDSEC
  0
SECTION
  2
TABLES
  0
TABLE
  2
VPORT
  5
8
330
0
100
AcDbSymbolTable
 70
     1
  0
VPORT
  5
29
330
8
100
AcDbSymbolTableRecord
100
AcDbViewportTableRecord
  2
*Active
 70
     0
 10
0.0
 20
0.0
 11
1.0
 21
1.0
 12
-10.64880952380952
 22
66.58333333333334
 13
0.0
 23
0.0
 14
10.0
 24
10.0
 15
10.0
 25
10.0
 16
0.0
 26
0.0
 36
1.0
 17
0.0
 27
0.0
 37
0.0
 40
195.67
 41
0.4571800918456002
 42
50.0
 43
0.0
 44
0.0
 50
0.0
 51
0.0
 71
     0
 72
   100
 73
     1
 74
     3
 75
     0
 76
     0
 77
     0
 78
     0
281
     0
 65
     1
110
0.0
120
0.0
130
0.0
111
1.0
121
0.0
131
0.0
112
0.0
122
1.0
132
0.0
 79
     0
146
0.0
348
2F
 60
     3
 61
     5
292
     1
282
     1
141
0.0
142
0.0
 63
   250
361
5D
  0
ENDTAB
  0
TABLE
  2
LTYPE
  5
5
330
0
100
AcDbSymbolTable
 70
     3
  0
LTYPE
  5
14
330
5
100
AcDbSymbolTableRecord
100
AcDbLinetypeTableRecord
  2
ByBlock
 70
     0
  3

 72
    65
 73
     0
 40
0.0
  0
LTYPE
  5
15
330
5
100
AcDbSymbolTableRecord
100
AcDbLinetypeTableRecord
  2
ByLayer
 70
     0
  3

 72
    65
 73
     0
 40
0.0
  0
LTYPE
  5
16
330
5
100
AcDbSymbolTableRecord
100
AcDbLinetypeTableRecord
  2
Continuous
 70
     0
  3
Solid line
 72
    65
 73
     0
 40
0.0
  0
LTYPE
  5
8C
330
5
100
AcDbSymbolTableRecord
100
AcDbLinetypeTableRecord
  2
Center
 70
     0
  3

 72
    65
 73
     4
 40
1.5
 49
0.45
 74
     0
 49
-0.5
 74
     0
 49
0.05
 74
     0
 49
-0.5
 74
     0
  0
LTYPE
  5
E8
330
5
100
AcDbSymbolTableRecord
100
AcDbLinetypeTableRecord
  2
Dashed
 70
     0
  3

 72
    65
 73
     2
 40
2.0
 49
1.0
 74
     0
 49
-1.0
 74
     0
  0
ENDTAB
  0
TABLE
  2
LAYER
  5
2
330
0
100
AcDbSymbolTable
 70
     9
  0
LAYER
  5
10
330
2
100
AcDbSymbolTableRecord
100
AcDbLayerTableRecord
  2
0
 70
     0
 62
     7
  6
Continuous
370
    -3
390
F
347
46
348
0
  0
LAYER
  5
5E
330
2
100
AcDbSymbolTableRecord
100
AcDbLayerTableRecord
  2
attrib
 70
     0
 62
    -2
  6
Continuous
370
    35
390
F
347
46
348
0
  0
LAYER
  5
8D
330
2
100
AcDbSymbolTableRecord
100
AcDbLayerTableRecord
  2
center
 70
     0
 62
    -7
  6
Center
370
    25
390
F
347
46
348
0
  0
LAYER
  5
90
330
2
100
AcDbSymbolTableRecord
100
AcDbLayerTableRecord
  2
bold
 70
     0
 62
     7
  6
Continuous
370
    50
390
F
347
46
348
0
  0
LAYER
  5
E9
330
2
100
AcDbSymbolTableRecord
100
AcDbLayerTableRecord
  2
hidden
 70
     0
 62
    -6
  6
Dashed
370
    25
390
F
347
46
348
0
  0
LAYER
  5
F3
330
2
100
AcDbSymbolTableRecord
100
AcDbLayerTableRecord
  2
light
 70
     0
 62
    -3
  6
Continuous
370
    25
390
F
347
46
348
0
  0
LAYER
  5
30D
330
2
100
AcDbSymbolTableRecord
100
AcDbLayerTableRecord
  2
dimension
 70
     0
 62
    -5
  6
Continuous
370
    25
390
F
347
46
348
0
  0
LAYER
  5
30F
330
2
100
AcDbSymbolTableRecord
100
AcDbLayerTableRecord
  2
Defpoints
 70
     0
 62
     7
  6
Continuous
290
     0
370
    -3
390
F
347
46
348
0
  0
LAYER
  5
32A
330
2
100
AcDbSymbolTableRecord
100
AcDbLayerTableRecord
  2
connection
 70
     0
 62
    -7
  6
Continuous
370
    50
390
F
347
46
348
0
  0
ENDTAB
  0
TABLE
  2
STYLE
  5
3
330
0
100
AcDbSymbolTable
 70
     1
  0
STYLE
  5
11
330
3
100
AcDbSymbolTableRecord
100
AcDbTextStyleTableRecord
  2
Standard
 70
     0
 40
0.0
 41
1.0
 50
0.0
 71
     0
 42
2.5
  3
txt
  4

  0
ENDTAB
  0
TABLE
  2
VIEW
  5
6
330
0
100
AcDbSymbolTable
 70
     0
  0
ENDTAB
  0
TABLE
  2
UCS
  5
7
330
0
100
AcDbSymbolTable
 70
     0
  0
ENDTAB
  0
TABLE
  2
APPID
  5
9
330
0
100
AcDbSymbolTable
 70
     1
  0
APPID
  5
12
330
9
100
AcDbSymbolTableRecord
100
AcDbRegAppTableRecord
  2
ACAD
 70
     0
  0
ENDTAB
  0
TABLE
  2
DIMSTYLE
  5
A
330
0
100
AcDbSymbolTable
 70
     1
100
AcDbDimStyleTable
  0
DIMSTYLE
105
27
102
{ACAD_REACTORS
330
30E
330
31D
102
}
330
A
100
AcDbSymbolTableRecord
100
AcDbDimStyleTableRecord
  2
ISO-25
 70
     0
 41
2.5
 42
0.625
 43
3.75
 44
1.25
 73
     0
 74
     0
 77
     1
 78
     8
140
2.5
141
2.5
143
0.03937007874016
147
0.625
171
     3
172
     1
178
     0
271
     2
272
     2
274
     3
278
    44
283
     0
284
     8
340
11
  0
ENDTAB
  0
TABLE
  2
BLOCK_RECORD
  5
1
330
0
100
AcDbSymbolTable
 70
     9
  0
BLOCK_RECORD
  5
1F
330
1
100
AcDbSymbolTableRecord
100
AcDbBlockTableRecord
  2
*Model_Space
340
22
 70
     0
280
     1
281
     0
  0
BLOCK_RECORD
  5
1B
330
1
100
AcDbSymbolTableRecord
100
AcDbBlockTableRecord
  2
*Paper_Space
340
1E
 70
     0
280
     1
281
     0
  0
BLOCK_RECORD
  5
23
330
1
100
AcDbSymbolTableRecord
100
AcDbBlockTableRecord
  2
*Paper_Space0
340
26
 70
     0
280
     1
281
     0
  0
BLOCK_RECORD
  5
72
330
1
100
AcDbSymbolTableRecord
100
AcDbBlockTableRecord
  2
1_AWG10709_1_0_in_32590_0
340
0
102
{BLKREFS
331
73
102
}
 70
     0
280
     1
281
     0
  0
BLOCK_RECORD
  5
96
330
1
100
AcDbSymbolTableRecord
100
AcDbBlockTableRecord
  2
2_AWG10709_2_0_in_32590_0
340
0
102
{BLKREFS
331
97
102
}
 70
     0
280
     1
281
     0
  0
BLOCK_RECORD
  5
B7
330
1
100
AcDbSymbolTableRecord
100
AcDbBlockTableRecord
  2
3_AWG10709_3_0_in_32590_0
340
0
102
{BLKREFS
331
B8
102
}
 70
     0
280
     1
281
     0
  0
BLOCK_RECORD
  5
D8
330
1
100
AcDbSymbolTableRecord
100
AcDbBlockTableRecord
  2
4_80034CrossBoardScrew_0_in_32590_0
340
0
102
{BLKREFS
331
D9
102
}
 70
     0
280
     1
281
     0
  0
BLOCK_RECORD
  5
FF
330
1
100
AcDbSymbolTableRecord
100
AcDbBlockTableRecord
  2
5_79350ACrossBoardAdapter_0_in_32590_0
340
0
102
{BLKREFS
331
100
102
}
 70
     0
280
     1
281
     0
  0
BLOCK_RECORD
  5
157
330
1
100
AcDbSymbolTableRecord
100
AcDbBlockTableRecord
  2
6_Basis45x160_0_in_32590_0
340
0
102
{BLKREFS
331
158
102
}
 70
     0
280
     1
281
     0
  0
BLOCK_RECORD
  5
310
330
1
100
AcDbSymbolTableRecord
100
AcDbBlockTableRecord
  2
*D7
340
0
 70
     0
280
     1
281
     0
  0
BLOCK_RECORD
  5
31E
330
1
100
AcDbSymbolTableRecord
100
AcDbBlockTableRecord
  2
*D8
340
0
 70
     0
280
     1
281
     0
  0
ENDTAB
  0
ENDSEC
  0
SECTION
  2
BLOCKS
  0
BLOCK
  5
20
330
1F
100
AcDbEntity
  8
0
100
AcDbBlockBegin
  2
*Model_Space
 70
     2
 10
0.0
 20
0.0
 30
0.0
  3
*Model_Space
  1

  0
ENDBLK
  5
21
330
1F
100
AcDbEntity
  8
0
100
AcDbBlockEnd
  0
BLOCK
  5
1C
330
1B
100
AcDbEntity
 67
     1
  8
0
100
AcDbBlockBegin
  2
*Paper_Space
 70
     0
 10
0.0
 20
0.0
 30
0.0
  3
*Paper_Space
  1

  0
ENDBLK
  5
1D
330
1B
100
AcDbEntity
 67
     1
  8
0
100
AcDbBlockEnd
  0
BLOCK
  5
24
330
23
100
AcDbEntity
  8
0
100
AcDbBlockBegin
  2
*Paper_Space0
 70
     0
 10
0.0
 20
0.0
 30
0.0
  3
*Paper_Space0
  1

  0
ENDBLK
  5
25
330
23
100
AcDbEntity
  8
0
100
AcDbBlockEnd
  0
BLOCK
  5
74
330
72
100
AcDbEntity
  8
0
100
AcDbBlockBegin
  2
1_AWG10709_1_0_in_32590_0
 70
     2
 10
0.0
 20
0.0
 30
0.0
  3
1_AWG10709_1_0_in_32590_0
  1

  0
ATTDEF
  5
76
330
72
100
AcDbEntity
  8
attrib
100
AcDbText
 10
18.65
 20
160.15
 30
0.0
 40
0.5
  1
AWG10709
100
AcDbAttributeDefinition
  3

  2
NB
 70
     8
280
     0
  0
ATTDEF
  5
77
330
72
100
AcDbEntity
  8
attrib
100
AcDbText
 10
18.65
 20
159.65
 30
0.0
 40
0.5
  1
Wire
100
AcDbAttributeDefinition
  3

  2
NN
 70
     8
280
     0
  0
ATTDEF
  5
78
330
72
100
AcDbEntity
  8
attrib
100
AcDbText
 10
18.65
 20
159.15
 30
0.0
 40
0.5
  1

100
AcDbAttributeDefinition
  3

  2
NT
 70
     8
280
     0
  0
ATTDEF
  5
79
330
72
100
AcDbEntity
  8
attrib
100
AcDbText
 10
18.65
 20
158.65
 30
0.0
 40
0.5
  1
$BOM.$WL.$WL2.
100
AcDbAttributeDefinition
  3

  2
NBSYN
 70
     8
280
     0
  0
ATTDEF
  5
7A
330
72
100
AcDbEntity
  8
attrib
100
AcDbText
 10
18.65
 20
158.15
 30
0.0
 40
0.5
  1
AWG10
100
AcDbAttributeDefinition
  3

  2
LINA
 70
     8
280
     0
  0
ATTDEF
  5
7B
330
72
100
AcDbEntity
  8
attrib
100
AcDbText
 10
18.65
 20
157.65
 30
0.0
 40
0.5
  1
Wöhner
100
AcDbAttributeDefinition
  3

  2
CATALOG
 70
     8
280
     0
  0
ATTDEF
  5
7C
330
72
100
AcDbEntity
  8
attrib
100
AcDbText
 10
18.65
 20
157.15
 30
0.0
 40
0.5
  1
AWG10
100
AcDbAttributeDefinition
  3

  2
BOM
 70
     8
280
     0
  0
ATTDEF
  5
7D
330
72
100
AcDbEntity
  8
attrib
100
AcDbText
 10
18.65
 20
156.65
 30
0.0
 40
0.5
  1
AWG10
100
AcDbAttributeDefinition
  3

  2
ARTNR
 70
     8
280
     0
  0
ATTDEF
  5
7E
330
72
100
AcDbEntity
  8
attrib
100
AcDbText
 10
18.65
 20
156.15
 30
0.0
 40
0.5
  1
1
100
AcDbAttributeDefinition
  3

  2
QNT
 70
     8
280
     0
  0
ATTDEF
  5
7F
330
72
100
AcDbEntity
  8
attrib
100
AcDbText
 10
18.65
 20
155.65
 30
0.0
 40
0.5
  1
45
100
AcDbAttributeDefinition
  3

  2
W
 70
     8
280
     0
  0
ATTDEF
  5
80
330
72
100
AcDbEntity
  8
attrib
100
AcDbText
 10
18.65
 20
155.15
 30
0.0
 40
0.5
  1
160
100
AcDbAttributeDefinition
  3

  2
H
 70
     8
280
     0
  0
ATTDEF
  5
81
330
72
100
AcDbEntity
  8
attrib
100
AcDbText
 10
18.65
 20
154.65
 30
0.0
 40
0.5
  1
70
100
AcDbAttributeDefinition
  3

  2
WL
 70
     8
280
     0
  0
ATTDEF
  5
82
330
72
100
AcDbEntity
  8
attrib
100
AcDbText
 10
18.65
 20
154.15
 30
0.0
 40
0.5
  1
6.000
100
AcDbAttributeDefinition
  3

  2
WD
 70
     8
280
     0
  0
ATTDEF
  5
83
330
72
100
AcDbEntity
  8
attrib
100
AcDbText
 10
18.65
 20
153.65
 30
0.0
 40
0.5
  1
2.500
100
AcDbAttributeDefinition
  3

  2
WH
 70
     8
280
     0
  0
ATTDEF
  5
84
330
72
100
AcDbEntity
  8
attrib
100
AcDbText
 10
18.65
 20
153.15
 30
0.0
 40
0.5
  1
9
100
AcDbAttributeDefinition
  3

  2
WL2
 70
     8
280
     0
  0
ATTDEF
  5
85
330
72
100
AcDbEntity
  8
attrib
100
AcDbText
 10
18.65
 20
152.65
 30
0.0
 40
0.5
  1
1
100
AcDbAttributeDefinition
  3

  2
VER
 70
     8
280
     0
  0
ATTDEF
  5
86
330
72
100
AcDbEntity
  8
attrib
100
AcDbText
 10
18.65
 20
152.15
 30
0.0
 40
0.5
  1
0.000
100
AcDbAttributeDefinition
  3

  2
L1
 70
     8
280
     0
  0
ATTDEF
  5
87
330
72
100
AcDbEntity
  8
attrib
100
AcDbText
 10
18.65
 20
151.65
 30
0.0
 40
0.5
  1
0.000
100
AcDbAttributeDefinition
  3

  2
L2
 70
     8
280
     0
  0
ATTDEF
  5
88
330
72
100
AcDbEntity
  8
attrib
100
AcDbText
 10
18.65
 20
151.15
 30
0.0
 40
0.5
  1
0.000
100
AcDbAttributeDefinition
  3

  2
L3
 70
     8
280
     0
  0
ATTDEF
  5
89
330
72
100
AcDbEntity
  8
attrib
100
AcDbText
 10
18.65
 20
150.65
 30
0.0
 40
0.5
  1
woehner
100
AcDbAttributeDefinition
  3

  2
COMPANY
 70
     8
280
     0
  0
ATTDEF
  5
8A
330
72
100
AcDbEntity
  8
attrib
100
AcDbText
 10
18.65
 20
150.15
 30
0.0
 40
0.5
  1
{$CADENAS_DATA/23d-libs/woehner/sys_60classic/adapters/common_pool/wire.prj},164 {VTYP=3D},{NB=AWG10709},{LINA=AWG10},{NN=Wire},{DATE=16.05.2023 11:01:14},{GEOMDATE=12.05.2023 11:36:00},{VERSION=},{LINEID=390},{WBVAR=WL,WL2},{WBNUMERIC=WL,WL2}  {NB=AWG107
100
AcDbAttributeDefinition
  3

  2
PSOL_0
 70
     9
280
     0
  0
ATTDEF
  5
8B
330
72
100
AcDbEntity
  8
attrib
100
AcDbText
 10
18.65
 20
149.65
 30
0.0
 40
0.5
  1
09},{LINA=AWG10},{KT=DUMMY},{BOM=AWG10},{ARTNR=AWG10},{QNT=1},{W=45},{H=160},{WL=70},{WD=6.000},{WH=2.500},{WL2=9},{VER=1},{L1=0.000},{L2=0.000},{L3=0.000}
100
AcDbAttributeDefinition
  3

  2
PSOL_1
 70
     9
280
     0
  0
LINE
  5
8E
330
72
100
AcDbEntity
  8
center
100
AcDbLine
 10
7.35
 20
157.0
 30
0.0
 11
13.65
 21
157.0
 31
0.0
  0
LINE
  5
8F
330
72
100
AcDbEntity
  8
center
100
AcDbLine
 10
10.5
 20
153.85
 30
0.0
 11
10.5
 21
160.15
 31
0.0
  0
CIRCLE
  5
91
330
72
100
AcDbEntity
  8
bold
100
AcDbCircle
 10
10.5
 20
157.0
 30
0.0
 40
3.0
  0
LINE
  5
92
330
72
100
AcDbEntity
  8
bold
100
AcDbLine
 10
9.250000000000002
 20
158.25
 30
0.0
 11
9.250000000000002
 21
155.75
 31
0.0
  0
LINE
  5
93
330
72
100
AcDbEntity
  8
bold
100
AcDbLine
 10
9.250000000000002
 20
155.75
 30
0.0
 11
11.75
 21
155.75
 31
0.0
  0
LINE
  5
94
330
72
100
AcDbEntity
  8
bold
100
AcDbLine
 10
11.75
 20
155.75
 30
0.0
 11
11.75
 21
158.25
 31
0.0
  0
LINE
  5
95
330
72
100
AcDbEntity
  8
bold
100
AcDbLine
 10
11.75
 20
158.25
 30
0.0
 11
9.250000000000002
 21
158.25
 31
0.0
  0
ENDBLK
  5
75
330
72
100
AcDbEntity
  8
0
100
AcDbBlockEnd
  0
BLOCK
  5
98
330
96
100
AcDbEntity
  8
0
100
AcDbBlockBegin
  2
2_AWG10709_2_0_in_32590_0
 70
     2
 10
0.0
 20
0.0
 30
0.0
  3
2_AWG10709_2_0_in_32590_0
  1

  0
ATTDEF
  5
9A
330
96
100
AcDbEntity
  8
attrib
100
AcDbText
 10
8.15
 20
160.15
 30
0.0
 40
0.5
  1
AWG10709
100
AcDbAttributeDefinition
  3

  2
NB
 70
     8
280
     0
  0
ATTDEF
  5
9B
330
96
100
AcDbEntity
  8
attrib
100
AcDbText
 10
8.15
 20
159.65
 30
0.0
 40
0.5
  1
Wire
100
AcDbAttributeDefinition
  3

  2
NN
 70
     8
280
     0
  0
ATTDEF
  5
9C
330
96
100
AcDbEntity
  8
attrib
100
AcDbText
 10
8.15
 20
159.15
 30
0.0
 40
0.5
  1

100
AcDbAttributeDefinition
  3

  2
NT
 70
     8
280
     0
  0
ATTDEF
  5
9D
330
96
100
AcDbEntity
  8
attrib
100
AcDbText
 10
8.15
 20
158.65
 30
0.0
 40
0.5
  1
$BOM.$WL.$WL2.
100
AcDbAttributeDefinition
  3

  2
NBSYN
 70
     8
280
     0
  0
ATTDEF
  5
9E
330
96
100
AcDbEntity
  8
attrib
100
AcDbText
 10
8.15
 20
158.15
 30
0.0
 40
0.5
  1
AWG10
100
AcDbAttributeDefinition
  3

  2
LINA
 70
     8
280
     0
  0
ATTDEF
  5
9F
330
96
100
AcDbEntity
  8
attrib
100
AcDbText
 10
8.15
 20
157.65
 30
0.0
 40
0.5
  1
Wöhner
100
AcDbAttributeDefinition
  3

  2
CATALOG
 70
     8
280
     0
  0
ATTDEF
  5
A0
330
96
100
AcDbEntity
  8
attrib
100
AcDbText
 10
8.15
 20
157.15
 30
0.0
 40
0.5
  1
AWG10
100
AcDbAttributeDefinition
  3

  2
BOM
 70
     8
280
     0
  0
ATTDEF
  5
A1
330
96
100
AcDbEntity
  8
attrib
100
AcDbText
 10
8.15
 20
156.65
 30
0.0
 40
0.5
  1
AWG10
100
AcDbAttributeDefinition
  3

  2
ARTNR
 70
     8
280
     0
  0
ATTDEF
  5
A2
330
96
100
AcDbEntity
  8
attrib
100
AcDbText
 10
8.15
 20
156.15
 30
0.0
 40
0.5
  1
1
100
AcDbAttributeDefinition
  3

  2
QNT
 70
     8
280
     0
  0
ATTDEF
  5
A3
330
96
100
AcDbEntity
  8
attrib
100
AcDbText
 10
8.15
 20
155.65
 30
0.0
 40
0.5
  1
45
100
AcDbAttributeDefinition
  3

  2
W
 70
     8
280
     0
  0
ATTDEF
  5
A4
330
96
100
AcDbEntity
  8
attrib
100
AcDbText
 10
8.15
 20
155.15
 30
0.0
 40
0.5
  1
160
100
AcDbAttributeDefinition
  3

  2
H
 70
     8
280
     0
  0
ATTDEF
  5
A5
330
96
100
AcDbEntity
  8
attrib
100
AcDbText
 10
8.15
 20
154.65
 30
0.0
 40
0.5
  1
70
100
AcDbAttributeDefinition
  3

  2
WL
 70
     8
280
     0
  0
ATTDEF
  5
A6
330
96
100
AcDbEntity
  8
attrib
100
AcDbText
 10
8.15
 20
154.15
 30
0.0
 40
0.5
  1
6.000
100
AcDbAttributeDefinition
  3

  2
WD
 70
     8
280
     0
  0
ATTDEF
  5
A7
330
96
100
AcDbEntity
  8
attrib
100
AcDbText
 10
8.15
 20
153.65
 30
0.0
 40
0.5
  1
2.500
100
AcDbAttributeDefinition
  3

  2
WH
 70
     8
280
     0
  0
ATTDEF
  5
A8
330
96
100
AcDbEntity
  8
attrib
100
AcDbText
 10
8.15
 20
153.15
 30
0.0
 40
0.5
  1
9
100
AcDbAttributeDefinition
  3

  2
WL2
 70
     8
280
     0
  0
ATTDEF
  5
A9
330
96
100
AcDbEntity
  8
attrib
100
AcDbText
 10
8.15
 20
152.65
 30
0.0
 40
0.5
  1
1
100
AcDbAttributeDefinition
  3

  2
VER
 70
     8
280
     0
  0
ATTDEF
  5
AA
330
96
100
AcDbEntity
  8
attrib
100
AcDbText
 10
8.15
 20
152.15
 30
0.0
 40
0.5
  1
0.000
100
AcDbAttributeDefinition
  3

  2
L1
 70
     8
280
     0
  0
ATTDEF
  5
AB
330
96
100
AcDbEntity
  8
attrib
100
AcDbText
 10
8.15
 20
151.65
 30
0.0
 40
0.5
  1
0.000
100
AcDbAttributeDefinition
  3

  2
L2
 70
     8
280
     0
  0
ATTDEF
  5
AC
330
96
100
AcDbEntity
  8
attrib
100
AcDbText
 10
8.15
 20
151.15
 30
0.0
 40
0.5
  1
0.000
100
AcDbAttributeDefinition
  3

  2
L3
 70
     8
280
     0
  0
ATTDEF
  5
AD
330
96
100
AcDbEntity
  8
attrib
100
AcDbText
 10
8.15
 20
150.65
 30
0.0
 40
0.5
  1
woehner
100
AcDbAttributeDefinition
  3

  2
COMPANY
 70
     8
280
     0
  0
ATTDEF
  5
AE
330
96
100
AcDbEntity
  8
attrib
100
AcDbText
 10
8.15
 20
150.15
 30
0.0
 40
0.5
  1
{$CADENAS_DATA/23d-libs/woehner/sys_60classic/adapters/common_pool/wire.prj},164 {VTYP=3D},{NB=AWG10709},{LINA=AWG10},{NN=Wire},{DATE=16.05.2023 11:01:14},{GEOMDATE=12.05.2023 11:36:00},{VERSION=},{LINEID=390},{WBVAR=WL,WL2},{WBNUMERIC=WL,WL2}  {NB=AWG107
100
AcDbAttributeDefinition
  3

  2
PSOL_0
 70
     9
280
     0
  0
ATTDEF
  5
AF
330
96
100
AcDbEntity
  8
attrib
100
AcDbText
 10
8.15
 20
149.65
 30
0.0
 40
0.5
  1
09},{LINA=AWG10},{KT=DUMMY},{BOM=AWG10},{ARTNR=AWG10},{QNT=1},{W=45},{H=160},{WL=70},{WD=6.000},{WH=2.500},{WL2=9},{VER=1},{L1=0.000},{L2=0.000},{L3=0.000}
100
AcDbAttributeDefinition
  3

  2
PSOL_1
 70
     9
280
     0
  0
LINE
  5
B0
330
96
100
AcDbEntity
  8
center
100
AcDbLine
 10
-3.15
 20
157.0
 30
0.0
 11
3.15
 21
157.0
 31
0.0
  0
LINE
  5
B1
330
96
100
AcDbEntity
  8
center
100
AcDbLine
 10
0.0
 20
153.85
 30
0.0
 11
0.0
 21
160.15
 31
0.0
  0
CIRCLE
  5
B2
330
96
100
AcDbEntity
  8
bold
100
AcDbCircle
 10
0.0
 20
157.0
 30
0.0
 40
3.0
  0
LINE
  5
B3
330
96
100
AcDbEntity
  8
bold
100
AcDbLine
 10
-1.25
 20
158.25
 30
0.0
 11
-1.25
 21
155.75
 31
0.0
  0
LINE
  5
B4
330
96
100
AcDbEntity
  8
bold
100
AcDbLine
 10
-1.25
 20
155.75
 30
0.0
 11
1.25
 21
155.75
 31
0.0
  0
LINE
  5
B5
330
96
100
AcDbEntity
  8
bold
100
AcDbLine
 10
1.25
 20
155.75
 30
0.0
 11
1.25
 21
158.25
 31
0.0
  0
LINE
  5
B6
330
96
100
AcDbEntity
  8
bold
100
AcDbLine
 10
1.25
 20
158.25
 30
0.0
 11
-1.25
 21
158.25
 31
0.0
  0
ENDBLK
  5
99
330
96
100
AcDbEntity
  8
0
100
AcDbBlockEnd
  0
BLOCK
  5
B9
330
B7
100
AcDbEntity
  8
0
100
AcDbBlockBegin
  2
3_AWG10709_3_0_in_32590_0
 70
     2
 10
0.0
 20
0.0
 30
0.0
  3
3_AWG10709_3_0_in_32590_0
  1

  0
ATTDEF
  5
BB
330
B7
100
AcDbEntity
  8
attrib
100
AcDbText
 10
-2.35
 20
160.15
 30
0.0
 40
0.5
  1
AWG10709
100
AcDbAttributeDefinition
  3

  2
NB
 70
     8
280
     0
  0
ATTDEF
  5
BC
330
B7
100
AcDbEntity
  8
attrib
100
AcDbText
 10
-2.35
 20
159.65
 30
0.0
 40
0.5
  1
Wire
100
AcDbAttributeDefinition
  3

  2
NN
 70
     8
280
     0
  0
ATTDEF
  5
BD
330
B7
100
AcDbEntity
  8
attrib
100
AcDbText
 10
-2.35
 20
159.15
 30
0.0
 40
0.5
  1

100
AcDbAttributeDefinition
  3

  2
NT
 70
     8
280
     0
  0
ATTDEF
  5
BE
330
B7
100
AcDbEntity
  8
attrib
100
AcDbText
 10
-2.35
 20
158.65
 30
0.0
 40
0.5
  1
$BOM.$WL.$WL2.
100
AcDbAttributeDefinition
  3

  2
NBSYN
 70
     8
280
     0
  0
ATTDEF
  5
BF
330
B7
100
AcDbEntity
  8
attrib
100
AcDbText
 10
-2.35
 20
158.15
 30
0.0
 40
0.5
  1
AWG10
100
AcDbAttributeDefinition
  3

  2
LINA
 70
     8
280
     0
  0
ATTDEF
  5
C0
330
B7
100
AcDbEntity
  8
attrib
100
AcDbText
 10
-2.35
 20
157.65
 30
0.0
 40
0.5
  1
Wöhner
100
AcDbAttributeDefinition
  3

  2
CATALOG
 70
     8
280
     0
  0
ATTDEF
  5
C1
330
B7
100
AcDbEntity
  8
attrib
100
AcDbText
 10
-2.35
 20
157.15
 30
0.0
 40
0.5
  1
AWG10
100
AcDbAttributeDefinition
  3

  2
BOM
 70
     8
280
     0
  0
ATTDEF
  5
C2
330
B7
100
AcDbEntity
  8
attrib
100
AcDbText
 10
-2.35
 20
156.65
 30
0.0
 40
0.5
  1
AWG10
100
AcDbAttributeDefinition
  3

  2
ARTNR
 70
     8
280
     0
  0
ATTDEF
  5
C3
330
B7
100
AcDbEntity
  8
attrib
100
AcDbText
 10
-2.35
 20
156.15
 30
0.0
 40
0.5
  1
1
100
AcDbAttributeDefinition
  3

  2
QNT
 70
     8
280
     0
  0
ATTDEF
  5
C4
330
B7
100
AcDbEntity
  8
attrib
100
AcDbText
 10
-2.35
 20
155.65
 30
0.0
 40
0.5
  1
45
100
AcDbAttributeDefinition
  3

  2
W
 70
     8
280
     0
  0
ATTDEF
  5
C5
330
B7
100
AcDbEntity
  8
attrib
100
AcDbText
 10
-2.35
 20
155.15
 30
0.0
 40
0.5
  1
160
100
AcDbAttributeDefinition
  3

  2
H
 70
     8
280
     0
  0
ATTDEF
  5
C6
330
B7
100
AcDbEntity
  8
attrib
100
AcDbText
 10
-2.35
 20
154.65
 30
0.0
 40
0.5
  1
70
100
AcDbAttributeDefinition
  3

  2
WL
 70
     8
280
     0
  0
ATTDEF
  5
C7
330
B7
100
AcDbEntity
  8
attrib
100
AcDbText
 10
-2.35
 20
154.15
 30
0.0
 40
0.5
  1
6.000
100
AcDbAttributeDefinition
  3

  2
WD
 70
     8
280
     0
  0
ATTDEF
  5
C8
330
B7
100
AcDbEntity
  8
attrib
100
AcDbText
 10
-2.35
 20
153.65
 30
0.0
 40
0.5
  1
2.500
100
AcDbAttributeDefinition
  3

  2
WH
 70
     8
280
     0
  0
ATTDEF
  5
C9
330
B7
100
AcDbEntity
  8
attrib
100
AcDbText
 10
-2.35
 20
153.15
 30
0.0
 40
0.5
  1
9
100
AcDbAttributeDefinition
  3

  2
WL2
 70
     8
280
     0
  0
ATTDEF
  5
CA
330
B7
100
AcDbEntity
  8
attrib
100
AcDbText
 10
-2.35
 20
152.65
 30
0.0
 40
0.5
  1
1
100
AcDbAttributeDefinition
  3

  2
VER
 70
     8
280
     0
  0
ATTDEF
  5
CB
330
B7
100
AcDbEntity
  8
attrib
100
AcDbText
 10
-2.35
 20
152.15
 30
0.0
 40
0.5
  1
0.000
100
AcDbAttributeDefinition
  3

  2
L1
 70
     8
280
     0
  0
ATTDEF
  5
CC
330
B7
100
AcDbEntity
  8
attrib
100
AcDbText
 10
-2.35
 20
151.65
 30
0.0
 40
0.5
  1
0.000
100
AcDbAttributeDefinition
  3

  2
L2
 70
     8
280
     0
  0
ATTDEF
  5
CD
330
B7
100
AcDbEntity
  8
attrib
100
AcDbText
 10
-2.35
 20
151.15
 30
0.0
 40
0.5
  1
0.000
100
AcDbAttributeDefinition
  3

  2
L3
 70
     8
280
     0
  0
ATTDEF
  5
CE
330
B7
100
AcDbEntity
  8
attrib
100
AcDbText
 10
-2.35
 20
150.65
 30
0.0
 40
0.5
  1
woehner
100
AcDbAttributeDefinition
  3

  2
COMPANY
 70
     8
280
     0
  0
ATTDEF
  5
CF
330
B7
100
AcDbEntity
  8
attrib
100
AcDbText
 10
-2.35
 20
150.15
 30
0.0
 40
0.5
  1
{$CADENAS_DATA/23d-libs/woehner/sys_60classic/adapters/common_pool/wire.prj},164 {VTYP=3D},{NB=AWG10709},{LINA=AWG10},{NN=Wire},{DATE=16.05.2023 11:01:14},{GEOMDATE=12.05.2023 11:36:00},{VERSION=},{LINEID=390},{WBVAR=WL,WL2},{WBNUMERIC=WL,WL2}  {NB=AWG107
100
AcDbAttributeDefinition
  3

  2
PSOL_0
 70
     9
280
     0
  0
ATTDEF
  5
D0
330
B7
100
AcDbEntity
  8
attrib
100
AcDbText
 10
-2.35
 20
149.65
 30
0.0
 40
0.5
  1
09},{LINA=AWG10},{KT=DUMMY},{BOM=AWG10},{ARTNR=AWG10},{QNT=1},{W=45},{H=160},{WL=70},{WD=6.000},{WH=2.500},{WL2=9},{VER=1},{L1=0.000},{L2=0.000},{L3=0.000}
100
AcDbAttributeDefinition
  3

  2
PSOL_1
 70
     9
280
     0
  0
LINE
  5
D1
330
B7
100
AcDbEntity
  8
center
100
AcDbLine
 10
-13.65
 20
157.0
 30
0.0
 11
-7.35
 21
157.0
 31
0.0
  0
LINE
  5
D2
330
B7
100
AcDbEntity
  8
center
100
AcDbLine
 10
-10.5
 20
153.85
 30
0.0
 11
-10.5
 21
160.15
 31
0.0
  0
CIRCLE
  5
D3
330
B7
100
AcDbEntity
  8
bold
100
AcDbCircle
 10
-10.5
 20
157.0
 30
0.0
 40
3.0
  0
LINE
  5
D4
330
B7
100
AcDbEntity
  8
bold
100
AcDbLine
 10
-11.75
 20
155.75
 30
0.0
 11
-9.250000000000002
 21
155.75
 31
0.0
  0
LINE
  5
D5
330
B7
100
AcDbEntity
  8
bold
100
AcDbLine
 10
-11.75
 20
158.25
 30
0.0
 11
-11.75
 21
155.75
 31
0.0
  0
LINE
  5
D6
330
B7
100
AcDbEntity
  8
bold
100
AcDbLine
 10
-9.250000000000002
 20
155.75
 30
0.0
 11
-9.250000000000002
 21
158.25
 31
0.0
  0
LINE
  5
D7
330
B7
100
AcDbEntity
  8
bold
100
AcDbLine
 10
-9.250000000000002
 20
158.25
 30
0.0
 11
-11.75
 21
158.25
 31
0.0
  0
ENDBLK
  5
BA
330
B7
100
AcDbEntity
  8
0
100
AcDbBlockEnd
  0
BLOCK
  5
DA
330
D8
100
AcDbEntity
  8
0
100
AcDbBlockBegin
  2
4_80034CrossBoardScrew_0_in_32590_0
 70
     2
 10
0.0
 20
0.0
 30
0.0
  3
4_80034CrossBoardScrew_0_in_32590_0
  1

  0
ATTDEF
  5
DC
330
D8
100
AcDbEntity
  8
attrib
100
AcDbText
 10
22.85
 20
94.49999999999999
 30
0.0
 40
0.5
  1
80034CrossBoardScrew
100
AcDbAttributeDefinition
  3

  2
NB
 70
     8
280
     0
  0
ATTDEF
  5
DD
330
D8
100
AcDbEntity
  8
attrib
100
AcDbText
 10
22.85
 20
93.99999999999999
 30
0.0
 40
0.5
  1
32668 Screw
100
AcDbAttributeDefinition
  3

  2
NN
 70
     8
280
     0
  0
ATTDEF
  5
DE
330
D8
100
AcDbEntity
  8
attrib
100
AcDbText
 10
22.85
 20
93.49999999999999
 30
0.0
 40
0.5
  1

100
AcDbAttributeDefinition
  3

  2
NT
 70
     8
280
     0
  0
ATTDEF
  5
DF
330
D8
100
AcDbEntity
  8
attrib
100
AcDbText
 10
22.85
 20
92.99999999999999
 30
0.0
 40
0.5
  1
$ARTNR.$SYSTEM.$MODEL.
100
AcDbAttributeDefinition
  3

  2
NBSYN
 70
     8
280
     0
  0
ATTDEF
  5
E0
330
D8
100
AcDbEntity
  8
attrib
100
AcDbText
 10
22.85
 20
92.49999999999999
 30
0.0
 40
0.5
  1
80034
100
AcDbAttributeDefinition
  3

  2
LINA
 70
     8
280
     0
  0
ATTDEF
  5
E1
330
D8
100
AcDbEntity
  8
attrib
100
AcDbText
 10
22.85
 20
91.99999999999999
 30
0.0
 40
0.5
  1
Wöhner
100
AcDbAttributeDefinition
  3

  2
CATALOG
 70
     8
280
     0
  0
ATTDEF
  5
E2
330
D8
100
AcDbEntity
  8
attrib
100
AcDbText
 10
22.85
 20
91.49999999999999
 30
0.0
 40
0.5
  1
80034
100
AcDbAttributeDefinition
  3

  2
ARTNR
 70
     8
280
     0
  0
ATTDEF
  5
E3
330
D8
100
AcDbEntity
  8
attrib
100
AcDbText
 10
22.85
 20
90.99999999999999
 30
0.0
 40
0.5
  1
CrossBoard
100
AcDbAttributeDefinition
  3

  2
SYSTEM
 70
     8
280
     0
  0
ATTDEF
  5
E4
330
D8
100
AcDbEntity
  8
attrib
100
AcDbText
 10
22.85
 20
90.49999999999999
 30
0.0
 40
0.5
  1
Screw
100
AcDbAttributeDefinition
  3

  2
MODEL
 70
     8
280
     0
  0
ATTDEF
  5
E5
330
D8
100
AcDbEntity
  8
attrib
100
AcDbText
 10
22.85
 20
89.99999999999999
 30
0.0
 40
0.5
  1
woehner
100
AcDbAttributeDefinition
  3

  2
COMPANY
 70
     8
280
     0
  0
ATTDEF
  5
E6
330
D8
100
AcDbEntity
  8
attrib
100
AcDbText
 10
22.85
 20
89.49999999999999
 30
0.0
 40
0.5
  1
{$CADENAS_DATA/23d-libs/woehner/sys_crossboard/parts/32668_screw.prj},170 {VTYP=3D},{NB=80034CrossBoardScrew},{LINA=80034},{NN=32668 Screw},{DATE=18.11.2022 09:04:08},{GEOMDATE=27.01.2022 06:14:50},{VERSION=},{LINEID=10},{WBVAR=},{WBNUMERIC=}  {NB=80034Cr
100
AcDbAttributeDefinition
  3

  2
PSOL_0
 70
     9
280
     0
  0
ATTDEF
  5
E7
330
D8
100
AcDbEntity
  8
attrib
100
AcDbText
 10
22.85
 20
88.99999999999999
 30
0.0
 40
0.5
  1
ossBoardScrew},{LINA=80034},{KT=DUMMY},{ARTNR=80034},{SYSTEM=CrossBoard},{MODEL=Screw}
100
AcDbAttributeDefinition
  3

  2
PSOL_1
 70
     9
280
     0
  0
CIRCLE
  5
EA
330
D8
100
AcDbEntity
  8
hidden
100
AcDbCircle
 10
15.35
 20
92.0
 30
0.0
 40
1.25
  0
LINE
  5
EB
330
D8
100
AcDbEntity
  8
bold
100
AcDbLine
 10
14.45
 20
91.5
 30
0.0
 11
12.94095245452358
 21
91.5
 31
0.0
  0
LINE
  5
EC
330
D8
100
AcDbEntity
  8
bold
100
AcDbLine
 10
12.94095245452358
 20
92.5
 30
0.0
 11
14.45
 21
92.5
 31
0.0
  0
LINE
  5
ED
330
D8
100
AcDbEntity
  8
bold
100
AcDbLine
 10
16.25
 20
92.5
 30
0.0
 11
17.75904754547642
 21
92.5
 31
0.0
  0
LINE
  5
EE
330
D8
100
AcDbEntity
  8
bold
100
AcDbLine
 10
17.75904754547642
 20
91.5
 30
0.0
 11
16.25
 21
91.5
 31
0.0
  0
ARC
  5
EF
330
D8
100
AcDbEntity
  8
bold
100
AcDbCircle
 10
15.34999999999977
 20
92.0
 30
0.0
 40
2.460388196274092
100
AcDbArc
 50
168.274682772553
 51
191.725317227447
  0
ARC
  5
F0
330
D8
100
AcDbEntity
  8
bold
100
AcDbCircle
 10
15.35000000000023
 20
92.0
 30
0.0
 40
2.460388196274089
100
AcDbArc
 50
348.2746827725529
 51
11.725317227447
  0
LWPOLYLINE
  5
F1
330
D8
100
AcDbEntity
  8
bold
100
AcDbPolyline
 90
        6
 70
     0
 43
0.0
 10
14.45
 20
91.5
 10
14.57871649404953
 20
91.4787242587419
 10
14.69546508065834
 20
91.41582731702212
 10
14.78352380593378
 20
91.32082090226119
 10
14.83593504389039
 20
91.20513867935887
 10
14.85
 20
91.1
  0
LWPOLYLINE
  5
F2
330
D8
100
AcDbEntity
  8
bold
100
AcDbPolyline
 90
        6
 70
     0
 43
0.0
 10
15.85
 20
91.1
 10
15.8712757412581
 20
91.22871649404952
 10
15.93417268297787
 20
91.34546508065834
 10
16.0291790977388
 20
91.43352380593377
 10
16.14486132064114
 20
91.48593504389038
 10
16.25
 20
91.5
  0
ARC
  5
F4
330
D8
100
AcDbEntity
  8
light
100
AcDbCircle
 10
15.35
 20
92.00000000000001
 30
0.0
 40
2.181818161107081
100
AcDbArc
 50
193.2480150337254
 51
346.7519849662746
  0
LINE
  5
F5
330
D8
100
AcDbEntity
  8
bold
100
AcDbLine
 10
15.85
 20
91.1
 30
0.0
 11
15.85
 21
90.5
 31
0.0
  0
LINE
  5
F6
330
D8
100
AcDbEntity
  8
bold
100
AcDbLine
 10
15.85
 20
90.5
 30
0.0
 11
14.85
 21
90.5
 31
0.0
  0
LINE
  5
F7
330
D8
100
AcDbEntity
  8
bold
100
AcDbLine
 10
14.85
 20
90.5
 30
0.0
 11
14.85
 21
91.1
 31
0.0
  0
LWPOLYLINE
  5
F8
330
D8
100
AcDbEntity
  8
bold
100
AcDbPolyline
 90
        6
 70
     0
 43
0.0
 10
14.85
 20
92.89999999999999
 10
14.82872425874189
 20
92.77128350595048
 10
14.76582731702213
 20
92.65453491934166
 10
14.6708209022612
 20
92.56647619406621
 10
14.55513867935887
 20
92.51406495610962
 10
14.45
 20
92.5
  0
LWPOLYLINE
  5
F9
330
D8
100
AcDbEntity
  8
bold
100
AcDbPolyline
 90
        6
 70
     0
 43
0.0
 10
16.25
 20
92.5
 10
16.12128350595047
 20
92.5212757412581
 10
16.00453491934166
 20
92.58417268297788
 10
15.91647619406622
 20
92.67917909773881
 10
15.86406495610962
 20
92.79486132064113
 10
15.85
 20
92.89999999999999
  0
ARC
  5
FA
330
D8
100
AcDbEntity
  8
light
100
AcDbCircle
 10
15.35
 20
91.99999999999999
 30
0.0
 40
2.181818161107079
100
AcDbArc
 50
13.24801503372543
 51
166.7519849662746
  0
LINE
  5
FB
330
D8
100
AcDbEntity
  8
bold
100
AcDbLine
 10
14.85
 20
92.89999999999999
 30
0.0
 11
14.85
 21
93.5
 31
0.0
  0
LINE
  5
FC
330
D8
100
AcDbEntity
  8
bold
100
AcDbLine
 10
14.85
 20
93.5
 30
0.0
 11
15.85
 21
93.5
 31
0.0
  0
LINE
  5
FD
330
D8
100
AcDbEntity
  8
bold
100
AcDbLine
 10
15.85
 20
93.5
 30
0.0
 11
15.85
 21
92.89999999999999
 31
0.0
  0
CIRCLE
  5
FE
330
D8
100
AcDbEntity
  8
bold
100
AcDbCircle
 10
15.35
 20
91.99999999999999
 30
0.0
 40
2.500000000000005
  0
ENDBLK
  5
DB
330
D8
100
AcDbEntity
  8
0
100
AcDbBlockEnd
  0
BLOCK
  5
101
330
FF
100
AcDbEntity
  8
0
100
AcDbBlockBegin
  2
5_79350ACrossBoardAdapter_0_in_32590_0
 70
     2
 10
0.0
 20
0.0
 30
0.0
  3
5_79350ACrossBoardAdapter_0_in_32590_0
  1

  0
ATTDEF
  5
103
330
FF
100
AcDbEntity
  8
attrib
100
AcDbText
 10
29.75
 20
104.6
 30
0.0
 40
0.5
  1
79350ACrossBoardAdapter
100
AcDbAttributeDefinition
  3

  2
NB
 70
     8
280
     0
  0
ATTDEF
  5
104
330
FF
100
AcDbEntity
  8
attrib
100
AcDbText
 10
29.75
 20
104.1
 30
0.0
 40
0.5
  1
32668 Adapter
100
AcDbAttributeDefinition
  3

  2
NN
 70
     8
280
     0
  0
ATTDEF
  5
105
330
FF
100
AcDbEntity
  8
attrib
100
AcDbText
 10
29.75
 20
103.6
 30
0.0
 40
0.5
  1

100
AcDbAttributeDefinition
  3

  2
NT
 70
     8
280
     0
  0
ATTDEF
  5
106
330
FF
100
AcDbEntity
  8
attrib
100
AcDbText
 10
29.75
 20
103.1
 30
0.0
 40
0.5
  1
$ARTNR.$SYSTEM.$MODEL.
100
AcDbAttributeDefinition
  3

  2
NBSYN
 70
     8
280
     0
  0
ATTDEF
  5
107
330
FF
100
AcDbEntity
  8
attrib
100
AcDbText
 10
29.75
 20
102.6
 30
0.0
 40
0.5
  1
79350A
100
AcDbAttributeDefinition
  3

  2
LINA
 70
     8
280
     0
  0
ATTDEF
  5
108
330
FF
100
AcDbEntity
  8
attrib
100
AcDbText
 10
29.75
 20
102.1
 30
0.0
 40
0.5
  1
Wöhner
100
AcDbAttributeDefinition
  3

  2
CATALOG
 70
     8
280
     0
  0
ATTDEF
  5
109
330
FF
100
AcDbEntity
  8
attrib
100
AcDbText
 10
29.75
 20
101.6
 30
0.0
 40
0.5
  1
79350A
100
AcDbAttributeDefinition
  3

  2
ARTNR
 70
     8
280
     0
  0
ATTDEF
  5
10A
330
FF
100
AcDbEntity
  8
attrib
100
AcDbText
 10
29.75
 20
101.1
 30
0.0
 40
0.5
  1
CrossBoard
100
AcDbAttributeDefinition
  3

  2
SYSTEM
 70
     8
280
     0
  0
ATTDEF
  5
10B
330
FF
100
AcDbEntity
  8
attrib
100
AcDbText
 10
29.75
 20
100.6
 30
0.0
 40
0.5
  1
Adapter
100
AcDbAttributeDefinition
  3

  2
MODEL
 70
     8
280
     0
  0
ATTDEF
  5
10C
330
FF
100
AcDbEntity
  8
attrib
100
AcDbText
 10
29.75
 20
100.1
 30
0.0
 40
0.5
  1
woehner
100
AcDbAttributeDefinition
  3

  2
COMPANY
 70
     8
280
     0
  0
ATTDEF
  5
10D
330
FF
100
AcDbEntity
  8
attrib
100
AcDbText
 10
29.75
 20
99.6
 30
0.0
 40
0.5
  1
{$CADENAS_DATA/23d-libs/woehner/sys_crossboard/parts/32668_adapter.prj},176 {VTYP=3D},{NB=79350ACrossBoardAdapter},{LINA=79350A},{NN=32668 Adapter},{DATE=08.02.2023 11:34:28},{GEOMDATE=08.02.2023 11:34:00},{VERSION=},{LINEID=10},{WBVAR=},{WBNUMERIC=}  {NB
100
AcDbAttributeDefinition
  3

  2
PSOL_0
 70
     9
280
     0
  0
ATTDEF
  5
10E
330
FF
100
AcDbEntity
  8
attrib
100
AcDbText
 10
29.75
 20
99.1
 30
0.0
 40
0.5
  1
=79350ACrossBoardAdapter},{LINA=79350A},{KT=DUMMY},{ARTNR=79350A},{SYSTEM=CrossBoard},{MODEL=Adapter}
100
AcDbAttributeDefinition
  3

  2
PSOL_1
 70
     9
280
     0
  0
LINE
  5
10F
330
FF
100
AcDbEntity
  8
hidden
100
AcDbLine
 10
17.05
 20
104.5
 30
0.0
 11
17.05
 21
48.49974596215561
 31
0.0
  0
LINE
  5
110
330
FF
100
AcDbEntity
  8
hidden
100
AcDbLine
 10
-17.05
 20
104.5
 30
0.0
 11
-17.05
 21
48.49974596215561
 31
0.0
  0
LINE
  5
111
330
FF
100
AcDbEntity
  8
hidden
100
AcDbLine
 10
-18.84999999999997
 20
67.25
 30
0.0
 11
-22.49999999999997
 21
67.25
 31
0.0
  0
LINE
  5
112
330
FF
100
AcDbEntity
  8
hidden
100
AcDbLine
 10
-22.49999999999997
 20
64.25
 30
0.0
 11
-18.84999999999997
 21
64.25
 31
0.0
  0
LINE
  5
113
330
FF
100
AcDbEntity
  8
hidden
100
AcDbLine
 10
22.5
 20
53.25
 30
0.0
 11
18.85
 21
53.25
 31
0.0
  0
LINE
  5
114
330
FF
100
AcDbEntity
  8
hidden
100
AcDbLine
 10
18.85
 20
51.75
 30
0.0
 11
22.5
 21
51.75
 31
0.0
  0
LINE
  5
115
330
FF
100
AcDbEntity
  8
hidden
100
AcDbLine
 10
22.5
 20
74.75000000000001
 30
0.0
 11
18.85
 21
74.75000000000001
 31
0.0
  0
LINE
  5
116
330
FF
100
AcDbEntity
  8
hidden
100
AcDbLine
 10
18.85
 20
71.75000000000001
 30
0.0
 11
22.5
 21
71.75000000000001
 31
0.0
  0
LINE
  5
117
330
FF
100
AcDbEntity
  8
hidden
100
AcDbLine
 10
22.5
 20
93.5
 30
0.0
 11
18.85
 21
93.5
 31
0.0
  0
LINE
  5
118
330
FF
100
AcDbEntity
  8
hidden
100
AcDbLine
 10
18.85
 20
90.5
 30
0.0
 11
22.5
 21
90.5
 31
0.0
  0
LINE
  5
119
330
FF
100
AcDbEntity
  8
hidden
100
AcDbLine
 10
-18.84999999999997
 20
93.5
 30
0.0
 11
-22.49999999999997
 21
93.5
 31
0.0
  0
LINE
  5
11A
330
FF
100
AcDbEntity
  8
hidden
100
AcDbLine
 10
-22.49999999999997
 20
90.5
 30
0.0
 11
-18.84999999999997
 21
90.5
 31
0.0
  0
LINE
  5
11B
330
FF
100
AcDbEntity
  8
hidden
100
AcDbLine
 10
-18.85
 20
57.0
 30
0.0
 11
-22.5
 21
57.0
 31
0.0
  0
LINE
  5
11C
330
FF
100
AcDbEntity
  8
hidden
100
AcDbLine
 10
-18.84999999999997
 20
58.5
 30
0.0
 11
-22.49999999999997
 21
58.5
 31
0.0
  0
LINE
  5
11D
330
FF
100
AcDbEntity
  8
hidden
100
AcDbLine
 10
-18.84999999999997
 20
74.75000000000001
 30
0.0
 11
-22.49999999999997
 21
74.75000000000001
 31
0.0
  0
LINE
  5
11E
330
FF
100
AcDbEntity
  8
hidden
100
AcDbLine
 10
-22.49999999999997
 20
71.75000000000001
 30
0.0
 11
-18.84999999999997
 21
71.75000000000001
 31
0.0
  0
LINE
  5
11F
330
FF
100
AcDbEntity
  8
hidden
100
AcDbLine
 10
-18.84999999999997
 20
101.0
 30
0.0
 11
-22.49999999999997
 21
101.0
 31
0.0
  0
LINE
  5
120
330
FF
100
AcDbEntity
  8
hidden
100
AcDbLine
 10
-22.49999999999997
 20
98.0
 30
0.0
 11
-18.84999999999997
 21
98.0
 31
0.0
  0
LINE
  5
121
330
FF
100
AcDbEntity
  8
hidden
100
AcDbLine
 10
22.5
 20
67.25
 30
0.0
 11
18.85
 21
67.25
 31
0.0
  0
LINE
  5
122
330
FF
100
AcDbEntity
  8
hidden
100
AcDbLine
 10
18.85
 20
64.25
 30
0.0
 11
22.5
 21
64.25
 31
0.0
  0
LINE
  5
123
330
FF
100
AcDbEntity
  8
hidden
100
AcDbLine
 10
22.5
 20
57.0
 30
0.0
 11
18.85
 21
56.99999999999999
 31
0.0
  0
LINE
  5
124
330
FF
100
AcDbEntity
  8
hidden
100
AcDbLine
 10
22.5
 20
58.5
 30
0.0
 11
18.85
 21
58.5
 31
0.0
  0
LINE
  5
125
330
FF
100
AcDbEntity
  8
hidden
100
AcDbLine
 10
-18.85
 20
53.25
 30
0.0
 11
-22.5
 21
53.25
 31
0.0
  0
LINE
  5
126
330
FF
100
AcDbEntity
  8
hidden
100
AcDbLine
 10
-22.49999999999997
 20
51.75
 30
0.0
 11
-18.84999999999997
 21
51.75
 31
0.0
  0
LINE
  5
127
330
FF
100
AcDbEntity
  8
hidden
100
AcDbLine
 10
22.5
 20
101.0
 30
0.0
 11
18.85
 21
101.0
 31
0.0
  0
LINE
  5
128
330
FF
100
AcDbEntity
  8
hidden
100
AcDbLine
 10
18.85
 20
98.0
 30
0.0
 11
22.5
 21
98.0
 31
0.0
  0
LINE
  5
129
330
FF
100
AcDbEntity
  8
hidden
100
AcDbLine
 10
18.85
 20
104.5
 30
0.0
 11
18.85
 21
48.49974596215561
 31
0.0
  0
LINE
  5
12A
330
FF
100
AcDbEntity
  8
hidden
100
AcDbLine
 10
-18.85
 20
104.5
 30
0.0
 11
-18.85
 21
48.49974596215561
 31
0.0
  0
LINE
  5
12B
330
FF
100
AcDbEntity
  8
hidden
100
AcDbLine
 10
10.65
 20
104.5
 30
0.0
 11
10.65
 21
69.39999999999999
 31
0.0
  0
LINE
  5
12C
330
FF
100
AcDbEntity
  8
hidden
100
AcDbLine
 10
22.5
 20
104.5
 30
0.0
 11
10.65
 21
104.5
 31
0.0
  0
LINE
  5
12D
330
FF
100
AcDbEntity
  8
hidden
100
AcDbLine
 10
-10.65
 20
104.5
 30
0.0
 11
-10.65
 21
69.39999999999999
 31
0.0
  0
LINE
  5
12E
330
FF
100
AcDbEntity
  8
hidden
100
AcDbLine
 10
-10.65
 20
104.5
 30
0.0
 11
-22.5
 21
104.5
 31
0.0
  0
LINE
  5
12F
330
FF
100
AcDbEntity
  8
hidden
100
AcDbLine
 10
22.5
 20
99.5
 30
0.0
 11
-22.5
 21
99.5
 31
0.0
  0
LINE
  5
130
330
FF
100
AcDbEntity
  8
hidden
100
AcDbLine
 10
22.5
 20
74.5
 30
0.0
 11
-22.5
 21
74.5
 31
0.0
  0
CIRCLE
  5
131
330
FF
100
AcDbEntity
  8
hidden
100
AcDbCircle
 10
15.3499999999999
 20
91.99999999999943
 30
0.0
 40
1.500000000000568
  0
LINE
  5
132
330
FF
100
AcDbEntity
  8
center
100
AcDbLine
 10
-18.5
 20
58.25
 30
0.0
 11
-12.2
 21
58.25
 31
0.0
  0
LINE
  5
133
330
FF
100
AcDbEntity
  8
center
100
AcDbLine
 10
-15.35
 20
55.1
 30
0.0
 11
-15.35
 21
68.9
 31
0.0
  0
LINE
  5
134
330
FF
100
AcDbEntity
  8
center
100
AcDbLine
 10
12.2
 20
58.25
 30
0.0
 11
18.5
 21
58.25
 31
0.0
  0
LINE
  5
135
330
FF
100
AcDbEntity
  8
center
100
AcDbLine
 10
15.35
 20
55.1
 30
0.0
 11
15.35
 21
68.9
 31
0.0
  0
LINE
  5
136
330
FF
100
AcDbEntity
  8
center
100
AcDbLine
 10
12.2
 20
84.5
 30
0.0
 11
18.7
 21
84.5
 31
0.0
  0
LINE
  5
137
330
FF
100
AcDbEntity
  8
center
100
AcDbLine
 10
-18.7
 20
84.5
 30
0.0
 11
-12.2
 21
84.5
 31
0.0
  0
LINE
  5
138
330
FF
100
AcDbEntity
  8
center
100
AcDbLine
 10
-15.35
 20
88.85
 30
0.0
 11
-15.35
 21
95.15
 31
0.0
  0
LINE
  5
139
330
FF
100
AcDbEntity
  8
center
100
AcDbLine
 10
15.35
 20
88.85
 30
0.0
 11
15.35
 21
95.15
 31
0.0
  0
LINE
  5
13A
330
FF
100
AcDbEntity
  8
center
100
AcDbLine
 10
-24.75
 20
65.75
 30
0.0
 11
24.75
 21
65.75
 31
0.0
  0
LINE
  5
13B
330
FF
100
AcDbEntity
  8
center
100
AcDbLine
 10
-24.75
 20
73.25000000000001
 30
0.0
 11
24.75
 21
73.25000000000001
 31
0.0
  0
LINE
  5
13C
330
FF
100
AcDbEntity
  8
center
100
AcDbLine
 10
-24.75
 20
99.5
 30
0.0
 11
24.75
 21
99.5
 31
0.0
  0
LINE
  5
13D
330
FF
100
AcDbEntity
  8
center
100
AcDbLine
 10
-24.75
 20
92.0
 30
0.0
 11
24.75
 21
92.0
 31
0.0
  0
CIRCLE
  5
13E
330
FF
100
AcDbEntity
  8
bold
100
AcDbCircle
 10
15.35
 20
65.75
 30
0.0
 40
1.499999999999998
  0
CIRCLE
  5
13F
330
FF
100
AcDbEntity
  8
bold
100
AcDbCircle
 10
15.35
 20
58.25
 30
0.0
 40
1.500000000000001
  0
CIRCLE
  5
140
330
FF
100
AcDbEntity
  8
bold
100
AcDbCircle
 10
-15.35
 20
58.25
 30
0.0
 40
1.500000000000001
  0
CIRCLE
  5
141
330
FF
100
AcDbEntity
  8
bold
100
AcDbCircle
 10
-15.35
 20
65.75
 30
0.0
 40
1.499999999999998
  0
CIRCLE
  5
142
330
FF
100
AcDbEntity
  8
bold
100
AcDbCircle
 10
-15.35
 20
92.0
 30
0.0
 40
1.500000000000001
  0
CIRCLE
  5
143
330
FF
100
AcDbEntity
  8
bold
100
AcDbCircle
 10
15.35
 20
84.5
 30
0.0
 40
1.500000000000001
  0
LINE
  5
144
330
FF
100
AcDbEntity
  8
bold
100
AcDbLine
 10
-22.5
 20
104.6
 30
0.0
 11
-22.5
 21
48.49974596215561
 31
0.0
  0
CIRCLE
  5
145
330
FF
100
AcDbEntity
  8
bold
100
AcDbCircle
 10
-15.35
 20
58.25
 30
0.0
 40
3.000000000000001
  0
CIRCLE
  5
146
330
FF
100
AcDbEntity
  8
bold
100
AcDbCircle
 10
-15.35
 20
65.75
 30
0.0
 40
2.999999999999999
  0
LINE
  5
147
330
FF
100
AcDbEntity
  8
bold
100
AcDbLine
 10
-10.65
 20
69.39999999999999
 30
0.0
 11
-10.65
 21
48.49974596215561
 31
0.0
  0
LINE
  5
148
330
FF
100
AcDbEntity
  8
bold
100
AcDbLine
 10
-10.65
 20
48.49974596215561
 30
0.0
 11
-22.5
 21
48.49974596215561
 31
0.0
  0
LINE
  5
149
330
FF
100
AcDbEntity
  8
bold
100
AcDbLine
 10
22.5
 20
104.6
 30
0.0
 11
22.5
 21
48.49974596215561
 31
0.0
  0
CIRCLE
  5
14A
330
FF
100
AcDbEntity
  8
bold
100
AcDbCircle
 10
15.35
 20
58.25
 30
0.0
 40
3.000000000000001
  0
CIRCLE
  5
14B
330
FF
100
AcDbEntity
  8
bold
100
AcDbCircle
 10
15.35
 20
65.75
 30
0.0
 40
2.999999999999999
  0
LINE
  5
14C
330
FF
100
AcDbEntity
  8
bold
100
AcDbLine
 10
10.65
 20
69.39999999999999
 30
0.0
 11
10.65
 21
48.49974596215561
 31
0.0
  0
LINE
  5
14D
330
FF
100
AcDbEntity
  8
bold
100
AcDbLine
 10
22.5
 20
48.49974596215561
 30
0.0
 11
10.65
 21
48.49974596215561
 31
0.0
  0
CIRCLE
  5
14E
330
FF
100
AcDbEntity
  8
bold
100
AcDbCircle
 10
-15.35
 20
84.5
 30
0.0
 40
1.500000000000001
  0
CIRCLE
  5
14F
330
FF
100
AcDbEntity
  8
bold
100
AcDbCircle
 10
15.35
 20
84.5
 30
0.0
 40
3.000000000000003
  0
CIRCLE
  5
150
330
FF
100
AcDbEntity
  8
bold
100
AcDbCircle
 10
-15.35
 20
84.5
 30
0.0
 40
3.000000000000003
  0
CIRCLE
  5
151
330
FF
100
AcDbEntity
  8
bold
100
AcDbCircle
 10
-15.35
 20
92.0
 30
0.0
 40
3.000000000000003
  0
CIRCLE
  5
152
330
FF
100
AcDbEntity
  8
bold
100
AcDbCircle
 10
15.35
 20
92.0
 30
0.0
 40
3.000000000000003
  0
LINE
  5
153
330
FF
100
AcDbEntity
  8
bold
100
AcDbLine
 10
22.5
 20
69.39999999999999
 30
0.0
 11
-22.5
 21
69.39999999999999
 31
0.0
  0
LINE
  5
154
330
FF
100
AcDbEntity
  8
bold
100
AcDbLine
 10
22.5
 20
76.5
 30
0.0
 11
-22.5
 21
76.5
 31
0.0
  0
LINE
  5
155
330
FF
100
AcDbEntity
  8
bold
100
AcDbLine
 10
22.5
 20
97.5
 30
0.0
 11
-22.5
 21
97.5
 31
0.0
  0
LINE
  5
156
330
FF
100
AcDbEntity
  8
bold
100
AcDbLine
 10
22.5
 20
104.6
 30
0.0
 11
-22.5
 21
104.6
 31
0.0
  0
ENDBLK
  5
102
330
FF
100
AcDbEntity
  8
0
100
AcDbBlockEnd
  0
BLOCK
  5
159
330
157
100
AcDbEntity
  8
0
100
AcDbBlockBegin
  2
6_Basis45x160_0_in_32590_0
 70
     2
 10
0.0
 20
0.0
 30
0.0
  3
6_Basis45x160_0_in_32590_0
  1

  0
ATTDEF
  5
15B
330
157
100
AcDbEntity
  8
attrib
100
AcDbText
 10
27.5
 20
162.0
 30
0.0
 40
0.5
  1
Basis45x160
100
AcDbAttributeDefinition
  3

  2
NB
 70
     8
280
     0
  0
ATTDEF
  5
15C
330
157
100
AcDbEntity
  8
attrib
100
AcDbText
 10
27.5
 20
161.5
 30
0.0
 40
0.5
  1
Adapter base
100
AcDbAttributeDefinition
  3

  2
NN
 70
     8
280
     0
  0
ATTDEF
  5
15D
330
157
100
AcDbEntity
  8
attrib
100
AcDbText
 10
27.5
 20
161.0
 30
0.0
 40
0.5
  1

100
AcDbAttributeDefinition
  3

  2
NT
 70
     8
280
     0
  0
ATTDEF
  5
15E
330
157
100
AcDbEntity
  8
attrib
100
AcDbText
 10
27.5
 20
160.5
 30
0.0
 40
0.5
  1
$BOM.
100
AcDbAttributeDefinition
  3

  2
NBSYN
 70
     8
280
     0
  0
ATTDEF
  5
15F
330
157
100
AcDbEntity
  8
attrib
100
AcDbText
 10
27.5
 20
160.0
 30
0.0
 40
0.5
  1
Basis45x160
100
AcDbAttributeDefinition
  3

  2
LINA
 70
     8
280
     0
  0
ATTDEF
  5
160
330
157
100
AcDbEntity
  8
attrib
100
AcDbText
 10
27.5
 20
159.5
 30
0.0
 40
0.5
  1
Wöhner
100
AcDbAttributeDefinition
  3

  2
CATALOG
 70
     8
280
     0
  0
ATTDEF
  5
161
330
157
100
AcDbEntity
  8
attrib
100
AcDbText
 10
27.5
 20
159.0
 30
0.0
 40
0.5
  1
1
100
AcDbAttributeDefinition
  3

  2
VER
 70
     8
280
     0
  0
ATTDEF
  5
162
330
157
100
AcDbEntity
  8
attrib
100
AcDbText
 10
27.5
 20
158.5
 30
0.0
 40
0.5
  1
Basis45x160
100
AcDbAttributeDefinition
  3

  2
BOM
 70
     8
280
     0
  0
ATTDEF
  5
163
330
157
100
AcDbEntity
  8
attrib
100
AcDbText
 10
27.5
 20
158.0
 30
0.0
 40
0.5
  1
Basis45x160
100
AcDbAttributeDefinition
  3

  2
ARTNR
 70
     8
280
     0
  0
ATTDEF
  5
164
330
157
100
AcDbEntity
  8
attrib
100
AcDbText
 10
27.5
 20
157.5
 30
0.0
 40
0.5
  1
1
100
AcDbAttributeDefinition
  3

  2
QNT
 70
     8
280
     0
  0
ATTDEF
  5
165
330
157
100
AcDbEntity
  8
attrib
100
AcDbText
 10
27.5
 20
157.0
 30
0.0
 40
0.5
  1
45
100
AcDbAttributeDefinition
  3

  2
W
 70
     8
280
     0
  0
ATTDEF
  5
166
330
157
100
AcDbEntity
  8
attrib
100
AcDbText
 10
27.5
 20
156.5
 30
0.0
 40
0.5
  1
160
100
AcDbAttributeDefinition
  3

  2
H
 70
     8
280
     0
  0
ATTDEF
  5
167
330
157
100
AcDbEntity
  8
attrib
100
AcDbText
 10
27.5
 20
156.0
 30
0.0
 40
0.5
  1
woehner
100
AcDbAttributeDefinition
  3

  2
COMPANY
 70
     8
280
     0
  0
ATTDEF
  5
168
330
157
100
AcDbEntity
  8
attrib
100
AcDbText
 10
27.5
 20
155.5
 30
0.0
 40
0.5
  1
{$CADENAS_DATA/23d-libs/woehner/sys_30_c_3pole/adapters/parts/adapter_base.prj},168 {VTYP=3D},{NB=Basis45x160},{LINA=Basis45x160},{NN=Adapter base},{DATE=21.12.2022 14:07:34},{GEOMDATE=21.12.2022 14:07:00},{VERSION=},{LINEID=10},{WBVAR=},{WBNUMERIC=}  {NB
100
AcDbAttributeDefinition
  3

  2
PSOL_0
 70
     9
280
     0
  0
ATTDEF
  5
169
330
157
100
AcDbEntity
  8
attrib
100
AcDbText
 10
27.5
 20
155.0
 30
0.0
 40
0.5
  1
=Basis45x160},{LINA=Basis45x160},{KT=DUMMY},{VER=1},{BOM=Basis45x160},{ARTNR=Basis45x160},{QNT=1},{W=45},{H=160}
100
AcDbAttributeDefinition
  3

  2
PSOL_1
 70
     9
280
     0
  0
LINE
  5
16A
330
157
100
AcDbEntity
  8
hidden
100
AcDbLine
 10
-22.5
 20
160.0
 30
0.0
 11
-3.5
 21
160.0
 31
0.0
  0
LINE
  5
16B
330
157
100
AcDbEntity
  8
hidden
100
AcDbLine
 10
-22.5
 20
156.0
 30
0.0
 11
-21.5
 21
156.0
 31
0.0
  0
LINE
  5
16C
330
157
100
AcDbEntity
  8
hidden
100
AcDbLine
 10
20.49999999999999
 20
156.0
 30
0.0
 11
22.5
 21
156.0
 31
0.0
  0
LINE
  5
16D
330
157
100
AcDbEntity
  8
hidden
100
AcDbLine
 10
-3.500000000000007
 20
156.0
 30
0.0
 11
16.5
 21
156.0
 31
0.0
  0
LINE
  5
16E
330
157
100
AcDbEntity
  8
hidden
100
AcDbLine
 10
-3.5
 20
136.0
 30
0.0
 11
-3.500000000000007
 21
156.0
 31
0.0
  0
LINE
  5
16F
330
157
100
AcDbEntity
  8
hidden
100
AcDbLine
 10
-21.5
 20
136.0
 30
0.0
 11
-21.5
 21
156.0
 31
0.0
  0
LINE
  5
170
330
157
100
AcDbEntity
  8
hidden
100
AcDbLine
 10
-21.5
 20
136.0
 30
0.0
 11
-3.5
 21
136.0
 31
0.0
  0
LINE
  5
171
330
157
100
AcDbEntity
  8
hidden
100
AcDbLine
 10
-15.5
 20
76.0
 30
0.0
 11
-15.5
 21
101.0
 31
0.0
  0
LINE
  5
172
330
157
100
AcDbEntity
  8
hidden
100
AcDbLine
 10
-15.5
 20
76.0
 30
0.0
 11
2.5
 21
76.0
 31
0.0
  0
LINE
  5
173
330
157
100
AcDbEntity
  8
hidden
100
AcDbLine
 10
-1.500000000000001
 20
16.0
 30
0.0
 11
-1.500000000000001
 21
41.00000000000001
 31
0.0
  0
LINE
  5
174
330
157
100
AcDbEntity
  8
hidden
100
AcDbLine
 10
16.5
 20
16.0
 30
0.0
 11
16.5
 21
41.00000000000001
 31
0.0
  0
LINE
  5
175
330
157
100
AcDbEntity
  8
hidden
100
AcDbLine
 10
-1.500000000000001
 20
16.0
 30
0.0
 11
16.5
 21
16.0
 31
0.0
  0
LINE
  5
176
330
157
100
AcDbEntity
  8
hidden
100
AcDbLine
 10
0.5
 20
75.0
 30
0.0
 11
0.5
 21
84.0
 31
0.0
  0
LINE
  5
177
330
157
100
AcDbEntity
  8
hidden
100
AcDbLine
 10
-13.5
 20
75.0
 30
0.0
 11
0.5
 21
75.0
 31
0.0
  0
LINE
  5
178
330
157
100
AcDbEntity
  8
hidden
100
AcDbLine
 10
-13.5
 20
75.0
 30
0.0
 11
-13.5
 21
84.0
 31
0.0
  0
LINE
  5
179
330
157
100
AcDbEntity
  8
hidden
100
AcDbLine
 10
-13.5
 20
84.0
 30
0.0
 11
0.5
 21
84.0
 31
0.0
  0
LINE
  5
17A
330
157
100
AcDbEntity
  8
hidden
100
AcDbLine
 10
-13.5
 20
77.0
 30
0.0
 11
0.5
 21
77.0
 31
0.0
  0
LINE
  5
17B
330
157
100
AcDbEntity
  8
hidden
100
AcDbLine
 10
-19.5
 20
135.0
 30
0.0
 11
-19.5
 21
144.0
 31
0.0
  0
LINE
  5
17C
330
157
100
AcDbEntity
  8
hidden
100
AcDbLine
 10
-5.5
 20
135.0
 30
0.0
 11
-5.5
 21
144.0
 31
0.0
  0
LINE
  5
17D
330
157
100
AcDbEntity
  8
hidden
100
AcDbLine
 10
-19.5
 20
135.0
 30
0.0
 11
-5.5
 21
135.0
 31
0.0
  0
LINE
  5
17E
330
157
100
AcDbEntity
  8
hidden
100
AcDbLine
 10
0.5000000000000004
 20
15.0
 30
0.0
 11
0.5000000000000004
 21
24.0
 31
0.0
  0
LINE
  5
17F
330
157
100
AcDbEntity
  8
hidden
100
AcDbLine
 10
0.5000000000000004
 20
15.0
 30
0.0
 11
15.5
 21
15.0
 31
0.0
  0
LINE
  5
180
330
157
100
AcDbEntity
  8
hidden
100
AcDbLine
 10
15.5
 20
15.0
 30
0.0
 11
15.5
 21
24.0
 31
0.0
  0
LINE
  5
181
330
157
100
AcDbEntity
  8
hidden
100
AcDbLine
 10
0.5000000000000004
 20
24.0
 30
0.0
 11
15.5
 21
24.0
 31
0.0
  0
LINE
  5
182
330
157
100
AcDbEntity
  8
hidden
100
AcDbLine
 10
0.5000000000000004
 20
17.0
 30
0.0
 11
15.5
 21
17.0
 31
0.0
  0
LINE
  5
183
330
157
100
AcDbEntity
  8
hidden
100
AcDbLine
 10
-19.5
 20
144.0
 30
0.0
 11
-5.5
 21
144.0
 31
0.0
  0
LINE
  5
184
330
157
100
AcDbEntity
  8
hidden
100
AcDbLine
 10
-19.5
 20
137.0
 30
0.0
 11
-5.5
 21
137.0
 31
0.0
  0
LINE
  5
185
330
157
100
AcDbEntity
  8
hidden
100
AcDbLine
 10
-15.5
 20
101.0
 30
0.0
 11
2.500000000000002
 21
101.0
 31
0.0
  0
LINE
  5
186
330
157
100
AcDbEntity
  8
hidden
100
AcDbLine
 10
-1.500000000000001
 20
26.0
 30
0.0
 11
16.5
 21
26.0
 31
0.0
  0
LINE
  5
187
330
157
100
AcDbEntity
  8
hidden
100
AcDbLine
 10
-22.5
 20
146.0
 30
0.0
 11
22.5
 21
146.0
 31
0.0
  0
LINE
  5
188
330
157
100
AcDbEntity
  8
hidden
100
AcDbLine
 10
-1.500000000000001
 20
41.00000000000001
 30
0.0
 11
16.5
 21
41.00000000000001
 31
0.0
  0
LINE
  5
189
330
157
100
AcDbEntity
  8
hidden
100
AcDbLine
 10
-22.5
 20
4.000000000000004
 30
0.0
 11
22.5
 21
4.000000000000004
 31
0.0
  0
LINE
  5
18A
330
157
100
AcDbEntity
  8
hidden
100
AcDbLine
 10
2.5
 20
76.0
 30
0.0
 11
2.500000000000002
 21
101.0
 31
0.0
  0
LINE
  5
18B
330
157
100
AcDbEntity
  8
hidden
100
AcDbLine
 10
-15.5
 20
86.0
 30
0.0
 11
2.5
 21
86.0
 31
0.0
  0
LINE
  5
18C
330
157
100
AcDbEntity
  8
hidden
100
AcDbLine
 10
17.5
 20
0.0
 30
0.0
 11
17.5
 21
127.0
 31
0.0
  0
LINE
  5
18D
330
157
100
AcDbEntity
  8
hidden
100
AcDbLine
 10
-18.5
 20
127.0
 30
0.0
 11
-17.5
 21
127.0
 31
0.0
  0
LINE
  5
18E
330
157
100
AcDbEntity
  8
hidden
100
AcDbLine
 10
-17.5
 20
0.0
 30
0.0
 11
-17.5
 21
127.0
 31
0.0
  0
LINE
  5
18F
330
157
100
AcDbEntity
  8
hidden
100
AcDbLine
 10
17.5
 20
127.0
 30
0.0
 11
18.5
 21
127.0
 31
0.0
  0
LINE
  5
190
330
157
100
AcDbEntity
  8
hidden
100
AcDbLine
 10
-18.5
 20
8.250000000000002
 30
0.0
 11
-14.5
 21
8.250000000000002
 31
0.0
  0
LINE
  5
191
330
157
100
AcDbEntity
  8
hidden
100
AcDbLine
 10
-14.5
 20
10.75
 30
0.0
 11
-18.5
 21
10.75
 31
0.0
  0
LINE
  5
192
330
157
100
AcDbEntity
  8
hidden
100
AcDbLine
 10
-14.5
 20
10.75
 30
0.0
 11
-14.5
 21
8.250000000000002
 31
0.0
  0
LINE
  5
193
330
157
100
AcDbEntity
  8
hidden
100
AcDbLine
 10
14.5
 20
83.25
 30
0.0
 11
18.5
 21
83.25
 31
0.0
  0
LINE
  5
194
330
157
100
AcDbEntity
  8
hidden
100
AcDbLine
 10
18.5
 20
85.75
 30
0.0
 11
14.5
 21
85.75
 31
0.0
  0
LINE
  5
195
330
157
100
AcDbEntity
  8
hidden
100
AcDbLine
 10
14.5
 20
85.75
 30
0.0
 11
14.5
 21
83.25
 31
0.0
  0
LINE
  5
196
330
157
100
AcDbEntity
  8
hidden
100
AcDbLine
 10
14.5
 20
93.25
 30
0.0
 11
18.5
 21
93.25
 31
0.0
  0
LINE
  5
197
330
157
100
AcDbEntity
  8
hidden
100
AcDbLine
 10
18.5
 20
95.75
 30
0.0
 11
14.5
 21
95.75
 31
0.0
  0
LINE
  5
198
330
157
100
AcDbEntity
  8
hidden
100
AcDbLine
 10
14.5
 20
95.75
 30
0.0
 11
14.5
 21
93.25
 31
0.0
  0
LINE
  5
199
330
157
100
AcDbEntity
  8
hidden
100
AcDbLine
 10
-18.5
 20
3.250000000000001
 30
0.0
 11
-14.5
 21
3.250000000000001
 31
0.0
  0
LINE
  5
19A
330
157
100
AcDbEntity
  8
hidden
100
AcDbLine
 10
-14.5
 20
5.75
 30
0.0
 11
-18.5
 21
5.75
 31
0.0
  0
LINE
  5
19B
330
157
100
AcDbEntity
  8
hidden
100
AcDbLine
 10
-14.5
 20
5.75
 30
0.0
 11
-14.5
 21
3.250000000000001
 31
0.0
  0
LINE
  5
19C
330
157
100
AcDbEntity
  8
hidden
100
AcDbLine
 10
-18.5
 20
118.25
 30
0.0
 11
-14.5
 21
118.25
 31
0.0
  0
LINE
  5
19D
330
157
100
AcDbEntity
  8
hidden
100
AcDbLine
 10
-14.5
 20
120.75
 30
0.0
 11
-18.5
 21
120.75
 31
0.0
  0
LINE
  5
19E
330
157
100
AcDbEntity
  8
hidden
100
AcDbLine
 10
-14.5
 20
120.75
 30
0.0
 11
-14.5
 21
118.25
 31
0.0
  0
LINE
  5
19F
330
157
100
AcDbEntity
  8
hidden
100
AcDbLine
 10
14.5
 20
113.25
 30
0.0
 11
18.5
 21
113.25
 31
0.0
  0
LINE
  5
1A0
330
157
100
AcDbEntity
  8
hidden
100
AcDbLine
 10
18.5
 20
115.75
 30
0.0
 11
14.5
 21
115.75
 31
0.0
  0
LINE
  5
1A1
330
157
100
AcDbEntity
  8
hidden
100
AcDbLine
 10
14.5
 20
115.75
 30
0.0
 11
14.5
 21
113.25
 31
0.0
  0
LINE
  5
1A2
330
157
100
AcDbEntity
  8
hidden
100
AcDbLine
 10
-18.5
 20
113.25
 30
0.0
 11
-14.5
 21
113.25
 31
0.0
  0
LINE
  5
1A3
330
157
100
AcDbEntity
  8
hidden
100
AcDbLine
 10
-14.5
 20
115.75
 30
0.0
 11
-18.5
 21
115.75
 31
0.0
  0
LINE
  5
1A4
330
157
100
AcDbEntity
  8
hidden
100
AcDbLine
 10
-14.5
 20
115.75
 30
0.0
 11
-14.5
 21
113.25
 31
0.0
  0
LINE
  5
1A5
330
157
100
AcDbEntity
  8
hidden
100
AcDbLine
 10
14.5
 20
88.25000000000001
 30
0.0
 11
18.5
 21
88.25000000000001
 31
0.0
  0
LINE
  5
1A6
330
157
100
AcDbEntity
  8
hidden
100
AcDbLine
 10
18.5
 20
90.75000000000001
 30
0.0
 11
14.5
 21
90.75000000000001
 31
0.0
  0
LINE
  5
1A7
330
157
100
AcDbEntity
  8
hidden
100
AcDbLine
 10
14.5
 20
90.75000000000001
 30
0.0
 11
14.5
 21
88.25000000000001
 31
0.0
  0
LINE
  5
1A8
330
157
100
AcDbEntity
  8
hidden
100
AcDbLine
 10
14.5
 20
123.25
 30
0.0
 11
18.5
 21
123.25
 31
0.0
  0
LINE
  5
1A9
330
157
100
AcDbEntity
  8
hidden
100
AcDbLine
 10
18.5
 20
125.75
 30
0.0
 11
14.5
 21
125.75
 31
0.0
  0
LINE
  5
1AA
330
157
100
AcDbEntity
  8
hidden
100
AcDbLine
 10
14.5
 20
125.75
 30
0.0
 11
14.5
 21
123.25
 31
0.0
  0
LINE
  5
1AB
330
157
100
AcDbEntity
  8
hidden
100
AcDbLine
 10
14.5
 20
98.25
 30
0.0
 11
18.5
 21
98.25
 31
0.0
  0
LINE
  5
1AC
330
157
100
AcDbEntity
  8
hidden
100
AcDbLine
 10
18.5
 20
100.75
 30
0.0
 11
14.5
 21
100.75
 31
0.0
  0
LINE
  5
1AD
330
157
100
AcDbEntity
  8
hidden
100
AcDbLine
 10
14.5
 20
100.75
 30
0.0
 11
14.5
 21
98.25
 31
0.0
  0
LINE
  5
1AE
330
157
100
AcDbEntity
  8
hidden
100
AcDbLine
 10
-18.5
 20
123.25
 30
0.0
 11
-14.5
 21
123.25
 31
0.0
  0
LINE
  5
1AF
330
157
100
AcDbEntity
  8
hidden
100
AcDbLine
 10
-14.5
 20
125.75
 30
0.0
 11
-18.5
 21
125.75
 31
0.0
  0
LINE
  5
1B0
330
157
100
AcDbEntity
  8
hidden
100
AcDbLine
 10
-14.5
 20
125.75
 30
0.0
 11
-14.5
 21
123.25
 31
0.0
  0
LINE
  5
1B1
330
157
100
AcDbEntity
  8
hidden
100
AcDbLine
 10
14.5
 20
103.25
 30
0.0
 11
18.5
 21
103.25
 31
0.0
  0
LINE
  5
1B2
330
157
100
AcDbEntity
  8
hidden
100
AcDbLine
 10
18.5
 20
105.75
 30
0.0
 11
14.5
 21
105.75
 31
0.0
  0
LINE
  5
1B3
330
157
100
AcDbEntity
  8
hidden
100
AcDbLine
 10
14.5
 20
105.75
 30
0.0
 11
14.5
 21
103.25
 31
0.0
  0
LINE
  5
1B4
330
157
100
AcDbEntity
  8
hidden
100
AcDbLine
 10
14.5
 20
78.25
 30
0.0
 11
18.5
 21
78.25
 31
0.0
  0
LINE
  5
1B5
330
157
100
AcDbEntity
  8
hidden
100
AcDbLine
 10
18.5
 20
80.75
 30
0.0
 11
14.5
 21
80.75
 31
0.0
  0
LINE
  5
1B6
330
157
100
AcDbEntity
  8
hidden
100
AcDbLine
 10
14.5
 20
80.75
 30
0.0
 11
14.5
 21
78.25
 31
0.0
  0
LINE
  5
1B7
330
157
100
AcDbEntity
  8
hidden
100
AcDbLine
 10
14.5
 20
13.25
 30
0.0
 11
18.5
 21
13.25
 31
0.0
  0
LINE
  5
1B8
330
157
100
AcDbEntity
  8
hidden
100
AcDbLine
 10
18.5
 20
15.75
 30
0.0
 11
14.5
 21
15.75
 31
0.0
  0
LINE
  5
1B9
330
157
100
AcDbEntity
  8
hidden
100
AcDbLine
 10
14.5
 20
15.75
 30
0.0
 11
14.5
 21
13.25
 31
0.0
  0
LINE
  5
1BA
330
157
100
AcDbEntity
  8
hidden
100
AcDbLine
 10
14.5
 20
118.25
 30
0.0
 11
18.5
 21
118.25
 31
0.0
  0
LINE
  5
1BB
330
157
100
AcDbEntity
  8
hidden
100
AcDbLine
 10
18.5
 20
120.75
 30
0.0
 11
14.5
 21
120.75
 31
0.0
  0
LINE
  5
1BC
330
157
100
AcDbEntity
  8
hidden
100
AcDbLine
 10
14.5
 20
120.75
 30
0.0
 11
14.5
 21
118.25
 31
0.0
  0
LINE
  5
1BD
330
157
100
AcDbEntity
  8
hidden
100
AcDbLine
 10
-18.5
 20
13.25
 30
0.0
 11
-14.5
 21
13.25
 31
0.0
  0
LINE
  5
1BE
330
157
100
AcDbEntity
  8
hidden
100
AcDbLine
 10
-14.5
 20
15.75
 30
0.0
 11
-18.5
 21
15.75
 31
0.0
  0
LINE
  5
1BF
330
157
100
AcDbEntity
  8
hidden
100
AcDbLine
 10
-14.5
 20
15.75
 30
0.0
 11
-14.5
 21
13.25
 31
0.0
  0
LINE
  5
1C0
330
157
100
AcDbEntity
  8
hidden
100
AcDbLine
 10
14.5
 20
108.25
 30
0.0
 11
18.5
 21
108.25
 31
0.0
  0
LINE
  5
1C1
330
157
100
AcDbEntity
  8
hidden
100
AcDbLine
 10
18.5
 20
110.75
 30
0.0
 11
14.5
 21
110.75
 31
0.0
  0
LINE
  5
1C2
330
157
100
AcDbEntity
  8
hidden
100
AcDbLine
 10
14.5
 20
110.75
 30
0.0
 11
14.5
 21
108.25
 31
0.0
  0
LINE
  5
1C3
330
157
100
AcDbEntity
  8
hidden
100
AcDbLine
 10
14.5
 20
18.25
 30
0.0
 11
18.5
 21
18.25
 31
0.0
  0
LINE
  5
1C4
330
157
100
AcDbEntity
  8
hidden
100
AcDbLine
 10
18.5
 20
20.75
 30
0.0
 11
14.5
 21
20.75
 31
0.0
  0
LINE
  5
1C5
330
157
100
AcDbEntity
  8
hidden
100
AcDbLine
 10
14.5
 20
20.75
 30
0.0
 11
14.5
 21
18.25
 31
0.0
  0
LINE
  5
1C6
330
157
100
AcDbEntity
  8
hidden
100
AcDbLine
 10
14.5
 20
28.25
 30
0.0
 11
18.5
 21
28.25
 31
0.0
  0
LINE
  5
1C7
330
157
100
AcDbEntity
  8
hidden
100
AcDbLine
 10
18.5
 20
30.75
 30
0.0
 11
14.5
 21
30.75
 31
0.0
  0
LINE
  5
1C8
330
157
100
AcDbEntity
  8
hidden
100
AcDbLine
 10
14.5
 20
30.75
 30
0.0
 11
14.5
 21
28.25
 31
0.0
  0
LINE
  5
1C9
330
157
100
AcDbEntity
  8
hidden
100
AcDbLine
 10
-18.5
 20
28.25
 30
0.0
 11
-14.5
 21
28.25
 31
0.0
  0
LINE
  5
1CA
330
157
100
AcDbEntity
  8
hidden
100
AcDbLine
 10
-14.5
 20
30.75
 30
0.0
 11
-18.5
 21
30.75
 31
0.0
  0
LINE
  5
1CB
330
157
100
AcDbEntity
  8
hidden
100
AcDbLine
 10
-14.5
 20
30.75
 30
0.0
 11
-14.5
 21
28.25
 31
0.0
  0
LINE
  5
1CC
330
157
100
AcDbEntity
  8
hidden
100
AcDbLine
 10
14.5
 20
33.25
 30
0.0
 11
18.5
 21
33.25
 31
0.0
  0
LINE
  5
1CD
330
157
100
AcDbEntity
  8
hidden
100
AcDbLine
 10
18.5
 20
35.75000000000001
 30
0.0
 11
14.5
 21
35.75000000000001
 31
0.0
  0
LINE
  5
1CE
330
157
100
AcDbEntity
  8
hidden
100
AcDbLine
 10
14.5
 20
35.75000000000001
 30
0.0
 11
14.5
 21
33.25
 31
0.0
  0
LINE
  5
1CF
330
157
100
AcDbEntity
  8
hidden
100
AcDbLine
 10
14.5
 20
38.25000000000001
 30
0.0
 11
18.5
 21
38.25000000000001
 31
0.0
  0
LINE
  5
1D0
330
157
100
AcDbEntity
  8
hidden
100
AcDbLine
 10
18.5
 20
40.75000000000001
 30
0.0
 11
14.5
 21
40.75000000000001
 31
0.0
  0
LINE
  5
1D1
330
157
100
AcDbEntity
  8
hidden
100
AcDbLine
 10
14.5
 20
40.75000000000001
 30
0.0
 11
14.5
 21
38.25000000000001
 31
0.0
  0
LINE
  5
1D2
330
157
100
AcDbEntity
  8
hidden
100
AcDbLine
 10
14.5
 20
48.25
 30
0.0
 11
18.5
 21
48.25
 31
0.0
  0
LINE
  5
1D3
330
157
100
AcDbEntity
  8
hidden
100
AcDbLine
 10
18.5
 20
50.75
 30
0.0
 11
14.5
 21
50.75
 31
0.0
  0
LINE
  5
1D4
330
157
100
AcDbEntity
  8
hidden
100
AcDbLine
 10
14.5
 20
50.75
 30
0.0
 11
14.5
 21
48.25
 31
0.0
  0
LINE
  5
1D5
330
157
100
AcDbEntity
  8
hidden
100
AcDbLine
 10
14.5
 20
53.25000000000001
 30
0.0
 11
18.5
 21
53.25000000000001
 31
0.0
  0
LINE
  5
1D6
330
157
100
AcDbEntity
  8
hidden
100
AcDbLine
 10
18.5
 20
55.75000000000001
 30
0.0
 11
14.5
 21
55.75000000000001
 31
0.0
  0
LINE
  5
1D7
330
157
100
AcDbEntity
  8
hidden
100
AcDbLine
 10
14.5
 20
55.75000000000001
 30
0.0
 11
14.5
 21
53.25000000000001
 31
0.0
  0
LINE
  5
1D8
330
157
100
AcDbEntity
  8
hidden
100
AcDbLine
 10
14.5
 20
58.24999999999999
 30
0.0
 11
18.5
 21
58.24999999999999
 31
0.0
  0
LINE
  5
1D9
330
157
100
AcDbEntity
  8
hidden
100
AcDbLine
 10
18.5
 20
60.75
 30
0.0
 11
14.5
 21
60.75
 31
0.0
  0
LINE
  5
1DA
330
157
100
AcDbEntity
  8
hidden
100
AcDbLine
 10
14.5
 20
60.75
 30
0.0
 11
14.5
 21
58.24999999999999
 31
0.0
  0
LINE
  5
1DB
330
157
100
AcDbEntity
  8
hidden
100
AcDbLine
 10
14.5
 20
23.25
 30
0.0
 11
18.5
 21
23.25
 31
0.0
  0
LINE
  5
1DC
330
157
100
AcDbEntity
  8
hidden
100
AcDbLine
 10
18.5
 20
25.75
 30
0.0
 11
14.5
 21
25.75
 31
0.0
  0
LINE
  5
1DD
330
157
100
AcDbEntity
  8
hidden
100
AcDbLine
 10
14.5
 20
25.75
 30
0.0
 11
14.5
 21
23.25
 31
0.0
  0
LINE
  5
1DE
330
157
100
AcDbEntity
  8
hidden
100
AcDbLine
 10
-18.5
 20
63.25
 30
0.0
 11
-14.5
 21
63.25
 31
0.0
  0
LINE
  5
1DF
330
157
100
AcDbEntity
  8
hidden
100
AcDbLine
 10
-14.5
 20
65.75
 30
0.0
 11
-18.5
 21
65.75
 31
0.0
  0
LINE
  5
1E0
330
157
100
AcDbEntity
  8
hidden
100
AcDbLine
 10
-14.5
 20
65.75
 30
0.0
 11
-14.5
 21
63.25
 31
0.0
  0
LINE
  5
1E1
330
157
100
AcDbEntity
  8
hidden
100
AcDbLine
 10
-18.5
 20
33.25
 30
0.0
 11
-14.5
 21
33.25
 31
0.0
  0
LINE
  5
1E2
330
157
100
AcDbEntity
  8
hidden
100
AcDbLine
 10
-14.5
 20
35.75000000000001
 30
0.0
 11
-18.5
 21
35.75000000000001
 31
0.0
  0
LINE
  5
1E3
330
157
100
AcDbEntity
  8
hidden
100
AcDbLine
 10
-14.5
 20
35.75000000000001
 30
0.0
 11
-14.5
 21
33.25
 31
0.0
  0
LINE
  5
1E4
330
157
100
AcDbEntity
  8
hidden
100
AcDbLine
 10
14.5
 20
73.25000000000001
 30
0.0
 11
18.5
 21
73.25000000000001
 31
0.0
  0
LINE
  5
1E5
330
157
100
AcDbEntity
  8
hidden
100
AcDbLine
 10
18.5
 20
75.75000000000001
 30
0.0
 11
14.5
 21
75.75000000000001
 31
0.0
  0
LINE
  5
1E6
330
157
100
AcDbEntity
  8
hidden
100
AcDbLine
 10
14.5
 20
75.75000000000001
 30
0.0
 11
14.5
 21
73.25000000000001
 31
0.0
  0
LINE
  5
1E7
330
157
100
AcDbEntity
  8
hidden
100
AcDbLine
 10
-18.5
 20
23.25
 30
0.0
 11
-14.5
 21
23.25
 31
0.0
  0
LINE
  5
1E8
330
157
100
AcDbEntity
  8
hidden
100
AcDbLine
 10
-14.5
 20
25.75
 30
0.0
 11
-18.5
 21
25.75
 31
0.0
  0
LINE
  5
1E9
330
157
100
AcDbEntity
  8
hidden
100
AcDbLine
 10
-14.5
 20
25.75
 30
0.0
 11
-14.5
 21
23.25
 31
0.0
  0
LINE
  5
1EA
330
157
100
AcDbEntity
  8
hidden
100
AcDbLine
 10
-18.5
 20
58.24999999999999
 30
0.0
 11
-14.5
 21
58.24999999999999
 31
0.0
  0
LINE
  5
1EB
330
157
100
AcDbEntity
  8
hidden
100
AcDbLine
 10
-14.5
 20
60.75
 30
0.0
 11
-18.5
 21
60.75
 31
0.0
  0
LINE
  5
1EC
330
157
100
AcDbEntity
  8
hidden
100
AcDbLine
 10
-14.5
 20
60.75
 30
0.0
 11
-14.5
 21
58.24999999999999
 31
0.0
  0
LINE
  5
1ED
330
157
100
AcDbEntity
  8
hidden
100
AcDbLine
 10
-18.5
 20
93.25
 30
0.0
 11
-14.5
 21
93.25
 31
0.0
  0
LINE
  5
1EE
330
157
100
AcDbEntity
  8
hidden
100
AcDbLine
 10
-14.5
 20
95.75
 30
0.0
 11
-18.5
 21
95.75
 31
0.0
  0
LINE
  5
1EF
330
157
100
AcDbEntity
  8
hidden
100
AcDbLine
 10
-14.5
 20
95.75
 30
0.0
 11
-14.5
 21
93.25
 31
0.0
  0
LINE
  5
1F0
330
157
100
AcDbEntity
  8
hidden
100
AcDbLine
 10
-18.5
 20
38.25000000000001
 30
0.0
 11
-14.5
 21
38.25000000000001
 31
0.0
  0
LINE
  5
1F1
330
157
100
AcDbEntity
  8
hidden
100
AcDbLine
 10
-14.5
 20
40.75000000000001
 30
0.0
 11
-18.5
 21
40.75000000000001
 31
0.0
  0
LINE
  5
1F2
330
157
100
AcDbEntity
  8
hidden
100
AcDbLine
 10
-14.5
 20
40.75000000000001
 30
0.0
 11
-14.5
 21
38.25000000000001
 31
0.0
  0
LINE
  5
1F3
330
157
100
AcDbEntity
  8
hidden
100
AcDbLine
 10
-18.5
 20
43.25
 30
0.0
 11
-14.5
 21
43.25
 31
0.0
  0
LINE
  5
1F4
330
157
100
AcDbEntity
  8
hidden
100
AcDbLine
 10
-14.5
 20
45.75
 30
0.0
 11
-18.5
 21
45.75
 31
0.0
  0
LINE
  5
1F5
330
157
100
AcDbEntity
  8
hidden
100
AcDbLine
 10
-14.5
 20
45.75
 30
0.0
 11
-14.5
 21
43.25
 31
0.0
  0
LINE
  5
1F6
330
157
100
AcDbEntity
  8
hidden
100
AcDbLine
 10
-18.5
 20
108.25
 30
0.0
 11
-14.5
 21
108.25
 31
0.0
  0
LINE
  5
1F7
330
157
100
AcDbEntity
  8
hidden
100
AcDbLine
 10
-14.5
 20
110.75
 30
0.0
 11
-18.5
 21
110.75
 31
0.0
  0
LINE
  5
1F8
330
157
100
AcDbEntity
  8
hidden
100
AcDbLine
 10
-14.5
 20
110.75
 30
0.0
 11
-14.5
 21
108.25
 31
0.0
  0
LINE
  5
1F9
330
157
100
AcDbEntity
  8
hidden
100
AcDbLine
 10
-18.5
 20
48.25
 30
0.0
 11
-14.5
 21
48.25
 31
0.0
  0
LINE
  5
1FA
330
157
100
AcDbEntity
  8
hidden
100
AcDbLine
 10
-14.5
 20
50.75
 30
0.0
 11
-18.5
 21
50.75
 31
0.0
  0
LINE
  5
1FB
330
157
100
AcDbEntity
  8
hidden
100
AcDbLine
 10
-14.5
 20
50.75
 30
0.0
 11
-14.5
 21
48.25
 31
0.0
  0
LINE
  5
1FC
330
157
100
AcDbEntity
  8
hidden
100
AcDbLine
 10
-18.5
 20
18.25
 30
0.0
 11
-14.5
 21
18.25
 31
0.0
  0
LINE
  5
1FD
330
157
100
AcDbEntity
  8
hidden
100
AcDbLine
 10
-14.5
 20
20.75
 30
0.0
 11
-18.5
 21
20.75
 31
0.0
  0
LINE
  5
1FE
330
157
100
AcDbEntity
  8
hidden
100
AcDbLine
 10
-14.5
 20
20.75
 30
0.0
 11
-14.5
 21
18.25
 31
0.0
  0
LINE
  5
1FF
330
157
100
AcDbEntity
  8
hidden
100
AcDbLine
 10
-18.5
 20
53.25000000000001
 30
0.0
 11
-14.5
 21
53.25000000000001
 31
0.0
  0
LINE
  5
200
330
157
100
AcDbEntity
  8
hidden
100
AcDbLine
 10
-14.5
 20
55.75000000000001
 30
0.0
 11
-18.5
 21
55.75000000000001
 31
0.0
  0
LINE
  5
201
330
157
100
AcDbEntity
  8
hidden
100
AcDbLine
 10
-14.5
 20
55.75000000000001
 30
0.0
 11
-14.5
 21
53.25000000000001
 31
0.0
  0
LINE
  5
202
330
157
100
AcDbEntity
  8
hidden
100
AcDbLine
 10
14.5
 20
3.250000000000001
 30
0.0
 11
18.5
 21
3.250000000000001
 31
0.0
  0
LINE
  5
203
330
157
100
AcDbEntity
  8
hidden
100
AcDbLine
 10
18.5
 20
5.75
 30
0.0
 11
14.5
 21
5.75
 31
0.0
  0
LINE
  5
204
330
157
100
AcDbEntity
  8
hidden
100
AcDbLine
 10
14.5
 20
5.75
 30
0.0
 11
14.5
 21
3.250000000000001
 31
0.0
  0
LINE
  5
205
330
157
100
AcDbEntity
  8
hidden
100
AcDbLine
 10
-18.5
 20
88.25000000000001
 30
0.0
 11
-14.5
 21
88.25000000000001
 31
0.0
  0
LINE
  5
206
330
157
100
AcDbEntity
  8
hidden
100
AcDbLine
 10
-14.5
 20
90.75000000000001
 30
0.0
 11
-18.5
 21
90.75000000000001
 31
0.0
  0
LINE
  5
207
330
157
100
AcDbEntity
  8
hidden
100
AcDbLine
 10
-14.5
 20
90.75000000000001
 30
0.0
 11
-14.5
 21
88.25000000000001
 31
0.0
  0
LINE
  5
208
330
157
100
AcDbEntity
  8
hidden
100
AcDbLine
 10
-18.5
 20
78.25
 30
0.0
 11
-14.5
 21
78.25
 31
0.0
  0
LINE
  5
209
330
157
100
AcDbEntity
  8
hidden
100
AcDbLine
 10
-14.5
 20
80.75
 30
0.0
 11
-18.5
 21
80.75
 31
0.0
  0
LINE
  5
20A
330
157
100
AcDbEntity
  8
hidden
100
AcDbLine
 10
-14.5
 20
80.75
 30
0.0
 11
-14.5
 21
78.25
 31
0.0
  0
LINE
  5
20B
330
157
100
AcDbEntity
  8
hidden
100
AcDbLine
 10
14.5
 20
8.250000000000002
 30
0.0
 11
18.5
 21
8.250000000000002
 31
0.0
  0
LINE
  5
20C
330
157
100
AcDbEntity
  8
hidden
100
AcDbLine
 10
18.5
 20
10.75
 30
0.0
 11
14.5
 21
10.75
 31
0.0
  0
LINE
  5
20D
330
157
100
AcDbEntity
  8
hidden
100
AcDbLine
 10
14.5
 20
10.75
 30
0.0
 11
14.5
 21
8.250000000000002
 31
0.0
  0
LINE
  5
20E
330
157
100
AcDbEntity
  8
hidden
100
AcDbLine
 10
-18.5
 20
68.25
 30
0.0
 11
-14.5
 21
68.25
 31
0.0
  0
LINE
  5
20F
330
157
100
AcDbEntity
  8
hidden
100
AcDbLine
 10
-14.5
 20
70.75000000000001
 30
0.0
 11
-18.5
 21
70.75000000000001
 31
0.0
  0
LINE
  5
210
330
157
100
AcDbEntity
  8
hidden
100
AcDbLine
 10
-14.5
 20
70.75000000000001
 30
0.0
 11
-14.5
 21
68.25
 31
0.0
  0
LINE
  5
211
330
157
100
AcDbEntity
  8
hidden
100
AcDbLine
 10
-18.5
 20
103.25
 30
0.0
 11
-14.5
 21
103.25
 31
0.0
  0
LINE
  5
212
330
157
100
AcDbEntity
  8
hidden
100
AcDbLine
 10
-14.5
 20
105.75
 30
0.0
 11
-18.5
 21
105.75
 31
0.0
  0
LINE
  5
213
330
157
100
AcDbEntity
  8
hidden
100
AcDbLine
 10
-14.5
 20
105.75
 30
0.0
 11
-14.5
 21
103.25
 31
0.0
  0
LINE
  5
214
330
157
100
AcDbEntity
  8
hidden
100
AcDbLine
 10
14.5
 20
43.25
 30
0.0
 11
18.5
 21
43.25
 31
0.0
  0
LINE
  5
215
330
157
100
AcDbEntity
  8
hidden
100
AcDbLine
 10
18.5
 20
45.75
 30
0.0
 11
14.5
 21
45.75
 31
0.0
  0
LINE
  5
216
330
157
100
AcDbEntity
  8
hidden
100
AcDbLine
 10
14.5
 20
45.75
 30
0.0
 11
14.5
 21
43.25
 31
0.0
  0
LINE
  5
217
330
157
100
AcDbEntity
  8
hidden
100
AcDbLine
 10
14.5
 20
63.25
 30
0.0
 11
18.5
 21
63.25
 31
0.0
  0
LINE
  5
218
330
157
100
AcDbEntity
  8
hidden
100
AcDbLine
 10
18.5
 20
65.75
 30
0.0
 11
14.5
 21
65.75
 31
0.0
  0
LINE
  5
219
330
157
100
AcDbEntity
  8
hidden
100
AcDbLine
 10
14.5
 20
65.75
 30
0.0
 11
14.5
 21
63.25
 31
0.0
  0
LINE
  5
21A
330
157
100
AcDbEntity
  8
hidden
100
AcDbLine
 10
-18.5
 20
83.25
 30
0.0
 11
-14.5
 21
83.25
 31
0.0
  0
LINE
  5
21B
330
157
100
AcDbEntity
  8
hidden
100
AcDbLine
 10
-14.5
 20
85.75
 30
0.0
 11
-18.5
 21
85.75
 31
0.0
  0
LINE
  5
21C
330
157
100
AcDbEntity
  8
hidden
100
AcDbLine
 10
-14.5
 20
85.75
 30
0.0
 11
-14.5
 21
83.25
 31
0.0
  0
LINE
  5
21D
330
157
100
AcDbEntity
  8
hidden
100
AcDbLine
 10
14.5
 20
68.25
 30
0.0
 11
18.5
 21
68.25
 31
0.0
  0
LINE
  5
21E
330
157
100
AcDbEntity
  8
hidden
100
AcDbLine
 10
18.5
 20
70.75000000000001
 30
0.0
 11
14.5
 21
70.75000000000001
 31
0.0
  0
LINE
  5
21F
330
157
100
AcDbEntity
  8
hidden
100
AcDbLine
 10
14.5
 20
70.75000000000001
 30
0.0
 11
14.5
 21
68.25
 31
0.0
  0
LINE
  5
220
330
157
100
AcDbEntity
  8
hidden
100
AcDbLine
 10
-18.5
 20
73.25000000000001
 30
0.0
 11
-14.5
 21
73.25000000000001
 31
0.0
  0
LINE
  5
221
330
157
100
AcDbEntity
  8
hidden
100
AcDbLine
 10
-14.5
 20
75.75000000000001
 30
0.0
 11
-18.5
 21
75.75000000000001
 31
0.0
  0
LINE
  5
222
330
157
100
AcDbEntity
  8
hidden
100
AcDbLine
 10
-14.5
 20
75.75000000000001
 30
0.0
 11
-14.5
 21
73.25000000000001
 31
0.0
  0
LINE
  5
223
330
157
100
AcDbEntity
  8
hidden
100
AcDbLine
 10
-18.5
 20
98.25
 30
0.0
 11
-14.5
 21
98.25
 31
0.0
  0
LINE
  5
224
330
157
100
AcDbEntity
  8
hidden
100
AcDbLine
 10
-14.5
 20
100.75
 30
0.0
 11
-18.5
 21
100.75
 31
0.0
  0
LINE
  5
225
330
157
100
AcDbEntity
  8
hidden
100
AcDbLine
 10
-14.5
 20
100.75
 30
0.0
 11
-14.5
 21
98.25
 31
0.0
  0
LINE
  5
226
330
157
100
AcDbEntity
  8
hidden
100
AcDbLine
 10
-18.5
 20
48.49974596215561
 30
0.0
 11
-18.5
 21
104.6
 31
0.0
  0
CIRCLE
  5
227
330
157
100
AcDbEntity
  8
hidden
100
AcDbCircle
 10
-15.35
 20
102.0
 30
0.0
 40
1.2
  0
ARC
  5
228
330
157
100
AcDbEntity
  8
hidden
100
AcDbCircle
 10
-15.34999999999998
 20
87.00000000000001
 30
0.0
 40
1.199999999999999
100
AcDbArc
 50
294.9513010927217
 51
245.0486989072818
  0
ARC
  5
229
330
157
100
AcDbEntity
  8
hidden
100
AcDbCircle
 10
-15.34999999999999
 20
82.0
 30
0.0
 40
1.2
100
AcDbArc
 50
114.9513010927909
 51
65.04869890722199
  0
CIRCLE
  5
22A
330
157
100
AcDbEntity
  8
hidden
100
AcDbCircle
 10
-15.35
 20
72.00000000000001
 30
0.0
 40
1.2
  0
ARC
  5
22B
330
157
100
AcDbEntity
  8
hidden
100
AcDbCircle
 10
-15.35
 20
67.0000000000001
 30
0.0
 40
1.200000000000019
100
AcDbArc
 50
345.4731699721117
 51
194.5268300278721
  0
ARC
  5
22C
330
157
100
AcDbEntity
  8
hidden
100
AcDbCircle
 10
-15.35
 20
57.0
 30
0.0
 40
1.200000000000001
100
AcDbArc
 50
165.4731699722261
 51
14.52683002780407
  0
CIRCLE
  5
22D
330
157
100
AcDbEntity
  8
hidden
100
AcDbCircle
 10
-15.35
 20
52.00000000000001
 30
0.0
 40
1.2
  0
LINE
  5
22E
330
157
100
AcDbEntity
  8
hidden
100
AcDbLine
 10
-12.5
 20
48.49974596215561
 30
0.0
 11
-12.5
 21
104.6
 31
0.0
  0
LINE
  5
22F
330
157
100
AcDbEntity
  8
hidden
100
AcDbLine
 10
18.5
 20
48.49974596215561
 30
0.0
 11
18.5
 21
104.6
 31
0.0
  0
CIRCLE
  5
230
330
157
100
AcDbEntity
  8
hidden
100
AcDbCircle
 10
15.35
 20
52.00000000000001
 30
0.0
 40
1.2
  0
ARC
  5
231
330
157
100
AcDbEntity
  8
hidden
100
AcDbCircle
 10
15.35
 20
57.0
 30
0.0
 40
1.200000000000006
100
AcDbArc
 50
165.473169972196
 51
14.526830027774
  0
ARC
  5
232
330
157
100
AcDbEntity
  8
hidden
100
AcDbCircle
 10
15.35
 20
66.9999999999997
 30
0.0
 40
1.199999999999922
100
AcDbArc
 50
345.4731699721463
 51
194.5268300278698
  0
CIRCLE
  5
233
330
157
100
AcDbEntity
  8
hidden
100
AcDbCircle
 10
15.35
 20
72.00000000000001
 30
0.0
 40
1.2
  0
ARC
  5
234
330
157
100
AcDbEntity
  8
hidden
100
AcDbCircle
 10
15.34999999999999
 20
82.0
 30
0.0
 40
1.199999999999999
100
AcDbArc
 50
114.951301092778
 51
65.048698907209
  0
ARC
  5
235
330
157
100
AcDbEntity
  8
hidden
100
AcDbCircle
 10
15.35000000000001
 20
86.99999999999999
 30
0.0
 40
1.199999999999972
100
AcDbArc
 50
294.9513010927174
 51
245.0486989072763
  0
CIRCLE
  5
236
330
157
100
AcDbEntity
  8
hidden
100
AcDbCircle
 10
15.35
 20
102.0
 30
0.0
 40
1.2
  0
LINE
  5
237
330
157
100
AcDbEntity
  8
hidden
100
AcDbLine
 10
12.49999999999999
 20
48.49974596215561
 30
0.0
 11
12.5
 21
104.6
 31
0.0
  0
CIRCLE
  5
238
330
157
100
AcDbEntity
  8
hidden
100
AcDbCircle
 10
-15.34999999999999
 20
97.0
 30
0.0
 40
1.199999999999992
  0
CIRCLE
  5
239
330
157
100
AcDbEntity
  8
hidden
100
AcDbCircle
 10
-15.34999999999988
 20
76.99999999999997
 30
0.0
 40
1.199999999999876
  0
CIRCLE
  5
23A
330
157
100
AcDbEntity
  8
hidden
100
AcDbCircle
 10
-15.35000000000001
 20
62.0
 30
0.0
 40
1.199999999999992
  0
CIRCLE
  5
23B
330
157
100
AcDbEntity
  8
hidden
100
AcDbCircle
 10
15.35
 20
62.0
 30
0.0
 40
1.200000000000003
  0
CIRCLE
  5
23C
330
157
100
AcDbEntity
  8
hidden
100
AcDbCircle
 10
15.35000000000004
 20
76.99999999999999
 30
0.0
 40
1.199999999999955
  0
CIRCLE
  5
23D
330
157
100
AcDbEntity
  8
hidden
100
AcDbCircle
 10
15.35
 20
91.99999999999996
 30
0.0
 40
1.200000000000045
  0
CIRCLE
  5
23E
330
157
100
AcDbEntity
  8
hidden
100
AcDbCircle
 10
15.35
 20
97.0
 30
0.0
 40
1.199999999999991
  0
LINE
  5
23F
330
157
100
AcDbEntity
  8
center
100
AcDbLine
 10
-16.61
 20
107.0
 30
0.0
 11
-14.09
 21
107.0
 31
0.0
  0
LINE
  5
240
330
157
100
AcDbEntity
  8
center
100
AcDbLine
 10
-15.35
 20
105.74
 30
0.0
 11
-15.35
 21
108.26
 31
0.0
  0
LINE
  5
241
330
157
100
AcDbEntity
  8
center
100
AcDbLine
 10
-16.61
 20
17.0
 30
0.0
 11
-14.09
 21
17.0
 31
0.0
  0
LINE
  5
242
330
157
100
AcDbEntity
  8
center
100
AcDbLine
 10
-15.35
 20
15.74
 30
0.0
 11
-15.35
 21
18.26
 31
0.0
  0
LINE
  5
243
330
157
100
AcDbEntity
  8
center
100
AcDbLine
 10
-16.61
 20
42.0
 30
0.0
 11
-14.09
 21
42.0
 31
0.0
  0
LINE
  5
244
330
157
100
AcDbEntity
  8
center
100
AcDbLine
 10
-15.35
 20
40.74
 30
0.0
 11
-15.35
 21
43.26
 31
0.0
  0
LINE
  5
245
330
157
100
AcDbEntity
  8
center
100
AcDbLine
 10
-16.61
 20
2.0
 30
0.0
 11
-14.09
 21
2.0
 31
0.0
  0
LINE
  5
246
330
157
100
AcDbEntity
  8
center
100
AcDbLine
 10
-15.35
 20
0.7399999999999998
 30
0.0
 11
-15.35
 21
3.26
 31
0.0
  0
LINE
  5
247
330
157
100
AcDbEntity
  8
center
100
AcDbLine
 10
-16.61
 20
127.0
 30
0.0
 11
-14.09
 21
127.0
 31
0.0
  0
LINE
  5
248
330
157
100
AcDbEntity
  8
center
100
AcDbLine
 10
-15.35
 20
125.74
 30
0.0
 11
-15.35
 21
128.26
 31
0.0
  0
LINE
  5
249
330
157
100
AcDbEntity
  8
center
100
AcDbLine
 10
-16.61
 20
122.0
 30
0.0
 11
-14.09
 21
122.0
 31
0.0
  0
LINE
  5
24A
330
157
100
AcDbEntity
  8
center
100
AcDbLine
 10
-15.35
 20
120.74
 30
0.0
 11
-15.35
 21
123.26
 31
0.0
  0
LINE
  5
24B
330
157
100
AcDbEntity
  8
center
100
AcDbLine
 10
-16.61
 20
117.0
 30
0.0
 11
-14.09
 21
117.0
 31
0.0
  0
LINE
  5
24C
330
157
100
AcDbEntity
  8
center
100
AcDbLine
 10
-15.35
 20
115.74
 30
0.0
 11
-15.35
 21
118.26
 31
0.0
  0
LINE
  5
24D
330
157
100
AcDbEntity
  8
center
100
AcDbLine
 10
-16.61
 20
112.0
 30
0.0
 11
-14.09
 21
112.0
 31
0.0
  0
LINE
  5
24E
330
157
100
AcDbEntity
  8
center
100
AcDbLine
 10
-15.35
 20
110.74
 30
0.0
 11
-15.35
 21
113.26
 31
0.0
  0
LINE
  5
24F
330
157
100
AcDbEntity
  8
center
100
AcDbLine
 10
-16.61
 20
102.0
 30
0.0
 11
-14.09
 21
102.0
 31
0.0
  0
LINE
  5
250
330
157
100
AcDbEntity
  8
center
100
AcDbLine
 10
-15.35
 20
100.74
 30
0.0
 11
-15.35
 21
103.26
 31
0.0
  0
LINE
  5
251
330
157
100
AcDbEntity
  8
center
100
AcDbLine
 10
-16.61
 20
72.00000000000001
 30
0.0
 11
-14.09
 21
72.00000000000001
 31
0.0
  0
LINE
  5
252
330
157
100
AcDbEntity
  8
center
100
AcDbLine
 10
-15.35
 20
70.74000000000001
 30
0.0
 11
-15.35
 21
73.26000000000002
 31
0.0
  0
LINE
  5
253
330
157
100
AcDbEntity
  8
center
100
AcDbLine
 10
-16.61
 20
52.00000000000001
 30
0.0
 11
-14.09
 21
52.00000000000001
 31
0.0
  0
LINE
  5
254
330
157
100
AcDbEntity
  8
center
100
AcDbLine
 10
-15.35
 20
50.74000000000001
 30
0.0
 11
-15.35
 21
53.26000000000001
 31
0.0
  0
LINE
  5
255
330
157
100
AcDbEntity
  8
center
100
AcDbLine
 10
-16.61
 20
47.0
 30
0.0
 11
-14.09
 21
47.0
 31
0.0
  0
LINE
  5
256
330
157
100
AcDbEntity
  8
center
100
AcDbLine
 10
-15.35
 20
45.74
 30
0.0
 11
-15.35
 21
48.26
 31
0.0
  0
LINE
  5
257
330
157
100
AcDbEntity
  8
center
100
AcDbLine
 10
-16.61
 20
37.0
 30
0.0
 11
-14.09
 21
37.0
 31
0.0
  0
LINE
  5
258
330
157
100
AcDbEntity
  8
center
100
AcDbLine
 10
-15.35
 20
35.74
 30
0.0
 11
-15.35
 21
38.26
 31
0.0
  0
LINE
  5
259
330
157
100
AcDbEntity
  8
center
100
AcDbLine
 10
-16.61
 20
32.0
 30
0.0
 11
-14.09
 21
32.0
 31
0.0
  0
LINE
  5
25A
330
157
100
AcDbEntity
  8
center
100
AcDbLine
 10
-15.35
 20
30.74
 30
0.0
 11
-15.35
 21
33.26
 31
0.0
  0
LINE
  5
25B
330
157
100
AcDbEntity
  8
center
100
AcDbLine
 10
-16.61
 20
27.0
 30
0.0
 11
-14.09
 21
27.0
 31
0.0
  0
LINE
  5
25C
330
157
100
AcDbEntity
  8
center
100
AcDbLine
 10
-15.35
 20
25.74
 30
0.0
 11
-15.35
 21
28.26000000000001
 31
0.0
  0
LINE
  5
25D
330
157
100
AcDbEntity
  8
center
100
AcDbLine
 10
-16.61
 20
22.0
 30
0.0
 11
-14.09
 21
22.0
 31
0.0
  0
LINE
  5
25E
330
157
100
AcDbEntity
  8
center
100
AcDbLine
 10
-15.35
 20
20.74
 30
0.0
 11
-15.35
 21
23.26
 31
0.0
  0
LINE
  5
25F
330
157
100
AcDbEntity
  8
center
100
AcDbLine
 10
-16.61
 20
12.0
 30
0.0
 11
-14.09
 21
12.0
 31
0.0
  0
LINE
  5
260
330
157
100
AcDbEntity
  8
center
100
AcDbLine
 10
-15.35
 20
10.74
 30
0.0
 11
-15.35
 21
13.26
 31
0.0
  0
LINE
  5
261
330
157
100
AcDbEntity
  8
center
100
AcDbLine
 10
-16.61
 20
7.0
 30
0.0
 11
-14.09
 21
7.0
 31
0.0
  0
LINE
  5
262
330
157
100
AcDbEntity
  8
center
100
AcDbLine
 10
-15.35
 20
5.74
 30
0.0
 11
-15.35
 21
8.26
 31
0.0
  0
LINE
  5
263
330
157
100
AcDbEntity
  8
center
100
AcDbLine
 10
14.09
 20
37.0
 30
0.0
 11
16.61
 21
37.0
 31
0.0
  0
LINE
  5
264
330
157
100
AcDbEntity
  8
center
100
AcDbLine
 10
15.35
 20
35.74
 30
0.0
 11
15.35
 21
38.26
 31
0.0
  0
LINE
  5
265
330
157
100
AcDbEntity
  8
center
100
AcDbLine
 10
14.09
 20
2.0
 30
0.0
 11
16.61
 21
2.0
 31
0.0
  0
LINE
  5
266
330
157
100
AcDbEntity
  8
center
100
AcDbLine
 10
15.35
 20
0.7399999999999998
 30
0.0
 11
15.35
 21
3.26
 31
0.0
  0
LINE
  5
267
330
157
100
AcDbEntity
  8
center
100
AcDbLine
 10
14.09
 20
7.0
 30
0.0
 11
16.61
 21
7.0
 31
0.0
  0
LINE
  5
268
330
157
100
AcDbEntity
  8
center
100
AcDbLine
 10
15.35
 20
5.74
 30
0.0
 11
15.35
 21
8.26
 31
0.0
  0
LINE
  5
269
330
157
100
AcDbEntity
  8
center
100
AcDbLine
 10
14.09
 20
12.0
 30
0.0
 11
16.61
 21
12.0
 31
0.0
  0
LINE
  5
26A
330
157
100
AcDbEntity
  8
center
100
AcDbLine
 10
15.35
 20
10.74
 30
0.0
 11
15.35
 21
13.26
 31
0.0
  0
LINE
  5
26B
330
157
100
AcDbEntity
  8
center
100
AcDbLine
 10
14.09
 20
17.0
 30
0.0
 11
16.61
 21
17.0
 31
0.0
  0
LINE
  5
26C
330
157
100
AcDbEntity
  8
center
100
AcDbLine
 10
15.35
 20
15.74
 30
0.0
 11
15.35
 21
18.26
 31
0.0
  0
LINE
  5
26D
330
157
100
AcDbEntity
  8
center
100
AcDbLine
 10
14.09
 20
22.0
 30
0.0
 11
16.61
 21
22.0
 31
0.0
  0
LINE
  5
26E
330
157
100
AcDbEntity
  8
center
100
AcDbLine
 10
15.35
 20
20.74
 30
0.0
 11
15.35
 21
23.26
 31
0.0
  0
LINE
  5
26F
330
157
100
AcDbEntity
  8
center
100
AcDbLine
 10
14.09
 20
27.0
 30
0.0
 11
16.61
 21
27.0
 31
0.0
  0
LINE
  5
270
330
157
100
AcDbEntity
  8
center
100
AcDbLine
 10
15.35
 20
25.74
 30
0.0
 11
15.35
 21
28.26000000000001
 31
0.0
  0
LINE
  5
271
330
157
100
AcDbEntity
  8
center
100
AcDbLine
 10
14.09
 20
32.0
 30
0.0
 11
16.61
 21
32.0
 31
0.0
  0
LINE
  5
272
330
157
100
AcDbEntity
  8
center
100
AcDbLine
 10
15.35
 20
30.74
 30
0.0
 11
15.35
 21
33.26
 31
0.0
  0
LINE
  5
273
330
157
100
AcDbEntity
  8
center
100
AcDbLine
 10
14.09
 20
42.0
 30
0.0
 11
16.61
 21
42.0
 31
0.0
  0
LINE
  5
274
330
157
100
AcDbEntity
  8
center
100
AcDbLine
 10
15.35
 20
40.74
 30
0.0
 11
15.35
 21
43.26
 31
0.0
  0
LINE
  5
275
330
157
100
AcDbEntity
  8
center
100
AcDbLine
 10
14.09
 20
47.0
 30
0.0
 11
16.61
 21
47.0
 31
0.0
  0
LINE
  5
276
330
157
100
AcDbEntity
  8
center
100
AcDbLine
 10
15.35
 20
45.74
 30
0.0
 11
15.35
 21
48.26
 31
0.0
  0
LINE
  5
277
330
157
100
AcDbEntity
  8
center
100
AcDbLine
 10
14.09
 20
52.00000000000001
 30
0.0
 11
16.61
 21
52.00000000000001
 31
0.0
  0
LINE
  5
278
330
157
100
AcDbEntity
  8
center
100
AcDbLine
 10
15.35
 20
50.74000000000001
 30
0.0
 11
15.35
 21
53.26000000000001
 31
0.0
  0
LINE
  5
279
330
157
100
AcDbEntity
  8
center
100
AcDbLine
 10
14.09
 20
72.00000000000001
 30
0.0
 11
16.61
 21
72.00000000000001
 31
0.0
  0
LINE
  5
27A
330
157
100
AcDbEntity
  8
center
100
AcDbLine
 10
15.35
 20
70.74000000000001
 30
0.0
 11
15.35
 21
73.26000000000002
 31
0.0
  0
LINE
  5
27B
330
157
100
AcDbEntity
  8
center
100
AcDbLine
 10
14.09
 20
102.0
 30
0.0
 11
16.61
 21
102.0
 31
0.0
  0
LINE
  5
27C
330
157
100
AcDbEntity
  8
center
100
AcDbLine
 10
15.35
 20
100.74
 30
0.0
 11
15.35
 21
103.26
 31
0.0
  0
LINE
  5
27D
330
157
100
AcDbEntity
  8
center
100
AcDbLine
 10
14.09
 20
107.0
 30
0.0
 11
16.61
 21
107.0
 31
0.0
  0
LINE
  5
27E
330
157
100
AcDbEntity
  8
center
100
AcDbLine
 10
15.35
 20
105.74
 30
0.0
 11
15.35
 21
108.26
 31
0.0
  0
LINE
  5
27F
330
157
100
AcDbEntity
  8
center
100
AcDbLine
 10
14.09
 20
112.0
 30
0.0
 11
16.61
 21
112.0
 31
0.0
  0
LINE
  5
280
330
157
100
AcDbEntity
  8
center
100
AcDbLine
 10
15.35
 20
110.74
 30
0.0
 11
15.35
 21
113.26
 31
0.0
  0
LINE
  5
281
330
157
100
AcDbEntity
  8
center
100
AcDbLine
 10
14.09
 20
117.0
 30
0.0
 11
16.61
 21
117.0
 31
0.0
  0
LINE
  5
282
330
157
100
AcDbEntity
  8
center
100
AcDbLine
 10
15.35
 20
115.74
 30
0.0
 11
15.35
 21
118.26
 31
0.0
  0
LINE
  5
283
330
157
100
AcDbEntity
  8
center
100
AcDbLine
 10
14.09
 20
122.0
 30
0.0
 11
16.61
 21
122.0
 31
0.0
  0
LINE
  5
284
330
157
100
AcDbEntity
  8
center
100
AcDbLine
 10
15.35
 20
120.74
 30
0.0
 11
15.35
 21
123.26
 31
0.0
  0
LINE
  5
285
330
157
100
AcDbEntity
  8
center
100
AcDbLine
 10
14.09
 20
127.0
 30
0.0
 11
16.61
 21
127.0
 31
0.0
  0
LINE
  5
286
330
157
100
AcDbEntity
  8
center
100
AcDbLine
 10
15.35
 20
125.74
 30
0.0
 11
15.35
 21
128.26
 31
0.0
  0
LINE
  5
287
330
157
100
AcDbEntity
  8
center
100
AcDbLine
 10
-18.7
 20
4.500000000000001
 30
0.0
 11
-14.3
 21
4.500000000000001
 31
0.0
  0
LINE
  5
288
330
157
100
AcDbEntity
  8
center
100
AcDbLine
 10
14.3
 20
4.500000000000001
 30
0.0
 11
18.7
 21
4.500000000000001
 31
0.0
  0
LINE
  5
289
330
157
100
AcDbEntity
  8
center
100
AcDbLine
 10
-18.7
 20
9.500000000000002
 30
0.0
 11
-14.3
 21
9.500000000000002
 31
0.0
  0
LINE
  5
28A
330
157
100
AcDbEntity
  8
center
100
AcDbLine
 10
14.3
 20
9.500000000000002
 30
0.0
 11
18.7
 21
9.500000000000002
 31
0.0
  0
LINE
  5
28B
330
157
100
AcDbEntity
  8
center
100
AcDbLine
 10
-18.7
 20
14.5
 30
0.0
 11
-14.3
 21
14.5
 31
0.0
  0
LINE
  5
28C
330
157
100
AcDbEntity
  8
center
100
AcDbLine
 10
14.3
 20
14.5
 30
0.0
 11
18.7
 21
14.5
 31
0.0
  0
LINE
  5
28D
330
157
100
AcDbEntity
  8
center
100
AcDbLine
 10
-18.7
 20
19.5
 30
0.0
 11
-14.3
 21
19.5
 31
0.0
  0
LINE
  5
28E
330
157
100
AcDbEntity
  8
center
100
AcDbLine
 10
14.3
 20
19.5
 30
0.0
 11
18.7
 21
19.5
 31
0.0
  0
LINE
  5
28F
330
157
100
AcDbEntity
  8
center
100
AcDbLine
 10
-18.7
 20
24.5
 30
0.0
 11
-14.3
 21
24.5
 31
0.0
  0
LINE
  5
290
330
157
100
AcDbEntity
  8
center
100
AcDbLine
 10
14.3
 20
24.5
 30
0.0
 11
18.7
 21
24.5
 31
0.0
  0
LINE
  5
291
330
157
100
AcDbEntity
  8
center
100
AcDbLine
 10
-18.7
 20
29.5
 30
0.0
 11
-14.3
 21
29.5
 31
0.0
  0
LINE
  5
292
330
157
100
AcDbEntity
  8
center
100
AcDbLine
 10
14.3
 20
29.5
 30
0.0
 11
18.7
 21
29.5
 31
0.0
  0
LINE
  5
293
330
157
100
AcDbEntity
  8
center
100
AcDbLine
 10
-18.7
 20
34.5
 30
0.0
 11
-14.3
 21
34.5
 31
0.0
  0
LINE
  5
294
330
157
100
AcDbEntity
  8
center
100
AcDbLine
 10
14.3
 20
34.5
 30
0.0
 11
18.7
 21
34.5
 31
0.0
  0
LINE
  5
295
330
157
100
AcDbEntity
  8
center
100
AcDbLine
 10
-18.7
 20
39.50000000000001
 30
0.0
 11
-14.3
 21
39.50000000000001
 31
0.0
  0
LINE
  5
296
330
157
100
AcDbEntity
  8
center
100
AcDbLine
 10
14.3
 20
39.50000000000001
 30
0.0
 11
18.7
 21
39.50000000000001
 31
0.0
  0
LINE
  5
297
330
157
100
AcDbEntity
  8
center
100
AcDbLine
 10
-18.7
 20
44.5
 30
0.0
 11
-14.3
 21
44.5
 31
0.0
  0
LINE
  5
298
330
157
100
AcDbEntity
  8
center
100
AcDbLine
 10
14.3
 20
44.5
 30
0.0
 11
18.7
 21
44.5
 31
0.0
  0
LINE
  5
299
330
157
100
AcDbEntity
  8
center
100
AcDbLine
 10
-18.7
 20
49.5
 30
0.0
 11
-14.3
 21
49.5
 31
0.0
  0
LINE
  5
29A
330
157
100
AcDbEntity
  8
center
100
AcDbLine
 10
14.3
 20
49.5
 30
0.0
 11
18.7
 21
49.5
 31
0.0
  0
LINE
  5
29B
330
157
100
AcDbEntity
  8
center
100
AcDbLine
 10
-18.7
 20
54.50000000000001
 30
0.0
 11
-14.3
 21
54.50000000000001
 31
0.0
  0
LINE
  5
29C
330
157
100
AcDbEntity
  8
center
100
AcDbLine
 10
14.3
 20
54.50000000000001
 30
0.0
 11
18.7
 21
54.50000000000001
 31
0.0
  0
LINE
  5
29D
330
157
100
AcDbEntity
  8
center
100
AcDbLine
 10
-18.7
 20
59.5
 30
0.0
 11
-14.3
 21
59.5
 31
0.0
  0
LINE
  5
29E
330
157
100
AcDbEntity
  8
center
100
AcDbLine
 10
14.3
 20
59.5
 30
0.0
 11
18.7
 21
59.5
 31
0.0
  0
LINE
  5
29F
330
157
100
AcDbEntity
  8
center
100
AcDbLine
 10
-18.7
 20
64.5
 30
0.0
 11
-14.3
 21
64.5
 31
0.0
  0
LINE
  5
2A0
330
157
100
AcDbEntity
  8
center
100
AcDbLine
 10
14.3
 20
64.5
 30
0.0
 11
18.7
 21
64.5
 31
0.0
  0
LINE
  5
2A1
330
157
100
AcDbEntity
  8
center
100
AcDbLine
 10
-18.7
 20
69.5
 30
0.0
 11
-14.3
 21
69.5
 31
0.0
  0
LINE
  5
2A2
330
157
100
AcDbEntity
  8
center
100
AcDbLine
 10
14.3
 20
69.5
 30
0.0
 11
18.7
 21
69.5
 31
0.0
  0
LINE
  5
2A3
330
157
100
AcDbEntity
  8
center
100
AcDbLine
 10
-18.7
 20
74.50000000000001
 30
0.0
 11
-14.3
 21
74.50000000000001
 31
0.0
  0
LINE
  5
2A4
330
157
100
AcDbEntity
  8
center
100
AcDbLine
 10
14.3
 20
74.50000000000001
 30
0.0
 11
18.7
 21
74.50000000000001
 31
0.0
  0
LINE
  5
2A5
330
157
100
AcDbEntity
  8
center
100
AcDbLine
 10
-18.7
 20
79.5
 30
0.0
 11
-14.3
 21
79.5
 31
0.0
  0
LINE
  5
2A6
330
157
100
AcDbEntity
  8
center
100
AcDbLine
 10
14.3
 20
79.5
 30
0.0
 11
18.7
 21
79.5
 31
0.0
  0
LINE
  5
2A7
330
157
100
AcDbEntity
  8
center
100
AcDbLine
 10
-18.7
 20
89.50000000000001
 30
0.0
 11
-14.3
 21
89.50000000000001
 31
0.0
  0
LINE
  5
2A8
330
157
100
AcDbEntity
  8
center
100
AcDbLine
 10
14.3
 20
89.50000000000001
 30
0.0
 11
18.7
 21
89.50000000000001
 31
0.0
  0
LINE
  5
2A9
330
157
100
AcDbEntity
  8
center
100
AcDbLine
 10
-18.7
 20
94.5
 30
0.0
 11
-14.3
 21
94.5
 31
0.0
  0
LINE
  5
2AA
330
157
100
AcDbEntity
  8
center
100
AcDbLine
 10
14.3
 20
94.5
 30
0.0
 11
18.7
 21
94.5
 31
0.0
  0
LINE
  5
2AB
330
157
100
AcDbEntity
  8
center
100
AcDbLine
 10
-18.7
 20
104.5
 30
0.0
 11
-14.3
 21
104.5
 31
0.0
  0
LINE
  5
2AC
330
157
100
AcDbEntity
  8
center
100
AcDbLine
 10
14.3
 20
104.5
 30
0.0
 11
18.7
 21
104.5
 31
0.0
  0
LINE
  5
2AD
330
157
100
AcDbEntity
  8
center
100
AcDbLine
 10
-18.7
 20
109.5
 30
0.0
 11
-14.3
 21
109.5
 31
0.0
  0
LINE
  5
2AE
330
157
100
AcDbEntity
  8
center
100
AcDbLine
 10
14.3
 20
109.5
 30
0.0
 11
18.7
 21
109.5
 31
0.0
  0
LINE
  5
2AF
330
157
100
AcDbEntity
  8
center
100
AcDbLine
 10
-18.7
 20
114.5
 30
0.0
 11
-14.3
 21
114.5
 31
0.0
  0
LINE
  5
2B0
330
157
100
AcDbEntity
  8
center
100
AcDbLine
 10
14.3
 20
114.5
 30
0.0
 11
18.7
 21
114.5
 31
0.0
  0
LINE
  5
2B1
330
157
100
AcDbEntity
  8
center
100
AcDbLine
 10
-18.7
 20
119.5
 30
0.0
 11
-14.3
 21
119.5
 31
0.0
  0
LINE
  5
2B2
330
157
100
AcDbEntity
  8
center
100
AcDbLine
 10
14.3
 20
119.5
 30
0.0
 11
18.7
 21
119.5
 31
0.0
  0
LINE
  5
2B3
330
157
100
AcDbEntity
  8
center
100
AcDbLine
 10
-18.7
 20
124.5
 30
0.0
 11
-14.3
 21
124.5
 31
0.0
  0
LINE
  5
2B4
330
157
100
AcDbEntity
  8
center
100
AcDbLine
 10
14.3
 20
124.5
 30
0.0
 11
18.7
 21
124.5
 31
0.0
  0
LINE
  5
2B5
330
157
100
AcDbEntity
  8
center
100
AcDbLine
 10
-16.61000000000018
 20
67.00000000000003
 30
0.0
 11
-14.08999999999999
 21
67.00000000000003
 31
0.0
  0
LINE
  5
2B6
330
157
100
AcDbEntity
  8
center
100
AcDbLine
 10
-16.61
 20
57.0
 30
0.0
 11
-14.09000000000001
 21
57.0
 31
0.0
  0
LINE
  5
2B7
330
157
100
AcDbEntity
  8
center
100
AcDbLine
 10
14.09000000000001
 20
97.0
 30
0.0
 11
16.61
 21
97.0
 31
0.0
  0
LINE
  5
2B8
330
157
100
AcDbEntity
  8
center
100
AcDbLine
 10
15.35
 20
95.74000000000001
 30
0.0
 11
15.35
 21
98.25999999999999
 31
0.0
  0
LINE
  5
2B9
330
157
100
AcDbEntity
  8
center
100
AcDbLine
 10
-16.61000000000002
 20
62.0
 30
0.0
 11
-14.09
 21
62.0
 31
0.0
  0
LINE
  5
2BA
330
157
100
AcDbEntity
  8
center
100
AcDbLine
 10
14.09000000000001
 20
56.99999999999999
 30
0.0
 11
16.61
 21
56.99999999999999
 31
0.0
  0
LINE
  5
2BB
330
157
100
AcDbEntity
  8
center
100
AcDbLine
 10
-16.60999999999975
 20
76.99999999999997
 30
0.0
 11
-14.09000000000001
 21
76.99999999999997
 31
0.0
  0
LINE
  5
2BC
330
157
100
AcDbEntity
  8
center
100
AcDbLine
 10
-15.34999999999988
 20
75.74000000000011
 30
0.0
 11
-15.34999999999988
 21
78.25999999999983
 31
0.0
  0
LINE
  5
2BD
330
157
100
AcDbEntity
  8
center
100
AcDbLine
 10
14.09000000000006
 20
87.0
 30
0.0
 11
16.61
 21
87.0
 31
0.0
  0
LINE
  5
2BE
330
157
100
AcDbEntity
  8
center
100
AcDbLine
 10
15.34999999999972
 20
80.73999999999974
 30
0.0
 11
15.35000000000003
 21
88.25999999999998
 31
0.0
  0
LINE
  5
2BF
330
157
100
AcDbEntity
  8
center
100
AcDbLine
 10
-16.60999999999999
 20
97.0
 30
0.0
 11
-14.09
 21
97.0
 31
0.0
  0
LINE
  5
2C0
330
157
100
AcDbEntity
  8
center
100
AcDbLine
 10
-15.34999999999999
 20
95.74000000000001
 30
0.0
 11
-15.34999999999999
 21
98.25999999999999
 31
0.0
  0
LINE
  5
2C1
330
157
100
AcDbEntity
  8
center
100
AcDbLine
 10
14.09000000000009
 20
76.99999999999999
 30
0.0
 11
16.61
 21
76.99999999999999
 31
0.0
  0
LINE
  5
2C2
330
157
100
AcDbEntity
  8
center
100
AcDbLine
 10
15.35000000000004
 20
75.74000000000004
 30
0.0
 11
15.35000000000004
 21
78.25999999999993
 31
0.0
  0
LINE
  5
2C3
330
157
100
AcDbEntity
  8
center
100
AcDbLine
 10
14.09000000000067
 20
66.99999999999996
 30
0.0
 11
16.60999999999999
 21
66.99999999999996
 31
0.0
  0
LINE
  5
2C4
330
157
100
AcDbEntity
  8
center
100
AcDbLine
 10
14.08999999999943
 20
82.00000000000003
 30
0.0
 11
16.61000000000001
 21
82.00000000000003
 31
0.0
  0
LINE
  5
2C5
330
157
100
AcDbEntity
  8
center
100
AcDbLine
 10
-16.60999999999997
 20
82.0
 30
0.0
 11
-14.09
 21
82.0
 31
0.0
  0
LINE
  5
2C6
330
157
100
AcDbEntity
  8
center
100
AcDbLine
 10
14.0900000000001
 20
61.99999999999999
 30
0.0
 11
16.61
 21
61.99999999999999
 31
0.0
  0
LINE
  5
2C7
330
157
100
AcDbEntity
  8
center
100
AcDbLine
 10
-16.61
 20
87.0
 30
0.0
 11
-14.09000000000001
 21
87.0
 31
0.0
  0
LINE
  5
2C8
330
157
100
AcDbEntity
  8
center
100
AcDbLine
 10
-15.34999999999999
 20
80.74000000000001
 30
0.0
 11
-15.35
 21
88.25999999999999
 31
0.0
  0
LINE
  5
2C9
330
157
100
AcDbEntity
  8
bold
100
AcDbLine
 10
-22.5
 20
0.0
 30
0.0
 11
22.5
 21
0.0
 31
0.0
  0
LINE
  5
2CA
330
157
100
AcDbEntity
  8
bold
100
AcDbLine
 10
22.5
 20
0.0
 30
0.0
 11
22.5
 21
48.49974596215561
 31
0.0
  0
LINE
  5
2CB
330
157
100
AcDbEntity
  8
bold
100
AcDbLine
 10
-22.5
 20
0.0
 30
0.0
 11
-22.5
 21
48.49974596215561
 31
0.0
  0
LINE
  5
2CC
330
157
100
AcDbEntity
  8
bold
100
AcDbLine
 10
-12.5
 20
145.0
 30
0.0
 11
12.5
 21
145.0
 31
0.0
  0
LINE
  5
2CD
330
157
100
AcDbEntity
  8
bold
100
AcDbLine
 10
-18.5
 20
104.6
 30
0.0
 11
-18.5
 21
129.0
 31
0.0
  0
LINE
  5
2CE
330
157
100
AcDbEntity
  8
bold
100
AcDbLine
 10
-18.5
 20
0.0
 30
0.0
 11
-18.5
 21
48.49974596215561
 31
0.0
  0
CIRCLE
  5
2CF
330
157
100
AcDbEntity
  8
bold
100
AcDbCircle
 10
-15.35
 20
107.0
 30
0.0
 40
1.2
  0
CIRCLE
  5
2D0
330
157
100
AcDbEntity
  8
bold
100
AcDbCircle
 10
-15.35
 20
17.0
 30
0.0
 40
1.2
  0
CIRCLE
  5
2D1
330
157
100
AcDbEntity
  8
bold
100
AcDbCircle
 10
-15.35
 20
42.0
 30
0.0
 40
1.2
  0
CIRCLE
  5
2D2
330
157
100
AcDbEntity
  8
bold
100
AcDbCircle
 10
-15.35
 20
2.0
 30
0.0
 40
1.2
  0
CIRCLE
  5
2D3
330
157
100
AcDbEntity
  8
bold
100
AcDbCircle
 10
-15.35
 20
127.0
 30
0.0
 40
1.2
  0
CIRCLE
  5
2D4
330
157
100
AcDbEntity
  8
bold
100
AcDbCircle
 10
-15.35
 20
122.0
 30
0.0
 40
1.2
  0
CIRCLE
  5
2D5
330
157
100
AcDbEntity
  8
bold
100
AcDbCircle
 10
-15.35
 20
117.0
 30
0.0
 40
1.2
  0
CIRCLE
  5
2D6
330
157
100
AcDbEntity
  8
bold
100
AcDbCircle
 10
-15.35
 20
112.0
 30
0.0
 40
1.2
  0
CIRCLE
  5
2D7
330
157
100
AcDbEntity
  8
bold
100
AcDbCircle
 10
-15.35
 20
92.0
 30
0.0
 40
1.2
  0
ARC
  5
2D8
330
157
100
AcDbEntity
  8
bold
100
AcDbCircle
 10
-15.34999999999999
 20
86.9999999999999
 30
0.0
 40
1.199999999999904
100
AcDbArc
 50
245.04869890728
 51
294.9513010927245
  0
ARC
  5
2D9
330
157
100
AcDbEntity
  8
bold
100
AcDbCircle
 10
-15.34999999999999
 20
82.00000000000018
 30
0.0
 40
1.199999999999832
100
AcDbArc
 50
65.04869890721827
 51
114.9513010927947
  0
ARC
  5
2DA
330
157
100
AcDbEntity
  8
bold
100
AcDbCircle
 10
-15.35
 20
66.99999999999999
 30
0.0
 40
1.199999999999998
100
AcDbArc
 50
194.5268300278669
 51
345.473169972117
  0
ARC
  5
2DB
330
157
100
AcDbEntity
  8
bold
100
AcDbCircle
 10
-15.35
 20
57.0
 30
0.0
 40
1.199999999999997
100
AcDbArc
 50
14.52683002780411
 51
165.4731699722261
  0
CIRCLE
  5
2DC
330
157
100
AcDbEntity
  8
bold
100
AcDbCircle
 10
-15.35
 20
47.0
 30
0.0
 40
1.2
  0
CIRCLE
  5
2DD
330
157
100
AcDbEntity
  8
bold
100
AcDbCircle
 10
-15.35
 20
37.0
 30
0.0
 40
1.2
  0
CIRCLE
  5
2DE
330
157
100
AcDbEntity
  8
bold
100
AcDbCircle
 10
-15.35
 20
32.0
 30
0.0
 40
1.2
  0
CIRCLE
  5
2DF
330
157
100
AcDbEntity
  8
bold
100
AcDbCircle
 10
-15.35
 20
27.0
 30
0.0
 40
1.2
  0
CIRCLE
  5
2E0
330
157
100
AcDbEntity
  8
bold
100
AcDbCircle
 10
-15.35
 20
22.0
 30
0.0
 40
1.2
  0
CIRCLE
  5
2E1
330
157
100
AcDbEntity
  8
bold
100
AcDbCircle
 10
-15.35
 20
12.0
 30
0.0
 40
1.2
  0
CIRCLE
  5
2E2
330
157
100
AcDbEntity
  8
bold
100
AcDbCircle
 10
-15.35
 20
7.0
 30
0.0
 40
1.2
  0
LINE
  5
2E3
330
157
100
AcDbEntity
  8
bold
100
AcDbLine
 10
-12.5
 20
104.6
 30
0.0
 11
-12.5
 21
147.0
 31
0.0
  0
LINE
  5
2E4
330
157
100
AcDbEntity
  8
bold
100
AcDbLine
 10
-12.5
 20
0.0
 30
0.0
 11
-12.5
 21
48.49974596215561
 31
0.0
  0
LINE
  5
2E5
330
157
100
AcDbEntity
  8
bold
100
AcDbLine
 10
-22.5
 20
127.0
 30
0.0
 11
-18.5
 21
127.0
 31
0.0
  0
LINE
  5
2E6
330
157
100
AcDbEntity
  8
bold
100
AcDbLine
 10
-22.5
 20
129.0
 30
0.0
 11
-18.5
 21
129.0
 31
0.0
  0
LINE
  5
2E7
330
157
100
AcDbEntity
  8
bold
100
AcDbLine
 10
-3.5
 20
160.0
 30
0.0
 11
22.5
 21
160.0
 31
0.0
  0
LINE
  5
2E8
330
157
100
AcDbEntity
  8
bold
100
AcDbLine
 10
18.5
 20
104.6
 30
0.0
 11
18.5
 21
129.0
 31
0.0
  0
LINE
  5
2E9
330
157
100
AcDbEntity
  8
bold
100
AcDbLine
 10
18.5
 20
0.0
 30
0.0
 11
18.5
 21
48.49974596215561
 31
0.0
  0
CIRCLE
  5
2EA
330
157
100
AcDbEntity
  8
bold
100
AcDbCircle
 10
15.35
 20
37.0
 30
0.0
 40
1.2
  0
LINE
  5
2EB
330
157
100
AcDbEntity
  8
bold
100
AcDbLine
 10
16.5
 20
148.0
 30
0.0
 11
20.5
 21
148.0
 31
0.0
  0
LINE
  5
2EC
330
157
100
AcDbEntity
  8
bold
100
AcDbLine
 10
16.5
 20
156.0
 30
0.0
 11
16.5
 21
148.0
 31
0.0
  0
LINE
  5
2ED
330
157
100
AcDbEntity
  8
bold
100
AcDbLine
 10
20.5
 20
156.0
 30
0.0
 11
16.5
 21
156.0
 31
0.0
  0
LINE
  5
2EE
330
157
100
AcDbEntity
  8
bold
100
AcDbLine
 10
20.5
 20
148.0
 30
0.0
 11
20.5
 21
156.0
 31
0.0
  0
CIRCLE
  5
2EF
330
157
100
AcDbEntity
  8
bold
100
AcDbCircle
 10
15.35
 20
2.0
 30
0.0
 40
1.2
  0
CIRCLE
  5
2F0
330
157
100
AcDbEntity
  8
bold
100
AcDbCircle
 10
15.35
 20
7.0
 30
0.0
 40
1.2
  0
CIRCLE
  5
2F1
330
157
100
AcDbEntity
  8
bold
100
AcDbCircle
 10
15.35
 20
12.0
 30
0.0
 40
1.2
  0
CIRCLE
  5
2F2
330
157
100
AcDbEntity
  8
bold
100
AcDbCircle
 10
15.35
 20
17.0
 30
0.0
 40
1.2
  0
CIRCLE
  5
2F3
330
157
100
AcDbEntity
  8
bold
100
AcDbCircle
 10
15.35
 20
22.0
 30
0.0
 40
1.2
  0
CIRCLE
  5
2F4
330
157
100
AcDbEntity
  8
bold
100
AcDbCircle
 10
15.35
 20
27.0
 30
0.0
 40
1.2
  0
CIRCLE
  5
2F5
330
157
100
AcDbEntity
  8
bold
100
AcDbCircle
 10
15.35
 20
32.0
 30
0.0
 40
1.2
  0
CIRCLE
  5
2F6
330
157
100
AcDbEntity
  8
bold
100
AcDbCircle
 10
15.35
 20
42.0
 30
0.0
 40
1.2
  0
CIRCLE
  5
2F7
330
157
100
AcDbEntity
  8
bold
100
AcDbCircle
 10
15.35
 20
47.0
 30
0.0
 40
1.2
  0
ARC
  5
2F8
330
157
100
AcDbEntity
  8
bold
100
AcDbCircle
 10
15.35
 20
57.0
 30
0.0
 40
1.200000000000004
100
AcDbArc
 50
14.52683002777389
 51
165.4731699721959
  0
ARC
  5
2F9
330
157
100
AcDbEntity
  8
bold
100
AcDbCircle
 10
15.35
 20
66.99999999999999
 30
0.0
 40
1.199999999999991
100
AcDbArc
 50
194.526830027883
 51
345.4731699721332
  0
ARC
  5
2FA
330
157
100
AcDbEntity
  8
bold
100
AcDbCircle
 10
15.34999999999999
 20
82.00000000000018
 30
0.0
 40
1.199999999999832
100
AcDbArc
 50
65.04869890720536
 51
114.9513010927817
  0
ARC
  5
2FB
330
157
100
AcDbEntity
  8
bold
100
AcDbCircle
 10
15.34999999999999
 20
86.99999999999989
 30
0.0
 40
1.19999999999989
100
AcDbArc
 50
245.048698907275
 51
294.9513010927201
  0
CIRCLE
  5
2FC
330
157
100
AcDbEntity
  8
bold
100
AcDbCircle
 10
15.35
 20
107.0
 30
0.0
 40
1.2
  0
CIRCLE
  5
2FD
330
157
100
AcDbEntity
  8
bold
100
AcDbCircle
 10
15.35
 20
112.0
 30
0.0
 40
1.2
  0
CIRCLE
  5
2FE
330
157
100
AcDbEntity
  8
bold
100
AcDbCircle
 10
15.35
 20
117.0
 30
0.0
 40
1.2
  0
CIRCLE
  5
2FF
330
157
100
AcDbEntity
  8
bold
100
AcDbCircle
 10
15.35
 20
122.0
 30
0.0
 40
1.2
  0
CIRCLE
  5
300
330
157
100
AcDbEntity
  8
bold
100
AcDbCircle
 10
15.35
 20
127.0
 30
0.0
 40
1.2
  0
LINE
  5
301
330
157
100
AcDbEntity
  8
bold
100
AcDbLine
 10
12.5
 20
104.6
 30
0.0
 11
12.5
 21
147.0
 31
0.0
  0
LINE
  5
302
330
157
100
AcDbEntity
  8
bold
100
AcDbLine
 10
12.49999999999999
 20
0.0
 30
0.0
 11
12.49999999999999
 21
48.49974596215561
 31
0.0
  0
LINE
  5
303
330
157
100
AcDbEntity
  8
bold
100
AcDbLine
 10
22.5
 20
104.6
 30
0.0
 11
22.5
 21
160.0
 31
0.0
  0
LINE
  5
304
330
157
100
AcDbEntity
  8
bold
100
AcDbLine
 10
18.5
 20
129.0
 30
0.0
 11
22.5
 21
129.0
 31
0.0
  0
LINE
  5
305
330
157
100
AcDbEntity
  8
bold
100
AcDbLine
 10
18.5
 20
127.0
 30
0.0
 11
22.5
 21
127.0
 31
0.0
  0
LINE
  5
306
330
157
100
AcDbEntity
  8
bold
100
AcDbLine
 10
15.5
 20
147.0
 30
0.0
 11
15.5
 21
160.0
 31
0.0
  0
LINE
  5
307
330
157
100
AcDbEntity
  8
bold
100
AcDbLine
 10
-22.5
 20
104.6
 30
0.0
 11
-22.5
 21
160.0
 31
0.0
  0
LINE
  5
308
330
157
100
AcDbEntity
  8
bold
100
AcDbLine
 10
-3.5
 20
160.0
 30
0.0
 11
-5.49999999999998
 21
162.0
 31
0.0
  0
LINE
  5
309
330
157
100
AcDbEntity
  8
bold
100
AcDbLine
 10
-5.49999999999998
 20
162.0
 30
0.0
 11
-20.49999999999998
 21
162.0
 31
0.0
  0
LINE
  5
30A
330
157
100
AcDbEntity
  8
bold
100
AcDbLine
 10
-20.49999999999998
 20
162.0
 30
0.0
 11
-22.5
 21
160.0
 31
0.0
  0
LINE
  5
30B
330
157
100
AcDbEntity
  8
bold
100
AcDbLine
 10
15.5
 20
147.0
 30
0.0
 11
-22.5
 21
147.0
 31
0.0
  0
LINE
  5
30C
330
157
100
AcDbEntity
  8
bold
100
AcDbLine
 10
15.5
 20
149.0
 30
0.0
 11
-22.5
 21
149.0
 31
0.0
  0
ENDBLK
  5
15A
330
157
100
AcDbEntity
  8
0
100
AcDbBlockEnd
  0
BLOCK
  5
311
330
310
100
AcDbEntity
  8
0
100
AcDbBlockBegin
  2
*D7
 70
     1
 10
0.0
 20
0.0
 30
0.0
  3
*D7
  1

  0
LINE
  5
313
330
310
100
AcDbEntity
  8
dimension
 62
     0
370
    -2
100
AcDbLine
 10
-22.5
 20
160.0
 30
0.0
 11
-50.49999999999999
 21
160.0
 31
0.0
  0
LINE
  5
314
330
310
100
AcDbEntity
  8
dimension
 62
     0
370
    -2
100
AcDbLine
 10
-22.5
 20
0.0
 30
0.0
 11
-50.50000000000001
 21
0.0
 31
0.0
  0
LINE
  5
315
330
310
100
AcDbEntity
  8
dimension
 62
     0
370
    -2
100
AcDbLine
 10
-50.49999999999999
 20
152.0
 30
0.0
 11
-50.5
 21
92.11428571428573
 31
0.0
  0
LINE
  5
316
330
310
100
AcDbEntity
  8
dimension
 62
     0
370
    -2
100
AcDbLine
 10
-50.50000000000001
 20
8.0
 30
0.0
 11
-50.5
 21
67.8857142857143
 31
0.0
  0
SOLID
  5
317
330
310
100
AcDbEntity
  8
dimension
 62
     0
100
AcDbTrace
 10
-49.16666666666666
 20
152.0
 30
0.0
 11
-51.83333333333333
 21
152.0
 31
0.0
 12
-50.49999999999999
 22
160.0
 32
0.0
 13
-50.49999999999999
 23
160.0
 33
0.0
  0
SOLID
  5
318
330
310
100
AcDbEntity
  8
dimension
 62
     0
100
AcDbTrace
 10
-51.83333333333334
 20
8.0
 30
0.0
 11
-49.16666666666667
 21
8.0
 31
0.0
 12
-50.50000000000001
 22
0.0
 32
0.0
 13
-50.50000000000001
 23
0.0
 33
0.0
  0
MTEXT
  5
319
330
310
100
AcDbEntity
  8
dimension
 62
     0
100
AcDbMText
 10
-50.5
 20
80.0
 30
0.0
 40
8.0
 41
0.0
 46
0.0
 71
     5
 72
     1
  1
160
 11
6.123233995736766E-17
 21
1.0
 31
0.0
 73
     1
 44
1.0
  0
POINT
  5
31A
330
310
100
AcDbEntity
  8
Defpoints
 62
     0
100
AcDbPoint
 10
-22.5
 20
160.0
 30
0.0
  0
POINT
  5
31B
330
310
100
AcDbEntity
  8
Defpoints
 62
     0
100
AcDbPoint
 10
-22.5
 20
0.0
 30
0.0
  0
POINT
  5
31C
330
310
100
AcDbEntity
  8
Defpoints
 62
     0
100
AcDbPoint
 10
-46.5
 20
0.0000000000000015
 30
0.0
  0
ENDBLK
  5
312
330
310
100
AcDbEntity
  8
0
100
AcDbBlockEnd
  0
BLOCK
  5
31F
330
31E
100
AcDbEntity
  8
0
100
AcDbBlockBegin
  2
*D8
 70
     1
 10
0.0
 20
0.0
 30
0.0
  3
*D8
  1

  0
LINE
  5
321
330
31E
100
AcDbEntity
  8
dimension
 62
     0
370
    -2
100
AcDbLine
 10
-22.5
 20
0.0
 30
0.0
 11
-22.5
 21
-28.0
 31
0.0
  0
LINE
  5
322
330
31E
100
AcDbEntity
  8
dimension
 62
     0
370
    -2
100
AcDbLine
 10
22.5
 20
0.0
 30
0.0
 11
22.5
 21
-28.0
 31
0.0
  0
LINE
  5
323
330
31E
100
AcDbEntity
  8
dimension
 62
     0
370
    -2
100
AcDbLine
 10
-14.5
 20
-28.0
 30
0.0
 11
14.5
 21
-28.0
 31
0.0
  0
SOLID
  5
324
330
31E
100
AcDbEntity
  8
dimension
 62
     0
100
AcDbTrace
 10
-14.5
 20
-26.66666666666667
 30
0.0
 11
-14.5
 21
-29.33333333333333
 31
0.0
 12
-22.5
 22
-28.0
 32
0.0
 13
-22.5
 23
-28.0
 33
0.0
  0
SOLID
  5
325
330
31E
100
AcDbEntity
  8
dimension
 62
     0
100
AcDbTrace
 10
14.5
 20
-29.33333333333333
 30
0.0
 11
14.5
 21
-26.66666666666667
 31
0.0
 12
22.5
 22
-28.0
 32
0.0
 13
22.5
 23
-28.0
 33
0.0
  0
MTEXT
  5
326
330
31E
100
AcDbEntity
  8
dimension
 62
     0
100
AcDbMText
 10
0.0
 20
-21.6
 30
0.0
 40
8.0
 41
0.0
 46
0.0
 71
     5
 72
     1
  1
45
 73
     1
 44
1.0
  0
POINT
  5
327
330
31E
100
AcDbEntity
  8
Defpoints
 62
     0
100
AcDbPoint
 10
-22.5
 20
0.0
 30
0.0
  0
POINT
  5
328
330
31E
100
AcDbEntity
  8
Defpoints
 62
     0
100
AcDbPoint
 10
22.5
 20
0.0
 30
0.0
  0
POINT
  5
329
330
31E
100
AcDbEntity
  8
Defpoints
 62
     0
100
AcDbPoint
 10
22.5
 20
-24.0
 30
0.0
  0
ENDBLK
  5
320
330
31E
100
AcDbEntity
  8
0
100
AcDbBlockEnd
  0
ENDSEC
  0
SECTION
  2
ENTITIES
  0
ATTDEF
  5
5F
330
1F
100
AcDbEntity
  8
attrib
100
AcDbText
 10
29.75
 20
162.0
 30
0.0
 40
0.5
  1
32590
100
AcDbAttributeDefinition
  3

  2
NB
 70
     8
280
     0
  0
ATTDEF
  5
60
330
1F
100
AcDbEntity
  8
attrib
100
AcDbText
 10
29.75
 20
161.5
 30
0.0
 40
0.5
  1
Adapters 12 to 32 A, 3P
100
AcDbAttributeDefinition
  3

  2
NN
 70
     8
280
     0
  0
ATTDEF
  5
61
330
1F
100
AcDbEntity
  8
attrib
100
AcDbText
 10
29.75
 20
161.0
 30
0.0
 40
0.5
  1

100
AcDbAttributeDefinition
  3

  2
NT
 70
     8
280
     0
  0
ATTDEF
  5
62
330
1F
100
AcDbEntity
  8
attrib
100
AcDbText
 10
29.75
 20
160.5
 30
0.0
 40
0.5
  1
$ARTNR.$CABLE.
100
AcDbAttributeDefinition
  3

  2
NBSYN
 70
     8
280
     0
  0
ATTDEF
  5
63
330
1F
100
AcDbEntity
  8
attrib
100
AcDbText
 10
29.75
 20
160.0
 30
0.0
 40
0.5
  1
32590000
100
AcDbAttributeDefinition
  3

  2
LINA
 70
     8
280
     0
  0
ATTDEF
  5
64
330
1F
100
AcDbEntity
  8
attrib
100
AcDbText
 10
29.75
 20
159.5
 30
0.0
 40
0.5
  1
Wöhner
100
AcDbAttributeDefinition
  3

  2
CATALOG
 70
     8
280
     0
  0
ATTDEF
  5
65
330
1F
100
AcDbEntity
  8
attrib
100
AcDbText
 10
29.75
 20
159.0
 30
0.0
 40
0.5
  1
32590
100
AcDbAttributeDefinition
  3

  2
ARTNR
 70
     8
280
     0
  0
ATTDEF
  5
66
330
1F
100
AcDbEntity
  8
attrib
100
AcDbText
 10
29.75
 20
158.5
 30
0.0
 40
0.5
  1
12 x 5, 10
100
AcDbAttributeDefinition
  3

  2
BUSB
 70
     8
280
     0
  0
ATTDEF
  5
67
330
1F
100
AcDbEntity
  8
attrib
100
AcDbText
 10
29.75
 20
158.0
 30
0.0
 40
0.5
  1
EQUES®30Compact
100
AcDbAttributeDefinition
  3

  2
POF
 70
     8
280
     0
  0
ATTDEF
  5
68
330
1F
100
AcDbEntity
  8
attrib
100
AcDbText
 10
29.75
 20
157.5
 30
0.0
 40
0.5
  1
EEC6025C-L
100
AcDbAttributeDefinition
  3

  2
TYPE
 70
     8
280
     0
  0
ATTDEF
  5
69
330
1F
100
AcDbEntity
  8
attrib
100
AcDbText
 10
29.75
 20
157.0
 30
0.0
 40
0.5
  1
4
100
AcDbAttributeDefinition
  3

  2
QNT
 70
     8
280
     0
  0
ATTDEF
  5
6A
330
1F
100
AcDbEntity
  8
attrib
100
AcDbText
 10
29.75
 20
156.5
 30
0.0
 40
0.5
  1
45.0
100
AcDbAttributeDefinition
  3

  2
W
 70
     8
280
     0
  0
ATTDEF
  5
6B
330
1F
100
AcDbEntity
  8
attrib
100
AcDbText
 10
29.75
 20
156.0
 30
0.0
 40
0.5
  1
160
100
AcDbAttributeDefinition
  3

  2
H
 70
     8
280
     0
  0
ATTDEF
  5
6C
330
1F
100
AcDbEntity
  8
attrib
100
AcDbText
 10
29.75
 20
155.5
 30
0.0
 40
0.5
  1
63
100
AcDbAttributeDefinition
  3

  2
D
 70
     8
280
     0
  0
ATTDEF
  5
6D
330
1F
100
AcDbEntity
  8
attrib
100
AcDbText
 10
29.75
 20
155.0
 30
0.0
 40
0.5
  1
Product link
100
AcDbAttributeDefinition
  3

  2
LINK
 70
     8
280
     0
  0
ATTDEF
  5
6E
330
1F
100
AcDbEntity
  8
attrib
100
AcDbText
 10
29.75
 20
154.5
 30
0.0
 40
0.5
  1
woehner
100
AcDbAttributeDefinition
  3

  2
COMPANY
 70
     8
280
     0
  0
ATTDEF
  5
6F
330
1F
100
AcDbEntity
  8
attrib
100
AcDbText
 10
29.75
 20
154.0
 30
0.0
 40
0.5
  1
{$CADENAS_DATA/23d-libs/woehner/sys_30_c_3pole/adapters/adapters_12_32_3p_asmtab.prj},189 {VTYP=3D},{STYP=ASSTAB},{NB=32590},{LINA=32590000},{NN=Adapter 12 bis 32 A, 3P},{DATE=04.11.2022 07:06:04},{GEOMDATE=10.10.2022 13:06:22},{VERSION=},{LINEID=10},{WBV
100
AcDbAttributeDefinition
  3

  2
PSOL_0
 70
     9
280
     0
  0
ATTDEF
  5
70
330
1F
100
AcDbEntity
  8
attrib
100
AcDbText
 10
29.75
 20
153.5
 30
0.0
 40
0.5
  1
AR=CABLE},{WBNUMERIC=}  {NB=32590},{LINA=32590000},{KT=DUMMY},{WIRE=AWG10},{CABLE=},{ARTNRBASE=Basis45x160},{BOM=32590000},{ARTNR=32590},{BUSB=12 x 5, 10},{POF=EQUES®30Compact},{TYPE=EEC6025C-L},{QNT=4},{W=45.0},{H=160},{D=63},{C=MIN},{DD=},{E=},{CONCA=},
100
AcDbAttributeDefinition
  3

  2
PSOL_1
 70
     9
280
     0
  0
ATTDEF
  5
71
330
1F
100
AcDbEntity
  8
attrib
100
AcDbText
 10
29.75
 20
153.0
 30
0.0
 40
0.5
  1
{SCR=},{IPR=},{IPRF=},{SEARCH=},{EDZ=},{IODD=},{DIST=8.0},{LINK=Product link},{LINKX=https://www.woehner.de/de/produkte/32590.html},{PPATH=parts/adapters_asmtpl.prj}
100
AcDbAttributeDefinition
  3

  2
PSOL_2
 70
     9
280
     0
  0
INSERT
  5
73
330
1F
100
AcDbEntity
  8
0
100
AcDbBlockReference
  2
1_AWG10709_1_0_in_32590_0
 10
0.0
 20
0.0
 30
0.0
  0
INSERT
  5
97
330
1F
100
AcDbEntity
  8
0
100
AcDbBlockReference
  2
2_AWG10709_2_0_in_32590_0
 10
0.0
 20
0.0
 30
0.0
  0
INSERT
  5
B8
330
1F
100
AcDbEntity
  8
0
100
AcDbBlockReference
  2
3_AWG10709_3_0_in_32590_0
 10
0.0
 20
0.0
 30
0.0
  0
INSERT
  5
D9
330
1F
100
AcDbEntity
  8
0
100
AcDbBlockReference
  2
4_80034CrossBoardScrew_0_in_32590_0
 10
0.0
 20
0.0
 30
0.0
  0
INSERT
  5
100
330
1F
100
AcDbEntity
  8
0
100
AcDbBlockReference
  2
5_79350ACrossBoardAdapter_0_in_32590_0
 10
0.0
 20
0.0
 30
0.0
  0
INSERT
  5
158
330
1F
100
AcDbEntity
  8
0
100
AcDbBlockReference
  2
6_Basis45x160_0_in_32590_0
 10
0.0
 20
0.0
 30
0.0
  0
DIMENSION
  5
30E
330
1F
100
AcDbEntity
  8
dimension
100
AcDbDimension
280
     0
  2
*D7
 10
-50.50000000000001
 20
0.0
 30
0.0
 11
-50.5
 21
80.0
 31
0.0
 70
   160
  1
160
 71
     5
 42
160.0
 73
     0
 74
     0
 75
     0
 53
90.0
  3
ISO-25
100
AcDbAlignedDimension
 13
-22.5
 23
160.0
 33
0.0
 14
-22.5
 24
0.0
 34
0.0
 50
90.0
100
AcDbRotatedDimension
1001
ACAD
1000
DSTYLE
1002
{
1070
   147
1040
2.4
1070
    42
1040
0.0
1070
    44
1040
0.0
1070
    41
1040
8.0
1070
   140
1040
8.0
1002
}
  0
DIMENSION
  5
31D
330
1F
100
AcDbEntity
  8
dimension
100
AcDbDimension
280
     0
  2
*D8
 10
22.5
 20
-28.0
 30
0.0
 11
0.0
 21
-28.0
 31
0.0
 70
   160
  1
45
 71
     5
 42
45.0
 73
     0
 74
     0
 75
     0
  3
ISO-25
100
AcDbAlignedDimension
 13
-22.5
 23
0.0
 33
0.0
 14
22.5
 24
0.0
 34
0.0
100
AcDbRotatedDimension
1001
ACAD
1000
DSTYLE
1002
{
1070
   147
1040
2.4
1070
    42
1040
0.0
1070
    44
1040
0.0
1070
    41
1040
8.0
1070
   140
1040
8.0
1002
}
  0
POINT
  5
32B
330
1F
100
AcDbEntity
  8
connection
100
AcDbPoint
 10
0.0
 20
157.0
 30
0.0
  0
POINT
  5
32C
330
1F
100
AcDbEntity
  8
connection
100
AcDbPoint
 10
-10.5
 20
157.0
 30
0.0
  0
POINT
  5
32D
330
1F
100
AcDbEntity
  8
connection
100
AcDbPoint
 10
15.35
 20
92.0
 30
0.0
  0
POINT
  5
32E
330
1F
100
AcDbEntity
  8
connection
100
AcDbPoint
 10
15.35
 20
92.0
 30
0.0
  0
POINT
  5
32F
330
1F
100
AcDbEntity
  8
connection
100
AcDbPoint
 10
15.35
 20
65.75
 30
0.0
  0
POINT
  5
330
330
1F
100
AcDbEntity
  8
connection
100
AcDbPoint
 10
0.0
 20
47.16
 30
0.0
  0
POINT
  5
331
330
1F
100
AcDbEntity
  8
connection
100
AcDbPoint
 10
15.35
 20
84.5
 30
0.0
  0
POINT
  5
332
330
1F
100
AcDbEntity
  8
connection
100
AcDbPoint
 10
0.0
 20
0.0
 30
0.0
  0
POINT
  5
333
330
1F
100
AcDbEntity
  8
connection
100
AcDbPoint
 10
0.0
 20
0.0
 30
0.0
  0
POINT
  5
334
330
1F
100
AcDbEntity
  8
connection
100
AcDbPoint
 10
-10.5
 20
157.0
 30
0.0
  0
POINT
  5
335
330
1F
100
AcDbEntity
  8
connection
100
AcDbPoint
 10
0.0
 20
157.0
 30
0.0
  0
POINT
  5
336
330
1F
100
AcDbEntity
  8
connection
100
AcDbPoint
 10
10.5
 20
157.0
 30
0.0
  0
ENDSEC
  0
SECTION
  2
OBJECTS
  0
DICTIONARY
  5
C
330
0
100
AcDbDictionary
281
     1
  3
ACAD_DETAILVIEWSTYLE
350
33E
  3
ACAD_GROUP
350
D
  3
ACAD_LAYOUT
350
1A
  3
ACAD_MATERIAL
350
43
  3
ACAD_MLEADERSTYLE
350
5B
  3
ACAD_MLINESTYLE
350
17
  3
ACAD_PLOTSETTINGS
350
19
  3
ACAD_PLOTSTYLENAME
350
E
  3
ACAD_SCALELIST
350
47
  3
ACAD_SECTIONVIEWSTYLE
350
33F
  3
ACAD_TABLESTYLE
350
59
  3
ACAD_VISUALSTYLE
350
2A
  3
ACDB_RECOMPOSE_DATA
350
33B
  3
AcDbVariableDictionary
350
337
  0
SUN
  5
5D
330
29
100
AcDbSun
 90
        1
290
     0
 63
     7
421
 16777215
 40
1.0
291
     1
 91
  2455826
 92
 54000000
292
     0
 70
     2
 71
   256
280
     1
  0
DICTIONARY
  5
33E
102
{ACAD_REACTORS
330
C
102
}
330
C
100
AcDbDictionary
281
     1
  0
DICTIONARY
  5
D
102
{ACAD_REACTORS
330
C
102
}
330
C
100
AcDbDictionary
281
     1
  0
DICTIONARY
  5
1A
102
{ACAD_REACTORS
330
C
102
}
330
C
100
AcDbDictionary
281
     1
  3
Layout1
350
1E
  3
Layout2
350
26
  3
Model
350
22
  0
DICTIONARY
  5
43
102
{ACAD_REACTORS
330
C
102
}
330
C
100
AcDbDictionary
281
     1
  3
ByBlock
350
45
  3
ByLayer
350
44
  3
Global
350
46
  0
DICTIONARY
  5
5B
102
{ACAD_REACTORS
330
C
102
}
330
C
100
AcDbDictionary
281
     1
  3
Standard
350
5C
  0
DICTIONARY
  5
17
102
{ACAD_REACTORS
330
C
102
}
330
C
100
AcDbDictionary
281
     1
  3
Standard
350
18
  0
DICTIONARY
  5
19
102
{ACAD_REACTORS
330
C
102
}
330
C
100
AcDbDictionary
281
     1
  0
ACDBDICTIONARYWDFLT
  5
E
102
{ACAD_REACTORS
330
C
102
}
330
C
100
AcDbDictionary
281
     1
  3
Normal
350
F
100
AcDbDictionaryWithDefault
340
F
  0
DICTIONARY
  5
47
102
{ACAD_REACTORS
330
C
102
}
330
C
100
AcDbDictionary
281
     1
  3
A0
350
48
  3
A1
350
49
  3
A2
350
4A
  3
A3
350
4B
  3
A4
350
4C
  3
A5
350
4D
  3
A6
350
4E
  3
A7
350
4F
  3
A8
350
50
  3
A9
350
51
  3
B0
350
52
  3
B1
350
53
  3
B2
350
54
  3
B3
350
55
  3
B4
350
56
  3
B5
350
57
  3
B6
350
58
  0
DICTIONARY
  5
33F
102
{ACAD_REACTORS
330
C
102
}
330
C
100
AcDbDictionary
281
     1
  0
DICTIONARY
  5
59
102
{ACAD_REACTORS
330
C
102
}
330
C
100
AcDbDictionary
281
     1
  3
Standard
350
5A
  0
DICTIONARY
  5
2A
102
{ACAD_REACTORS
330
C
102
}
330
C
100
AcDbDictionary
281
     1
  3
2dWireframe
350
2F
  3
Basic
350
32
  3
Brighten
350
36
  3
ColorChange
350
3A
  3
Conceptual
350
34
  3
Dim
350
35
  3
EdgeColorOff
350
3D
  3
Facepattern
350
39
  3
Flat
350
2B
  3
FlatWithEdges
350
2C
  3
Gouraud
350
2D
  3
GouraudWithEdges
350
2E
  3
Hidden
350
31
  3
JitterOff
350
3B
  3
Linepattern
350
38
  3
OverhangOff
350
3C
  3
Realistic
350
33
  3
Shaded
350
42
  3
Shaded with edges
350
41
  3
Shades of Gray
350
3E
  3
Sketchy
350
3F
  3
Thicken
350
37
  3
Wireframe
350
30
  3
X-Ray
350
40
  0
XRECORD
  5
33B
102
{ACAD_REACTORS
330
C
102
}
330
C
100
AcDbXrecord
280
     1
 90
        1
330
5A
  0
DICTIONARY
  5
337
102
{ACAD_REACTORS
330
C
102
}
330
C
100
AcDbDictionary
281
     1
  3
CANNOSCALE
350
338
  3
CENTEREXE
350
340
  3
CENTERLTYPEFILE
350
341
  3
CMLEADERSTYLE
350
33D
  3
CTABLESTYLE
350
33C
  0
LAYOUT
  5
1E
102
{ACAD_REACTORS
330
1A
102
}
330
1A
100
AcDbPlotSettings
  1

  2
none_device
  4

  6

 40
0.0
 41
0.0
 42
0.0
 43
0.0
 44
0.0
 45
0.0
 46
0.0
 47
0.0
 48
0.0
 49
0.0
140
0.0
141
0.0
142
1.0
143
1.0
 70
   688
 72
     1
 73
     0
 74
     5
  7

 75
    16
 76
     0
 77
     2
 78
   300
147
1.0
148
0.0
149
0.0
100
AcDbLayout
  1
Layout1
 70
     1
 71
     1
 10
0.0
 20
0.0
 11
420.0
 21
297.0
 12
0.0
 22
0.0
 32
0.0
 14
1.000000000000000E+20
 24
1.000000000000000E+20
 34
1.000000000000000E+20
 15
-1.000000000000000E+20
 25
-1.000000000000000E+20
 35
-1.000000000000000E+20
146
0.0
 13
0.0
 23
0.0
 33
0.0
 16
1.0
 26
0.0
 36
0.0
 17
0.0
 27
1.0
 37
0.0
 76
     0
330
1B
  0
LAYOUT
  5
26
102
{ACAD_REACTORS
330
1A
102
}
330
1A
100
AcDbPlotSettings
  1

  2
none_device
  4

  6

 40
0.0
 41
0.0
 42
0.0
 43
0.0
 44
0.0
 45
0.0
 46
0.0
 47
0.0
 48
0.0
 49
0.0
140
0.0
141
0.0
142
1.0
143
1.0
 70
   688
 72
     1
 73
     0
 74
     5
  7

 75
    16
 76
     0
 77
     2
 78
   300
147
1.0
148
0.0
149
0.0
100
AcDbLayout
  1
Layout2
 70
     1
 71
     2
 10
0.0
 20
0.0
 11
0.0
 21
0.0
 12
0.0
 22
0.0
 32
0.0
 14
0.0
 24
0.0
 34
0.0
 15
0.0
 25
0.0
 35
0.0
146
0.0
 13
0.0
 23
0.0
 33
0.0
 16
1.0
 26
0.0
 36
0.0
 17
0.0
 27
1.0
 37
0.0
 76
     0
330
23
  0
LAYOUT
  5
22
102
{ACAD_REACTORS
330
1A
102
}
330
1A
100
AcDbPlotSettings
  1

  2
none_device
  4
Letter_(8.50_x_11.00_Inches)
  6

 40
6.35
 41
6.35
 42
6.35000508
 43
6.35000508
 44
215.9
 45
279.4
 46
0.0
 47
0.0
 48
0.0
 49
0.0
140
0.0
141
0.0
142
1.0
143
1.0
 70
  1712
 72
     1
 73
     0
 74
     0
  7

 75
     0
 76
     0
 77
     2
 78
   300
147
1.0
148
0.0
149
0.0
100
AcDbLayout
  1
Model
 70
     1
 71
     0
 10
0.0
 20
0.0
 11
420.0
 21
297.0
 12
0.0
 22
0.0
 32
0.0
 14
-54.5
 24
-29.33333333333333
 34
0.0
 15
33.20238095238096
 25
162.5
 35
0.0
146
0.0
 13
0.0
 23
0.0
 33
0.0
 16
1.0
 26
0.0
 36
0.0
 17
0.0
 27
1.0
 37
0.0
 76
     0
330
1F
331
29
  0
MATERIAL
  5
45
102
{ACAD_REACTORS
330
43
102
}
330
43
100
AcDbMaterial
  1
ByBlock
 72
     1
 94
      127
  0
MATERIAL
  5
44
102
{ACAD_REACTORS
330
43
102
}
330
43
100
AcDbMaterial
  1
ByLayer
 72
     1
 94
      127
  0
MATERIAL
  5
46
102
{ACAD_REACTORS
330
43
102
}
330
43
100
AcDbMaterial
  1
Global
 72
     1
 94
      127
  0
MLEADERSTYLE
  5
5C
102
{ACAD_REACTORS
330
5B
102
}
330
5B
100
AcDbMLeaderStyle
179
     2
170
     2
171
     1
172
     0
 90
        2
 40
0.0
 41
0.0
173
     1
 91
-1056964608
340
14
 92
       -2
290
     1
 42
2.0
291
     1
 43
8.0
  3
Standard
341
0
 44
4.0
300

342
11
174
     1
178
     6
175
     1
176
     0
 93
-1056964608
 45
4.0
292
     0
297
     0
 46
4.0
343
0
 94
-1056964608
 47
1.0
 49
1.0
140
1.0
293
     1
141
0.0
294
     1
177
     0
142
1.0
295
     0
296
     0
143
3.75
271
     0
272
     9
273
     9
298
     0
  0
MLINESTYLE
  5
18
102
{ACAD_REACTORS
330
17
102
}
330
17
100
AcDbMlineStyle
  2
Standard
 70
     0
  3

 62
   256
 51
90.0
 52
90.0
 71
     2
 49
0.5
 62
   256
  6
BYLAYER
 49
-0.5
 62
   256
  6
BYLAYER
  0
ACDBPLACEHOLDER
  5
F
102
{ACAD_REACTORS
330
E
102
}
330
E
  0
SCALE
  5
48
102
{ACAD_REACTORS
330
47
102
}
330
47
100
AcDbScale
 70
     0
300
1:1
140
1.0
141
1.0
290
     1
  0
SCALE
  5
49
102
{ACAD_REACTORS
330
47
102
}
330
47
100
AcDbScale
 70
     0
300
1:2
140
1.0
141
2.0
290
     0
  0
SCALE
  5
4A
102
{ACAD_REACTORS
330
47
102
}
330
47
100
AcDbScale
 70
     0
300
1:4
140
1.0
141
4.0
290
     0
  0
SCALE
  5
4B
102
{ACAD_REACTORS
330
47
102
}
330
47
100
AcDbScale
 70
     0
300
1:5
140
1.0
141
5.0
290
     0
  0
SCALE
  5
4C
102
{ACAD_REACTORS
330
47
102
}
330
47
100
AcDbScale
 70
     0
300
1:8
140
1.0
141
8.0
290
     0
  0
SCALE
  5
4D
102
{ACAD_REACTORS
330
47
102
}
330
47
100
AcDbScale
 70
     0
300
1:10
140
1.0
141
10.0
290
     0
  0
SCALE
  5
4E
102
{ACAD_REACTORS
330
47
102
}
330
47
100
AcDbScale
 70
     0
300
1:16
140
1.0
141
16.0
290
     0
  0
SCALE
  5
4F
102
{ACAD_REACTORS
330
47
102
}
330
47
100
AcDbScale
 70
     0
300
1:20
140
1.0
141
20.0
290
     0
  0
SCALE
  5
50
102
{ACAD_REACTORS
330
47
102
}
330
47
100
AcDbScale
 70
     0
300
1:30
140
1.0
141
30.0
290
     0
  0
SCALE
  5
51
102
{ACAD_REACTORS
330
47
102
}
330
47
100
AcDbScale
 70
     0
300
1:40
140
1.0
141
40.0
290
     0
  0
SCALE
  5
52
102
{ACAD_REACTORS
330
47
102
}
330
47
100
AcDbScale
 70
     0
300
1:50
140
1.0
141
50.0
290
     0
  0
SCALE
  5
53
102
{ACAD_REACTORS
330
47
102
}
330
47
100
AcDbScale
 70
     0
300
1:100
140
1.0
141
100.0
290
     0
  0
SCALE
  5
54
102
{ACAD_REACTORS
330
47
102
}
330
47
100
AcDbScale
 70
     0
300
2:1
140
2.0
141
1.0
290
     0
  0
SCALE
  5
55
102
{ACAD_REACTORS
330
47
102
}
330
47
100
AcDbScale
 70
     0
300
4:1
140
4.0
141
1.0
290
     0
  0
SCALE
  5
56
102
{ACAD_REACTORS
330
47
102
}
330
47
100
AcDbScale
 70
     0
300
8:1
140
8.0
141
1.0
290
     0
  0
SCALE
  5
57
102
{ACAD_REACTORS
330
47
102
}
330
47
100
AcDbScale
 70
     0
300
10:1
140
10.0
141
1.0
290
     0
  0
SCALE
  5
58
102
{ACAD_REACTORS
330
47
102
}
330
47
100
AcDbScale
 70
     0
300
100:1
140
100.0
141
1.0
290
     0
  0
TABLESTYLE
  5
5A
102
{ACAD_REACTORS
330
59
102
}
102
{ACAD_XDICTIONARY
360
339
102
}
330
59
100
AcDbTableStyle
  3
Standard
 70
     0
 71
     0
 40
0.06
 41
0.06
280
     0
281
     0
  7
Standard
140
4.5
170
     2
 62
     0
 63
   257
283
     0
 90
        4
 91
        0
  1

274
    -2
284
     1
 64
     0
275
    -2
285
     1
 65
     0
276
    -2
286
     1
 66
     0
277
    -2
287
     1
 67
     0
278
    -2
288
     1
 68
     0
279
    -2
289
     1
 69
     0
  7
Standard
140
6.0
170
     5
 62
     0
 63
   257
283
     0
 90
        4
 91
        0
  1

274
    -2
284
     1
 64
     0
275
    -2
285
     1
 65
     0
276
    -2
286
     1
 66
     0
277
    -2
287
     1
 67
     0
278
    -2
288
     1
 68
     0
279
    -2
289
     1
 69
     0
  7
Standard
140
4.5
170
     5
 62
     0
 63
   257
283
     0
 90
        4
 91
        0
  1

274
    -2
284
     1
 64
     0
275
    -2
285
     1
 65
     0
276
    -2
286
     1
 66
     0
277
    -2
287
     1
 67
     0
278
    -2
288
     1
 68
     0
279
    -2
289
     1
 69
     0
  0
VISUALSTYLE
  5
2F
102
{ACAD_REACTORS
330
2A
102
}
330
2A
100
AcDbVisualStyle
  2
2dWireframe
 70
     4
177
     3
291
     0
 70
    58
 90
        0
176
     1
 90
        2
176
     1
 90
        0
176
     1
 90
        0
176
     1
 40
0.6
176
     1
 40
30.0
176
     1
 62
     7
420
 16777215
176
     1
 90
        1
176
     1
 90
        4
176
     1
 62
     7
176
     1
 62
   257
176
     1
 90
        1
176
     1
 90
        1
176
     1
 40
1.0
176
     1
 90
        0
176
     1
 62
   257
176
     1
 40
1.0
176
     1
 90
        1
176
     1
 90
        6
176
     1
 90
        2
176
     1
 62
     7
176
     1
 90
        5
176
     1
 90
        0
176
     1
 90
        0
176
     1
290
     0
176
     1
 90
        1
176
     1
 40
0.0
176
     1
 90
        0
176
     1
290
     1
176
     1
290
     1
176
     1
290
     0
176
     1
290
     0
176
     1
290
     0
176
     1
290
     0
176
     1
290
     0
176
     1
290
     0
176
     1
290
     0
176
     1
 90
       50
176
     1
 40
0.0
176
     1
 40
1.0
176
     1
 90
        0
176
     1
 62
    18
420
        0
176
     1
 90
       50
176
     1
 90
        3
176
     1
 62
     5
420
      255
176
     1
290
     0
176
     1
 90
       50
176
     1
 90
       50
176
     1
 90
       50
176
     1
290
     0
176
     1
 90
       50
176
     1
 62
   256
176
     0
 40
1.0
176
     0
 90
        2
176
     1
  1
strokes_ogs.tif
176
     1
290
     0
176
     1
 40
1.0
176
     1
 40
1.0
176
     1
  0
VISUALSTYLE
  5
32
102
{ACAD_REACTORS
330
2A
102
}
330
2A
100
AcDbVisualStyle
  2
Basic
 70
     7
177
     3
291
     1
 70
    58
 90
        1
176
     1
 90
        0
176
     1
 90
        1
176
     1
 90
        0
176
     1
 40
0.6
176
     1
 40
30.0
176
     1
 62
     7
420
 16777215
176
     1
 90
        0
176
     1
 90
        4
176
     1
 62
     7
176
     1
 62
   257
176
     1
 90
        1
176
     1
 90
        1
176
     1
 40
1.0
176
     1
 90
        8
176
     1
 62
     7
176
     1
 40
1.0
176
     1
 90
        1
176
     1
 90
        6
176
     1
 90
        2
176
     1
 62
     7
176
     1
 90
        5
176
     1
 90
        0
176
     1
 90
        0
176
     1
290
     0
176
     1
 90
        1
176
     1
 40
0.0
176
     1
 90
        0
176
     1
290
     0
176
     1
290
     1
176
     1
290
     1
176
     1
290
     0
176
     1
290
     0
176
     1
290
     0
176
     1
290
     0
176
     1
290
     0
176
     1
290
     0
176
     1
 90
       50
176
     1
 40
0.0
176
     1
 40
1.0
176
     1
 90
        0
176
     1
 62
    18
420
        0
176
     1
 90
       50
176
     1
 90
        3
176
     1
 62
     5
420
      255
176
     1
290
     0
176
     1
 90
       50
176
     1
 90
       50
176
     1
 90
       50
176
     1
290
     0
176
     1
 90
       50
176
     1
 62
   256
176
     0
 40
1.0
176
     0
 90
        2
176
     1
  1
strokes_ogs.tif
176
     1
290
     0
176
     1
 40
1.0
176
     1
 40
1.0
176
     1
  0
VISUALSTYLE
  5
36
102
{ACAD_REACTORS
330
2A
102
}
330
2A
100
AcDbVisualStyle
  2
Brighten
 70
    12
177
     3
291
     1
 70
    58
 90
        2
176
     1
 90
        2
176
     1
 90
        0
176
     1
 90
        0
176
     1
 40
0.6
176
     1
 40
30.0
176
     1
 62
     7
420
 16777215
176
     1
 90
        1
176
     1
 90
        4
176
     1
 62
     7
176
     1
 62
   257
176
     1
 90
        1
176
     1
 90
        1
176
     1
 40
1.0
176
     1
 90
        8
176
     1
 62
     7
176
     1
 40
1.0
176
     1
 90
        1
176
     1
 90
        6
176
     1
 90
        2
176
     1
 62
     7
176
     1
 90
        5
176
     1
 90
        0
176
     1
 90
        0
176
     1
290
     0
176
     1
 90
        1
176
     1
 40
50.0
176
     1
 90
        0
176
     1
290
     0
176
     1
290
     1
176
     1
290
     1
176
     1
290
     0
176
     1
290
     0
176
     1
290
     0
176
     1
290
     0
176
     1
290
     0
176
     1
290
     0
176
     1
 90
       50
176
     1
 40
0.0
176
     1
 40
1.0
176
     1
 90
        0
176
     1
 62
    18
420
        0
176
     1
 90
       50
176
     1
 90
        3
176
     1
 62
     5
420
      255
176
     1
290
     0
176
     1
 90
       50
176
     1
 90
       50
176
     1
 90
       50
176
     1
290
     0
176
     1
 90
       50
176
     1
 62
   256
176
     0
 40
1.0
176
     0
 90
        2
176
     1
  1
strokes_ogs.tif
176
     1
290
     0
176
     1
 40
1.0
176
     1
 40
1.0
176
     1
  0
VISUALSTYLE
  5
3A
102
{ACAD_REACTORS
330
2A
102
}
330
2A
100
AcDbVisualStyle
  2
ColorChange
 70
    16
177
     3
291
     1
 70
    58
 90
        2
176
     1
 90
        2
176
     1
 90
        3
176
     1
 90
        0
176
     1
 40
0.6
176
     1
 40
30.0
176
     1
 62
     8
420
  8421504
176
     1
 90
        1
176
     1
 90
        4
176
     1
 62
     7
176
     1
 62
   257
176
     1
 90
        1
176
     1
 90
        1
176
     1
 40
1.0
176
     1
 90
        8
176
     1
 62
     8
420
  8421504
176
     1
 40
1.0
176
     1
 90
        1
176
     1
 90
        6
176
     1
 90
        2
176
     1
 62
     7
176
     1
 90
        5
176
     1
 90
        0
176
     1
 90
        0
176
     1
290
     0
176
     1
 90
        1
176
     1
 40
0.0
176
     1
 90
        0
176
     1
290
     0
176
     1
290
     1
176
     1
290
     1
176
     1
290
     0
176
     1
290
     0
176
     1
290
     0
176
     1
290
     0
176
     1
290
     0
176
     1
290
     0
176
     1
 90
       50
176
     1
 40
0.0
176
     1
 40
1.0
176
     1
 90
        0
176
     1
 62
    18
420
        0
176
     1
 90
       50
176
     1
 90
        3
176
     1
 62
     5
420
      255
176
     1
290
     0
176
     1
 90
       50
176
     1
 90
       50
176
     1
 90
       50
176
     1
290
     0
176
     1
 90
       50
176
     1
 62
   256
176
     0
 40
1.0
176
     0
 90
        2
176
     1
  1
strokes_ogs.tif
176
     1
290
     0
176
     1
 40
1.0
176
     1
 40
1.0
176
     1
  0
VISUALSTYLE
  5
34
102
{ACAD_REACTORS
330
2A
102
}
330
2A
100
AcDbVisualStyle
  2
Conceptual
 70
     9
177
     3
291
     0
 70
    58
 90
        3
176
     1
 90
        2
176
     1
 90
        0
176
     1
 90
        0
176
     1
 40
0.6
176
     1
 40
30.0
176
     1
 62
     7
420
 16777215
176
     1
 90
        2
176
     1
 90
        2
176
     1
 62
     7
176
     1
 62
   257
176
     1
 90
        1
176
     1
 90
        1
176
     1
 40
179.0
176
     1
 90
        8
176
     1
 62
     7
176
     1
 40
1.0
176
     1
 90
        1
176
     1
 90
        6
176
     1
 90
        2
176
     1
 62
     7
176
     1
 90
        3
176
     1
 90
        0
176
     1
 90
        0
176
     1
290
     0
176
     1
 90
        1
176
     1
 40
0.0
176
     1
 90
        0
176
     1
290
     0
176
     1
290
     1
176
     1
290
     1
176
     1
290
     0
176
     1
290
     0
176
     1
290
     0
176
     1
290
     0
176
     1
290
     0
176
     1
290
     0
176
     1
 90
       50
176
     1
 40
0.0
176
     1
 40
1.0
176
     1
 90
        0
176
     1
 62
    18
420
        0
176
     1
 90
       50
176
     1
 90
        3
176
     1
 62
     5
420
      255
176
     1
290
     0
176
     1
 90
       50
176
     1
 90
       50
176
     1
 90
       50
176
     1
290
     0
176
     1
 90
       50
176
     1
 62
   256
176
     0
 40
1.0
176
     0
 90
        2
176
     1
  1
strokes_ogs.tif
176
     1
290
     0
176
     1
 40
1.0
176
     1
 40
1.0
176
     1
  0
VISUALSTYLE
  5
35
102
{ACAD_REACTORS
330
2A
102
}
330
2A
100
AcDbVisualStyle
  2
Dim
 70
    11
177
     3
291
     1
 70
    58
 90
        2
176
     1
 90
        2
176
     1
 90
        0
176
     1
 90
        0
176
     1
 40
0.6
176
     1
 40
30.0
176
     1
 62
     7
420
 16777215
176
     1
 90
        1
176
     1
 90
        4
176
     1
 62
     7
176
     1
 62
   257
176
     1
 90
        1
176
     1
 90
        1
176
     1
 40
1.0
176
     1
 90
        8
176
     1
 62
     7
176
     1
 40
1.0
176
     1
 90
        1
176
     1
 90
        6
176
     1
 90
        2
176
     1
 62
     7
176
     1
 90
        5
176
     1
 90
        0
176
     1
 90
        0
176
     1
290
     0
176
     1
 90
        1
176
     1
 40
-50.0
176
     1
 90
        0
176
     1
290
     0
176
     1
290
     1
176
     1
290
     1
176
     1
290
     0
176
     1
290
     0
176
     1
290
     0
176
     1
290
     0
176
     1
290
     0
176
     1
290
     0
176
     1
 90
       50
176
     1
 40
0.0
176
     1
 40
1.0
176
     1
 90
        0
176
     1
 62
    18
420
        0
176
     1
 90
       50
176
     1
 90
        3
176
     1
 62
     5
420
      255
176
     1
290
     0
176
     1
 90
       50
176
     1
 90
       50
176
     1
 90
       50
176
     1
290
     0
176
     1
 90
       50
176
     1
 62
   256
176
     0
 40
1.0
176
     0
 90
        2
176
     1
  1
strokes_ogs.tif
176
     1
290
     0
176
     1
 40
1.0
176
     1
 40
1.0
176
     1
  0
VISUALSTYLE
  5
3D
102
{ACAD_REACTORS
330
2A
102
}
330
2A
100
AcDbVisualStyle
  2
EdgeColorOff
 70
    22
177
     3
291
     1
 70
    58
 90
        2
176
     0
 90
        2
176
     0
 90
        0
176
     0
 90
        0
176
     0
 40
0.6
176
     0
 40
30.0
176
     0
 62
     7
420
 16777215
176
     0
 90
        1
176
     0
 90
        4
176
     0
 62
     7
176
     0
 62
   257
176
     0
 90
        1
176
     0
 90
        1
176
     0
 40
1.0
176
     0
 90
        8
176
     2
 62
     7
176
     0
 40
1.0
176
     0
 90
        1
176
     0
 90
        6
176
     0
 90
        2
176
     0
 62
     7
176
     0
 90
        5
176
     0
 90
        0
176
     0
 90
        0
176
     0
290
     0
176
     0
 90
        1
176
     0
 40
0.0
176
     0
 90
        0
176
     0
290
     0
176
     0
290
     1
176
     0
290
     1
176
     0
290
     0
176
     0
290
     0
176
     0
290
     0
176
     0
290
     0
176
     0
290
     0
176
     0
290
     0
176
     0
 90
       50
176
     0
 40
0.0
176
     0
 40
1.0
176
     0
 90
        0
176
     0
 62
    18
420
        0
176
     0
 90
       50
176
     0
 90
        3
176
     0
 62
     5
420
      255
176
     0
290
     0
176
     0
 90
       50
176
     0
 90
       50
176
     0
 90
       50
176
     0
290
     0
176
     0
 90
       50
176
     0
 62
   256
176
     0
 40
1.0
176
     0
 90
        2
176
     0
  1
strokes_ogs.tif
176
     0
290
     0
176
     0
 40
1.0
176
     0
 40
1.0
176
     0
  0
VISUALSTYLE
  5
39
102
{ACAD_REACTORS
330
2A
102
}
330
2A
100
AcDbVisualStyle
  2
Facepattern
 70
    15
177
     3
291
     1
 70
    58
 90
        2
176
     1
 90
        2
176
     1
 90
        0
176
     1
 90
        0
176
     1
 40
0.6
176
     1
 40
30.0
176
     1
 62
     7
420
 16777215
176
     1
 90
        1
176
     1
 90
        4
176
     1
 62
     7
176
     1
 62
   257
176
     1
 90
        1
176
     1
 90
        1
176
     1
 40
1.0
176
     1
 90
        8
176
     1
 62
     7
176
     1
 40
1.0
176
     1
 90
        1
176
     1
 90
        6
176
     1
 90
        2
176
     1
 62
     7
176
     1
 90
        5
176
     1
 90
        0
176
     1
 90
        0
176
     1
290
     0
176
     1
 90
        1
176
     1
 40
0.0
176
     1
 90
        0
176
     1
290
     0
176
     1
290
     1
176
     1
290
     1
176
     1
290
     0
176
     1
290
     0
176
     1
290
     0
176
     1
290
     0
176
     1
290
     0
176
     1
290
     0
176
     1
 90
       50
176
     1
 40
0.0
176
     1
 40
1.0
176
     1
 90
        0
176
     1
 62
    18
420
        0
176
     1
 90
       50
176
     1
 90
        3
176
     1
 62
     5
420
      255
176
     1
290
     0
176
     1
 90
       50
176
     1
 90
       50
176
     1
 90
       50
176
     1
290
     0
176
     1
 90
       50
176
     1
 62
   256
176
     0
 40
1.0
176
     0
 90
        2
176
     1
  1
strokes_ogs.tif
176
     1
290
     0
176
     1
 40
1.0
176
     1
 40
1.0
176
     1
  0
VISUALSTYLE
  5
2B
102
{ACAD_REACTORS
330
2A
102
}
330
2A
100
AcDbVisualStyle
  2
Flat
 70
     0
177
     3
291
     1
 70
    58
 90
        2
176
     1
 90
        1
176
     1
 90
        1
176
     1
 90
        2
176
     1
 40
0.6
176
     1
 40
30.0
176
     1
 62
     7
420
 16777215
176
     1
 90
        0
176
     1
 90
        0
176
     1
 62
     7
176
     1
 62
   257
176
     1
 90
        1
176
     1
 90
        1
176
     1
 40
1.0
176
     1
 90
        8
176
     1
 62
     7
176
     1
 40
1.0
176
     1
 90
        1
176
     1
 90
        6
176
     1
 90
        2
176
     1
 62
     7
176
     1
 90
        5
176
     1
 90
        0
176
     1
 90
        0
176
     1
290
     0
176
     1
 90
       13
176
     1
 40
0.0
176
     1
 90
        0
176
     1
290
     0
176
     1
290
     1
176
     1
290
     1
176
     1
290
     0
176
     1
290
     0
176
     1
290
     0
176
     1
290
     0
176
     1
290
     0
176
     1
290
     0
176
     1
 90
       50
176
     1
 40
0.0
176
     1
 40
1.0
176
     1
 90
        0
176
     1
 62
    18
420
        0
176
     1
 90
       50
176
     1
 90
        3
176
     1
 62
     5
420
      255
176
     1
290
     0
176
     1
 90
       50
176
     1
 90
       50
176
     1
 90
       50
176
     1
290
     0
176
     1
 90
       50
176
     1
 62
   256
176
     0
 40
1.0
176
     0
 90
        2
176
     1
  1
strokes_ogs.tif
176
     1
290
     0
176
     1
 40
1.0
176
     1
 40
1.0
176
     1
  0
VISUALSTYLE
  5
2C
102
{ACAD_REACTORS
330
2A
102
}
330
2A
100
AcDbVisualStyle
  2
FlatWithEdges
 70
     1
177
     3
291
     1
 70
    58
 90
        2
176
     1
 90
        1
176
     1
 90
        1
176
     1
 90
        2
176
     1
 40
0.6
176
     1
 40
30.0
176
     1
 62
     7
420
 16777215
176
     1
 90
        1
176
     1
 90
        0
176
     1
 62
     7
176
     1
 62
   257
176
     1
 90
        1
176
     1
 90
        1
176
     1
 40
1.0
176
     1
 90
        0
176
     1
 62
   257
176
     1
 40
1.0
176
     1
 90
        1
176
     1
 90
        6
176
     1
 90
        2
176
     1
 62
     7
176
     1
 90
        5
176
     1
 90
        0
176
     1
 90
        0
176
     1
290
     0
176
     1
 90
       13
176
     1
 40
0.0
176
     1
 90
        0
176
     1
290
     0
176
     1
290
     1
176
     1
290
     1
176
     1
290
     0
176
     1
290
     0
176
     1
290
     0
176
     1
290
     0
176
     1
290
     0
176
     1
290
     0
176
     1
 90
       50
176
     1
 40
0.0
176
     1
 40
1.0
176
     1
 90
        0
176
     1
 62
    18
420
        0
176
     1
 90
       50
176
     1
 90
        3
176
     1
 62
     5
420
      255
176
     1
290
     0
176
     1
 90
       50
176
     1
 90
       50
176
     1
 90
       50
176
     1
290
     0
176
     1
 90
       50
176
     1
 62
   256
176
     0
 40
1.0
176
     0
 90
        2
176
     1
  1
strokes_ogs.tif
176
     1
290
     0
176
     1
 40
1.0
176
     1
 40
1.0
176
     1
  0
VISUALSTYLE
  5
2D
102
{ACAD_REACTORS
330
2A
102
}
330
2A
100
AcDbVisualStyle
  2
Gouraud
 70
     2
177
     3
291
     1
 70
    58
 90
        2
176
     1
 90
        2
176
     1
 90
        1
176
     1
 90
        2
176
     1
 40
0.6
176
     1
 40
30.0
176
     1
 62
     7
420
 16777215
176
     1
 90
        0
176
     1
 90
        0
176
     1
 62
     7
176
     1
 62
   257
176
     1
 90
        1
176
     1
 90
        1
176
     1
 40
1.0
176
     1
 90
        0
176
     1
 62
     7
176
     1
 40
1.0
176
     1
 90
        1
176
     1
 90
        6
176
     1
 90
        2
176
     1
 62
     7
176
     1
 90
        5
176
     1
 90
        0
176
     1
 90
        0
176
     1
290
     0
176
     1
 90
       13
176
     1
 40
0.0
176
     1
 90
        0
176
     1
290
     0
176
     1
290
     1
176
     1
290
     1
176
     1
290
     0
176
     1
290
     0
176
     1
290
     0
176
     1
290
     0
176
     1
290
     0
176
     1
290
     0
176
     1
 90
       50
176
     1
 40
0.0
176
     1
 40
1.0
176
     1
 90
        0
176
     1
 62
    18
420
        0
176
     1
 90
       50
176
     1
 90
        3
176
     1
 62
     5
420
      255
176
     1
290
     0
176
     1
 90
       50
176
     1
 90
       50
176
     1
 90
       50
176
     1
290
     0
176
     1
 90
       50
176
     1
 62
   256
176
     0
 40
1.0
176
     0
 90
        2
176
     1
  1
strokes_ogs.tif
176
     1
290
     0
176
     1
 40
1.0
176
     1
 40
1.0
176
     1
  0
VISUALSTYLE
  5
2E
102
{ACAD_REACTORS
330
2A
102
}
330
2A
100
AcDbVisualStyle
  2
GouraudWithEdges
 70
     3
177
     3
291
     1
 70
    58
 90
        2
176
     1
 90
        2
176
     1
 90
        1
176
     1
 90
        2
176
     1
 40
0.6
176
     1
 40
30.0
176
     1
 62
     7
420
 16777215
176
     1
 90
        1
176
     1
 90
        0
176
     1
 62
     7
176
     1
 62
   257
176
     1
 90
        1
176
     1
 90
        1
176
     1
 40
1.0
176
     1
 90
        0
176
     1
 62
   257
176
     1
 40
1.0
176
     1
 90
        1
176
     1
 90
        6
176
     1
 90
        2
176
     1
 62
     7
176
     1
 90
        5
176
     1
 90
        0
176
     1
 90
        0
176
     1
290
     0
176
     1
 90
       13
176
     1
 40
0.0
176
     1
 90
        0
176
     1
290
     0
176
     1
290
     1
176
     1
290
     1
176
     1
290
     0
176
     1
290
     0
176
     1
290
     0
176
     1
290
     0
176
     1
290
     0
176
     1
290
     0
176
     1
 90
       50
176
     1
 40
0.0
176
     1
 40
1.0
176
     1
 90
        0
176
     1
 62
    18
420
        0
176
     1
 90
       50
176
     1
 90
        3
176
     1
 62
     5
420
      255
176
     1
290
     0
176
     1
 90
       50
176
     1
 90
       50
176
     1
 90
       50
176
     1
290
     0
176
     1
 90
       50
176
     1
 62
   256
176
     0
 40
1.0
176
     0
 90
        2
176
     1
  1
strokes_ogs.tif
176
     1
290
     0
176
     1
 40
1.0
176
     1
 40
1.0
176
     1
  0
VISUALSTYLE
  5
31
102
{ACAD_REACTORS
330
2A
102
}
330
2A
100
AcDbVisualStyle
  2
Hidden
 70
     6
177
     3
291
     0
 70
    58
 90
        1
176
     1
 90
        2
176
     1
 90
        2
176
     1
 90
        0
176
     1
 40
0.6
176
     1
 40
30.0
176
     1
 62
     7
420
 16777215
176
     1
 90
        2
176
     1
 90
        2
176
     1
 62
     7
176
     1
 62
   257
176
     1
 90
        2
176
     1
 90
        1
176
     1
 40
40.0
176
     1
 90
        0
176
     1
 62
   257
176
     1
 40
1.0
176
     1
 90
        1
176
     1
 90
        6
176
     1
 90
        2
176
     1
 62
     7
176
     1
 90
        3
176
     1
 90
        0
176
     1
 90
        0
176
     1
290
     0
176
     1
 90
        1
176
     1
 40
0.0
176
     1
 90
        0
176
     1
290
     0
176
     1
290
     1
176
     1
290
     1
176
     1
290
     0
176
     1
290
     0
176
     1
290
     0
176
     1
290
     0
176
     1
290
     0
176
     1
290
     0
176
     1
 90
       50
176
     1
 40
0.0
176
     1
 40
1.0
176
     1
 90
        0
176
     1
 62
    18
420
        0
176
     1
 90
       50
176
     1
 90
        3
176
     1
 62
     5
420
      255
176
     1
290
     0
176
     1
 90
       50
176
     1
 90
       50
176
     1
 90
       50
176
     1
290
     0
176
     1
 90
       50
176
     1
 62
   256
176
     0
 40
1.0
176
     0
 90
        2
176
     1
  1
strokes_ogs.tif
176
     1
290
     0
176
     1
 40
1.0
176
     1
 40
1.0
176
     1
  0
VISUALSTYLE
  5
3B
102
{ACAD_REACTORS
330
2A
102
}
330
2A
100
AcDbVisualStyle
  2
JitterOff
 70
    20
177
     3
291
     1
 70
    58
 90
        2
176
     0
 90
        2
176
     0
 90
        0
176
     0
 90
        0
176
     0
 40
0.6
176
     0
 40
30.0
176
     0
 62
     7
420
 16777215
176
     0
 90
        1
176
     0
 90
        4
176
     0
 62
     7
176
     0
 62
   257
176
     0
 90
        1
176
     0
 90
        1
176
     0
 40
1.0
176
     0
 90
       10
176
     2
 62
     7
176
     0
 40
1.0
176
     0
 90
        1
176
     0
 90
        6
176
     0
 90
        2
176
     0
 62
     7
176
     0
 90
        5
176
     0
 90
        0
176
     0
 90
        0
176
     0
290
     0
176
     0
 90
        1
176
     0
 40
0.0
176
     0
 90
        0
176
     0
290
     0
176
     0
290
     1
176
     0
290
     1
176
     0
290
     0
176
     0
290
     0
176
     0
290
     0
176
     0
290
     0
176
     0
290
     0
176
     0
290
     0
176
     0
 90
       50
176
     0
 40
0.0
176
     0
 40
1.0
176
     0
 90
        0
176
     0
 62
    18
420
        0
176
     0
 90
       50
176
     0
 90
        3
176
     0
 62
     5
420
      255
176
     0
290
     0
176
     0
 90
       50
176
     0
 90
       50
176
     0
 90
       50
176
     0
290
     0
176
     0
 90
       50
176
     0
 62
   256
176
     0
 40
1.0
176
     0
 90
        2
176
     0
  1
strokes_ogs.tif
176
     0
290
     0
176
     0
 40
1.0
176
     0
 40
1.0
176
     0
  0
VISUALSTYLE
  5
38
102
{ACAD_REACTORS
330
2A
102
}
330
2A
100
AcDbVisualStyle
  2
Linepattern
 70
    14
177
     3
291
     1
 70
    58
 90
        2
176
     1
 90
        2
176
     1
 90
        0
176
     1
 90
        0
176
     1
 40
0.6
176
     1
 40
30.0
176
     1
 62
     7
420
 16777215
176
     1
 90
        1
176
     1
 90
        4
176
     1
 62
     7
176
     1
 62
   257
176
     1
 90
        7
176
     1
 90
        7
176
     1
 40
1.0
176
     1
 90
        8
176
     1
 62
     7
176
     1
 40
1.0
176
     1
 90
        1
176
     1
 90
        6
176
     1
 90
        2
176
     1
 62
     7
176
     1
 90
        5
176
     1
 90
        0
176
     1
 90
        0
176
     1
290
     0
176
     1
 90
        1
176
     1
 40
0.0
176
     1
 90
        0
176
     1
290
     0
176
     1
290
     1
176
     1
290
     1
176
     1
290
     0
176
     1
290
     0
176
     1
290
     0
176
     1
290
     0
176
     1
290
     0
176
     1
290
     0
176
     1
 90
       50
176
     1
 40
0.0
176
     1
 40
1.0
176
     1
 90
        0
176
     1
 62
    18
420
        0
176
     1
 90
       50
176
     1
 90
        3
176
     1
 62
     5
420
      255
176
     1
290
     0
176
     1
 90
       50
176
     1
 90
       50
176
     1
 90
       50
176
     1
290
     0
176
     1
 90
       50
176
     1
 62
   256
176
     0
 40
1.0
176
     0
 90
        2
176
     1
  1
strokes_ogs.tif
176
     1
290
     0
176
     1
 40
1.0
176
     1
 40
1.0
176
     1
  0
VISUALSTYLE
  5
3C
102
{ACAD_REACTORS
330
2A
102
}
330
2A
100
AcDbVisualStyle
  2
OverhangOff
 70
    21
177
     3
291
     1
 70
    58
 90
        2
176
     0
 90
        2
176
     0
 90
        0
176
     0
 90
        0
176
     0
 40
0.6
176
     0
 40
30.0
176
     0
 62
     7
420
 16777215
176
     0
 90
        1
176
     0
 90
        4
176
     0
 62
     7
176
     0
 62
   257
176
     0
 90
        1
176
     0
 90
        1
176
     0
 40
1.0
176
     0
 90
        9
176
     2
 62
     7
176
     0
 40
1.0
176
     0
 90
        1
176
     0
 90
        6
176
     0
 90
        2
176
     0
 62
     7
176
     0
 90
        5
176
     0
 90
        0
176
     0
 90
        0
176
     0
290
     0
176
     0
 90
        1
176
     0
 40
0.0
176
     0
 90
        0
176
     0
290
     0
176
     0
290
     1
176
     0
290
     1
176
     0
290
     0
176
     0
290
     0
176
     0
290
     0
176
     0
290
     0
176
     0
290
     0
176
     0
290
     0
176
     0
 90
       50
176
     0
 40
0.0
176
     0
 40
1.0
176
     0
 90
        0
176
     0
 62
    18
420
        0
176
     0
 90
       50
176
     0
 90
        3
176
     0
 62
     5
420
      255
176
     0
290
     0
176
     0
 90
       50
176
     0
 90
       50
176
     0
 90
       50
176
     0
290
     0
176
     0
 90
       50
176
     0
 62
   256
176
     0
 40
1.0
176
     0
 90
        2
176
     0
  1
strokes_ogs.tif
176
     0
290
     0
176
     0
 40
1.0
176
     0
 40
1.0
176
     0
  0
VISUALSTYLE
  5
33
102
{ACAD_REACTORS
330
2A
102
}
330
2A
100
AcDbVisualStyle
  2
Realistic
 70
     8
177
     3
291
     0
 70
    58
 90
        2
176
     1
 90
        3
176
     1
 90
        0
176
     1
 90
        2
176
     1
 40
0.6
176
     1
 40
30.0
176
     1
 62
     7
420
 16777215
176
     1
 90
        0
176
     1
 90
        0
176
     1
 62
     7
176
     1
 62
   257
176
     1
 90
        1
176
     1
 90
        1
176
     1
 40
1.0
176
     1
 90
        8
176
     1
 62
   257
176
     1
 40
1.0
176
     1
 90
        1
176
     1
 90
        6
176
     1
 90
        2
176
     1
 62
     7
176
     1
 90
        3
176
     1
 90
        0
176
     1
 90
        0
176
     1
290
     0
176
     1
 90
       13
176
     1
 40
0.0
176
     1
 90
        0
176
     1
290
     0
176
     1
290
     1
176
     1
290
     1
176
     1
290
     0
176
     1
290
     0
176
     1
290
     0
176
     1
290
     0
176
     1
290
     0
176
     1
290
     0
176
     1
 90
       50
176
     1
 40
0.0
176
     1
 40
1.0
176
     1
 90
        0
176
     1
 62
    18
420
        0
176
     1
 90
       50
176
     1
 90
        3
176
     1
 62
     5
420
      255
176
     1
290
     0
176
     1
 90
       50
176
     1
 90
       50
176
     1
 90
       50
176
     1
290
     0
176
     1
 90
       50
176
     1
 62
   256
176
     0
 40
1.0
176
     0
 90
        2
176
     1
  1
strokes_ogs.tif
176
     1
290
     0
176
     1
 40
1.0
176
     1
 40
1.0
176
     1
  0
VISUALSTYLE
  5
42
102
{ACAD_REACTORS
330
2A
102
}
330
2A
100
AcDbVisualStyle
  2
Shaded
 70
    27
177
     3
291
     0
 70
    58
 90
        2
176
     1
 90
        2
176
     1
 90
        1
176
     1
 90
        2
176
     1
 40
0.6
176
     1
 40
30.0
176
     1
 62
     7
420
 16777215
176
     1
 90
        0
176
     1
 90
        4
176
     1
 62
     7
176
     1
 62
   257
176
     1
 90
        1
176
     1
 90
        1
176
     1
 40
1.0
176
     1
 90
        8
176
     1
 62
   257
176
     1
 40
1.0
176
     1
 90
        1
176
     1
 90
        6
176
     1
 90
        2
176
     1
 62
     8
420
  7895160
176
     1
 90
        3
176
     1
 90
        0
176
     1
 90
        0
176
     1
290
     0
176
     1
 90
        5
176
     1
 40
0.0
176
     1
 90
        0
176
     1
290
     0
176
     1
290
     1
176
     1
290
     1
176
     1
290
     0
176
     1
290
     0
176
     1
290
     0
176
     1
290
     0
176
     1
290
     0
176
     1
290
     0
176
     1
 90
       50
176
     1
 40
0.0
176
     1
 40
1.0
176
     1
 90
        0
176
     1
 62
    18
420
        0
176
     1
 90
       50
176
     1
 90
        3
176
     1
 62
     5
420
      255
176
     1
290
     0
176
     1
 90
       50
176
     1
 90
       50
176
     1
 90
       50
176
     1
290
     0
176
     1
 90
       50
176
     1
 62
   256
176
     0
 40
1.0
176
     0
 90
        2
176
     1
  1
strokes_ogs.tif
176
     1
290
     0
176
     1
 40
1.0
176
     1
 40
1.0
176
     1
  0
VISUALSTYLE
  5
41
102
{ACAD_REACTORS
330
2A
102
}
330
2A
100
AcDbVisualStyle
  2
Shaded with edges
 70
    26
177
     3
291
     0
 70
    58
 90
        2
176
     1
 90
        2
176
     1
 90
        1
176
     1
 90
        2
176
     1
 40
0.6
176
     1
 40
30.0
176
     1
 62
     7
420
 16777215
176
     1
 90
        1
176
     1
 90
       10
176
     1
 62
     7
176
     1
 62
   257
176
     1
 90
        2
176
     1
 90
        1
176
     1
 40
1.0
176
     1
 90
        8
176
     1
 62
   257
176
     1
 40
1.0
176
     1
 90
        1
176
     1
 90
        6
176
     1
 90
        2
176
     1
 62
     7
176
     1
 90
        3
176
     1
 90
        0
176
     1
 90
        0
176
     1
290
     0
176
     1
 90
        5
176
     1
 40
0.0
176
     1
 90
        0
176
     1
290
     0
176
     1
290
     1
176
     1
290
     1
176
     1
290
     0
176
     1
290
     0
176
     1
290
     0
176
     1
290
     0
176
     1
290
     0
176
     1
290
     0
176
     1
 90
       50
176
     1
 40
0.0
176
     1
 40
1.0
176
     1
 90
        0
176
     1
 62
    18
420
        0
176
     1
 90
       50
176
     1
 90
        3
176
     1
 62
     5
420
      255
176
     1
290
     0
176
     1
 90
       50
176
     1
 90
       50
176
     1
 90
       50
176
     1
290
     0
176
     1
 90
       50
176
     1
 62
   256
176
     0
 40
1.0
176
     0
 90
        2
176
     1
  1
strokes_ogs.tif
176
     1
290
     0
176
     1
 40
1.0
176
     1
 40
1.0
176
     1
  0
VISUALSTYLE
  5
3E
102
{ACAD_REACTORS
330
2A
102
}
330
2A
100
AcDbVisualStyle
  2
Shades of Gray
 70
    23
177
     3
291
     0
 70
    58
 90
        2
176
     1
 90
        2
176
     1
 90
        3
176
     1
 90
        0
176
     1
 40
0.6
176
     1
 40
30.0
176
     1
 62
     7
420
 16777215
176
     1
 90
        2
176
     1
 90
        2
176
     1
 62
     7
176
     1
 62
     7
176
     1
 90
        1
176
     1
 90
        1
176
     1
 40
40.0
176
     1
 90
        8
176
     1
 62
     7
176
     1
 40
1.0
176
     1
 90
        1
176
     1
 90
        6
176
     1
 90
        2
176
     1
 62
     7
176
     1
 90
        3
176
     1
 90
        0
176
     1
 90
        0
176
     1
290
     0
176
     1
 90
        1
176
     1
 40
0.0
176
     1
 90
        0
176
     1
290
     0
176
     1
290
     1
176
     1
290
     1
176
     1
290
     0
176
     1
290
     0
176
     1
290
     0
176
     1
290
     0
176
     1
290
     0
176
     1
290
     0
176
     1
 90
       50
176
     1
 40
0.0
176
     1
 40
1.0
176
     1
 90
        0
176
     1
 62
    18
420
        0
176
     1
 90
       50
176
     1
 90
        3
176
     1
 62
     5
420
      255
176
     1
290
     0
176
     1
 90
       50
176
     1
 90
       50
176
     1
 90
       50
176
     1
290
     0
176
     1
 90
       50
176
     1
 62
   256
176
     0
 40
1.0
176
     0
 90
        2
176
     1
  1
strokes_ogs.tif
176
     1
290
     0
176
     1
 40
1.0
176
     1
 40
1.0
176
     1
  0
VISUALSTYLE
  5
3F
102
{ACAD_REACTORS
330
2A
102
}
330
2A
100
AcDbVisualStyle
  2
Sketchy
 70
    24
177
     3
291
     0
 70
    58
 90
        1
176
     1
 90
        2
176
     1
 90
        2
176
     1
 90
        0
176
     1
 40
0.6
176
     1
 40
30.0
176
     1
 62
     7
420
 16777215
176
     1
 90
        2
176
     1
 90
        2
176
     1
 62
     7
176
     1
 62
     7
176
     1
 90
        1
176
     1
 90
        1
176
     1
 40
40.0
176
     1
 90
       11
176
     1
 62
     7
176
     1
 40
1.0
176
     1
 90
        1
176
     1
 90
        6
176
     1
 90
        2
176
     1
 62
     7
176
     1
 90
        6
176
     1
 90
        0
176
     1
 90
        0
176
     1
290
     0
176
     1
 90
        1
176
     1
 40
0.0
176
     1
 90
        0
176
     1
290
     0
176
     1
290
     1
176
     1
290
     1
176
     1
290
     0
176
     1
290
     0
176
     1
290
     0
176
     1
290
     0
176
     1
290
     0
176
     1
290
     0
176
     1
 90
       50
176
     1
 40
0.0
176
     1
 40
1.0
176
     1
 90
        0
176
     1
 62
    18
420
        0
176
     1
 90
       50
176
     1
 90
        3
176
     1
 62
     5
420
      255
176
     1
290
     0
176
     1
 90
       50
176
     1
 90
       50
176
     1
 90
       50
176
     1
290
     0
176
     1
 90
       50
176
     1
 62
   256
176
     0
 40
1.0
176
     0
 90
        2
176
     1
  1
strokes_ogs.tif
176
     1
290
     0
176
     1
 40
1.0
176
     1
 40
1.0
176
     1
  0
VISUALSTYLE
  5
37
102
{ACAD_REACTORS
330
2A
102
}
330
2A
100
AcDbVisualStyle
  2
Thicken
 70
    13
177
     3
291
     1
 70
    58
 90
        2
176
     1
 90
        2
176
     1
 90
        0
176
     1
 90
        0
176
     1
 40
0.6
176
     1
 40
30.0
176
     1
 62
     7
420
 16777215
176
     1
 90
        1
176
     1
 90
        4
176
     1
 62
     7
176
     1
 62
   257
176
     1
 90
        1
176
     1
 90
        1
176
     1
 40
1.0
176
     1
 90
       12
176
     1
 62
     7
176
     1
 40
1.0
176
     1
 90
        1
176
     1
 90
        6
176
     1
 90
        2
176
     1
 62
     7
176
     1
 90
        5
176
     1
 90
        0
176
     1
 90
        0
176
     1
290
     0
176
     1
 90
        1
176
     1
 40
0.0
176
     1
 90
        0
176
     1
290
     0
176
     1
290
     1
176
     1
290
     1
176
     1
290
     0
176
     1
290
     0
176
     1
290
     0
176
     1
290
     0
176
     1
290
     0
176
     1
290
     0
176
     1
 90
       50
176
     1
 40
0.0
176
     1
 40
1.0
176
     1
 90
        0
176
     1
 62
    18
420
        0
176
     1
 90
       50
176
     1
 90
        3
176
     1
 62
     5
420
      255
176
     1
290
     0
176
     1
 90
       50
176
     1
 90
       50
176
     1
 90
       50
176
     1
290
     0
176
     1
 90
       50
176
     1
 62
   256
176
     0
 40
1.0
176
     0
 90
        2
176
     1
  1
strokes_ogs.tif
176
     1
290
     0
176
     1
 40
1.0
176
     1
 40
1.0
176
     1
  0
VISUALSTYLE
  5
30
102
{ACAD_REACTORS
330
2A
102
}
330
2A
100
AcDbVisualStyle
  2
Wireframe
 70
     5
177
     3
291
     0
 70
    58
 90
        0
176
     1
 90
        2
176
     1
 90
        0
176
     1
 90
        0
176
     1
 40
0.6
176
     1
 40
30.0
176
     1
 62
     7
420
 16777215
176
     1
 90
        1
176
     1
 90
        4
176
     1
 62
     7
176
     1
 62
   257
176
     1
 90
        1
176
     1
 90
        1
176
     1
 40
1.0
176
     1
 90
        0
176
     1
 62
   257
176
     1
 40
1.0
176
     1
 90
        1
176
     1
 90
        6
176
     1
 90
        2
176
     1
 62
     7
176
     1
 90
        3
176
     1
 90
        0
176
     1
 90
        0
176
     1
290
     0
176
     1
 90
        1
176
     1
 40
0.0
176
     1
 90
        0
176
     1
290
     0
176
     1
290
     1
176
     1
290
     1
176
     1
290
     0
176
     1
290
     0
176
     1
290
     0
176
     1
290
     0
176
     1
290
     0
176
     1
290
     0
176
     1
 90
       50
176
     1
 40
0.0
176
     1
 40
1.0
176
     1
 90
        0
176
     1
 62
    18
420
        0
176
     1
 90
       50
176
     1
 90
        3
176
     1
 62
     5
420
      255
176
     1
290
     0
176
     1
 90
       50
176
     1
 90
       50
176
     1
 90
       50
176
     1
290
     0
176
     1
 90
       50
176
     1
 62
   256
176
     0
 40
1.0
176
     0
 90
        2
176
     1
  1
strokes_ogs.tif
176
     1
290
     0
176
     1
 40
1.0
176
     1
 40
1.0
176
     1
  0
VISUALSTYLE
  5
40
102
{ACAD_REACTORS
330
2A
102
}
330
2A
100
AcDbVisualStyle
  2
X-Ray
 70
    25
177
     3
291
     0
 70
    58
 90
        2
176
     1
 90
        2
176
     1
 90
        1
176
     1
 90
        1
176
     1
 40
0.5
176
     1
 40
30.0
176
     1
 62
     7
420
 16777215
176
     1
 90
        1
176
     1
 90
        0
176
     1
 62
     7
176
     1
 62
   257
176
     1
 90
        1
176
     1
 90
        1
176
     1
 40
1.0
176
     1
 90
        8
176
     1
 62
     7
176
     1
 40
1.0
176
     1
 90
        1
176
     1
 90
        6
176
     1
 90
        2
176
     1
 62
     7
176
     1
 90
        3
176
     1
 90
        0
176
     1
 90
        0
176
     1
290
     0
176
     1
 90
       13
176
     1
 40
0.0
176
     1
 90
        0
176
     1
290
     0
176
     1
290
     1
176
     1
290
     1
176
     1
290
     0
176
     1
290
     0
176
     1
290
     0
176
     1
290
     0
176
     1
290
     0
176
     1
290
     0
176
     1
 90
       50
176
     1
 40
0.0
176
     1
 40
1.0
176
     1
 90
        0
176
     1
 62
    18
420
        0
176
     1
 90
       50
176
     1
 90
        3
176
     1
 62
     5
420
      255
176
     1
290
     0
176
     1
 90
       50
176
     1
 90
       50
176
     1
 90
       50
176
     1
290
     0
176
     1
 90
       50
176
     1
 62
   256
176
     0
 40
1.0
176
     0
 90
        2
176
     1
  1
strokes_ogs.tif
176
     1
290
     0
176
     1
 40
1.0
176
     1
 40
1.0
176
     1
  0
DICTIONARYVAR
  5
338
102
{ACAD_REACTORS
330
337
102
}
330
337
100
DictionaryVariables
280
     0
  1
1:1
  0
DICTIONARYVAR
  5
340
102
{ACAD_REACTORS
330
337
102
}
330
337
100
DictionaryVariables
280
     0
  1
3.500000
  0
DICTIONARYVAR
  5
341
102
{ACAD_REACTORS
330
337
102
}
330
337
100
DictionaryVariables
280
     0
  1
acadiso.lin
  0
DICTIONARYVAR
  5
33D
102
{ACAD_REACTORS
330
337
102
}
330
337
100
DictionaryVariables
280
     0
  1
Standard
  0
DICTIONARYVAR
  5
33C
102
{ACAD_REACTORS
330
337
102
}
330
337
100
DictionaryVariables
280
     0
  1
Standard
  0
DICTIONARY
  5
339
330
5A
100
AcDbDictionary
280
     1
281
     1
  3
ACAD_ROUNDTRIP_2008_TABLESTYLE_CELLSTYLEMAP
360
33A
  0
CELLSTYLEMAP
  5
33A
102
{ACAD_REACTORS
330
339
102
}
330
339
100
AcDbCellStyleMap
 90
        3
300
CELLSTYLE
  1
TABLEFORMAT_BEGIN
 90
        5
170
     1
 91
        0
 92
    32768
 62
   257
 93
        1
300
CONTENTFORMAT
  1
CONTENTFORMAT_BEGIN
 90
        0
 91
        0
 92
        4
 93
        0
300

 40
0.0
140
1.0
 94
        5
 62
     0
340
11
144
6.0
309
CONTENTFORMAT_END
171
     1
301
MARGIN
  1
CELLMARGIN_BEGIN
 40
1.5
 40
1.5
 40
1.5
 40
1.5
 40
1.5
 40
1.5
309
CELLMARGIN_END
 94
        6
 95
        1
302
GRIDFORMAT
  1
GRIDFORMAT_BEGIN
 90
        0
 91
        1
 62
     0
 92
       -2
340
14
 93
        0
 40
0.045
309
GRIDFORMAT_END
 95
        2
302
GRIDFORMAT
  1
GRIDFORMAT_BEGIN
 90
        0
 91
        1
 62
     0
 92
       -2
340
14
 93
        0
 40
0.045
309
GRIDFORMAT_END
 95
        4
302
GRIDFORMAT
  1
GRIDFORMAT_BEGIN
 90
        0
 91
        1
 62
     0
 92
       -2
340
14
 93
        0
 40
0.045
309
GRIDFORMAT_END
 95
        8
302
GRIDFORMAT
  1
GRIDFORMAT_BEGIN
 90
        0
 91
        1
 62
     0
 92
       -2
340
14
 93
        0
 40
0.045
309
GRIDFORMAT_END
 95
       16
302
GRIDFORMAT
  1
GRIDFORMAT_BEGIN
 90
        0
 91
        1
 62
     0
 92
       -2
340
14
 93
        0
 40
0.045
309
GRIDFORMAT_END
 95
       32
302
GRIDFORMAT
  1
GRIDFORMAT_BEGIN
 90
        0
 91
        1
 62
     0
 92
       -2
340
14
 93
        0
 40
0.045
309
GRIDFORMAT_END
309
TABLEFORMAT_END
  1
CELLSTYLE_BEGIN
 90
        1
 91
        1
300
_TITLE
309
CELLSTYLE_END
300
CELLSTYLE
  1
TABLEFORMAT_BEGIN
 90
        5
170
     1
 91
        0
 92
        0
 62
   257
 93
        1
300
CONTENTFORMAT
  1
CONTENTFORMAT_BEGIN
 90
        0
 91
        0
 92
        4
 93
        0
300

 40
0.0
140
1.0
 94
        5
 62
     0
340
11
144
4.5
309
CONTENTFORMAT_END
171
     1
301
MARGIN
  1
CELLMARGIN_BEGIN
 40
1.5
 40
1.5
 40
1.5
 40
1.5
 40
1.5
 40
1.5
309
CELLMARGIN_END
 94
        6
 95
        1
302
GRIDFORMAT
  1
GRIDFORMAT_BEGIN
 90
        0
 91
        1
 62
     0
 92
       -2
340
14
 93
        0
 40
0.045
309
GRIDFORMAT_END
 95
        2
302
GRIDFORMAT
  1
GRIDFORMAT_BEGIN
 90
        0
 91
        1
 62
     0
 92
       -2
340
14
 93
        0
 40
0.045
309
GRIDFORMAT_END
 95
        4
302
GRIDFORMAT
  1
GRIDFORMAT_BEGIN
 90
        0
 91
        1
 62
     0
 92
       -2
340
14
 93
        0
 40
0.045
309
GRIDFORMAT_END
 95
        8
302
GRIDFORMAT
  1
GRIDFORMAT_BEGIN
 90
        0
 91
        1
 62
     0
 92
       -2
340
14
 93
        0
 40
0.045
309
GRIDFORMAT_END
 95
       16
302
GRIDFORMAT
  1
GRIDFORMAT_BEGIN
 90
        0
 91
        1
 62
     0
 92
       -2
340
14
 93
        0
 40
0.045
309
GRIDFORMAT_END
 95
       32
302
GRIDFORMAT
  1
GRIDFORMAT_BEGIN
 90
        0
 91
        1
 62
     0
 92
       -2
340
14
 93
        0
 40
0.045
309
GRIDFORMAT_END
309
TABLEFORMAT_END
  1
CELLSTYLE_BEGIN
 90
        2
 91
        1
300
_HEADER
309
CELLSTYLE_END
300
CELLSTYLE
  1
TABLEFORMAT_BEGIN
 90
        5
170
     1
 91
        0
 92
        0
 62
   257
 93
        1
300
CONTENTFORMAT
  1
CONTENTFORMAT_BEGIN
 90
        0
 91
        0
 92
        4
 93
        0
300

 40
0.0
140
1.0
 94
        2
 62
     0
340
11
144
4.5
309
CONTENTFORMAT_END
171
     1
301
MARGIN
  1
CELLMARGIN_BEGIN
 40
1.5
 40
1.5
 40
1.5
 40
1.5
 40
1.5
 40
1.5
309
CELLMARGIN_END
 94
        6
 95
        1
302
GRIDFORMAT
  1
GRIDFORMAT_BEGIN
 90
        0
 91
        1
 62
     0
 92
       -2
340
14
 93
        0
 40
0.045
309
GRIDFORMAT_END
 95
        2
302
GRIDFORMAT
  1
GRIDFORMAT_BEGIN
 90
        0
 91
        1
 62
     0
 92
       -2
340
14
 93
        0
 40
0.045
309
GRIDFORMAT_END
 95
        4
302
GRIDFORMAT
  1
GRIDFORMAT_BEGIN
 90
        0
 91
        1
 62
     0
 92
       -2
340
14
 93
        0
 40
0.045
309
GRIDFORMAT_END
 95
        8
302
GRIDFORMAT
  1
GRIDFORMAT_BEGIN
 90
        0
 91
        1
 62
     0
 92
       -2
340
14
 93
        0
 40
0.045
309
GRIDFORMAT_END
 95
       16
302
GRIDFORMAT
  1
GRIDFORMAT_BEGIN
 90
        0
 91
        1
 62
     0
 92
       -2
340
14
 93
        0
 40
0.045
309
GRIDFORMAT_END
 95
       32
302
GRIDFORMAT
  1
GRIDFORMAT_BEGIN
 90
        0
 91
        1
 62
     0
 92
       -2
340
14
 93
        0
 40
0.045
309
GRIDFORMAT_END
309
TABLEFORMAT_END
  1
CELLSTYLE_BEGIN
 90
        3
 91
        2
300
_DATA
309
CELLSTYLE_END
  0
ENDSEC
  0
EOF
