  0
SECTION
  2
HEADER
  9
$ACADVER
  1
AC1027
  9
$ACADMAINTVER
 70
   105
  9
$DWGCODEPAGE
  3
ANSI_1252
  9
$COMMENTS
  1
File was created by Cadenas
  9
$LASTSAVEDBY
  1
psAdmin
  9
$CUSTOMPROPERTYTAG
  1
NB
  9
$CUSTOMPROPERTY
  1
32655
  9
$CUSTOMPROPERTYTAG
  1
NN
  9
$CUSTOMPROPERTY
  1
Universal adapters 16 A - 32 A, 3-pole, with leads
  9
$CUSTOMPROPERTYTAG
  1
NT
  9
$CUSTOMPROPERTY
  1

  9
$CUSTOMPROPERTYTAG
  1
NBSYN
  9
$CUSTOMPROPERTY
  1
$ARTNR.$CABLE.
  9
$CUSTOMPROPERTYTAG
  1
LINA
  9
$CUSTOMPROPERTY
  1
32655000
  9
$CUSTOMPROPERTYTAG
  1
CATALOG
  9
$CUSTOMPROPERTY
  1
Wöhner
  9
$CUSTOMPROPERTYTAG
  1
ARTNR
  9
$CUSTOMPROPERTY
  1
32655
  9
$CUSTOMPROPERTYTAG
  1
BUSB
  9
$CUSTOMPROPERTY
  1
12, 15, 20, 25, 30 x 5, 10 and section busbars
  9
$CUSTOMPROPERTYTAG
  1
POF
  9
$CUSTOMPROPERTY
  1
EQUES®60Classic
  9
$CUSTOMPROPERTYTAG
  1
TYPE
  9
$CUSTOMPROPERTY
  1
EEC6025-L
  9
$CUSTOMPROPERTYTAG
  1
QNT
  9
$CUSTOMPROPERTY
  1
4
  9
$CUSTOMPROPERTYTAG
  1
W
  9
$CUSTOMPROPERTY
  1
45
  9
$CUSTOMPROPERTYTAG
  1
H
  9
$CUSTOMPROPERTY
  1
200
  9
$CUSTOMPROPERTYTAG
  1
D
  9
$CUSTOMPROPERTY
  1
63
  9
$CUSTOMPROPERTYTAG
  1
C
  9
$CUSTOMPROPERTY
  1
62.5
  9
$CUSTOMPROPERTYTAG
  1
DD
  9
$CUSTOMPROPERTY
  1
95
  9
$CUSTOMPROPERTYTAG
  1
E
  9
$CUSTOMPROPERTY
  1
115
  9
$CUSTOMPROPERTYTAG
  1
LINK
  9
$CUSTOMPROPERTY
  1
Product link
  9
$CUSTOMPROPERTYTAG
  1
COMPANY
  9
$CUSTOMPROPERTY
  1
woehner
  9
$REQUIREDVERSIONS
160
                 0
  9
$INSBASE
 10
0.0
 20
0.0
 30
0.0
  9
$EXTMIN
 10
-56.0
 20
-195.3333333333333
 30
0.0
  9
$EXTMAX
 10
55.70238095238095
 20
34.5
 30
0.0
  9
$LIMMIN
 10
0.0
 20
0.0
  9
$LIMMAX
 10
420.0
 20
297.0
  9
$ORTHOMODE
 70
     0
  9
$REGENMODE
 70
     1
  9
$FILLMODE
 70
     1
  9
$QTEXTMODE
 70
     0
  9
$MIRRTEXT
 70
     1
  9
$LTSCALE
 40
1.0
  9
$ATTMODE
 70
     1
  9
$TEXTSIZE
 40
2.5
  9
$TRACEWID
 40
1.0
  9
$TEXTSTYLE
  7
Standard
  9
$CLAYER
  8
0
  9
$CELTYPE
  6
ByLayer
  9
$CECOLOR
 62
   256
  9
$CELTSCALE
 40
1.0
  9
$DISPSILH
 70
     0
  9
$DIMSCALE
 40
1.0
  9
$DIMASZ
 40
2.5
  9
$DIMEXO
 40
0.625
  9
$DIMDLI
 40
3.75
  9
$DIMRND
 40
0.0
  9
$DIMDLE
 40
0.0
  9
$DIMEXE
 40
1.25
  9
$DIMTP
 40
0.0
  9
$DIMTM
 40
0.0
  9
$DIMTXT
 40
2.5
  9
$DIMCEN
 40
2.5
  9
$DIMTSZ
 40
0.0
  9
$DIMTOL
 70
     0
  9
$DIMLIM
 70
     0
  9
$DIMTIH
 70
     0
  9
$DIMTOH
 70
     0
  9
$DIMSE1
 70
     0
  9
$DIMSE2
 70
     0
  9
$DIMTAD
 70
     1
  9
$DIMZIN
 70
     8
  9
$DIMBLK
  1

  9
$DIMASO
 70
     1
  9
$DIMSHO
 70
     1
  9
$DIMPOST
  1

  9
$DIMAPOST
  1

  9
$DIMALT
 70
     0
  9
$DIMALTD
 70
     3
  9
$DIMALTF
 40
0.03937007874016
  9
$DIMLFAC
 40
1.0
  9
$DIMTOFL
 70
     1
  9
$DIMTVP
 40
0.0
  9
$DIMTIX
 70
     0
  9
$DIMSOXD
 70
     0
  9
$DIMSAH
 70
     0
  9
$DIMBLK1
  1

  9
$DIMBLK2
  1

  9
$DIMSTYLE
  2
ISO-25
  9
$DIMCLRD
 70
     0
  9
$DIMCLRE
 70
     0
  9
$DIMCLRT
 70
     0
  9
$DIMTFAC
 40
1.0
  9
$DIMGAP
 40
0.625
  9
$DIMJUST
 70
     0
  9
$DIMSD1
 70
     0
  9
$DIMSD2
 70
     0
  9
$DIMTOLJ
 70
     0
  9
$DIMTZIN
 70
     8
  9
$DIMALTZ
 70
     0
  9
$DIMALTTZ
 70
     0
  9
$DIMUPT
 70
     0
  9
$DIMDEC
 70
     2
  9
$DIMTDEC
 70
     2
  9
$DIMALTU
 70
     2
  9
$DIMALTTD
 70
     3
  9
$DIMTXSTY
  7
Standard
  9
$DIMAUNIT
 70
     0
  9
$DIMADEC
 70
     0
  9
$DIMALTRND
 40
0.0
  9
$DIMAZIN
 70
     0
  9
$DIMDSEP
 70
    44
  9
$DIMATFIT
 70
     3
  9
$DIMFRAC
 70
     0
  9
$DIMLDRBLK
  1

  9
$DIMLUNIT
 70
     2
  9
$DIMLWD
 70
    -2
  9
$DIMLWE
 70
    -2
  9
$DIMTMOVE
 70
     0
  9
$DIMFXL
 40
1.0
  9
$DIMFXLON
 70
     0
  9
$DIMJOGANG
 40
0.7853981633974483
  9
$DIMTFILL
 70
     0
  9
$DIMTFILLCLR
 70
     0
  9
$DIMARCSYM
 70
     0
  9
$DIMLTYPE
  6

  9
$DIMLTEX1
  6

  9
$DIMLTEX2
  6

  9
$DIMTXTDIRECTION
 70
     0
  9
$LUNITS
 70
     2
  9
$LUPREC
 70
     4
  9
$SKETCHINC
 40
1.0
  9
$FILLETRAD
 40
0.0
  9
$AUNITS
 70
     0
  9
$AUPREC
 70
     0
  9
$MENU
  1
.
  9
$ELEVATION
 40
0.0
  9
$PELEVATION
 40
0.0
  9
$THICKNESS
 40
0.0
  9
$LIMCHECK
 70
     0
  9
$CHAMFERA
 40
0.0
  9
$CHAMFERB
 40
0.0
  9
$CHAMFERC
 40
0.0
  9
$CHAMFERD
 40
0.0
  9
$SKPOLY
 70
     0
  9
$TDCREATE
 40
2460349.410562188
  9
$TDUCREATE
 40
2460349.368895521
  9
$TDUPDATE
 40
2460349.41056272
  9
$TDUUPDATE
 40
2460349.368896053
  9
$TDINDWG
 40
0.0000000116
  9
$TDUSRTIMER
 40
0.0000000116
  9
$USRTIMER
 70
     1
  9
$ANGBASE
 50
0.0
  9
$ANGDIR
 70
     0
  9
$PDMODE
 70
     0
  9
$PDSIZE
 40
0.0
  9
$PLINEWID
 40
0.0
  9
$SPLFRAME
 70
     0
  9
$SPLINETYPE
 70
     6
  9
$SPLINESEGS
 70
     8
  9
$HANDSEED
  5
3E0
  9
$SURFTAB1
 70
     6
  9
$SURFTAB2
 70
     6
  9
$SURFTYPE
 70
     6
  9
$SURFU
 70
     6
  9
$SURFV
 70
     6
  9
$UCSBASE
  2

  9
$UCSNAME
  2

  9
$UCSORG
 10
0.0
 20
0.0
 30
0.0
  9
$UCSXDIR
 10
1.0
 20
0.0
 30
0.0
  9
$UCSYDIR
 10
0.0
 20
1.0
 30
0.0
  9
$UCSORTHOREF
  2

  9
$UCSORTHOVIEW
 70
     0
  9
$UCSORGTOP
 10
0.0
 20
0.0
 30
0.0
  9
$UCSORGBOTTOM
 10
0.0
 20
0.0
 30
0.0
  9
$UCSORGLEFT
 10
0.0
 20
0.0
 30
0.0
  9
$UCSORGRIGHT
 10
0.0
 20
0.0
 30
0.0
  9
$UCSORGFRONT
 10
0.0
 20
0.0
 30
0.0
  9
$UCSORGBACK
 10
0.0
 20
0.0
 30
0.0
  9
$PUCSBASE
  2

  9
$PUCSNAME
  2

  9
$PUCSORG
 10
0.0
 20
0.0
 30
0.0
  9
$PUCSXDIR
 10
1.0
 20
0.0
 30
0.0
  9
$PUCSYDIR
 10
0.0
 20
1.0
 30
0.0
  9
$PUCSORTHOREF
  2

  9
$PUCSORTHOVIEW
 70
     0
  9
$PUCSORGTOP
 10
0.0
 20
0.0
 30
0.0
  9
$PUCSORGBOTTOM
 10
0.0
 20
0.0
 30
0.0
  9
$PUCSORGLEFT
 10
0.0
 20
0.0
 30
0.0
  9
$PUCSORGRIGHT
 10
0.0
 20
0.0
 30
0.0
  9
$PUCSORGFRONT
 10
0.0
 20
0.0
 30
0.0
  9
$PUCSORGBACK
 10
0.0
 20
0.0
 30
0.0
  9
$USERI1
 70
     0
  9
$USERI2
 70
     0
  9
$USERI3
 70
     0
  9
$USERI4
 70
     0
  9
$USERI5
 70
     0
  9
$USERR1
 40
0.0
  9
$USERR2
 40
0.0
  9
$USERR3
 40
0.0
  9
$USERR4
 40
0.0
  9
$USERR5
 40
0.0
  9
$WORLDVIEW
 70
     1
  9
$SHADEDGE
 70
     3
  9
$SHADEDIF
 70
    70
  9
$TILEMODE
 70
     1
  9
$MAXACTVP
 70
    64
  9
$PINSBASE
 10
0.0
 20
0.0
 30
0.0
  9
$PLIMCHECK
 70
     0
  9
$PEXTMIN
 10
1.000000000000000E+20
 20
1.000000000000000E+20
 30
1.000000000000000E+20
  9
$PEXTMAX
 10
-1.000000000000000E+20
 20
-1.000000000000000E+20
 30
-1.000000000000000E+20
  9
$PLIMMIN
 10
0.0
 20
0.0
  9
$PLIMMAX
 10
420.0
 20
297.0
  9
$UNITMODE
 70
     0
  9
$VISRETAIN
 70
     1
  9
$PLINEGEN
 70
     0
  9
$PSLTSCALE
 70
     1
  9
$TREEDEPTH
 70
  3020
  9
$CMLSTYLE
  2
Standard
  9
$CMLJUST
 70
     0
  9
$CMLSCALE
 40
20.0
  9
$PROXYGRAPHICS
 70
     1
  9
$MEASUREMENT
 70
     1
  9
$CELWEIGHT
370
    -1
  9
$ENDCAPS
280
     0
  9
$JOINSTYLE
280
     0
  9
$LWDISPLAY
290
     0
  9
$INSUNITS
 70
     4
  9
$HYPERLINKBASE
  1

  9
$STYLESHEET
  1

  9
$XEDIT
290
     1
  9
$CEPSNTYPE
380
     0
  9
$PSTYLEMODE
290
     1
  9
$FINGERPRINTGUID
  2
{d5d084a8-1e4a-4bf9-8366-f280fbbcaa91}
  9
$VERSIONGUID
  2
{FAEB1C32-E019-11D5-929B-00C0DF256EC4}
  9
$EXTNAMES
290
     1
  9
$PSVPSCALE
 40
0.0
  9
$OLESTARTUP
290
     0
  9
$SORTENTS
280
   127
  9
$INDEXCTL
280
     0
  9
$HIDETEXT
280
     1
  9
$XCLIPFRAME
280
     2
  9
$HALOGAP
280
     0
  9
$OBSCOLOR
 70
   257
  9
$OBSLTYPE
280
     0
  9
$INTERSECTIONDISPLAY
280
     0
  9
$INTERSECTIONCOLOR
 70
   257
  9
$DIMASSOC
280
     2
  9
$PROJECTNAME
  1

  9
$CAMERADISPLAY
290
     0
  9
$LENSLENGTH
 40
50.0
  9
$CAMERAHEIGHT
 40
0.0
  9
$STEPSPERSEC
 40
2.0
  9
$STEPSIZE
 40
6.0
  9
$3DDWFPREC
 40
2.0
  9
$PSOLWIDTH
 40
5.0
  9
$PSOLHEIGHT
 40
80.0
  9
$LOFTANG1
 40
1.570796326794897
  9
$LOFTANG2
 40
1.570796326794897
  9
$LOFTMAG1
 40
0.0
  9
$LOFTMAG2
 40
0.0
  9
$LOFTPARAM
 70
     7
  9
$LOFTNORMALS
280
     1
  9
$LATITUDE
 40
37.795
  9
$LONGITUDE
 40
-122.394
  9
$NORTHDIRECTION
 40
0.0
  9
$TIMEZONE
 70
 -8000
  9
$LIGHTGLYPHDISPLAY
280
     1
  9
$TILEMODELIGHTSYNCH
280
     1
  9
$CMATERIAL
347
44
  9
$SOLIDHIST
280
     0
  9
$SHOWHIST
280
     1
  9
$DWFFRAME
280
     2
  9
$DGNFRAME
280
     2
  9
$REALWORLDSCALE
290
     1
  9
$INTERFERECOLOR
 62
   256
  9
$CSHADOW
280
     0
  9
$SHADOWPLANELOCATION
 40
0.0
  0
ENDSEC
  0
SECTION
  2
CLASSES
  0
CLASS
  1
ACDBDICTIONARYWDFLT
  2
AcDbDictionaryWithDefault
  3
ObjectDBX Classes
 90
        0
 91
        3
280
     0
281
     0
  0
CLASS
  1
VISUALSTYLE
  2
AcDbVisualStyle
  3
ObjectDBX Classes
 90
     4095
 91
        3
280
     0
281
     0
  0
CLASS
  1
MATERIAL
  2
AcDbMaterial
  3
ObjectDBX Classes
 90
     1153
 91
        3
280
     0
281
     0
  0
CLASS
  1
SCALE
  2
AcDbScale
  3
ObjectDBX Classes
 90
     1153
 91
        3
280
     0
281
     0
  0
CLASS
  1
TABLESTYLE
  2
AcDbTableStyle
  3
ObjectDBX Classes
 90
     4095
 91
        3
280
     0
281
     0
  0
CLASS
  1
MLEADERSTYLE
  2
AcDbMLeaderStyle
  3
ACDB_MLEADERSTYLE_CLASS
 90
     4095
 91
        3
280
     0
281
     0
  0
CLASS
  1
SUN
  2
AcDbSun
  3
SCENEOE
 90
     1153
 91
        3
280
     0
281
     0
  0
CLASS
  1
DICTIONARYVAR
  2
AcDbDictionaryVar
  3
ObjectDBX Classes
 90
        0
 91
        3
280
     0
281
     0
  0
CLASS
  1
CELLSTYLEMAP
  2
AcDbCellStyleMap
  3
ObjectDBX Classes
 90
     1152
 91
        3
280
     0
281
     0
  0
ENDSEC
  0
SECTION
  2
TABLES
  0
TABLE
  2
VPORT
  5
8
330
0
100
AcDbSymbolTable
 70
     1
  0
VPORT
  5
29
330
8
100
AcDbSymbolTableRecord
100
AcDbViewportTableRecord
  2
*Active
 70
     0
 10
0.0
 20
0.0
 11
1.0
 21
1.0
 12
-0.1488095238095184
 22
-80.41666666666669
 13
0.0
 23
0.0
 14
10.0
 24
10.0
 15
10.0
 25
10.0
 16
0.0
 26
0.0
 36
1.0
 17
0.0
 27
0.0
 37
0.0
 40
234.43
 41
0.4860147104527089
 42
50.0
 43
0.0
 44
0.0
 50
0.0
 51
0.0
 71
     0
 72
   100
 73
     1
 74
     3
 75
     0
 76
     0
 77
     0
 78
     0
281
     0
 65
     1
110
0.0
120
0.0
130
0.0
111
1.0
121
0.0
131
0.0
112
0.0
122
1.0
132
0.0
 79
     0
146
0.0
348
2F
 60
     3
 61
     5
292
     1
282
     1
141
0.0
142
0.0
 63
   250
361
5D
  0
ENDTAB
  0
TABLE
  2
LTYPE
  5
5
330
0
100
AcDbSymbolTable
 70
     3
  0
LTYPE
  5
14
330
5
100
AcDbSymbolTableRecord
100
AcDbLinetypeTableRecord
  2
ByBlock
 70
     0
  3

 72
    65
 73
     0
 40
0.0
  0
LTYPE
  5
15
330
5
100
AcDbSymbolTableRecord
100
AcDbLinetypeTableRecord
  2
ByLayer
 70
     0
  3

 72
    65
 73
     0
 40
0.0
  0
LTYPE
  5
16
330
5
100
AcDbSymbolTableRecord
100
AcDbLinetypeTableRecord
  2
Continuous
 70
     0
  3
Solid line
 72
    65
 73
     0
 40
0.0
  0
LTYPE
  5
87
330
5
100
AcDbSymbolTableRecord
100
AcDbLinetypeTableRecord
  2
Dashed
 70
     0
  3

 72
    65
 73
     2
 40
2.0
 49
1.0
 74
     0
 49
-1.0
 74
     0
  0
LTYPE
  5
D2
330
5
100
AcDbSymbolTableRecord
100
AcDbLinetypeTableRecord
  2
Center
 70
     0
  3

 72
    65
 73
     4
 40
1.5
 49
0.45
 74
     0
 49
-0.5
 74
     0
 49
0.05
 74
     0
 49
-0.5
 74
     0
  0
ENDTAB
  0
TABLE
  2
LAYER
  5
2
330
0
100
AcDbSymbolTable
 70
     9
  0
LAYER
  5
10
330
2
100
AcDbSymbolTableRecord
100
AcDbLayerTableRecord
  2
0
 70
     0
 62
     7
  6
Continuous
370
    -3
390
F
347
46
348
0
  0
LAYER
  5
5E
330
2
100
AcDbSymbolTableRecord
100
AcDbLayerTableRecord
  2
attrib
 70
     0
 62
    -2
  6
Continuous
370
    35
390
F
347
46
348
0
  0
LAYER
  5
88
330
2
100
AcDbSymbolTableRecord
100
AcDbLayerTableRecord
  2
hidden
 70
     0
 62
    -6
  6
Dashed
370
    25
390
F
347
46
348
0
  0
LAYER
  5
8A
330
2
100
AcDbSymbolTableRecord
100
AcDbLayerTableRecord
  2
bold
 70
     0
 62
     7
  6
Continuous
370
    50
390
F
347
46
348
0
  0
LAYER
  5
93
330
2
100
AcDbSymbolTableRecord
100
AcDbLayerTableRecord
  2
light
 70
     0
 62
    -3
  6
Continuous
370
    25
390
F
347
46
348
0
  0
LAYER
  5
D3
330
2
100
AcDbSymbolTableRecord
100
AcDbLayerTableRecord
  2
center
 70
     0
 62
    -7
  6
Center
370
    25
390
F
347
46
348
0
  0
LAYER
  5
37E
330
2
100
AcDbSymbolTableRecord
100
AcDbLayerTableRecord
  2
dimension
 70
     0
 62
    -5
  6
Continuous
370
    25
390
F
347
46
348
0
  0
LAYER
  5
380
330
2
100
AcDbSymbolTableRecord
100
AcDbLayerTableRecord
  2
Defpoints
 70
     0
 62
     7
  6
Continuous
290
     0
370
    -3
390
F
347
46
348
0
  0
LAYER
  5
3A9
330
2
100
AcDbSymbolTableRecord
100
AcDbLayerTableRecord
  2
connection
 70
     0
 62
    -7
  6
Continuous
370
    50
390
F
347
46
348
0
  0
ENDTAB
  0
TABLE
  2
STYLE
  5
3
330
0
100
AcDbSymbolTable
 70
     1
  0
STYLE
  5
11
330
3
100
AcDbSymbolTableRecord
100
AcDbTextStyleTableRecord
  2
Standard
 70
     0
 40
0.0
 41
1.0
 50
0.0
 71
     0
 42
2.5
  3
txt
  4

  0
ENDTAB
  0
TABLE
  2
VIEW
  5
6
330
0
100
AcDbSymbolTable
 70
     0
  0
ENDTAB
  0
TABLE
  2
UCS
  5
7
330
0
100
AcDbSymbolTable
 70
     0
  0
ENDTAB
  0
TABLE
  2
APPID
  5
9
330
0
100
AcDbSymbolTable
 70
     1
  0
APPID
  5
12
330
9
100
AcDbSymbolTableRecord
100
AcDbRegAppTableRecord
  2
ACAD
 70
     0
  0
ENDTAB
  0
TABLE
  2
DIMSTYLE
  5
A
330
0
100
AcDbSymbolTable
 70
     1
100
AcDbDimStyleTable
  0
DIMSTYLE
105
27
102
{ACAD_REACTORS
330
37F
330
38D
330
39B
102
}
330
A
100
AcDbSymbolTableRecord
100
AcDbDimStyleTableRecord
  2
ISO-25
 70
     0
 41
2.5
 42
0.625
 43
3.75
 44
1.25
 73
     0
 74
     0
 77
     1
 78
     8
140
2.5
141
2.5
143
0.03937007874016
147
0.625
171
     3
172
     1
178
     0
271
     2
272
     2
274
     3
278
    44
283
     0
284
     8
340
11
  0
ENDTAB
  0
TABLE
  2
BLOCK_RECORD
  5
1
330
0
100
AcDbSymbolTable
 70
    10
  0
BLOCK_RECORD
  5
1F
330
1
100
AcDbSymbolTableRecord
100
AcDbBlockTableRecord
  2
*Model_Space
340
22
 70
     0
280
     1
281
     0
  0
BLOCK_RECORD
  5
1B
330
1
100
AcDbSymbolTableRecord
100
AcDbBlockTableRecord
  2
*Paper_Space
340
1E
 70
     0
280
     1
281
     0
  0
BLOCK_RECORD
  5
23
330
1
100
AcDbSymbolTableRecord
100
AcDbBlockTableRecord
  2
*Paper_Space0
340
26
 70
     0
280
     1
281
     0
  0
BLOCK_RECORD
  5
77
330
1
100
AcDbSymbolTableRecord
100
AcDbBlockTableRecord
  2
1_80034CrossBoardScrew_0_in_32655_0
340
0
102
{BLKREFS
331
78
102
}
 70
     0
280
     1
281
     0
  0
BLOCK_RECORD
  5
9F
330
1
100
AcDbSymbolTableRecord
100
AcDbBlockTableRecord
  2
2_79350ACrossBoardAdapter_0_in_32655_0
340
0
102
{BLKREFS
331
A0
102
}
 70
     0
280
     1
281
     0
  0
BLOCK_RECORD
  5
F9
330
1
100
AcDbSymbolTableRecord
100
AcDbBlockTableRecord
  2
3_AWG10999_1_0_in_32655_0
340
0
102
{BLKREFS
331
FA
102
}
 70
     0
280
     1
281
     0
  0
BLOCK_RECORD
  5
11A
330
1
100
AcDbSymbolTableRecord
100
AcDbBlockTableRecord
  2
4_AWG10999_2_0_in_32655_0
340
0
102
{BLKREFS
331
11B
102
}
 70
     0
280
     1
281
     0
  0
BLOCK_RECORD
  5
13B
330
1
100
AcDbSymbolTableRecord
100
AcDbBlockTableRecord
  2
5_AWG10999_3_0_in_32655_0
340
0
102
{BLKREFS
331
13C
102
}
 70
     0
280
     1
281
     0
  0
BLOCK_RECORD
  5
15C
330
1
100
AcDbSymbolTableRecord
100
AcDbBlockTableRecord
  2
6_Basis45x200_0_in_32655_0
340
0
102
{BLKREFS
331
15D
102
}
 70
     0
280
     1
281
     0
  0
BLOCK_RECORD
  5
381
330
1
100
AcDbSymbolTableRecord
100
AcDbBlockTableRecord
  2
*D7
340
0
 70
     0
280
     1
281
     0
  0
BLOCK_RECORD
  5
38E
330
1
100
AcDbSymbolTableRecord
100
AcDbBlockTableRecord
  2
*D8
340
0
 70
     0
280
     1
281
     0
  0
BLOCK_RECORD
  5
39C
330
1
100
AcDbSymbolTableRecord
100
AcDbBlockTableRecord
  2
*D9
340
0
 70
     0
280
     1
281
     0
  0
ENDTAB
  0
ENDSEC
  0
SECTION
  2
BLOCKS
  0
BLOCK
  5
20
330
1F
100
AcDbEntity
  8
0
100
AcDbBlockBegin
  2
*Model_Space
 70
     2
 10
0.0
 20
0.0
 30
0.0
  3
*Model_Space
  1

  0
ENDBLK
  5
21
330
1F
100
AcDbEntity
  8
0
100
AcDbBlockEnd
  0
BLOCK
  5
1C
330
1B
100
AcDbEntity
 67
     1
  8
0
100
AcDbBlockBegin
  2
*Paper_Space
 70
     0
 10
0.0
 20
0.0
 30
0.0
  3
*Paper_Space
  1

  0
ENDBLK
  5
1D
330
1B
100
AcDbEntity
 67
     1
  8
0
100
AcDbBlockEnd
  0
BLOCK
  5
24
330
23
100
AcDbEntity
  8
0
100
AcDbBlockBegin
  2
*Paper_Space0
 70
     0
 10
0.0
 20
0.0
 30
0.0
  3
*Paper_Space0
  1

  0
ENDBLK
  5
25
330
23
100
AcDbEntity
  8
0
100
AcDbBlockEnd
  0
BLOCK
  5
79
330
77
100
AcDbEntity
  8
0
100
AcDbBlockBegin
  2
1_80034CrossBoardScrew_0_in_32655_0
 70
     2
 10
0.0
 20
0.0
 30
0.0
  3
1_80034CrossBoardScrew_0_in_32655_0
  1

  0
ATTDEF
  5
7B
330
77
100
AcDbEntity
  8
attrib
100
AcDbText
 10
45.35000000000001
 20
-21.0
 30
0.0
 40
0.5
  1
80034CrossBoardScrew
100
AcDbAttributeDefinition
  3

  2
NB
 70
     8
280
     0
  0
ATTDEF
  5
7C
330
77
100
AcDbEntity
  8
attrib
100
AcDbText
 10
45.35000000000001
 20
-21.5
 30
0.0
 40
0.5
  1
32668 Screw
100
AcDbAttributeDefinition
  3

  2
NN
 70
     8
280
     0
  0
ATTDEF
  5
7D
330
77
100
AcDbEntity
  8
attrib
100
AcDbText
 10
45.35000000000001
 20
-22.0
 30
0.0
 40
0.5
  1

100
AcDbAttributeDefinition
  3

  2
NT
 70
     8
280
     0
  0
ATTDEF
  5
7E
330
77
100
AcDbEntity
  8
attrib
100
AcDbText
 10
45.35000000000001
 20
-22.5
 30
0.0
 40
0.5
  1
$ARTNR.$SYSTEM.$MODEL.
100
AcDbAttributeDefinition
  3

  2
NBSYN
 70
     8
280
     0
  0
ATTDEF
  5
7F
330
77
100
AcDbEntity
  8
attrib
100
AcDbText
 10
45.35000000000001
 20
-23.0
 30
0.0
 40
0.5
  1
80034
100
AcDbAttributeDefinition
  3

  2
LINA
 70
     8
280
     0
  0
ATTDEF
  5
80
330
77
100
AcDbEntity
  8
attrib
100
AcDbText
 10
45.35000000000001
 20
-23.5
 30
0.0
 40
0.5
  1
Wöhner
100
AcDbAttributeDefinition
  3

  2
CATALOG
 70
     8
280
     0
  0
ATTDEF
  5
81
330
77
100
AcDbEntity
  8
attrib
100
AcDbText
 10
45.35000000000001
 20
-24.0
 30
0.0
 40
0.5
  1
80034
100
AcDbAttributeDefinition
  3

  2
ARTNR
 70
     8
280
     0
  0
ATTDEF
  5
82
330
77
100
AcDbEntity
  8
attrib
100
AcDbText
 10
45.35000000000001
 20
-24.5
 30
0.0
 40
0.5
  1
CrossBoard
100
AcDbAttributeDefinition
  3

  2
SYSTEM
 70
     8
280
     0
  0
ATTDEF
  5
83
330
77
100
AcDbEntity
  8
attrib
100
AcDbText
 10
45.35000000000001
 20
-25.0
 30
0.0
 40
0.5
  1
Screw
100
AcDbAttributeDefinition
  3

  2
MODEL
 70
     8
280
     0
  0
ATTDEF
  5
84
330
77
100
AcDbEntity
  8
attrib
100
AcDbText
 10
45.35000000000001
 20
-25.5
 30
0.0
 40
0.5
  1
woehner
100
AcDbAttributeDefinition
  3

  2
COMPANY
 70
     8
280
     0
  0
ATTDEF
  5
85
330
77
100
AcDbEntity
  8
attrib
100
AcDbText
 10
45.35000000000001
 20
-26.0
 30
0.0
 40
0.5
  1
{$CADENAS_DATA/23d-libs/woehner/sys_crossboard/parts/32668_screw.prj},170 {VTYP=3D},{NB=80034CrossBoardScrew},{LINA=80034},{NN=32668 Screw},{DATE=19.01.2024 08:52:31},{GEOMDATE=27.01.2022 06:14:50},{VERSION=},{LINEID=10},{WBVAR=},{WBNUMERIC=}  {NB=80034Cr
100
AcDbAttributeDefinition
  3

  2
PSOL_0
 70
     9
280
     0
  0
ATTDEF
  5
86
330
77
100
AcDbEntity
  8
attrib
100
AcDbText
 10
45.35000000000001
 20
-26.5
 30
0.0
 40
0.5
  1
ossBoardScrew},{LINA=80034},{KT=DUMMY},{ARTNR=80034},{SYSTEM=CrossBoard},{MODEL=Screw}
100
AcDbAttributeDefinition
  3

  2
PSOL_1
 70
     9
280
     0
  0
CIRCLE
  5
89
330
77
100
AcDbEntity
  8
hidden
100
AcDbCircle
 10
37.85
 20
-23.5
 30
0.0
 40
1.25
  0
LINE
  5
8B
330
77
100
AcDbEntity
  8
bold
100
AcDbLine
 10
36.95
 20
-24.0
 30
0.0
 11
35.44095245452358
 21
-24.0
 31
0.0
  0
LINE
  5
8C
330
77
100
AcDbEntity
  8
bold
100
AcDbLine
 10
38.75
 20
-23.0
 30
0.0
 11
40.25904754547643
 21
-23.0
 31
0.0
  0
LINE
  5
8D
330
77
100
AcDbEntity
  8
bold
100
AcDbLine
 10
40.25904754547643
 20
-24.0
 30
0.0
 11
38.75
 21
-24.0
 31
0.0
  0
LINE
  5
8E
330
77
100
AcDbEntity
  8
bold
100
AcDbLine
 10
35.44095245452358
 20
-23.0
 30
0.0
 11
36.95
 21
-23.0
 31
0.0
  0
ARC
  5
8F
330
77
100
AcDbEntity
  8
bold
100
AcDbCircle
 10
37.85000000000011
 20
-23.5
 30
0.0
 40
2.460388196274423
100
AcDbArc
 50
168.2746827725547
 51
191.7253172274453
  0
ARC
  5
90
330
77
100
AcDbEntity
  8
bold
100
AcDbCircle
 10
37.84999999999989
 20
-23.5
 30
0.0
 40
2.460388196274423
100
AcDbArc
 50
348.2746827725546
 51
11.72531722744538
  0
LWPOLYLINE
  5
91
330
77
100
AcDbEntity
  8
bold
100
AcDbPolyline
 90
        6
 70
     0
 43
0.0
 10
37.35
 20
-22.6
 10
37.3287242587419
 20
-22.72871649404953
 10
37.26582731702213
 20
-22.84546508065834
 10
37.1708209022612
 20
-22.93352380593377
 10
37.05513867935886
 20
-22.98593504389039
 10
36.95
 20
-23.0
  0
LWPOLYLINE
  5
92
330
77
100
AcDbEntity
  8
bold
100
AcDbPolyline
 90
        6
 70
     0
 43
0.0
 10
38.75
 20
-23.0
 10
38.62128350595047
 20
-22.9787242587419
 10
38.50453491934167
 20
-22.91582731702213
 10
38.41647619406623
 20
-22.82082090226119
 10
38.36406495610962
 20
-22.70513867935886
 10
38.35
 20
-22.6
  0
ARC
  5
94
330
77
100
AcDbEntity
  8
light
100
AcDbCircle
 10
37.85
 20
-23.50000000000001
 30
0.0
 40
2.181818161107081
100
AcDbArc
 50
13.24801503372522
 51
166.7519849662748
  0
LINE
  5
95
330
77
100
AcDbEntity
  8
bold
100
AcDbLine
 10
37.35
 20
-22.6
 30
0.0
 11
37.35
 21
-22.0
 31
0.0
  0
LINE
  5
96
330
77
100
AcDbEntity
  8
bold
100
AcDbLine
 10
37.35
 20
-22.0
 30
0.0
 11
38.35
 21
-22.0
 31
0.0
  0
LINE
  5
97
330
77
100
AcDbEntity
  8
bold
100
AcDbLine
 10
38.35
 20
-22.0
 30
0.0
 11
38.35
 21
-22.6
 31
0.0
  0
LWPOLYLINE
  5
98
330
77
100
AcDbEntity
  8
bold
100
AcDbPolyline
 90
        6
 70
     0
 43
0.0
 10
36.95
 20
-24.0
 10
37.07871649404953
 20
-24.0212757412581
 10
37.19546508065834
 20
-24.08417268297787
 10
37.28352380593378
 20
-24.17917909773881
 10
37.33593504389039
 20
-24.29486132064114
 10
37.35
 20
-24.4
  0
ARC
  5
99
330
77
100
AcDbEntity
  8
light
100
AcDbCircle
 10
37.85
 20
-23.49999999999999
 30
0.0
 40
2.181818161107081
100
AcDbArc
 50
193.2480150337252
 51
346.7519849662747
  0
LWPOLYLINE
  5
9A
330
77
100
AcDbEntity
  8
bold
100
AcDbPolyline
 90
        6
 70
     0
 43
0.0
 10
38.35
 20
-24.4
 10
38.37127574125811
 20
-24.27128350595047
 10
38.43417268297787
 20
-24.15453491934166
 10
38.5291790977388
 20
-24.06647619406623
 10
38.64486132064114
 20
-24.01406495610961
 10
38.75
 20
-24.0
  0
LINE
  5
9B
330
77
100
AcDbEntity
  8
bold
100
AcDbLine
 10
38.35
 20
-24.4
 30
0.0
 11
38.35
 21
-25.0
 31
0.0
  0
LINE
  5
9C
330
77
100
AcDbEntity
  8
bold
100
AcDbLine
 10
38.35
 20
-25.0
 30
0.0
 11
37.35
 21
-25.0
 31
0.0
  0
LINE
  5
9D
330
77
100
AcDbEntity
  8
bold
100
AcDbLine
 10
37.35
 20
-25.0
 30
0.0
 11
37.35
 21
-24.4
 31
0.0
  0
CIRCLE
  5
9E
330
77
100
AcDbEntity
  8
bold
100
AcDbCircle
 10
37.85
 20
-23.50000000000001
 30
0.0
 40
2.500000000000009
  0
ENDBLK
  5
7A
330
77
100
AcDbEntity
  8
0
100
AcDbBlockEnd
  0
BLOCK
  5
A1
330
9F
100
AcDbEntity
  8
0
100
AcDbBlockBegin
  2
2_79350ACrossBoardAdapter_0_in_32655_0
 70
     2
 10
0.0
 20
0.0
 30
0.0
  3
2_79350ACrossBoardAdapter_0_in_32655_0
  1

  0
ATTDEF
  5
A3
330
9F
100
AcDbEntity
  8
attrib
100
AcDbText
 10
52.25
 20
-10.9
 30
0.0
 40
0.5
  1
79350ACrossBoardAdapter
100
AcDbAttributeDefinition
  3

  2
NB
 70
     8
280
     0
  0
ATTDEF
  5
A4
330
9F
100
AcDbEntity
  8
attrib
100
AcDbText
 10
52.25
 20
-11.4
 30
0.0
 40
0.5
  1
32668 Adapter
100
AcDbAttributeDefinition
  3

  2
NN
 70
     8
280
     0
  0
ATTDEF
  5
A5
330
9F
100
AcDbEntity
  8
attrib
100
AcDbText
 10
52.25
 20
-11.9
 30
0.0
 40
0.5
  1

100
AcDbAttributeDefinition
  3

  2
NT
 70
     8
280
     0
  0
ATTDEF
  5
A6
330
9F
100
AcDbEntity
  8
attrib
100
AcDbText
 10
52.25
 20
-12.4
 30
0.0
 40
0.5
  1
$ARTNR.$SYSTEM.$MODEL.
100
AcDbAttributeDefinition
  3

  2
NBSYN
 70
     8
280
     0
  0
ATTDEF
  5
A7
330
9F
100
AcDbEntity
  8
attrib
100
AcDbText
 10
52.25
 20
-12.9
 30
0.0
 40
0.5
  1
79350A
100
AcDbAttributeDefinition
  3

  2
LINA
 70
     8
280
     0
  0
ATTDEF
  5
A8
330
9F
100
AcDbEntity
  8
attrib
100
AcDbText
 10
52.25
 20
-13.4
 30
0.0
 40
0.5
  1
Wöhner
100
AcDbAttributeDefinition
  3

  2
CATALOG
 70
     8
280
     0
  0
ATTDEF
  5
A9
330
9F
100
AcDbEntity
  8
attrib
100
AcDbText
 10
52.25
 20
-13.9
 30
0.0
 40
0.5
  1
79350A
100
AcDbAttributeDefinition
  3

  2
ARTNR
 70
     8
280
     0
  0
ATTDEF
  5
AA
330
9F
100
AcDbEntity
  8
attrib
100
AcDbText
 10
52.25
 20
-14.4
 30
0.0
 40
0.5
  1
CrossBoard
100
AcDbAttributeDefinition
  3

  2
SYSTEM
 70
     8
280
     0
  0
ATTDEF
  5
AB
330
9F
100
AcDbEntity
  8
attrib
100
AcDbText
 10
52.25
 20
-14.9
 30
0.0
 40
0.5
  1
Adapter
100
AcDbAttributeDefinition
  3

  2
MODEL
 70
     8
280
     0
  0
ATTDEF
  5
AC
330
9F
100
AcDbEntity
  8
attrib
100
AcDbText
 10
52.25
 20
-15.4
 30
0.0
 40
0.5
  1
woehner
100
AcDbAttributeDefinition
  3

  2
COMPANY
 70
     8
280
     0
  0
ATTDEF
  5
AD
330
9F
100
AcDbEntity
  8
attrib
100
AcDbText
 10
52.25
 20
-15.9
 30
0.0
 40
0.5
  1
{$CADENAS_DATA/23d-libs/woehner/sys_crossboard/parts/32668_adapter.prj},176 {VTYP=3D},{NB=79350ACrossBoardAdapter},{LINA=79350A},{NN=32668 Adapter},{DATE=19.01.2024 08:52:31},{GEOMDATE=08.02.2023 11:34:00},{VERSION=},{LINEID=10},{WBVAR=},{WBNUMERIC=}  {NB
100
AcDbAttributeDefinition
  3

  2
PSOL_0
 70
     9
280
     0
  0
ATTDEF
  5
AE
330
9F
100
AcDbEntity
  8
attrib
100
AcDbText
 10
52.25
 20
-16.4
 30
0.0
 40
0.5
  1
=79350ACrossBoardAdapter},{LINA=79350A},{KT=DUMMY},{ARTNR=79350A},{SYSTEM=CrossBoard},{MODEL=Adapter}
100
AcDbAttributeDefinition
  3

  2
PSOL_1
 70
     9
280
     0
  0
LINE
  5
AF
330
9F
100
AcDbEntity
  8
hidden
100
AcDbLine
 10
39.55
 20
-11.0
 30
0.0
 11
39.55
 21
-67.00025403784437
 31
0.0
  0
LINE
  5
B0
330
9F
100
AcDbEntity
  8
hidden
100
AcDbLine
 10
5.449999999999997
 20
-11.0
 30
0.0
 11
5.449999999999997
 21
-67.00025403784437
 31
0.0
  0
LINE
  5
B1
330
9F
100
AcDbEntity
  8
hidden
100
AcDbLine
 10
3.650000000000028
 20
-21.99999999999999
 30
0.0
 11
0.0000000000000278
 21
-21.99999999999999
 31
0.0
  0
LINE
  5
B2
330
9F
100
AcDbEntity
  8
hidden
100
AcDbLine
 10
0.0000000000000278
 20
-24.99999999999999
 30
0.0
 11
3.650000000000028
 21
-24.99999999999999
 31
0.0
  0
LINE
  5
B3
330
9F
100
AcDbEntity
  8
hidden
100
AcDbLine
 10
45.0
 20
-21.99999999999999
 30
0.0
 11
41.34999999999999
 21
-21.99999999999999
 31
0.0
  0
LINE
  5
B4
330
9F
100
AcDbEntity
  8
hidden
100
AcDbLine
 10
41.34999999999999
 20
-24.99999999999999
 30
0.0
 11
45.0
 21
-24.99999999999999
 31
0.0
  0
LINE
  5
B5
330
9F
100
AcDbEntity
  8
hidden
100
AcDbLine
 10
45.0
 20
-62.25
 30
0.0
 11
41.34999999999999
 21
-62.25
 31
0.0
  0
LINE
  5
B6
330
9F
100
AcDbEntity
  8
hidden
100
AcDbLine
 10
41.34999999999999
 20
-63.75
 30
0.0
 11
45.0
 21
-63.75
 31
0.0
  0
LINE
  5
B7
330
9F
100
AcDbEntity
  8
hidden
100
AcDbLine
 10
45.0
 20
-14.49999999999999
 30
0.0
 11
41.34999999999999
 21
-14.49999999999999
 31
0.0
  0
LINE
  5
B8
330
9F
100
AcDbEntity
  8
hidden
100
AcDbLine
 10
41.34999999999999
 20
-17.5
 30
0.0
 11
45.0
 21
-17.5
 31
0.0
  0
LINE
  5
B9
330
9F
100
AcDbEntity
  8
hidden
100
AcDbLine
 10
3.650000000000028
 20
-48.25
 30
0.0
 11
0.0000000000000278
 21
-48.25
 31
0.0
  0
LINE
  5
BA
330
9F
100
AcDbEntity
  8
hidden
100
AcDbLine
 10
0.0000000000000278
 20
-51.25000000000001
 30
0.0
 11
3.650000000000028
 21
-51.25000000000001
 31
0.0
  0
LINE
  5
BB
330
9F
100
AcDbEntity
  8
hidden
100
AcDbLine
 10
3.65
 20
-62.25
 30
0.0
 11
0.0
 21
-62.25
 31
0.0
  0
LINE
  5
BC
330
9F
100
AcDbEntity
  8
hidden
100
AcDbLine
 10
0.0000000000000278
 20
-63.75
 30
0.0
 11
3.650000000000028
 21
-63.75
 31
0.0
  0
LINE
  5
BD
330
9F
100
AcDbEntity
  8
hidden
100
AcDbLine
 10
3.650000000000028
 20
-40.74999999999999
 30
0.0
 11
0.0000000000000278
 21
-40.74999999999999
 31
0.0
  0
LINE
  5
BE
330
9F
100
AcDbEntity
  8
hidden
100
AcDbLine
 10
0.0000000000000278
 20
-43.75
 30
0.0
 11
3.650000000000028
 21
-43.75
 31
0.0
  0
LINE
  5
BF
330
9F
100
AcDbEntity
  8
hidden
100
AcDbLine
 10
45.0
 20
-48.25
 30
0.0
 11
41.34999999999999
 21
-48.25
 31
0.0
  0
LINE
  5
C0
330
9F
100
AcDbEntity
  8
hidden
100
AcDbLine
 10
41.34999999999999
 20
-51.25000000000001
 30
0.0
 11
45.0
 21
-51.25000000000001
 31
0.0
  0
LINE
  5
C1
330
9F
100
AcDbEntity
  8
hidden
100
AcDbLine
 10
45.0
 20
-40.74999999999999
 30
0.0
 11
41.34999999999999
 21
-40.74999999999999
 31
0.0
  0
LINE
  5
C2
330
9F
100
AcDbEntity
  8
hidden
100
AcDbLine
 10
41.34999999999999
 20
-43.75
 30
0.0
 11
45.0
 21
-43.75
 31
0.0
  0
LINE
  5
C3
330
9F
100
AcDbEntity
  8
hidden
100
AcDbLine
 10
3.650000000000028
 20
-14.49999999999999
 30
0.0
 11
0.0000000000000278
 21
-14.49999999999999
 31
0.0
  0
LINE
  5
C4
330
9F
100
AcDbEntity
  8
hidden
100
AcDbLine
 10
0.0000000000000278
 20
-17.5
 30
0.0
 11
3.650000000000028
 21
-17.5
 31
0.0
  0
LINE
  5
C5
330
9F
100
AcDbEntity
  8
hidden
100
AcDbLine
 10
45.0
 20
-58.5
 30
0.0
 11
41.34999999999999
 21
-58.5
 31
0.0
  0
LINE
  5
C6
330
9F
100
AcDbEntity
  8
hidden
100
AcDbLine
 10
45.0
 20
-57.0
 30
0.0
 11
41.34999999999999
 21
-57.0
 31
0.0
  0
LINE
  5
C7
330
9F
100
AcDbEntity
  8
hidden
100
AcDbLine
 10
3.65
 20
-58.5
 30
0.0
 11
0.0
 21
-58.5
 31
0.0
  0
LINE
  5
C8
330
9F
100
AcDbEntity
  8
hidden
100
AcDbLine
 10
3.650000000000028
 20
-57.0
 30
0.0
 11
0.0000000000000278
 21
-57.0
 31
0.0
  0
LINE
  5
C9
330
9F
100
AcDbEntity
  8
hidden
100
AcDbLine
 10
41.34999999999999
 20
-11.0
 30
0.0
 11
41.34999999999999
 21
-67.00025403784437
 31
0.0
  0
LINE
  5
CA
330
9F
100
AcDbEntity
  8
hidden
100
AcDbLine
 10
3.649999999999997
 20
-11.0
 30
0.0
 11
3.649999999999997
 21
-67.00025403784437
 31
0.0
  0
LINE
  5
CB
330
9F
100
AcDbEntity
  8
hidden
100
AcDbLine
 10
11.85
 20
-11.0
 30
0.0
 11
11.85
 21
-46.1
 31
0.0
  0
LINE
  5
CC
330
9F
100
AcDbEntity
  8
hidden
100
AcDbLine
 10
11.85
 20
-11.0
 30
0.0
 11
0.0
 21
-11.0
 31
0.0
  0
LINE
  5
CD
330
9F
100
AcDbEntity
  8
hidden
100
AcDbLine
 10
45.0
 20
-11.0
 30
0.0
 11
33.15
 21
-11.0
 31
0.0
  0
LINE
  5
CE
330
9F
100
AcDbEntity
  8
hidden
100
AcDbLine
 10
33.15
 20
-11.0
 30
0.0
 11
33.15
 21
-46.1
 31
0.0
  0
LINE
  5
CF
330
9F
100
AcDbEntity
  8
hidden
100
AcDbLine
 10
45.0
 20
-41.0
 30
0.0
 11
0.0
 21
-41.0
 31
0.0
  0
LINE
  5
D0
330
9F
100
AcDbEntity
  8
hidden
100
AcDbLine
 10
45.0
 20
-16.0
 30
0.0
 11
0.0
 21
-16.0
 31
0.0
  0
CIRCLE
  5
D1
330
9F
100
AcDbEntity
  8
hidden
100
AcDbCircle
 10
37.85000000000002
 20
-23.49999999999994
 30
0.0
 40
1.499999999999946
  0
LINE
  5
D4
330
9F
100
AcDbEntity
  8
center
100
AcDbLine
 10
3.999999999999997
 20
-57.24999999999999
 30
0.0
 11
10.3
 21
-57.24999999999999
 31
0.0
  0
LINE
  5
D5
330
9F
100
AcDbEntity
  8
center
100
AcDbLine
 10
7.149999999999999
 20
-60.39999999999999
 30
0.0
 11
7.149999999999999
 21
-46.6
 31
0.0
  0
LINE
  5
D6
330
9F
100
AcDbEntity
  8
center
100
AcDbLine
 10
34.7
 20
-57.24999999999999
 30
0.0
 11
41.0
 21
-57.24999999999999
 31
0.0
  0
LINE
  5
D7
330
9F
100
AcDbEntity
  8
center
100
AcDbLine
 10
37.85
 20
-60.39999999999999
 30
0.0
 11
37.85
 21
-46.6
 31
0.0
  0
LINE
  5
D8
330
9F
100
AcDbEntity
  8
center
100
AcDbLine
 10
3.999999999999996
 20
-30.99999999999999
 30
0.0
 11
10.3
 21
-30.99999999999999
 31
0.0
  0
LINE
  5
D9
330
9F
100
AcDbEntity
  8
center
100
AcDbLine
 10
37.85
 20
-26.65
 30
0.0
 11
37.85
 21
-20.34999999999999
 31
0.0
  0
LINE
  5
DA
330
9F
100
AcDbEntity
  8
center
100
AcDbLine
 10
7.149999999999999
 20
-26.65
 30
0.0
 11
7.149999999999999
 21
-20.34999999999999
 31
0.0
  0
LINE
  5
DB
330
9F
100
AcDbEntity
  8
center
100
AcDbLine
 10
34.7
 20
-30.99999999999999
 30
0.0
 11
41.00000000000001
 21
-30.99999999999999
 31
0.0
  0
LINE
  5
DC
330
9F
100
AcDbEntity
  8
center
100
AcDbLine
 10
-2.25
 20
-49.75
 30
0.0
 11
47.25
 21
-49.75
 31
0.0
  0
LINE
  5
DD
330
9F
100
AcDbEntity
  8
center
100
AcDbLine
 10
-2.25
 20
-42.24999999999999
 30
0.0
 11
47.25
 21
-42.24999999999999
 31
0.0
  0
LINE
  5
DE
330
9F
100
AcDbEntity
  8
center
100
AcDbLine
 10
-2.25
 20
-15.99999999999999
 30
0.0
 11
47.25
 21
-15.99999999999999
 31
0.0
  0
LINE
  5
DF
330
9F
100
AcDbEntity
  8
center
100
AcDbLine
 10
-2.25
 20
-23.49999999999999
 30
0.0
 11
47.25
 21
-23.49999999999999
 31
0.0
  0
CIRCLE
  5
E0
330
9F
100
AcDbEntity
  8
bold
100
AcDbCircle
 10
7.149999999999999
 20
-57.24999999999999
 30
0.0
 40
1.500000000000001
  0
CIRCLE
  5
E1
330
9F
100
AcDbEntity
  8
bold
100
AcDbCircle
 10
7.149999999999999
 20
-49.75
 30
0.0
 40
1.499999999999998
  0
CIRCLE
  5
E2
330
9F
100
AcDbEntity
  8
bold
100
AcDbCircle
 10
37.85
 20
-49.75
 30
0.0
 40
1.499999999999998
  0
CIRCLE
  5
E3
330
9F
100
AcDbEntity
  8
bold
100
AcDbCircle
 10
37.85
 20
-57.24999999999999
 30
0.0
 40
1.500000000000001
  0
LINE
  5
E4
330
9F
100
AcDbEntity
  8
bold
100
AcDbLine
 10
0.0
 20
-10.9
 30
0.0
 11
0.0
 21
-67.00025403784437
 31
0.0
  0
LINE
  5
E5
330
9F
100
AcDbEntity
  8
bold
100
AcDbLine
 10
11.85
 20
-46.1
 30
0.0
 11
11.85
 21
-67.00025403784437
 31
0.0
  0
CIRCLE
  5
E6
330
9F
100
AcDbEntity
  8
bold
100
AcDbCircle
 10
7.149999999999999
 20
-57.24999999999999
 30
0.0
 40
3.000000000000001
  0
LINE
  5
E7
330
9F
100
AcDbEntity
  8
bold
100
AcDbLine
 10
11.85
 20
-67.00025403784437
 30
0.0
 11
0.0
 21
-67.00025403784437
 31
0.0
  0
CIRCLE
  5
E8
330
9F
100
AcDbEntity
  8
bold
100
AcDbCircle
 10
7.149999999999999
 20
-49.75
 30
0.0
 40
2.999999999999999
  0
LINE
  5
E9
330
9F
100
AcDbEntity
  8
bold
100
AcDbLine
 10
45.0
 20
-10.9
 30
0.0
 11
45.0
 21
-67.00025403784437
 31
0.0
  0
LINE
  5
EA
330
9F
100
AcDbEntity
  8
bold
100
AcDbLine
 10
45.0
 20
-67.00025403784437
 30
0.0
 11
33.15
 21
-67.00025403784437
 31
0.0
  0
CIRCLE
  5
EB
330
9F
100
AcDbEntity
  8
bold
100
AcDbCircle
 10
37.85
 20
-49.75
 30
0.0
 40
2.999999999999999
  0
CIRCLE
  5
EC
330
9F
100
AcDbEntity
  8
bold
100
AcDbCircle
 10
37.85
 20
-57.24999999999999
 30
0.0
 40
3.000000000000001
  0
LINE
  5
ED
330
9F
100
AcDbEntity
  8
bold
100
AcDbLine
 10
33.15
 20
-46.1
 30
0.0
 11
33.15
 21
-67.00025403784437
 31
0.0
  0
CIRCLE
  5
EE
330
9F
100
AcDbEntity
  8
bold
100
AcDbCircle
 10
37.85
 20
-30.99999999999999
 30
0.0
 40
1.500000000000001
  0
CIRCLE
  5
EF
330
9F
100
AcDbEntity
  8
bold
100
AcDbCircle
 10
7.149999999999999
 20
-23.49999999999999
 30
0.0
 40
1.500000000000001
  0
CIRCLE
  5
F0
330
9F
100
AcDbEntity
  8
bold
100
AcDbCircle
 10
7.149999999999999
 20
-30.99999999999999
 30
0.0
 40
1.500000000000001
  0
CIRCLE
  5
F1
330
9F
100
AcDbEntity
  8
bold
100
AcDbCircle
 10
7.149999999999999
 20
-30.99999999999999
 30
0.0
 40
3.000000000000003
  0
CIRCLE
  5
F2
330
9F
100
AcDbEntity
  8
bold
100
AcDbCircle
 10
37.85
 20
-23.49999999999999
 30
0.0
 40
3.000000000000003
  0
CIRCLE
  5
F3
330
9F
100
AcDbEntity
  8
bold
100
AcDbCircle
 10
7.149999999999999
 20
-23.49999999999999
 30
0.0
 40
3.000000000000003
  0
CIRCLE
  5
F4
330
9F
100
AcDbEntity
  8
bold
100
AcDbCircle
 10
37.85
 20
-30.99999999999999
 30
0.0
 40
3.000000000000003
  0
LINE
  5
F5
330
9F
100
AcDbEntity
  8
bold
100
AcDbLine
 10
45.0
 20
-46.1
 30
0.0
 11
0.0
 21
-46.1
 31
0.0
  0
LINE
  5
F6
330
9F
100
AcDbEntity
  8
bold
100
AcDbLine
 10
45.0
 20
-39.0
 30
0.0
 11
0.0
 21
-39.0
 31
0.0
  0
LINE
  5
F7
330
9F
100
AcDbEntity
  8
bold
100
AcDbLine
 10
45.0
 20
-18.0
 30
0.0
 11
0.0
 21
-18.0
 31
0.0
  0
LINE
  5
F8
330
9F
100
AcDbEntity
  8
bold
100
AcDbLine
 10
45.0
 20
-10.9
 30
0.0
 11
0.0
 21
-10.9
 31
0.0
  0
ENDBLK
  5
A2
330
9F
100
AcDbEntity
  8
0
100
AcDbBlockEnd
  0
BLOCK
  5
FB
330
F9
100
AcDbEntity
  8
0
100
AcDbBlockBegin
  2
3_AWG10999_1_0_in_32655_0
 70
     2
 10
0.0
 20
0.0
 30
0.0
  3
3_AWG10999_1_0_in_32655_0
  1

  0
ATTDEF
  5
FD
330
F9
100
AcDbEntity
  8
attrib
100
AcDbText
 10
41.15
 20
32.65000000000001
 30
0.0
 40
0.5
  1
AWG10999
100
AcDbAttributeDefinition
  3

  2
NB
 70
     8
280
     0
  0
ATTDEF
  5
FE
330
F9
100
AcDbEntity
  8
attrib
100
AcDbText
 10
41.15
 20
32.15000000000001
 30
0.0
 40
0.5
  1
Wire
100
AcDbAttributeDefinition
  3

  2
NN
 70
     8
280
     0
  0
ATTDEF
  5
FF
330
F9
100
AcDbEntity
  8
attrib
100
AcDbText
 10
41.15
 20
31.65000000000001
 30
0.0
 40
0.5
  1

100
AcDbAttributeDefinition
  3

  2
NT
 70
     8
280
     0
  0
ATTDEF
  5
100
330
F9
100
AcDbEntity
  8
attrib
100
AcDbText
 10
41.15
 20
31.15000000000001
 30
0.0
 40
0.5
  1
$BOM.$WL.$WL2.
100
AcDbAttributeDefinition
  3

  2
NBSYN
 70
     8
280
     0
  0
ATTDEF
  5
101
330
F9
100
AcDbEntity
  8
attrib
100
AcDbText
 10
41.15
 20
30.65000000000001
 30
0.0
 40
0.5
  1
AWG10
100
AcDbAttributeDefinition
  3

  2
LINA
 70
     8
280
     0
  0
ATTDEF
  5
102
330
F9
100
AcDbEntity
  8
attrib
100
AcDbText
 10
41.15
 20
30.15000000000001
 30
0.0
 40
0.5
  1
Wöhner
100
AcDbAttributeDefinition
  3

  2
CATALOG
 70
     8
280
     0
  0
ATTDEF
  5
103
330
F9
100
AcDbEntity
  8
attrib
100
AcDbText
 10
41.15
 20
29.65000000000001
 30
0.0
 40
0.5
  1
AWG10
100
AcDbAttributeDefinition
  3

  2
BOM
 70
     8
280
     0
  0
ATTDEF
  5
104
330
F9
100
AcDbEntity
  8
attrib
100
AcDbText
 10
41.15
 20
29.15000000000001
 30
0.0
 40
0.5
  1
AWG10
100
AcDbAttributeDefinition
  3

  2
ARTNR
 70
     8
280
     0
  0
ATTDEF
  5
105
330
F9
100
AcDbEntity
  8
attrib
100
AcDbText
 10
41.15
 20
28.65000000000001
 30
0.0
 40
0.5
  1
1
100
AcDbAttributeDefinition
  3

  2
QNT
 70
     8
280
     0
  0
ATTDEF
  5
106
330
F9
100
AcDbEntity
  8
attrib
100
AcDbText
 10
41.15
 20
28.15000000000001
 30
0.0
 40
0.5
  1
45
100
AcDbAttributeDefinition
  3

  2
W
 70
     8
280
     0
  0
ATTDEF
  5
107
330
F9
100
AcDbEntity
  8
attrib
100
AcDbText
 10
41.15
 20
27.65000000000001
 30
0.0
 40
0.5
  1
160
100
AcDbAttributeDefinition
  3

  2
H
 70
     8
280
     0
  0
ATTDEF
  5
108
330
F9
100
AcDbEntity
  8
attrib
100
AcDbText
 10
41.15
 20
27.15000000000001
 30
0.0
 40
0.5
  1
99
100
AcDbAttributeDefinition
  3

  2
WL
 70
     8
280
     0
  0
ATTDEF
  5
109
330
F9
100
AcDbEntity
  8
attrib
100
AcDbText
 10
41.15
 20
26.65000000000001
 30
0.0
 40
0.5
  1
6.000
100
AcDbAttributeDefinition
  3

  2
WD
 70
     8
280
     0
  0
ATTDEF
  5
10A
330
F9
100
AcDbEntity
  8
attrib
100
AcDbText
 10
41.15
 20
26.15000000000001
 30
0.0
 40
0.5
  1
2.500
100
AcDbAttributeDefinition
  3

  2
WH
 70
     8
280
     0
  0
ATTDEF
  5
10B
330
F9
100
AcDbEntity
  8
attrib
100
AcDbText
 10
41.15
 20
25.65000000000001
 30
0.0
 40
0.5
  1
9
100
AcDbAttributeDefinition
  3

  2
WL2
 70
     8
280
     0
  0
ATTDEF
  5
10C
330
F9
100
AcDbEntity
  8
attrib
100
AcDbText
 10
41.15
 20
25.15000000000001
 30
0.0
 40
0.5
  1
1
100
AcDbAttributeDefinition
  3

  2
VER
 70
     8
280
     0
  0
ATTDEF
  5
10D
330
F9
100
AcDbEntity
  8
attrib
100
AcDbText
 10
41.15
 20
24.65000000000001
 30
0.0
 40
0.5
  1
0.000
100
AcDbAttributeDefinition
  3

  2
L1
 70
     8
280
     0
  0
ATTDEF
  5
10E
330
F9
100
AcDbEntity
  8
attrib
100
AcDbText
 10
41.15
 20
24.15000000000001
 30
0.0
 40
0.5
  1
0.000
100
AcDbAttributeDefinition
  3

  2
L2
 70
     8
280
     0
  0
ATTDEF
  5
10F
330
F9
100
AcDbEntity
  8
attrib
100
AcDbText
 10
41.15
 20
23.65000000000001
 30
0.0
 40
0.5
  1
0.000
100
AcDbAttributeDefinition
  3

  2
L3
 70
     8
280
     0
  0
ATTDEF
  5
110
330
F9
100
AcDbEntity
  8
attrib
100
AcDbText
 10
41.15
 20
23.15000000000001
 30
0.0
 40
0.5
  1
woehner
100
AcDbAttributeDefinition
  3

  2
COMPANY
 70
     8
280
     0
  0
ATTDEF
  5
111
330
F9
100
AcDbEntity
  8
attrib
100
AcDbText
 10
41.15
 20
22.65000000000001
 30
0.0
 40
0.5
  1
{$CADENAS_DATA/23d-libs/woehner/sys_60classic/adapters/common_pool/wire.prj},164 {VTYP=3D},{NB=AWG10999},{LINA=AWG10},{NN=Wire},{DATE=26.01.2024 06:39:57},{GEOMDATE=12.05.2023 11:36:00},{VERSION=},{LINEID=390},{WBVAR=WL,WL2},{WBNUMERIC=WL,WL2}  {NB=AWG109
100
AcDbAttributeDefinition
  3

  2
PSOL_0
 70
     9
280
     0
  0
ATTDEF
  5
112
330
F9
100
AcDbEntity
  8
attrib
100
AcDbText
 10
41.15
 20
22.15000000000001
 30
0.0
 40
0.5
  1
99},{LINA=AWG10},{KT=DUMMY},{BOM=AWG10},{ARTNR=AWG10},{QNT=1},{W=45},{H=160},{WL=99},{WD=6.000},{WH=2.500},{WL2=9},{VER=1},{L1=0.000},{L2=0.000},{L3=0.000}
100
AcDbAttributeDefinition
  3

  2
PSOL_1
 70
     9
280
     0
  0
LINE
  5
113
330
F9
100
AcDbEntity
  8
center
100
AcDbLine
 10
29.85
 20
29.5
 30
0.0
 11
36.15
 21
29.5
 31
0.0
  0
LINE
  5
114
330
F9
100
AcDbEntity
  8
center
100
AcDbLine
 10
33.0
 20
26.35
 30
0.0
 11
33.0
 21
32.65000000000001
 31
0.0
  0
CIRCLE
  5
115
330
F9
100
AcDbEntity
  8
bold
100
AcDbCircle
 10
33.0
 20
29.5
 30
0.0
 40
3.0
  0
LINE
  5
116
330
F9
100
AcDbEntity
  8
bold
100
AcDbLine
 10
31.75
 20
30.75
 30
0.0
 11
31.75
 21
28.25
 31
0.0
  0
LINE
  5
117
330
F9
100
AcDbEntity
  8
bold
100
AcDbLine
 10
31.75
 20
28.25
 30
0.0
 11
34.25
 21
28.25
 31
0.0
  0
LINE
  5
118
330
F9
100
AcDbEntity
  8
bold
100
AcDbLine
 10
34.25
 20
28.25
 30
0.0
 11
34.25
 21
30.75
 31
0.0
  0
LINE
  5
119
330
F9
100
AcDbEntity
  8
bold
100
AcDbLine
 10
34.25
 20
30.75
 30
0.0
 11
31.75
 21
30.75
 31
0.0
  0
ENDBLK
  5
FC
330
F9
100
AcDbEntity
  8
0
100
AcDbBlockEnd
  0
BLOCK
  5
11C
330
11A
100
AcDbEntity
  8
0
100
AcDbBlockBegin
  2
4_AWG10999_2_0_in_32655_0
 70
     2
 10
0.0
 20
0.0
 30
0.0
  3
4_AWG10999_2_0_in_32655_0
  1

  0
ATTDEF
  5
11E
330
11A
100
AcDbEntity
  8
attrib
100
AcDbText
 10
30.65
 20
32.65000000000001
 30
0.0
 40
0.5
  1
AWG10999
100
AcDbAttributeDefinition
  3

  2
NB
 70
     8
280
     0
  0
ATTDEF
  5
11F
330
11A
100
AcDbEntity
  8
attrib
100
AcDbText
 10
30.65
 20
32.15000000000001
 30
0.0
 40
0.5
  1
Wire
100
AcDbAttributeDefinition
  3

  2
NN
 70
     8
280
     0
  0
ATTDEF
  5
120
330
11A
100
AcDbEntity
  8
attrib
100
AcDbText
 10
30.65
 20
31.65000000000001
 30
0.0
 40
0.5
  1

100
AcDbAttributeDefinition
  3

  2
NT
 70
     8
280
     0
  0
ATTDEF
  5
121
330
11A
100
AcDbEntity
  8
attrib
100
AcDbText
 10
30.65
 20
31.15000000000001
 30
0.0
 40
0.5
  1
$BOM.$WL.$WL2.
100
AcDbAttributeDefinition
  3

  2
NBSYN
 70
     8
280
     0
  0
ATTDEF
  5
122
330
11A
100
AcDbEntity
  8
attrib
100
AcDbText
 10
30.65
 20
30.65000000000001
 30
0.0
 40
0.5
  1
AWG10
100
AcDbAttributeDefinition
  3

  2
LINA
 70
     8
280
     0
  0
ATTDEF
  5
123
330
11A
100
AcDbEntity
  8
attrib
100
AcDbText
 10
30.65
 20
30.15000000000001
 30
0.0
 40
0.5
  1
Wöhner
100
AcDbAttributeDefinition
  3

  2
CATALOG
 70
     8
280
     0
  0
ATTDEF
  5
124
330
11A
100
AcDbEntity
  8
attrib
100
AcDbText
 10
30.65
 20
29.65000000000001
 30
0.0
 40
0.5
  1
AWG10
100
AcDbAttributeDefinition
  3

  2
BOM
 70
     8
280
     0
  0
ATTDEF
  5
125
330
11A
100
AcDbEntity
  8
attrib
100
AcDbText
 10
30.65
 20
29.15000000000001
 30
0.0
 40
0.5
  1
AWG10
100
AcDbAttributeDefinition
  3

  2
ARTNR
 70
     8
280
     0
  0
ATTDEF
  5
126
330
11A
100
AcDbEntity
  8
attrib
100
AcDbText
 10
30.65
 20
28.65000000000001
 30
0.0
 40
0.5
  1
1
100
AcDbAttributeDefinition
  3

  2
QNT
 70
     8
280
     0
  0
ATTDEF
  5
127
330
11A
100
AcDbEntity
  8
attrib
100
AcDbText
 10
30.65
 20
28.15000000000001
 30
0.0
 40
0.5
  1
45
100
AcDbAttributeDefinition
  3

  2
W
 70
     8
280
     0
  0
ATTDEF
  5
128
330
11A
100
AcDbEntity
  8
attrib
100
AcDbText
 10
30.65
 20
27.65000000000001
 30
0.0
 40
0.5
  1
160
100
AcDbAttributeDefinition
  3

  2
H
 70
     8
280
     0
  0
ATTDEF
  5
129
330
11A
100
AcDbEntity
  8
attrib
100
AcDbText
 10
30.65
 20
27.15000000000001
 30
0.0
 40
0.5
  1
99
100
AcDbAttributeDefinition
  3

  2
WL
 70
     8
280
     0
  0
ATTDEF
  5
12A
330
11A
100
AcDbEntity
  8
attrib
100
AcDbText
 10
30.65
 20
26.65000000000001
 30
0.0
 40
0.5
  1
6.000
100
AcDbAttributeDefinition
  3

  2
WD
 70
     8
280
     0
  0
ATTDEF
  5
12B
330
11A
100
AcDbEntity
  8
attrib
100
AcDbText
 10
30.65
 20
26.15000000000001
 30
0.0
 40
0.5
  1
2.500
100
AcDbAttributeDefinition
  3

  2
WH
 70
     8
280
     0
  0
ATTDEF
  5
12C
330
11A
100
AcDbEntity
  8
attrib
100
AcDbText
 10
30.65
 20
25.65000000000001
 30
0.0
 40
0.5
  1
9
100
AcDbAttributeDefinition
  3

  2
WL2
 70
     8
280
     0
  0
ATTDEF
  5
12D
330
11A
100
AcDbEntity
  8
attrib
100
AcDbText
 10
30.65
 20
25.15000000000001
 30
0.0
 40
0.5
  1
1
100
AcDbAttributeDefinition
  3

  2
VER
 70
     8
280
     0
  0
ATTDEF
  5
12E
330
11A
100
AcDbEntity
  8
attrib
100
AcDbText
 10
30.65
 20
24.65000000000001
 30
0.0
 40
0.5
  1
0.000
100
AcDbAttributeDefinition
  3

  2
L1
 70
     8
280
     0
  0
ATTDEF
  5
12F
330
11A
100
AcDbEntity
  8
attrib
100
AcDbText
 10
30.65
 20
24.15000000000001
 30
0.0
 40
0.5
  1
0.000
100
AcDbAttributeDefinition
  3

  2
L2
 70
     8
280
     0
  0
ATTDEF
  5
130
330
11A
100
AcDbEntity
  8
attrib
100
AcDbText
 10
30.65
 20
23.65000000000001
 30
0.0
 40
0.5
  1
0.000
100
AcDbAttributeDefinition
  3

  2
L3
 70
     8
280
     0
  0
ATTDEF
  5
131
330
11A
100
AcDbEntity
  8
attrib
100
AcDbText
 10
30.65
 20
23.15000000000001
 30
0.0
 40
0.5
  1
woehner
100
AcDbAttributeDefinition
  3

  2
COMPANY
 70
     8
280
     0
  0
ATTDEF
  5
132
330
11A
100
AcDbEntity
  8
attrib
100
AcDbText
 10
30.65
 20
22.65000000000001
 30
0.0
 40
0.5
  1
{$CADENAS_DATA/23d-libs/woehner/sys_60classic/adapters/common_pool/wire.prj},164 {VTYP=3D},{NB=AWG10999},{LINA=AWG10},{NN=Wire},{DATE=26.01.2024 06:39:57},{GEOMDATE=12.05.2023 11:36:00},{VERSION=},{LINEID=390},{WBVAR=WL,WL2},{WBNUMERIC=WL,WL2}  {NB=AWG109
100
AcDbAttributeDefinition
  3

  2
PSOL_0
 70
     9
280
     0
  0
ATTDEF
  5
133
330
11A
100
AcDbEntity
  8
attrib
100
AcDbText
 10
30.65
 20
22.15000000000001
 30
0.0
 40
0.5
  1
99},{LINA=AWG10},{KT=DUMMY},{BOM=AWG10},{ARTNR=AWG10},{QNT=1},{W=45},{H=160},{WL=99},{WD=6.000},{WH=2.500},{WL2=9},{VER=1},{L1=0.000},{L2=0.000},{L3=0.000}
100
AcDbAttributeDefinition
  3

  2
PSOL_1
 70
     9
280
     0
  0
LINE
  5
134
330
11A
100
AcDbEntity
  8
center
100
AcDbLine
 10
19.35
 20
29.5
 30
0.0
 11
25.65
 21
29.5
 31
0.0
  0
LINE
  5
135
330
11A
100
AcDbEntity
  8
center
100
AcDbLine
 10
22.5
 20
26.35
 30
0.0
 11
22.5
 21
32.65000000000001
 31
0.0
  0
CIRCLE
  5
136
330
11A
100
AcDbEntity
  8
bold
100
AcDbCircle
 10
22.5
 20
29.5
 30
0.0
 40
3.0
  0
LINE
  5
137
330
11A
100
AcDbEntity
  8
bold
100
AcDbLine
 10
21.25
 20
30.75
 30
0.0
 11
21.25
 21
28.25
 31
0.0
  0
LINE
  5
138
330
11A
100
AcDbEntity
  8
bold
100
AcDbLine
 10
21.25
 20
28.25
 30
0.0
 11
23.75
 21
28.25
 31
0.0
  0
LINE
  5
139
330
11A
100
AcDbEntity
  8
bold
100
AcDbLine
 10
23.75
 20
28.25
 30
0.0
 11
23.75
 21
30.75
 31
0.0
  0
LINE
  5
13A
330
11A
100
AcDbEntity
  8
bold
100
AcDbLine
 10
23.75
 20
30.75
 30
0.0
 11
21.25
 21
30.75
 31
0.0
  0
ENDBLK
  5
11D
330
11A
100
AcDbEntity
  8
0
100
AcDbBlockEnd
  0
BLOCK
  5
13D
330
13B
100
AcDbEntity
  8
0
100
AcDbBlockBegin
  2
5_AWG10999_3_0_in_32655_0
 70
     2
 10
0.0
 20
0.0
 30
0.0
  3
5_AWG10999_3_0_in_32655_0
  1

  0
ATTDEF
  5
13F
330
13B
100
AcDbEntity
  8
attrib
100
AcDbText
 10
20.15
 20
32.65000000000001
 30
0.0
 40
0.5
  1
AWG10999
100
AcDbAttributeDefinition
  3

  2
NB
 70
     8
280
     0
  0
ATTDEF
  5
140
330
13B
100
AcDbEntity
  8
attrib
100
AcDbText
 10
20.15
 20
32.15000000000001
 30
0.0
 40
0.5
  1
Wire
100
AcDbAttributeDefinition
  3

  2
NN
 70
     8
280
     0
  0
ATTDEF
  5
141
330
13B
100
AcDbEntity
  8
attrib
100
AcDbText
 10
20.15
 20
31.65000000000001
 30
0.0
 40
0.5
  1

100
AcDbAttributeDefinition
  3

  2
NT
 70
     8
280
     0
  0
ATTDEF
  5
142
330
13B
100
AcDbEntity
  8
attrib
100
AcDbText
 10
20.15
 20
31.15000000000001
 30
0.0
 40
0.5
  1
$BOM.$WL.$WL2.
100
AcDbAttributeDefinition
  3

  2
NBSYN
 70
     8
280
     0
  0
ATTDEF
  5
143
330
13B
100
AcDbEntity
  8
attrib
100
AcDbText
 10
20.15
 20
30.65000000000001
 30
0.0
 40
0.5
  1
AWG10
100
AcDbAttributeDefinition
  3

  2
LINA
 70
     8
280
     0
  0
ATTDEF
  5
144
330
13B
100
AcDbEntity
  8
attrib
100
AcDbText
 10
20.15
 20
30.15000000000001
 30
0.0
 40
0.5
  1
Wöhner
100
AcDbAttributeDefinition
  3

  2
CATALOG
 70
     8
280
     0
  0
ATTDEF
  5
145
330
13B
100
AcDbEntity
  8
attrib
100
AcDbText
 10
20.15
 20
29.65000000000001
 30
0.0
 40
0.5
  1
AWG10
100
AcDbAttributeDefinition
  3

  2
BOM
 70
     8
280
     0
  0
ATTDEF
  5
146
330
13B
100
AcDbEntity
  8
attrib
100
AcDbText
 10
20.15
 20
29.15000000000001
 30
0.0
 40
0.5
  1
AWG10
100
AcDbAttributeDefinition
  3

  2
ARTNR
 70
     8
280
     0
  0
ATTDEF
  5
147
330
13B
100
AcDbEntity
  8
attrib
100
AcDbText
 10
20.15
 20
28.65000000000001
 30
0.0
 40
0.5
  1
1
100
AcDbAttributeDefinition
  3

  2
QNT
 70
     8
280
     0
  0
ATTDEF
  5
148
330
13B
100
AcDbEntity
  8
attrib
100
AcDbText
 10
20.15
 20
28.15000000000001
 30
0.0
 40
0.5
  1
45
100
AcDbAttributeDefinition
  3

  2
W
 70
     8
280
     0
  0
ATTDEF
  5
149
330
13B
100
AcDbEntity
  8
attrib
100
AcDbText
 10
20.15
 20
27.65000000000001
 30
0.0
 40
0.5
  1
160
100
AcDbAttributeDefinition
  3

  2
H
 70
     8
280
     0
  0
ATTDEF
  5
14A
330
13B
100
AcDbEntity
  8
attrib
100
AcDbText
 10
20.15
 20
27.15000000000001
 30
0.0
 40
0.5
  1
99
100
AcDbAttributeDefinition
  3

  2
WL
 70
     8
280
     0
  0
ATTDEF
  5
14B
330
13B
100
AcDbEntity
  8
attrib
100
AcDbText
 10
20.15
 20
26.65000000000001
 30
0.0
 40
0.5
  1
6.000
100
AcDbAttributeDefinition
  3

  2
WD
 70
     8
280
     0
  0
ATTDEF
  5
14C
330
13B
100
AcDbEntity
  8
attrib
100
AcDbText
 10
20.15
 20
26.15000000000001
 30
0.0
 40
0.5
  1
2.500
100
AcDbAttributeDefinition
  3

  2
WH
 70
     8
280
     0
  0
ATTDEF
  5
14D
330
13B
100
AcDbEntity
  8
attrib
100
AcDbText
 10
20.15
 20
25.65000000000001
 30
0.0
 40
0.5
  1
9
100
AcDbAttributeDefinition
  3

  2
WL2
 70
     8
280
     0
  0
ATTDEF
  5
14E
330
13B
100
AcDbEntity
  8
attrib
100
AcDbText
 10
20.15
 20
25.15000000000001
 30
0.0
 40
0.5
  1
1
100
AcDbAttributeDefinition
  3

  2
VER
 70
     8
280
     0
  0
ATTDEF
  5
14F
330
13B
100
AcDbEntity
  8
attrib
100
AcDbText
 10
20.15
 20
24.65000000000001
 30
0.0
 40
0.5
  1
0.000
100
AcDbAttributeDefinition
  3

  2
L1
 70
     8
280
     0
  0
ATTDEF
  5
150
330
13B
100
AcDbEntity
  8
attrib
100
AcDbText
 10
20.15
 20
24.15000000000001
 30
0.0
 40
0.5
  1
0.000
100
AcDbAttributeDefinition
  3

  2
L2
 70
     8
280
     0
  0
ATTDEF
  5
151
330
13B
100
AcDbEntity
  8
attrib
100
AcDbText
 10
20.15
 20
23.65000000000001
 30
0.0
 40
0.5
  1
0.000
100
AcDbAttributeDefinition
  3

  2
L3
 70
     8
280
     0
  0
ATTDEF
  5
152
330
13B
100
AcDbEntity
  8
attrib
100
AcDbText
 10
20.15
 20
23.15000000000001
 30
0.0
 40
0.5
  1
woehner
100
AcDbAttributeDefinition
  3

  2
COMPANY
 70
     8
280
     0
  0
ATTDEF
  5
153
330
13B
100
AcDbEntity
  8
attrib
100
AcDbText
 10
20.15
 20
22.65000000000001
 30
0.0
 40
0.5
  1
{$CADENAS_DATA/23d-libs/woehner/sys_60classic/adapters/common_pool/wire.prj},164 {VTYP=3D},{NB=AWG10999},{LINA=AWG10},{NN=Wire},{DATE=26.01.2024 06:39:57},{GEOMDATE=12.05.2023 11:36:00},{VERSION=},{LINEID=390},{WBVAR=WL,WL2},{WBNUMERIC=WL,WL2}  {NB=AWG109
100
AcDbAttributeDefinition
  3

  2
PSOL_0
 70
     9
280
     0
  0
ATTDEF
  5
154
330
13B
100
AcDbEntity
  8
attrib
100
AcDbText
 10
20.15
 20
22.15000000000001
 30
0.0
 40
0.5
  1
99},{LINA=AWG10},{KT=DUMMY},{BOM=AWG10},{ARTNR=AWG10},{QNT=1},{W=45},{H=160},{WL=99},{WD=6.000},{WH=2.500},{WL2=9},{VER=1},{L1=0.000},{L2=0.000},{L3=0.000}
100
AcDbAttributeDefinition
  3

  2
PSOL_1
 70
     9
280
     0
  0
LINE
  5
155
330
13B
100
AcDbEntity
  8
center
100
AcDbLine
 10
8.85
 20
29.5
 30
0.0
 11
15.15
 21
29.5
 31
0.0
  0
LINE
  5
156
330
13B
100
AcDbEntity
  8
center
100
AcDbLine
 10
12.0
 20
26.35
 30
0.0
 11
12.0
 21
32.65000000000001
 31
0.0
  0
CIRCLE
  5
157
330
13B
100
AcDbEntity
  8
bold
100
AcDbCircle
 10
12.0
 20
29.5
 30
0.0
 40
3.0
  0
LINE
  5
158
330
13B
100
AcDbEntity
  8
bold
100
AcDbLine
 10
13.25
 20
30.75
 30
0.0
 11
10.75
 21
30.75
 31
0.0
  0
LINE
  5
159
330
13B
100
AcDbEntity
  8
bold
100
AcDbLine
 10
10.75
 20
30.75
 30
0.0
 11
10.75
 21
28.25
 31
0.0
  0
LINE
  5
15A
330
13B
100
AcDbEntity
  8
bold
100
AcDbLine
 10
10.75
 20
28.25
 30
0.0
 11
13.25
 21
28.25
 31
0.0
  0
LINE
  5
15B
330
13B
100
AcDbEntity
  8
bold
100
AcDbLine
 10
13.25
 20
28.25
 30
0.0
 11
13.25
 21
30.75
 31
0.0
  0
ENDBLK
  5
13E
330
13B
100
AcDbEntity
  8
0
100
AcDbBlockEnd
  0
BLOCK
  5
15E
330
15C
100
AcDbEntity
  8
0
100
AcDbBlockBegin
  2
6_Basis45x200_0_in_32655_0
 70
     2
 10
0.0
 20
0.0
 30
0.0
  3
6_Basis45x200_0_in_32655_0
  1

  0
ATTDEF
  5
160
330
15C
100
AcDbEntity
  8
attrib
100
AcDbText
 10
50.0
 20
34.0
 30
0.0
 40
0.5
  1
Basis45x200
100
AcDbAttributeDefinition
  3

  2
NB
 70
     8
280
     0
  0
ATTDEF
  5
161
330
15C
100
AcDbEntity
  8
attrib
100
AcDbText
 10
50.0
 20
33.5
 30
0.0
 40
0.5
  1
Adapter base
100
AcDbAttributeDefinition
  3

  2
NN
 70
     8
280
     0
  0
ATTDEF
  5
162
330
15C
100
AcDbEntity
  8
attrib
100
AcDbText
 10
50.0
 20
33.0
 30
0.0
 40
0.5
  1

100
AcDbAttributeDefinition
  3

  2
NT
 70
     8
280
     0
  0
ATTDEF
  5
163
330
15C
100
AcDbEntity
  8
attrib
100
AcDbText
 10
50.0
 20
32.5
 30
0.0
 40
0.5
  1
$BOM.
100
AcDbAttributeDefinition
  3

  2
NBSYN
 70
     8
280
     0
  0
ATTDEF
  5
164
330
15C
100
AcDbEntity
  8
attrib
100
AcDbText
 10
50.0
 20
32.0
 30
0.0
 40
0.5
  1
Basis45x200
100
AcDbAttributeDefinition
  3

  2
LINA
 70
     8
280
     0
  0
ATTDEF
  5
165
330
15C
100
AcDbEntity
  8
attrib
100
AcDbText
 10
50.0
 20
31.5
 30
0.0
 40
0.5
  1
Wöhner
100
AcDbAttributeDefinition
  3

  2
CATALOG
 70
     8
280
     0
  0
ATTDEF
  5
166
330
15C
100
AcDbEntity
  8
attrib
100
AcDbText
 10
50.0
 20
31.0
 30
0.0
 40
0.5
  1
Basis45x200
100
AcDbAttributeDefinition
  3

  2
BOM
 70
     8
280
     0
  0
ATTDEF
  5
167
330
15C
100
AcDbEntity
  8
attrib
100
AcDbText
 10
50.0
 20
30.5
 30
0.0
 40
0.5
  1
Basis45x200
100
AcDbAttributeDefinition
  3

  2
ARTNR
 70
     8
280
     0
  0
ATTDEF
  5
168
330
15C
100
AcDbEntity
  8
attrib
100
AcDbText
 10
50.0
 20
30.0
 30
0.0
 40
0.5
  1
1
100
AcDbAttributeDefinition
  3

  2
QNT
 70
     8
280
     0
  0
ATTDEF
  5
169
330
15C
100
AcDbEntity
  8
attrib
100
AcDbText
 10
50.0
 20
29.5
 30
0.0
 40
0.5
  1
45
100
AcDbAttributeDefinition
  3

  2
W
 70
     8
280
     0
  0
ATTDEF
  5
16A
330
15C
100
AcDbEntity
  8
attrib
100
AcDbText
 10
50.0
 20
29.0
 30
0.0
 40
0.5
  1
200
100
AcDbAttributeDefinition
  3

  2
H
 70
     8
280
     0
  0
ATTDEF
  5
16B
330
15C
100
AcDbEntity
  8
attrib
100
AcDbText
 10
50.0
 20
28.5
 30
0.0
 40
0.5
  1

100
AcDbAttributeDefinition
  3

  2
VER
 70
     8
280
     0
  0
ATTDEF
  5
16C
330
15C
100
AcDbEntity
  8
attrib
100
AcDbText
 10
50.0
 20
28.0
 30
0.0
 40
0.5
  1
29.500
100
AcDbAttributeDefinition
  3

  2
NIPPLE
 70
     8
280
     0
  0
ATTDEF
  5
16D
330
15C
100
AcDbEntity
  8
attrib
100
AcDbText
 10
50.0
 20
27.5
 30
0.0
 40
0.5
  1
22.500
100
AcDbAttributeDefinition
  3

  2
W2
 70
     8
280
     0
  0
ATTDEF
  5
16E
330
15C
100
AcDbEntity
  8
attrib
100
AcDbText
 10
50.0
 20
27.0
 30
0.0
 40
0.5
  1
woehner
100
AcDbAttributeDefinition
  3

  2
COMPANY
 70
     8
280
     0
  0
ATTDEF
  5
16F
330
15C
100
AcDbEntity
  8
attrib
100
AcDbText
 10
50.0
 20
26.5
 30
0.0
 40
0.5
  1
{$CADENAS_DATA/23d-libs/woehner/sys_60classic/adapters/common_pool/adapter_base.prj},181 {VTYP=3D},{NB=Basis45x200},{LINA=Basis45x200},{NN=Adapter base},{DATE=26.01.2024 06:52:57},{GEOMDATE=25.09.2023 07:19:00},{VERSION=v231002115156},{LINEID=10},{WBVAR=}
100
AcDbAttributeDefinition
  3

  2
PSOL_0
 70
     9
280
     0
  0
ATTDEF
  5
170
330
15C
100
AcDbEntity
  8
attrib
100
AcDbText
 10
50.0
 20
26.0
 30
0.0
 40
0.5
  1
,{WBNUMERIC=}  {NB=Basis45x200},{LINA=Basis45x200},{KT=DUMMY},{BOM=Basis45x200},{ARTNR=Basis45x200},{QNT=1},{W=45},{H=200},{VER=},{NIPPLE=29.500},{W2=22.500}
100
AcDbAttributeDefinition
  3

  2
PSOL_1
 70
     9
280
     0
  0
LINE
  5
171
330
15C
100
AcDbEntity
  8
hidden
100
AcDbLine
 10
43.0
 20
30.0
 30
0.0
 11
45.0
 21
30.0
 31
0.0
  0
LINE
  5
172
330
15C
100
AcDbEntity
  8
hidden
100
AcDbLine
 10
0.0
 20
30.0
 30
0.0
 11
38.99999999999998
 21
30.0
 31
0.0
  0
LINE
  5
173
330
15C
100
AcDbEntity
  8
hidden
100
AcDbLine
 10
19.0
 20
14.99999999999999
 30
0.0
 11
19.0
 21
-10.00000000000001
 31
0.0
  0
LINE
  5
174
330
15C
100
AcDbEntity
  8
hidden
100
AcDbLine
 10
0.9999999999999974
 20
14.99999999999999
 30
0.0
 11
0.9999999999999974
 21
-10.00000000000001
 31
0.0
  0
LINE
  5
175
330
15C
100
AcDbEntity
  8
hidden
100
AcDbLine
 10
0.9999999999999974
 20
14.99999999999999
 30
0.0
 11
19.0
 21
14.99999999999999
 31
0.0
  0
LINE
  5
176
330
15C
100
AcDbEntity
  8
hidden
100
AcDbLine
 10
37.0
 20
1.599832708584215
 30
0.0
 11
43.0
 21
1.599832708584215
 31
0.0
  0
LINE
  5
177
330
15C
100
AcDbEntity
  8
hidden
100
AcDbLine
 10
6.999999999999997
 20
-70.0
 30
0.0
 11
6.999999999999997
 21
-45.00000000000001
 31
0.0
  0
LINE
  5
178
330
15C
100
AcDbEntity
  8
hidden
100
AcDbLine
 10
6.999999999999997
 20
-70.0
 30
0.0
 11
25.0
 21
-70.0
 31
0.0
  0
LINE
  5
179
330
15C
100
AcDbEntity
  8
hidden
100
AcDbLine
 10
21.0
 20
-130.0
 30
0.0
 11
21.0
 21
-105.0
 31
0.0
  0
LINE
  5
17A
330
15C
100
AcDbEntity
  8
hidden
100
AcDbLine
 10
39.0
 20
-130.0
 30
0.0
 11
39.0
 21
-105.0
 31
0.0
  0
LINE
  5
17B
330
15C
100
AcDbEntity
  8
hidden
100
AcDbLine
 10
21.0
 20
-130.0
 30
0.0
 11
39.0
 21
-130.0
 31
0.0
  0
LINE
  5
17C
330
15C
100
AcDbEntity
  8
hidden
100
AcDbLine
 10
0.9999999999999974
 20
-10.00000000000001
 30
0.0
 11
19.0
 21
-10.00000000000001
 31
0.0
  0
LINE
  5
17D
330
15C
100
AcDbEntity
  8
hidden
100
AcDbLine
 10
39.0
 20
-32.0
 30
0.0
 11
43.0
 21
-32.0
 31
0.0
  0
LINE
  5
17E
330
15C
100
AcDbEntity
  8
hidden
100
AcDbLine
 10
39.0
 20
-28.0
 30
0.0
 11
43.0
 21
-28.0
 31
0.0
  0
LINE
  5
17F
330
15C
100
AcDbEntity
  8
hidden
100
AcDbLine
 10
40.27705755347643
 20
-22.99999999999999
 30
0.0
 11
43.0
 21
-22.99999999999999
 31
0.0
  0
LINE
  5
180
330
15C
100
AcDbEntity
  8
hidden
100
AcDbLine
 10
23.0
 20
-122.0
 30
0.0
 11
38.0
 21
-122.0
 31
0.0
  0
LINE
  5
181
330
15C
100
AcDbEntity
  8
hidden
100
AcDbLine
 10
23.0
 20
-131.0
 30
0.0
 11
23.0
 21
-122.0
 31
0.0
  0
LINE
  5
182
330
15C
100
AcDbEntity
  8
hidden
100
AcDbLine
 10
38.0
 20
-131.0
 30
0.0
 11
38.0
 21
-122.0
 31
0.0
  0
LINE
  5
183
330
15C
100
AcDbEntity
  8
hidden
100
AcDbLine
 10
23.0
 20
-129.0
 30
0.0
 11
38.0
 21
-129.0
 31
0.0
  0
LINE
  5
184
330
15C
100
AcDbEntity
  8
hidden
100
AcDbLine
 10
23.0
 20
-131.0
 30
0.0
 11
38.0
 21
-131.0
 31
0.0
  0
LINE
  5
185
330
15C
100
AcDbEntity
  8
hidden
100
AcDbLine
 10
17.0
 20
-11.00000000000001
 30
0.0
 11
17.0
 21
-2.000000000000002
 31
0.0
  0
LINE
  5
186
330
15C
100
AcDbEntity
  8
hidden
100
AcDbLine
 10
11.85
 20
-11.00000000000001
 30
0.0
 11
17.0
 21
-11.00000000000001
 31
0.0
  0
LINE
  5
187
330
15C
100
AcDbEntity
  8
hidden
100
AcDbLine
 10
2.999999999999999
 20
-11.00000000000001
 30
0.0
 11
2.999999999999999
 21
-2.000000000000002
 31
0.0
  0
LINE
  5
188
330
15C
100
AcDbEntity
  8
hidden
100
AcDbLine
 10
2.999999999999999
 20
-2.000000000000002
 30
0.0
 11
17.0
 21
-2.000000000000002
 31
0.0
  0
LINE
  5
189
330
15C
100
AcDbEntity
  8
hidden
100
AcDbLine
 10
23.0
 20
-71.00000000000001
 30
0.0
 11
23.0
 21
-62.0
 31
0.0
  0
LINE
  5
18A
330
15C
100
AcDbEntity
  8
hidden
100
AcDbLine
 10
9.0
 20
-62.0
 30
0.0
 11
23.0
 21
-62.0
 31
0.0
  0
LINE
  5
18B
330
15C
100
AcDbEntity
  8
hidden
100
AcDbLine
 10
9.0
 20
-71.00000000000001
 30
0.0
 11
9.0
 21
-62.0
 31
0.0
  0
LINE
  5
18C
330
15C
100
AcDbEntity
  8
hidden
100
AcDbLine
 10
9.0
 20
-69.0
 30
0.0
 11
23.0
 21
-69.0
 31
0.0
  0
LINE
  5
18D
330
15C
100
AcDbEntity
  8
hidden
100
AcDbLine
 10
9.0
 20
-71.00000000000001
 30
0.0
 11
23.0
 21
-71.00000000000001
 31
0.0
  0
LINE
  5
18E
330
15C
100
AcDbEntity
  8
hidden
100
AcDbLine
 10
39.0
 20
-13.00000000000001
 30
0.0
 11
43.0
 21
-13.00000000000001
 31
0.0
  0
LINE
  5
18F
330
15C
100
AcDbEntity
  8
hidden
100
AcDbLine
 10
39.0
 20
-9.800000000000002
 30
0.0
 11
43.0
 21
-9.800000000000002
 31
0.0
  0
LINE
  5
190
330
15C
100
AcDbEntity
  8
hidden
100
AcDbLine
 10
25.0
 20
-70.0
 30
0.0
 11
25.0
 21
-45.00000000000001
 31
0.0
  0
LINE
  5
191
330
15C
100
AcDbEntity
  8
hidden
100
AcDbLine
 10
6.999999999999997
 20
-45.00000000000001
 30
0.0
 11
25.0
 21
-45.00000000000001
 31
0.0
  0
LINE
  5
192
330
15C
100
AcDbEntity
  8
hidden
100
AcDbLine
 10
6.999999999999997
 20
-60.00000000000001
 30
0.0
 11
25.0
 21
-60.00000000000001
 31
0.0
  0
LINE
  5
193
330
15C
100
AcDbEntity
  8
hidden
100
AcDbLine
 10
39.0
 20
-26.00054698666415
 30
0.0
 11
43.0
 21
-26.00054698666415
 31
0.0
  0
LINE
  5
194
330
15C
100
AcDbEntity
  8
hidden
100
AcDbLine
 10
43.0
 20
-38.00000000000001
 30
0.0
 11
43.0
 21
1.599832708584215
 31
0.0
  0
LINE
  5
195
330
15C
100
AcDbEntity
  8
hidden
100
AcDbLine
 10
39.0
 20
-38.00000000000001
 30
0.0
 11
39.0
 21
0.0
 31
0.0
  0
LINE
  5
196
330
15C
100
AcDbEntity
  8
hidden
100
AcDbLine
 10
39.0
 20
-38.00000000000001
 30
0.0
 11
43.0
 21
-38.00000000000001
 31
0.0
  0
LINE
  5
197
330
15C
100
AcDbEntity
  8
hidden
100
AcDbLine
 10
37.0
 20
0.0
 30
0.0
 11
37.0
 21
1.599832708584215
 31
0.0
  0
LINE
  5
198
330
15C
100
AcDbEntity
  8
hidden
100
AcDbLine
 10
0.0
 20
-162.0
 30
0.0
 11
45.0
 21
-162.0
 31
0.0
  0
LINE
  5
199
330
15C
100
AcDbEntity
  8
hidden
100
AcDbLine
 10
21.0
 20
-120.0
 30
0.0
 11
39.0
 21
-120.0
 31
0.0
  0
LINE
  5
19A
330
15C
100
AcDbEntity
  8
hidden
100
AcDbLine
 10
21.0
 20
-105.0
 30
0.0
 11
39.0
 21
-105.0
 31
0.0
  0
LINE
  5
19B
330
15C
100
AcDbEntity
  8
hidden
100
AcDbLine
 10
0.0
 20
0.0
 30
0.0
 11
45.0
 21
0.0
 31
0.0
  0
LINE
  5
19C
330
15C
100
AcDbEntity
  8
hidden
100
AcDbLine
 10
5.000000000000001
 20
-166.0
 30
0.0
 11
5.000000000000001
 21
-9.000000000000007
 31
0.0
  0
LINE
  5
19D
330
15C
100
AcDbEntity
  8
hidden
100
AcDbLine
 10
4.0
 20
-9.000000000000007
 30
0.0
 11
17.0
 21
-9.000000000000007
 31
0.0
  0
LINE
  5
19E
330
15C
100
AcDbEntity
  8
hidden
100
AcDbLine
 10
40.0
 20
-9.000000000000007
 30
0.0
 11
40.99999999999999
 21
-9.000000000000007
 31
0.0
  0
LINE
  5
19F
330
15C
100
AcDbEntity
  8
hidden
100
AcDbLine
 10
40.0
 20
-166.0
 30
0.0
 11
40.0
 21
-9.000000000000007
 31
0.0
  0
LINE
  5
1A0
330
15C
100
AcDbEntity
  8
hidden
100
AcDbLine
 10
4.0
 20
-137.75
 30
0.0
 11
6.219122946961162
 21
-137.75
 31
0.0
  0
LINE
  5
1A1
330
15C
100
AcDbEntity
  8
hidden
100
AcDbLine
 10
7.999999999999998
 20
-135.25
 30
0.0
 11
4.0
 21
-135.25
 31
0.0
  0
LINE
  5
1A2
330
15C
100
AcDbEntity
  8
hidden
100
AcDbLine
 10
7.999999999999998
 20
-135.25
 30
0.0
 11
7.999999999999998
 21
-137.6529462826952
 31
0.0
  0
LINE
  5
1A3
330
15C
100
AcDbEntity
  8
hidden
100
AcDbLine
 10
38.78087705303884
 20
-62.75
 30
0.0
 11
41.0
 21
-62.75
 31
0.0
  0
LINE
  5
1A4
330
15C
100
AcDbEntity
  8
hidden
100
AcDbLine
 10
41.0
 20
-60.25
 30
0.0
 11
37.00000000000001
 21
-60.25
 31
0.0
  0
LINE
  5
1A5
330
15C
100
AcDbEntity
  8
hidden
100
AcDbLine
 10
37.00000000000001
 20
-60.25
 30
0.0
 11
37.00000000000001
 21
-62.65294628269513
 31
0.0
  0
LINE
  5
1A6
330
15C
100
AcDbEntity
  8
hidden
100
AcDbLine
 10
38.78087705303884
 20
-132.75
 30
0.0
 11
41.0
 21
-132.75
 31
0.0
  0
LINE
  5
1A7
330
15C
100
AcDbEntity
  8
hidden
100
AcDbLine
 10
41.0
 20
-130.25
 30
0.0
 11
37.00000000000001
 21
-130.25
 31
0.0
  0
LINE
  5
1A8
330
15C
100
AcDbEntity
  8
hidden
100
AcDbLine
 10
37.00000000000001
 20
-130.25
 30
0.0
 11
37.00000000000001
 21
-132.6529462826951
 31
0.0
  0
LINE
  5
1A9
330
15C
100
AcDbEntity
  8
hidden
100
AcDbLine
 10
38.78087705303884
 20
-127.75
 30
0.0
 11
41.0
 21
-127.75
 31
0.0
  0
LINE
  5
1AA
330
15C
100
AcDbEntity
  8
hidden
100
AcDbLine
 10
41.0
 20
-125.25
 30
0.0
 11
37.00000000000001
 21
-125.25
 31
0.0
  0
LINE
  5
1AB
330
15C
100
AcDbEntity
  8
hidden
100
AcDbLine
 10
37.00000000000001
 20
-125.25
 30
0.0
 11
37.00000000000001
 21
-127.6529462826951
 31
0.0
  0
LINE
  5
1AC
330
15C
100
AcDbEntity
  8
hidden
100
AcDbLine
 10
4.0
 20
-62.75
 30
0.0
 11
6.219122946961162
 21
-62.75
 31
0.0
  0
LINE
  5
1AD
330
15C
100
AcDbEntity
  8
hidden
100
AcDbLine
 10
7.999999999999998
 20
-60.25
 30
0.0
 11
4.0
 21
-60.25
 31
0.0
  0
LINE
  5
1AE
330
15C
100
AcDbEntity
  8
hidden
100
AcDbLine
 10
7.999999999999998
 20
-60.25
 30
0.0
 11
7.999999999999998
 21
-62.65294628269513
 31
0.0
  0
LINE
  5
1AF
330
15C
100
AcDbEntity
  8
hidden
100
AcDbLine
 10
38.78087705303884
 20
-27.75
 30
0.0
 11
41.0
 21
-27.75
 31
0.0
  0
LINE
  5
1B0
330
15C
100
AcDbEntity
  8
hidden
100
AcDbLine
 10
41.0
 20
-25.24999999999999
 30
0.0
 11
37.00000000000001
 21
-25.24999999999999
 31
0.0
  0
LINE
  5
1B1
330
15C
100
AcDbEntity
  8
hidden
100
AcDbLine
 10
37.00000000000001
 20
-25.24999999999999
 30
0.0
 11
37.00000000000001
 21
-27.65294628269513
 31
0.0
  0
LINE
  5
1B2
330
15C
100
AcDbEntity
  8
hidden
100
AcDbLine
 10
4.0
 20
-122.75
 30
0.0
 11
6.219122946961156
 21
-122.75
 31
0.0
  0
LINE
  5
1B3
330
15C
100
AcDbEntity
  8
hidden
100
AcDbLine
 10
7.999999999999998
 20
-120.25
 30
0.0
 11
4.0
 21
-120.25
 31
0.0
  0
LINE
  5
1B4
330
15C
100
AcDbEntity
  8
hidden
100
AcDbLine
 10
7.999999999999998
 20
-120.25
 30
0.0
 11
7.999999999999998
 21
-122.6529462826951
 31
0.0
  0
LINE
  5
1B5
330
15C
100
AcDbEntity
  8
hidden
100
AcDbLine
 10
38.78087705303884
 20
-57.75000000000001
 30
0.0
 11
41.0
 21
-57.75000000000001
 31
0.0
  0
LINE
  5
1B6
330
15C
100
AcDbEntity
  8
hidden
100
AcDbLine
 10
41.0
 20
-55.25000000000001
 30
0.0
 11
37.00000000000001
 21
-55.25000000000001
 31
0.0
  0
LINE
  5
1B7
330
15C
100
AcDbEntity
  8
hidden
100
AcDbLine
 10
37.00000000000001
 20
-55.25000000000001
 30
0.0
 11
37.00000000000001
 21
-57.65294628269514
 31
0.0
  0
LINE
  5
1B8
330
15C
100
AcDbEntity
  8
hidden
100
AcDbLine
 10
4.0
 20
-117.75
 30
0.0
 11
6.219122946961162
 21
-117.75
 31
0.0
  0
LINE
  5
1B9
330
15C
100
AcDbEntity
  8
hidden
100
AcDbLine
 10
7.999999999999998
 20
-115.25
 30
0.0
 11
4.0
 21
-115.25
 31
0.0
  0
LINE
  5
1BA
330
15C
100
AcDbEntity
  8
hidden
100
AcDbLine
 10
7.999999999999998
 20
-115.25
 30
0.0
 11
7.999999999999998
 21
-117.6529462826951
 31
0.0
  0
LINE
  5
1BB
330
15C
100
AcDbEntity
  8
hidden
100
AcDbLine
 10
4.0
 20
-132.75
 30
0.0
 11
6.219122946961162
 21
-132.75
 31
0.0
  0
LINE
  5
1BC
330
15C
100
AcDbEntity
  8
hidden
100
AcDbLine
 10
7.999999999999998
 20
-130.25
 30
0.0
 11
4.0
 21
-130.25
 31
0.0
  0
LINE
  5
1BD
330
15C
100
AcDbEntity
  8
hidden
100
AcDbLine
 10
7.999999999999998
 20
-130.25
 30
0.0
 11
7.999999999999998
 21
-132.6529462826951
 31
0.0
  0
LINE
  5
1BE
330
15C
100
AcDbEntity
  8
hidden
100
AcDbLine
 10
38.78087705303884
 20
-32.75
 30
0.0
 11
41.0
 21
-32.75
 31
0.0
  0
LINE
  5
1BF
330
15C
100
AcDbEntity
  8
hidden
100
AcDbLine
 10
41.0
 20
-30.25
 30
0.0
 11
37.00000000000001
 21
-30.25
 31
0.0
  0
LINE
  5
1C0
330
15C
100
AcDbEntity
  8
hidden
100
AcDbLine
 10
37.00000000000001
 20
-30.25
 30
0.0
 11
37.00000000000001
 21
-32.65294628269513
 31
0.0
  0
LINE
  5
1C1
330
15C
100
AcDbEntity
  8
hidden
100
AcDbLine
 10
4.0
 20
-142.75
 30
0.0
 11
6.219122946961162
 21
-142.75
 31
0.0
  0
LINE
  5
1C2
330
15C
100
AcDbEntity
  8
hidden
100
AcDbLine
 10
7.999999999999998
 20
-140.25
 30
0.0
 11
4.0
 21
-140.25
 31
0.0
  0
LINE
  5
1C3
330
15C
100
AcDbEntity
  8
hidden
100
AcDbLine
 10
7.999999999999998
 20
-140.25
 30
0.0
 11
7.999999999999998
 21
-142.6529462826952
 31
0.0
  0
LINE
  5
1C4
330
15C
100
AcDbEntity
  8
hidden
100
AcDbLine
 10
38.78087705303884
 20
-137.75
 30
0.0
 11
41.0
 21
-137.75
 31
0.0
  0
LINE
  5
1C5
330
15C
100
AcDbEntity
  8
hidden
100
AcDbLine
 10
41.0
 20
-135.25
 30
0.0
 11
37.00000000000001
 21
-135.25
 31
0.0
  0
LINE
  5
1C6
330
15C
100
AcDbEntity
  8
hidden
100
AcDbLine
 10
37.00000000000001
 20
-135.25
 30
0.0
 11
37.00000000000001
 21
-137.6529462826952
 31
0.0
  0
LINE
  5
1C7
330
15C
100
AcDbEntity
  8
hidden
100
AcDbLine
 10
4.0
 20
-127.75
 30
0.0
 11
6.21912294696117
 21
-127.75
 31
0.0
  0
LINE
  5
1C8
330
15C
100
AcDbEntity
  8
hidden
100
AcDbLine
 10
7.999999999999998
 20
-125.25
 30
0.0
 11
4.0
 21
-125.25
 31
0.0
  0
LINE
  5
1C9
330
15C
100
AcDbEntity
  8
hidden
100
AcDbLine
 10
7.999999999999998
 20
-125.25
 30
0.0
 11
7.999999999999998
 21
-127.6529462826951
 31
0.0
  0
LINE
  5
1CA
330
15C
100
AcDbEntity
  8
hidden
100
AcDbLine
 10
38.78087705303884
 20
-122.75
 30
0.0
 11
41.0
 21
-122.75
 31
0.0
  0
LINE
  5
1CB
330
15C
100
AcDbEntity
  8
hidden
100
AcDbLine
 10
41.0
 20
-120.25
 30
0.0
 11
37.00000000000001
 21
-120.25
 31
0.0
  0
LINE
  5
1CC
330
15C
100
AcDbEntity
  8
hidden
100
AcDbLine
 10
37.00000000000001
 20
-120.25
 30
0.0
 11
37.00000000000001
 21
-122.6529462826951
 31
0.0
  0
LINE
  5
1CD
330
15C
100
AcDbEntity
  8
hidden
100
AcDbLine
 10
38.78087705303884
 20
-117.75
 30
0.0
 11
41.0
 21
-117.75
 31
0.0
  0
LINE
  5
1CE
330
15C
100
AcDbEntity
  8
hidden
100
AcDbLine
 10
41.0
 20
-115.25
 30
0.0
 11
37.00000000000001
 21
-115.25
 31
0.0
  0
LINE
  5
1CF
330
15C
100
AcDbEntity
  8
hidden
100
AcDbLine
 10
37.00000000000001
 20
-115.25
 30
0.0
 11
37.00000000000001
 21
-117.6529462826951
 31
0.0
  0
LINE
  5
1D0
330
15C
100
AcDbEntity
  8
hidden
100
AcDbLine
 10
4.0
 20
-42.75000000000001
 30
0.0
 11
6.219122946961162
 21
-42.75000000000001
 31
0.0
  0
LINE
  5
1D1
330
15C
100
AcDbEntity
  8
hidden
100
AcDbLine
 10
7.999999999999998
 20
-40.25000000000001
 30
0.0
 11
4.0
 21
-40.25000000000001
 31
0.0
  0
LINE
  5
1D2
330
15C
100
AcDbEntity
  8
hidden
100
AcDbLine
 10
7.999999999999998
 20
-40.25000000000001
 30
0.0
 11
7.999999999999998
 21
-42.65294628269514
 31
0.0
  0
LINE
  5
1D3
330
15C
100
AcDbEntity
  8
hidden
100
AcDbLine
 10
38.78087705303884
 20
-142.75
 30
0.0
 11
41.0
 21
-142.75
 31
0.0
  0
LINE
  5
1D4
330
15C
100
AcDbEntity
  8
hidden
100
AcDbLine
 10
41.0
 20
-140.25
 30
0.0
 11
37.00000000000001
 21
-140.25
 31
0.0
  0
LINE
  5
1D5
330
15C
100
AcDbEntity
  8
hidden
100
AcDbLine
 10
37.00000000000001
 20
-140.25
 30
0.0
 11
37.00000000000001
 21
-142.6529462826952
 31
0.0
  0
LINE
  5
1D6
330
15C
100
AcDbEntity
  8
hidden
100
AcDbLine
 10
4.0
 20
-37.75000000000001
 30
0.0
 11
6.219122946961162
 21
-37.75000000000001
 31
0.0
  0
LINE
  5
1D7
330
15C
100
AcDbEntity
  8
hidden
100
AcDbLine
 10
7.999999999999998
 20
-35.25
 30
0.0
 11
4.0
 21
-35.25
 31
0.0
  0
LINE
  5
1D8
330
15C
100
AcDbEntity
  8
hidden
100
AcDbLine
 10
7.999999999999998
 20
-35.25
 30
0.0
 11
7.999999999999998
 21
-37.65294628269514
 31
0.0
  0
LINE
  5
1D9
330
15C
100
AcDbEntity
  8
hidden
100
AcDbLine
 10
38.78087705303884
 20
-102.75
 30
0.0
 11
41.0
 21
-102.75
 31
0.0
  0
LINE
  5
1DA
330
15C
100
AcDbEntity
  8
hidden
100
AcDbLine
 10
41.0
 20
-100.25
 30
0.0
 11
37.00000000000001
 21
-100.25
 31
0.0
  0
LINE
  5
1DB
330
15C
100
AcDbEntity
  8
hidden
100
AcDbLine
 10
37.00000000000001
 20
-100.25
 30
0.0
 11
37.00000000000001
 21
-102.6529462826951
 31
0.0
  0
LINE
  5
1DC
330
15C
100
AcDbEntity
  8
hidden
100
AcDbLine
 10
4.0
 20
-32.75
 30
0.0
 11
6.219122946961162
 21
-32.75
 31
0.0
  0
LINE
  5
1DD
330
15C
100
AcDbEntity
  8
hidden
100
AcDbLine
 10
7.999999999999998
 20
-30.25
 30
0.0
 11
4.0
 21
-30.25
 31
0.0
  0
LINE
  5
1DE
330
15C
100
AcDbEntity
  8
hidden
100
AcDbLine
 10
7.999999999999998
 20
-30.25
 30
0.0
 11
7.999999999999998
 21
-32.65294628269513
 31
0.0
  0
LINE
  5
1DF
330
15C
100
AcDbEntity
  8
hidden
100
AcDbLine
 10
38.78087705303884
 20
-97.75
 30
0.0
 11
41.0
 21
-97.75
 31
0.0
  0
LINE
  5
1E0
330
15C
100
AcDbEntity
  8
hidden
100
AcDbLine
 10
41.0
 20
-95.25
 30
0.0
 11
37.00000000000001
 21
-95.25
 31
0.0
  0
LINE
  5
1E1
330
15C
100
AcDbEntity
  8
hidden
100
AcDbLine
 10
37.00000000000001
 20
-95.25
 30
0.0
 11
37.00000000000001
 21
-97.65294628269514
 31
0.0
  0
LINE
  5
1E2
330
15C
100
AcDbEntity
  8
hidden
100
AcDbLine
 10
4.0
 20
-27.75
 30
0.0
 11
6.219122946961162
 21
-27.75
 31
0.0
  0
LINE
  5
1E3
330
15C
100
AcDbEntity
  8
hidden
100
AcDbLine
 10
7.999999999999998
 20
-25.24999999999999
 30
0.0
 11
4.0
 21
-25.24999999999999
 31
0.0
  0
LINE
  5
1E4
330
15C
100
AcDbEntity
  8
hidden
100
AcDbLine
 10
7.999999999999998
 20
-25.24999999999999
 30
0.0
 11
7.999999999999998
 21
-27.65294628269513
 31
0.0
  0
LINE
  5
1E5
330
15C
100
AcDbEntity
  8
hidden
100
AcDbLine
 10
38.78087705303883
 20
-92.75
 30
0.0
 11
41.0
 21
-92.75
 31
0.0
  0
LINE
  5
1E6
330
15C
100
AcDbEntity
  8
hidden
100
AcDbLine
 10
41.0
 20
-90.25
 30
0.0
 11
37.00000000000001
 21
-90.25
 31
0.0
  0
LINE
  5
1E7
330
15C
100
AcDbEntity
  8
hidden
100
AcDbLine
 10
37.00000000000001
 20
-90.25
 30
0.0
 11
37.00000000000001
 21
-92.65294628269514
 31
0.0
  0
LINE
  5
1E8
330
15C
100
AcDbEntity
  8
hidden
100
AcDbLine
 10
38.78087705303884
 20
-12.75000000000001
 30
0.0
 11
41.0
 21
-12.75000000000001
 31
0.0
  0
LINE
  5
1E9
330
15C
100
AcDbEntity
  8
hidden
100
AcDbLine
 10
41.0
 20
-10.25000000000001
 30
0.0
 11
37.00000000000001
 21
-10.25000000000001
 31
0.0
  0
LINE
  5
1EA
330
15C
100
AcDbEntity
  8
hidden
100
AcDbLine
 10
37.00000000000001
 20
-10.25000000000001
 30
0.0
 11
37.00000000000001
 21
-12.65294628269514
 31
0.0
  0
LINE
  5
1EB
330
15C
100
AcDbEntity
  8
hidden
100
AcDbLine
 10
4.0
 20
-17.75000000000001
 30
0.0
 11
6.219122946961162
 21
-17.75000000000001
 31
0.0
  0
LINE
  5
1EC
330
15C
100
AcDbEntity
  8
hidden
100
AcDbLine
 10
7.999999999999998
 20
-15.25000000000001
 30
0.0
 11
4.0
 21
-15.25000000000001
 31
0.0
  0
LINE
  5
1ED
330
15C
100
AcDbEntity
  8
hidden
100
AcDbLine
 10
7.999999999999998
 20
-15.25000000000001
 30
0.0
 11
7.999999999999998
 21
-17.65294628269515
 31
0.0
  0
LINE
  5
1EE
330
15C
100
AcDbEntity
  8
hidden
100
AcDbLine
 10
38.78087705303884
 20
-7.750000000000007
 30
0.0
 11
41.0
 21
-7.750000000000007
 31
0.0
  0
LINE
  5
1EF
330
15C
100
AcDbEntity
  8
hidden
100
AcDbLine
 10
41.0
 20
-5.250000000000004
 30
0.0
 11
37.00000000000001
 21
-5.250000000000004
 31
0.0
  0
LINE
  5
1F0
330
15C
100
AcDbEntity
  8
hidden
100
AcDbLine
 10
37.00000000000001
 20
-5.250000000000004
 30
0.0
 11
37.00000000000001
 21
-7.652946282695138
 31
0.0
  0
LINE
  5
1F1
330
15C
100
AcDbEntity
  8
hidden
100
AcDbLine
 10
4.0
 20
-12.75000000000001
 30
0.0
 11
6.219122946961162
 21
-12.75000000000001
 31
0.0
  0
LINE
  5
1F2
330
15C
100
AcDbEntity
  8
hidden
100
AcDbLine
 10
7.999999999999998
 20
-10.25000000000001
 30
0.0
 11
4.0
 21
-10.25000000000001
 31
0.0
  0
LINE
  5
1F3
330
15C
100
AcDbEntity
  8
hidden
100
AcDbLine
 10
7.999999999999998
 20
-10.25000000000001
 30
0.0
 11
7.999999999999998
 21
-12.65294628269514
 31
0.0
  0
LINE
  5
1F4
330
15C
100
AcDbEntity
  8
hidden
100
AcDbLine
 10
38.78087705303884
 20
-112.75
 30
0.0
 11
41.0
 21
-112.75
 31
0.0
  0
LINE
  5
1F5
330
15C
100
AcDbEntity
  8
hidden
100
AcDbLine
 10
41.0
 20
-110.25
 30
0.0
 11
37.00000000000001
 21
-110.25
 31
0.0
  0
LINE
  5
1F6
330
15C
100
AcDbEntity
  8
hidden
100
AcDbLine
 10
37.00000000000001
 20
-110.25
 30
0.0
 11
37.00000000000001
 21
-112.6529462826951
 31
0.0
  0
LINE
  5
1F7
330
15C
100
AcDbEntity
  8
hidden
100
AcDbLine
 10
4.0
 20
-7.750000000000007
 30
0.0
 11
6.219122946961162
 21
-7.750000000000007
 31
0.0
  0
LINE
  5
1F8
330
15C
100
AcDbEntity
  8
hidden
100
AcDbLine
 10
7.999999999999998
 20
-5.250000000000004
 30
0.0
 11
4.0
 21
-5.250000000000004
 31
0.0
  0
LINE
  5
1F9
330
15C
100
AcDbEntity
  8
hidden
100
AcDbLine
 10
7.999999999999998
 20
-5.250000000000004
 30
0.0
 11
7.999999999999998
 21
-7.652946282695138
 31
0.0
  0
LINE
  5
1FA
330
15C
100
AcDbEntity
  8
hidden
100
AcDbLine
 10
38.78087705303884
 20
-107.75
 30
0.0
 11
41.0
 21
-107.75
 31
0.0
  0
LINE
  5
1FB
330
15C
100
AcDbEntity
  8
hidden
100
AcDbLine
 10
41.0
 20
-105.25
 30
0.0
 11
37.00000000000001
 21
-105.25
 31
0.0
  0
LINE
  5
1FC
330
15C
100
AcDbEntity
  8
hidden
100
AcDbLine
 10
37.00000000000001
 20
-105.25
 30
0.0
 11
37.00000000000001
 21
-107.6529462826951
 31
0.0
  0
LINE
  5
1FD
330
15C
100
AcDbEntity
  8
hidden
100
AcDbLine
 10
4.0
 20
-77.75
 30
0.0
 11
6.219122946961162
 21
-77.75
 31
0.0
  0
LINE
  5
1FE
330
15C
100
AcDbEntity
  8
hidden
100
AcDbLine
 10
7.999999999999998
 20
-75.25
 30
0.0
 11
4.0
 21
-75.25
 31
0.0
  0
LINE
  5
1FF
330
15C
100
AcDbEntity
  8
hidden
100
AcDbLine
 10
7.999999999999998
 20
-75.25
 30
0.0
 11
7.999999999999998
 21
-77.65294628269513
 31
0.0
  0
LINE
  5
200
330
15C
100
AcDbEntity
  8
hidden
100
AcDbLine
 10
4.0
 20
-72.75000000000001
 30
0.0
 11
6.219122946961162
 21
-72.75000000000001
 31
0.0
  0
LINE
  5
201
330
15C
100
AcDbEntity
  8
hidden
100
AcDbLine
 10
7.999999999999998
 20
-70.25
 30
0.0
 11
4.0
 21
-70.25
 31
0.0
  0
LINE
  5
202
330
15C
100
AcDbEntity
  8
hidden
100
AcDbLine
 10
7.999999999999998
 20
-70.25
 30
0.0
 11
7.999999999999998
 21
-72.65294628269514
 31
0.0
  0
LINE
  5
203
330
15C
100
AcDbEntity
  8
hidden
100
AcDbLine
 10
4.0
 20
-147.75
 30
0.0
 11
6.21912294696116
 21
-147.75
 31
0.0
  0
LINE
  5
204
330
15C
100
AcDbEntity
  8
hidden
100
AcDbLine
 10
7.999999999999998
 20
-145.25
 30
0.0
 11
4.0
 21
-145.25
 31
0.0
  0
LINE
  5
205
330
15C
100
AcDbEntity
  8
hidden
100
AcDbLine
 10
7.999999999999998
 20
-145.25
 30
0.0
 11
7.999999999999998
 21
-147.6529462826951
 31
0.0
  0
LINE
  5
206
330
15C
100
AcDbEntity
  8
hidden
100
AcDbLine
 10
4.0
 20
-67.75
 30
0.0
 11
6.219122946961162
 21
-67.75
 31
0.0
  0
LINE
  5
207
330
15C
100
AcDbEntity
  8
hidden
100
AcDbLine
 10
7.999999999999998
 20
-65.25
 30
0.0
 11
4.0
 21
-65.25
 31
0.0
  0
LINE
  5
208
330
15C
100
AcDbEntity
  8
hidden
100
AcDbLine
 10
7.999999999999998
 20
-65.25
 30
0.0
 11
7.999999999999998
 21
-67.65294628269514
 31
0.0
  0
LINE
  5
209
330
15C
100
AcDbEntity
  8
hidden
100
AcDbLine
 10
38.78087705303884
 20
-52.75000000000001
 30
0.0
 11
41.0
 21
-52.75000000000001
 31
0.0
  0
LINE
  5
20A
330
15C
100
AcDbEntity
  8
hidden
100
AcDbLine
 10
41.0
 20
-50.25
 30
0.0
 11
37.00000000000001
 21
-50.25
 31
0.0
  0
LINE
  5
20B
330
15C
100
AcDbEntity
  8
hidden
100
AcDbLine
 10
37.00000000000001
 20
-50.25
 30
0.0
 11
37.00000000000001
 21
-52.65294628269514
 31
0.0
  0
LINE
  5
20C
330
15C
100
AcDbEntity
  8
hidden
100
AcDbLine
 10
4.0
 20
-57.75000000000001
 30
0.0
 11
6.219122946961162
 21
-57.75000000000001
 31
0.0
  0
LINE
  5
20D
330
15C
100
AcDbEntity
  8
hidden
100
AcDbLine
 10
7.999999999999998
 20
-55.25000000000001
 30
0.0
 11
4.0
 21
-55.25000000000001
 31
0.0
  0
LINE
  5
20E
330
15C
100
AcDbEntity
  8
hidden
100
AcDbLine
 10
7.999999999999998
 20
-55.25000000000001
 30
0.0
 11
7.999999999999998
 21
-57.65294628269514
 31
0.0
  0
LINE
  5
20F
330
15C
100
AcDbEntity
  8
hidden
100
AcDbLine
 10
38.78087705303884
 20
-47.75
 30
0.0
 11
41.0
 21
-47.75
 31
0.0
  0
LINE
  5
210
330
15C
100
AcDbEntity
  8
hidden
100
AcDbLine
 10
41.0
 20
-45.25
 30
0.0
 11
37.00000000000001
 21
-45.25
 31
0.0
  0
LINE
  5
211
330
15C
100
AcDbEntity
  8
hidden
100
AcDbLine
 10
37.00000000000001
 20
-45.25
 30
0.0
 11
37.00000000000001
 21
-47.65294628269513
 31
0.0
  0
LINE
  5
212
330
15C
100
AcDbEntity
  8
hidden
100
AcDbLine
 10
4.0
 20
-52.75000000000001
 30
0.0
 11
6.219122946961162
 21
-52.75000000000001
 31
0.0
  0
LINE
  5
213
330
15C
100
AcDbEntity
  8
hidden
100
AcDbLine
 10
7.999999999999998
 20
-50.25
 30
0.0
 11
4.0
 21
-50.25
 31
0.0
  0
LINE
  5
214
330
15C
100
AcDbEntity
  8
hidden
100
AcDbLine
 10
7.999999999999998
 20
-50.25
 30
0.0
 11
7.999999999999998
 21
-52.65294628269514
 31
0.0
  0
LINE
  5
215
330
15C
100
AcDbEntity
  8
hidden
100
AcDbLine
 10
38.78087705303884
 20
-42.75000000000001
 30
0.0
 11
41.0
 21
-42.75000000000001
 31
0.0
  0
LINE
  5
216
330
15C
100
AcDbEntity
  8
hidden
100
AcDbLine
 10
41.0
 20
-40.25000000000001
 30
0.0
 11
37.00000000000001
 21
-40.25000000000001
 31
0.0
  0
LINE
  5
217
330
15C
100
AcDbEntity
  8
hidden
100
AcDbLine
 10
37.00000000000001
 20
-40.25000000000001
 30
0.0
 11
37.00000000000001
 21
-42.65294628269514
 31
0.0
  0
LINE
  5
218
330
15C
100
AcDbEntity
  8
hidden
100
AcDbLine
 10
4.0
 20
-47.75
 30
0.0
 11
6.219122946961162
 21
-47.75
 31
0.0
  0
LINE
  5
219
330
15C
100
AcDbEntity
  8
hidden
100
AcDbLine
 10
7.999999999999998
 20
-45.25
 30
0.0
 11
4.0
 21
-45.25
 31
0.0
  0
LINE
  5
21A
330
15C
100
AcDbEntity
  8
hidden
100
AcDbLine
 10
7.999999999999998
 20
-45.25
 30
0.0
 11
7.999999999999998
 21
-47.65294628269513
 31
0.0
  0
LINE
  5
21B
330
15C
100
AcDbEntity
  8
hidden
100
AcDbLine
 10
38.78087705303884
 20
-37.75000000000001
 30
0.0
 11
41.0
 21
-37.75000000000001
 31
0.0
  0
LINE
  5
21C
330
15C
100
AcDbEntity
  8
hidden
100
AcDbLine
 10
41.0
 20
-35.25
 30
0.0
 11
37.00000000000001
 21
-35.25
 31
0.0
  0
LINE
  5
21D
330
15C
100
AcDbEntity
  8
hidden
100
AcDbLine
 10
37.00000000000001
 20
-35.25
 30
0.0
 11
37.00000000000001
 21
-37.65294628269514
 31
0.0
  0
LINE
  5
21E
330
15C
100
AcDbEntity
  8
hidden
100
AcDbLine
 10
38.78087705303884
 20
-22.74999999999999
 30
0.0
 11
41.0
 21
-22.74999999999999
 31
0.0
  0
LINE
  5
21F
330
15C
100
AcDbEntity
  8
hidden
100
AcDbLine
 10
41.0
 20
-20.24999999999999
 30
0.0
 11
37.00000000000001
 21
-20.24999999999999
 31
0.0
  0
LINE
  5
220
330
15C
100
AcDbEntity
  8
hidden
100
AcDbLine
 10
37.00000000000001
 20
-20.24999999999999
 30
0.0
 11
37.00000000000001
 21
-22.65294628269513
 31
0.0
  0
LINE
  5
221
330
15C
100
AcDbEntity
  8
hidden
100
AcDbLine
 10
4.0
 20
-22.74999999999999
 30
0.0
 11
6.219122946961162
 21
-22.74999999999999
 31
0.0
  0
LINE
  5
222
330
15C
100
AcDbEntity
  8
hidden
100
AcDbLine
 10
7.999999999999998
 20
-20.24999999999999
 30
0.0
 11
4.0
 21
-20.24999999999999
 31
0.0
  0
LINE
  5
223
330
15C
100
AcDbEntity
  8
hidden
100
AcDbLine
 10
7.999999999999998
 20
-20.24999999999999
 30
0.0
 11
7.999999999999998
 21
-22.65294628269513
 31
0.0
  0
LINE
  5
224
330
15C
100
AcDbEntity
  8
hidden
100
AcDbLine
 10
38.78087705303884
 20
-162.75
 30
0.0
 11
41.0
 21
-162.75
 31
0.0
  0
LINE
  5
225
330
15C
100
AcDbEntity
  8
hidden
100
AcDbLine
 10
41.0
 20
-160.25
 30
0.0
 11
37.00000000000001
 21
-160.25
 31
0.0
  0
LINE
  5
226
330
15C
100
AcDbEntity
  8
hidden
100
AcDbLine
 10
37.00000000000001
 20
-160.25
 30
0.0
 11
37.00000000000001
 21
-162.6529462826951
 31
0.0
  0
LINE
  5
227
330
15C
100
AcDbEntity
  8
hidden
100
AcDbLine
 10
38.78087705303884
 20
-157.75
 30
0.0
 11
41.0
 21
-157.75
 31
0.0
  0
LINE
  5
228
330
15C
100
AcDbEntity
  8
hidden
100
AcDbLine
 10
41.0
 20
-155.25
 30
0.0
 11
37.00000000000001
 21
-155.25
 31
0.0
  0
LINE
  5
229
330
15C
100
AcDbEntity
  8
hidden
100
AcDbLine
 10
37.00000000000001
 20
-155.25
 30
0.0
 11
37.00000000000001
 21
-157.6529462826951
 31
0.0
  0
LINE
  5
22A
330
15C
100
AcDbEntity
  8
hidden
100
AcDbLine
 10
38.78087705303884
 20
-152.75
 30
0.0
 11
41.0
 21
-152.75
 31
0.0
  0
LINE
  5
22B
330
15C
100
AcDbEntity
  8
hidden
100
AcDbLine
 10
41.0
 20
-150.25
 30
0.0
 11
37.00000000000001
 21
-150.25
 31
0.0
  0
LINE
  5
22C
330
15C
100
AcDbEntity
  8
hidden
100
AcDbLine
 10
37.00000000000001
 20
-150.25
 30
0.0
 11
37.00000000000001
 21
-152.6529462826951
 31
0.0
  0
LINE
  5
22D
330
15C
100
AcDbEntity
  8
hidden
100
AcDbLine
 10
38.78087705303884
 20
-147.75
 30
0.0
 11
41.0
 21
-147.75
 31
0.0
  0
LINE
  5
22E
330
15C
100
AcDbEntity
  8
hidden
100
AcDbLine
 10
41.0
 20
-145.25
 30
0.0
 11
37.00000000000001
 21
-145.25
 31
0.0
  0
LINE
  5
22F
330
15C
100
AcDbEntity
  8
hidden
100
AcDbLine
 10
37.00000000000001
 20
-145.25
 30
0.0
 11
37.00000000000001
 21
-147.6529462826951
 31
0.0
  0
LINE
  5
230
330
15C
100
AcDbEntity
  8
hidden
100
AcDbLine
 10
4.0
 20
-152.75
 30
0.0
 11
6.21912294696116
 21
-152.75
 31
0.0
  0
LINE
  5
231
330
15C
100
AcDbEntity
  8
hidden
100
AcDbLine
 10
7.999999999999998
 20
-150.25
 30
0.0
 11
4.0
 21
-150.25
 31
0.0
  0
LINE
  5
232
330
15C
100
AcDbEntity
  8
hidden
100
AcDbLine
 10
7.999999999999998
 20
-150.25
 30
0.0
 11
7.999999999999998
 21
-152.6529462826951
 31
0.0
  0
LINE
  5
233
330
15C
100
AcDbEntity
  8
hidden
100
AcDbLine
 10
38.78087705303884
 20
-72.75000000000001
 30
0.0
 11
41.0
 21
-72.75000000000001
 31
0.0
  0
LINE
  5
234
330
15C
100
AcDbEntity
  8
hidden
100
AcDbLine
 10
41.0
 20
-70.25
 30
0.0
 11
37.00000000000001
 21
-70.25
 31
0.0
  0
LINE
  5
235
330
15C
100
AcDbEntity
  8
hidden
100
AcDbLine
 10
37.00000000000001
 20
-70.25
 30
0.0
 11
37.00000000000001
 21
-72.65294628269514
 31
0.0
  0
LINE
  5
236
330
15C
100
AcDbEntity
  8
hidden
100
AcDbLine
 10
4.0
 20
-112.75
 30
0.0
 11
6.21912294696117
 21
-112.75
 31
0.0
  0
LINE
  5
237
330
15C
100
AcDbEntity
  8
hidden
100
AcDbLine
 10
7.999999999999998
 20
-110.25
 30
0.0
 11
4.0
 21
-110.25
 31
0.0
  0
LINE
  5
238
330
15C
100
AcDbEntity
  8
hidden
100
AcDbLine
 10
7.999999999999998
 20
-110.25
 30
0.0
 11
7.999999999999998
 21
-112.6529462826952
 31
0.0
  0
LINE
  5
239
330
15C
100
AcDbEntity
  8
hidden
100
AcDbLine
 10
4.0
 20
-102.75
 30
0.0
 11
6.219122946961162
 21
-102.75
 31
0.0
  0
LINE
  5
23A
330
15C
100
AcDbEntity
  8
hidden
100
AcDbLine
 10
7.999999999999998
 20
-100.25
 30
0.0
 11
4.0
 21
-100.25
 31
0.0
  0
LINE
  5
23B
330
15C
100
AcDbEntity
  8
hidden
100
AcDbLine
 10
7.999999999999998
 20
-100.25
 30
0.0
 11
7.999999999999998
 21
-102.6529462826951
 31
0.0
  0
LINE
  5
23C
330
15C
100
AcDbEntity
  8
hidden
100
AcDbLine
 10
38.78087705303884
 20
-87.75000000000001
 30
0.0
 11
41.0
 21
-87.75000000000001
 31
0.0
  0
LINE
  5
23D
330
15C
100
AcDbEntity
  8
hidden
100
AcDbLine
 10
41.0
 20
-85.25
 30
0.0
 11
37.00000000000001
 21
-85.25
 31
0.0
  0
LINE
  5
23E
330
15C
100
AcDbEntity
  8
hidden
100
AcDbLine
 10
37.00000000000001
 20
-85.25
 30
0.0
 11
37.00000000000001
 21
-87.65294628269514
 31
0.0
  0
LINE
  5
23F
330
15C
100
AcDbEntity
  8
hidden
100
AcDbLine
 10
38.78087705303884
 20
-82.75
 30
0.0
 11
41.0
 21
-82.75
 31
0.0
  0
LINE
  5
240
330
15C
100
AcDbEntity
  8
hidden
100
AcDbLine
 10
41.0
 20
-80.25
 30
0.0
 11
37.00000000000001
 21
-80.25
 31
0.0
  0
LINE
  5
241
330
15C
100
AcDbEntity
  8
hidden
100
AcDbLine
 10
37.00000000000001
 20
-80.25
 30
0.0
 11
37.00000000000001
 21
-82.65294628269514
 31
0.0
  0
LINE
  5
242
330
15C
100
AcDbEntity
  8
hidden
100
AcDbLine
 10
38.78087705303884
 20
-77.75
 30
0.0
 11
41.0
 21
-77.75
 31
0.0
  0
LINE
  5
243
330
15C
100
AcDbEntity
  8
hidden
100
AcDbLine
 10
41.0
 20
-75.25
 30
0.0
 11
37.00000000000001
 21
-75.25
 31
0.0
  0
LINE
  5
244
330
15C
100
AcDbEntity
  8
hidden
100
AcDbLine
 10
37.00000000000001
 20
-75.25
 30
0.0
 11
37.00000000000001
 21
-77.65294628269513
 31
0.0
  0
LINE
  5
245
330
15C
100
AcDbEntity
  8
hidden
100
AcDbLine
 10
38.78087705303884
 20
-67.75
 30
0.0
 11
41.0
 21
-67.75
 31
0.0
  0
LINE
  5
246
330
15C
100
AcDbEntity
  8
hidden
100
AcDbLine
 10
41.0
 20
-65.25
 30
0.0
 11
37.00000000000001
 21
-65.25
 31
0.0
  0
LINE
  5
247
330
15C
100
AcDbEntity
  8
hidden
100
AcDbLine
 10
37.00000000000001
 20
-65.25
 30
0.0
 11
37.00000000000001
 21
-67.65294628269514
 31
0.0
  0
LINE
  5
248
330
15C
100
AcDbEntity
  8
hidden
100
AcDbLine
 10
4.0
 20
-107.75
 30
0.0
 11
6.219122946961156
 21
-107.75
 31
0.0
  0
LINE
  5
249
330
15C
100
AcDbEntity
  8
hidden
100
AcDbLine
 10
7.999999999999998
 20
-105.25
 30
0.0
 11
4.0
 21
-105.25
 31
0.0
  0
LINE
  5
24A
330
15C
100
AcDbEntity
  8
hidden
100
AcDbLine
 10
7.999999999999998
 20
-105.25
 30
0.0
 11
7.999999999999998
 21
-107.6529462826951
 31
0.0
  0
LINE
  5
24B
330
15C
100
AcDbEntity
  8
hidden
100
AcDbLine
 10
4.0
 20
-162.75
 30
0.0
 11
6.219122946961162
 21
-162.75
 31
0.0
  0
LINE
  5
24C
330
15C
100
AcDbEntity
  8
hidden
100
AcDbLine
 10
7.999999999999998
 20
-160.25
 30
0.0
 11
4.0
 21
-160.25
 31
0.0
  0
LINE
  5
24D
330
15C
100
AcDbEntity
  8
hidden
100
AcDbLine
 10
7.999999999999998
 20
-160.25
 30
0.0
 11
7.999999999999998
 21
-162.6529462826951
 31
0.0
  0
LINE
  5
24E
330
15C
100
AcDbEntity
  8
hidden
100
AcDbLine
 10
4.0
 20
-87.75000000000001
 30
0.0
 11
6.219122946961162
 21
-87.75000000000001
 31
0.0
  0
LINE
  5
24F
330
15C
100
AcDbEntity
  8
hidden
100
AcDbLine
 10
7.999999999999998
 20
-85.25
 30
0.0
 11
4.0
 21
-85.25
 31
0.0
  0
LINE
  5
250
330
15C
100
AcDbEntity
  8
hidden
100
AcDbLine
 10
7.999999999999998
 20
-85.25
 30
0.0
 11
7.999999999999998
 21
-87.65294628269514
 31
0.0
  0
LINE
  5
251
330
15C
100
AcDbEntity
  8
hidden
100
AcDbLine
 10
4.0
 20
-157.75
 30
0.0
 11
6.219122946961162
 21
-157.75
 31
0.0
  0
LINE
  5
252
330
15C
100
AcDbEntity
  8
hidden
100
AcDbLine
 10
7.999999999999998
 20
-155.25
 30
0.0
 11
4.0
 21
-155.25
 31
0.0
  0
LINE
  5
253
330
15C
100
AcDbEntity
  8
hidden
100
AcDbLine
 10
7.999999999999998
 20
-155.25
 30
0.0
 11
7.999999999999998
 21
-157.6529462826951
 31
0.0
  0
LINE
  5
254
330
15C
100
AcDbEntity
  8
hidden
100
AcDbLine
 10
4.0
 20
-82.75
 30
0.0
 11
6.219122946961162
 21
-82.75
 31
0.0
  0
LINE
  5
255
330
15C
100
AcDbEntity
  8
hidden
100
AcDbLine
 10
7.999999999999998
 20
-80.25
 30
0.0
 11
4.0
 21
-80.25
 31
0.0
  0
LINE
  5
256
330
15C
100
AcDbEntity
  8
hidden
100
AcDbLine
 10
7.999999999999998
 20
-80.25
 30
0.0
 11
7.999999999999998
 21
-82.65294628269514
 31
0.0
  0
LINE
  5
257
330
15C
100
AcDbEntity
  8
hidden
100
AcDbLine
 10
4.0
 20
-92.75
 30
0.0
 11
6.219122946961173
 21
-92.75
 31
0.0
  0
LINE
  5
258
330
15C
100
AcDbEntity
  8
hidden
100
AcDbLine
 10
7.999999999999998
 20
-90.25
 30
0.0
 11
4.0
 21
-90.25
 31
0.0
  0
LINE
  5
259
330
15C
100
AcDbEntity
  8
hidden
100
AcDbLine
 10
7.999999999999998
 20
-90.25
 30
0.0
 11
7.999999999999998
 21
-92.65294628269514
 31
0.0
  0
LINE
  5
25A
330
15C
100
AcDbEntity
  8
hidden
100
AcDbLine
 10
4.0
 20
-97.75
 30
0.0
 11
6.219122946961162
 21
-97.75
 31
0.0
  0
LINE
  5
25B
330
15C
100
AcDbEntity
  8
hidden
100
AcDbLine
 10
7.999999999999998
 20
-95.25
 30
0.0
 11
4.0
 21
-95.25
 31
0.0
  0
LINE
  5
25C
330
15C
100
AcDbEntity
  8
hidden
100
AcDbLine
 10
7.999999999999998
 20
-95.25
 30
0.0
 11
7.999999999999998
 21
-97.65294628269514
 31
0.0
  0
LINE
  5
25D
330
15C
100
AcDbEntity
  8
hidden
100
AcDbLine
 10
38.78087705303884
 20
-17.75000000000001
 30
0.0
 11
41.0
 21
-17.75000000000001
 31
0.0
  0
LINE
  5
25E
330
15C
100
AcDbEntity
  8
hidden
100
AcDbLine
 10
41.0
 20
-15.25000000000001
 30
0.0
 11
37.00000000000001
 21
-15.25000000000001
 31
0.0
  0
LINE
  5
25F
330
15C
100
AcDbEntity
  8
hidden
100
AcDbLine
 10
37.00000000000001
 20
-15.25000000000001
 30
0.0
 11
37.00000000000001
 21
-17.65294628269515
 31
0.0
  0
ARC
  5
260
330
15C
100
AcDbEntity
  8
hidden
100
AcDbCircle
 10
7.149999999999998
 20
-48.50000000000007
 30
0.0
 40
1.199999999999983
100
AcDbArc
 50
345.4731699720867
 51
194.5268300279105
  0
ARC
  5
261
330
15C
100
AcDbEntity
  8
hidden
100
AcDbCircle
 10
7.15
 20
-33.49999999999999
 30
0.0
 40
1.199999999999984
100
AcDbArc
 50
114.9513010927008
 51
65.04869890729918
  0
LINE
  5
262
330
15C
100
AcDbEntity
  8
hidden
100
AcDbLine
 10
40.99999999999999
 20
-67.00025403784436
 30
0.0
 11
40.99999999999999
 21
-10.9
 31
0.0
  0
CIRCLE
  5
263
330
15C
100
AcDbEntity
  8
hidden
100
AcDbCircle
 10
7.149999999999999
 20
-63.5
 30
0.0
 40
1.2
  0
CIRCLE
  5
264
330
15C
100
AcDbEntity
  8
hidden
100
AcDbCircle
 10
37.85
 20
-63.5
 30
0.0
 40
1.2
  0
ARC
  5
265
330
15C
100
AcDbEntity
  8
hidden
100
AcDbCircle
 10
7.15
 20
-58.50000000000001
 30
0.0
 40
1.200000000000002
100
AcDbArc
 50
165.4731699721121
 51
14.52683002788749
  0
ARC
  5
266
330
15C
100
AcDbEntity
  8
hidden
100
AcDbCircle
 10
37.85000000000001
 20
-58.50000000000001
 30
0.0
 40
1.200000000000002
100
AcDbArc
 50
165.4731699695819
 51
14.52683003074845
  0
ARC
  5
267
330
15C
100
AcDbEntity
  8
hidden
100
AcDbCircle
 10
37.85
 20
-48.49999999999938
 30
0.0
 40
1.200000000000154
100
AcDbArc
 50
345.4731699747531
 51
194.5268300255563
  0
CIRCLE
  5
268
330
15C
100
AcDbEntity
  8
hidden
100
AcDbCircle
 10
7.149999999999999
 20
-43.50000000000001
 30
0.0
 40
1.2
  0
CIRCLE
  5
269
330
15C
100
AcDbEntity
  8
hidden
100
AcDbCircle
 10
37.85
 20
-43.50000000000001
 30
0.0
 40
1.2
  0
ARC
  5
26A
330
15C
100
AcDbEntity
  8
hidden
100
AcDbCircle
 10
37.84999999999999
 20
-33.49999999999999
 30
0.0
 40
1.19999999999999
100
AcDbArc
 50
114.9513010926315
 51
65.04869890737157
  0
ARC
  5
26B
330
15C
100
AcDbEntity
  8
hidden
100
AcDbCircle
 10
7.15
 20
-28.5
 30
0.0
 40
1.199999999999994
100
AcDbArc
 50
294.9513010927006
 51
245.0486989072994
  0
ARC
  5
26C
330
15C
100
AcDbEntity
  8
hidden
100
AcDbCircle
 10
37.85
 20
-28.5
 30
0.0
 40
1.200000000000001
100
AcDbArc
 50
294.9513010922458
 51
245.048698907731
  0
CIRCLE
  5
26D
330
15C
100
AcDbEntity
  8
hidden
100
AcDbCircle
 10
7.149999999999999
 20
-13.50000000000001
 30
0.0
 40
1.2
  0
CIRCLE
  5
26E
330
15C
100
AcDbEntity
  8
hidden
100
AcDbCircle
 10
37.85
 20
-13.50000000000001
 30
0.0
 40
1.2
  0
LINE
  5
26F
330
15C
100
AcDbEntity
  8
hidden
100
AcDbLine
 10
4.0
 20
-67.00025403784436
 30
0.0
 11
4.0
 21
-10.9
 31
0.0
  0
LINE
  5
270
330
15C
100
AcDbEntity
  8
hidden
100
AcDbLine
 10
9.999999999999998
 20
-67.00025403784437
 30
0.0
 11
9.999999999999998
 21
-10.90000000000001
 31
0.0
  0
LINE
  5
271
330
15C
100
AcDbEntity
  8
hidden
100
AcDbLine
 10
34.99999999999999
 20
-67.00025403784437
 30
0.0
 11
35.0
 21
-10.90000000000001
 31
0.0
  0
CIRCLE
  5
272
330
15C
100
AcDbEntity
  8
hidden
100
AcDbCircle
 10
7.149999999999999
 20
-53.50000000000001
 30
0.0
 40
1.2
  0
CIRCLE
  5
273
330
15C
100
AcDbEntity
  8
hidden
100
AcDbCircle
 10
37.84999999999998
 20
-53.5
 30
0.0
 40
1.199999999999982
  0
CIRCLE
  5
274
330
15C
100
AcDbEntity
  8
hidden
100
AcDbCircle
 10
7.149999999999964
 20
-38.49999999999999
 30
0.0
 40
1.200000000000036
  0
CIRCLE
  5
275
330
15C
100
AcDbEntity
  8
hidden
100
AcDbCircle
 10
37.84999999999993
 20
-38.49999999999999
 30
0.0
 40
1.200000000000075
  0
CIRCLE
  5
276
330
15C
100
AcDbEntity
  8
hidden
100
AcDbCircle
 10
37.85
 20
-23.50000000000002
 30
0.0
 40
1.200000000000031
  0
CIRCLE
  5
277
330
15C
100
AcDbEntity
  8
hidden
100
AcDbCircle
 10
7.149999999999998
 20
-18.50000000000002
 30
0.0
 40
1.199999999999999
  0
CIRCLE
  5
278
330
15C
100
AcDbEntity
  8
hidden
100
AcDbCircle
 10
37.85
 20
-18.50000000000001
 30
0.0
 40
1.200000000000002
  0
LINE
  5
279
330
15C
100
AcDbEntity
  8
center
100
AcDbLine
 10
36.59
 20
-118.5
 30
0.0
 11
39.11
 21
-118.5
 31
0.0
  0
LINE
  5
27A
330
15C
100
AcDbEntity
  8
center
100
AcDbLine
 10
37.85
 20
-119.76
 30
0.0
 11
37.85
 21
-117.24
 31
0.0
  0
LINE
  5
27B
330
15C
100
AcDbEntity
  8
center
100
AcDbLine
 10
5.889999999999999
 20
-123.5
 30
0.0
 11
8.409999999999998
 21
-123.5
 31
0.0
  0
LINE
  5
27C
330
15C
100
AcDbEntity
  8
center
100
AcDbLine
 10
7.149999999999999
 20
-124.76
 30
0.0
 11
7.149999999999999
 21
-122.24
 31
0.0
  0
LINE
  5
27D
330
15C
100
AcDbEntity
  8
center
100
AcDbLine
 10
36.59
 20
-98.5
 30
0.0
 11
39.11
 21
-98.5
 31
0.0
  0
LINE
  5
27E
330
15C
100
AcDbEntity
  8
center
100
AcDbLine
 10
37.85
 20
-99.76
 30
0.0
 11
37.85
 21
-97.24
 31
0.0
  0
LINE
  5
27F
330
15C
100
AcDbEntity
  8
center
100
AcDbLine
 10
36.59
 20
-93.50000000000001
 30
0.0
 11
39.11
 21
-93.50000000000001
 31
0.0
  0
LINE
  5
280
330
15C
100
AcDbEntity
  8
center
100
AcDbLine
 10
37.85
 20
-94.76000000000002
 30
0.0
 11
37.85
 21
-92.24000000000001
 31
0.0
  0
LINE
  5
281
330
15C
100
AcDbEntity
  8
center
100
AcDbLine
 10
5.889999999999999
 20
-163.5
 30
0.0
 11
8.409999999999998
 21
-163.5
 31
0.0
  0
LINE
  5
282
330
15C
100
AcDbEntity
  8
center
100
AcDbLine
 10
7.149999999999999
 20
-164.76
 30
0.0
 11
7.149999999999999
 21
-162.24
 31
0.0
  0
LINE
  5
283
330
15C
100
AcDbEntity
  8
center
100
AcDbLine
 10
5.889999999999999
 20
-103.5
 30
0.0
 11
8.409999999999998
 21
-103.5
 31
0.0
  0
LINE
  5
284
330
15C
100
AcDbEntity
  8
center
100
AcDbLine
 10
7.149999999999999
 20
-104.76
 30
0.0
 11
7.149999999999999
 21
-102.24
 31
0.0
  0
LINE
  5
285
330
15C
100
AcDbEntity
  8
center
100
AcDbLine
 10
36.59
 20
-158.5
 30
0.0
 11
39.11
 21
-158.5
 31
0.0
  0
LINE
  5
286
330
15C
100
AcDbEntity
  8
center
100
AcDbLine
 10
37.85
 20
-159.76
 30
0.0
 11
37.85
 21
-157.24
 31
0.0
  0
LINE
  5
287
330
15C
100
AcDbEntity
  8
center
100
AcDbLine
 10
36.59
 20
-163.5
 30
0.0
 11
39.11
 21
-163.5
 31
0.0
  0
LINE
  5
288
330
15C
100
AcDbEntity
  8
center
100
AcDbLine
 10
37.85
 20
-164.76
 30
0.0
 11
37.85
 21
-162.24
 31
0.0
  0
LINE
  5
289
330
15C
100
AcDbEntity
  8
center
100
AcDbLine
 10
5.889999999999999
 20
-158.5
 30
0.0
 11
8.409999999999998
 21
-158.5
 31
0.0
  0
LINE
  5
28A
330
15C
100
AcDbEntity
  8
center
100
AcDbLine
 10
7.149999999999999
 20
-159.76
 30
0.0
 11
7.149999999999999
 21
-157.24
 31
0.0
  0
LINE
  5
28B
330
15C
100
AcDbEntity
  8
center
100
AcDbLine
 10
5.889999999999999
 20
-153.5
 30
0.0
 11
8.409999999999998
 21
-153.5
 31
0.0
  0
LINE
  5
28C
330
15C
100
AcDbEntity
  8
center
100
AcDbLine
 10
7.149999999999999
 20
-154.76
 30
0.0
 11
7.149999999999999
 21
-152.24
 31
0.0
  0
LINE
  5
28D
330
15C
100
AcDbEntity
  8
center
100
AcDbLine
 10
36.59
 20
-153.5
 30
0.0
 11
39.11
 21
-153.5
 31
0.0
  0
LINE
  5
28E
330
15C
100
AcDbEntity
  8
center
100
AcDbLine
 10
37.85
 20
-154.76
 30
0.0
 11
37.85
 21
-152.24
 31
0.0
  0
LINE
  5
28F
330
15C
100
AcDbEntity
  8
center
100
AcDbLine
 10
5.889999999999999
 20
-148.5
 30
0.0
 11
8.409999999999998
 21
-148.5
 31
0.0
  0
LINE
  5
290
330
15C
100
AcDbEntity
  8
center
100
AcDbLine
 10
7.149999999999999
 20
-149.76
 30
0.0
 11
7.149999999999999
 21
-147.24
 31
0.0
  0
LINE
  5
291
330
15C
100
AcDbEntity
  8
center
100
AcDbLine
 10
36.59
 20
-148.5
 30
0.0
 11
39.11
 21
-148.5
 31
0.0
  0
LINE
  5
292
330
15C
100
AcDbEntity
  8
center
100
AcDbLine
 10
37.85
 20
-149.76
 30
0.0
 11
37.85
 21
-147.24
 31
0.0
  0
LINE
  5
293
330
15C
100
AcDbEntity
  8
center
100
AcDbLine
 10
5.889999999999999
 20
-143.5
 30
0.0
 11
8.409999999999998
 21
-143.5
 31
0.0
  0
LINE
  5
294
330
15C
100
AcDbEntity
  8
center
100
AcDbLine
 10
7.149999999999999
 20
-144.76
 30
0.0
 11
7.149999999999999
 21
-142.24
 31
0.0
  0
LINE
  5
295
330
15C
100
AcDbEntity
  8
center
100
AcDbLine
 10
36.59
 20
-143.5
 30
0.0
 11
39.11
 21
-143.5
 31
0.0
  0
LINE
  5
296
330
15C
100
AcDbEntity
  8
center
100
AcDbLine
 10
37.85
 20
-144.76
 30
0.0
 11
37.85
 21
-142.24
 31
0.0
  0
LINE
  5
297
330
15C
100
AcDbEntity
  8
center
100
AcDbLine
 10
5.889999999999999
 20
-138.5
 30
0.0
 11
8.409999999999998
 21
-138.5
 31
0.0
  0
LINE
  5
298
330
15C
100
AcDbEntity
  8
center
100
AcDbLine
 10
7.149999999999999
 20
-139.76
 30
0.0
 11
7.149999999999999
 21
-137.24
 31
0.0
  0
LINE
  5
299
330
15C
100
AcDbEntity
  8
center
100
AcDbLine
 10
36.59
 20
-138.5
 30
0.0
 11
39.11
 21
-138.5
 31
0.0
  0
LINE
  5
29A
330
15C
100
AcDbEntity
  8
center
100
AcDbLine
 10
37.85
 20
-139.76
 30
0.0
 11
37.85
 21
-137.24
 31
0.0
  0
LINE
  5
29B
330
15C
100
AcDbEntity
  8
center
100
AcDbLine
 10
5.889999999999999
 20
-133.5
 30
0.0
 11
8.409999999999998
 21
-133.5
 31
0.0
  0
LINE
  5
29C
330
15C
100
AcDbEntity
  8
center
100
AcDbLine
 10
7.149999999999999
 20
-134.76
 30
0.0
 11
7.149999999999999
 21
-132.24
 31
0.0
  0
LINE
  5
29D
330
15C
100
AcDbEntity
  8
center
100
AcDbLine
 10
36.59
 20
-133.5
 30
0.0
 11
39.11
 21
-133.5
 31
0.0
  0
LINE
  5
29E
330
15C
100
AcDbEntity
  8
center
100
AcDbLine
 10
37.85
 20
-134.76
 30
0.0
 11
37.85
 21
-132.24
 31
0.0
  0
LINE
  5
29F
330
15C
100
AcDbEntity
  8
center
100
AcDbLine
 10
5.889999999999999
 20
-128.5
 30
0.0
 11
8.409999999999998
 21
-128.5
 31
0.0
  0
LINE
  5
2A0
330
15C
100
AcDbEntity
  8
center
100
AcDbLine
 10
7.149999999999999
 20
-129.76
 30
0.0
 11
7.149999999999999
 21
-127.24
 31
0.0
  0
LINE
  5
2A1
330
15C
100
AcDbEntity
  8
center
100
AcDbLine
 10
36.59
 20
-128.5
 30
0.0
 11
39.11
 21
-128.5
 31
0.0
  0
LINE
  5
2A2
330
15C
100
AcDbEntity
  8
center
100
AcDbLine
 10
37.85
 20
-129.76
 30
0.0
 11
37.85
 21
-127.24
 31
0.0
  0
LINE
  5
2A3
330
15C
100
AcDbEntity
  8
center
100
AcDbLine
 10
36.59
 20
-123.5
 30
0.0
 11
39.11
 21
-123.5
 31
0.0
  0
LINE
  5
2A4
330
15C
100
AcDbEntity
  8
center
100
AcDbLine
 10
37.85
 20
-124.76
 30
0.0
 11
37.85
 21
-122.24
 31
0.0
  0
LINE
  5
2A5
330
15C
100
AcDbEntity
  8
center
100
AcDbLine
 10
5.889999999999999
 20
-118.5
 30
0.0
 11
8.409999999999998
 21
-118.5
 31
0.0
  0
LINE
  5
2A6
330
15C
100
AcDbEntity
  8
center
100
AcDbLine
 10
7.149999999999999
 20
-119.76
 30
0.0
 11
7.149999999999999
 21
-117.24
 31
0.0
  0
LINE
  5
2A7
330
15C
100
AcDbEntity
  8
center
100
AcDbLine
 10
5.889999999999999
 20
-113.5
 30
0.0
 11
8.409999999999998
 21
-113.5
 31
0.0
  0
LINE
  5
2A8
330
15C
100
AcDbEntity
  8
center
100
AcDbLine
 10
7.149999999999999
 20
-114.76
 30
0.0
 11
7.149999999999999
 21
-112.24
 31
0.0
  0
LINE
  5
2A9
330
15C
100
AcDbEntity
  8
center
100
AcDbLine
 10
36.59
 20
-113.5
 30
0.0
 11
39.11
 21
-113.5
 31
0.0
  0
LINE
  5
2AA
330
15C
100
AcDbEntity
  8
center
100
AcDbLine
 10
37.85
 20
-114.76
 30
0.0
 11
37.85
 21
-112.24
 31
0.0
  0
LINE
  5
2AB
330
15C
100
AcDbEntity
  8
center
100
AcDbLine
 10
5.889999999999999
 20
-108.5
 30
0.0
 11
8.409999999999998
 21
-108.5
 31
0.0
  0
LINE
  5
2AC
330
15C
100
AcDbEntity
  8
center
100
AcDbLine
 10
7.149999999999999
 20
-109.76
 30
0.0
 11
7.149999999999999
 21
-107.24
 31
0.0
  0
LINE
  5
2AD
330
15C
100
AcDbEntity
  8
center
100
AcDbLine
 10
36.59
 20
-108.5
 30
0.0
 11
39.11
 21
-108.5
 31
0.0
  0
LINE
  5
2AE
330
15C
100
AcDbEntity
  8
center
100
AcDbLine
 10
37.85
 20
-109.76
 30
0.0
 11
37.85
 21
-107.24
 31
0.0
  0
LINE
  5
2AF
330
15C
100
AcDbEntity
  8
center
100
AcDbLine
 10
36.59
 20
-103.5
 30
0.0
 11
39.11
 21
-103.5
 31
0.0
  0
LINE
  5
2B0
330
15C
100
AcDbEntity
  8
center
100
AcDbLine
 10
37.85
 20
-104.76
 30
0.0
 11
37.85
 21
-102.24
 31
0.0
  0
LINE
  5
2B1
330
15C
100
AcDbEntity
  8
center
100
AcDbLine
 10
5.889999999999999
 20
-98.5
 30
0.0
 11
8.409999999999998
 21
-98.5
 31
0.0
  0
LINE
  5
2B2
330
15C
100
AcDbEntity
  8
center
100
AcDbLine
 10
7.149999999999999
 20
-99.76
 30
0.0
 11
7.149999999999999
 21
-97.24
 31
0.0
  0
LINE
  5
2B3
330
15C
100
AcDbEntity
  8
center
100
AcDbLine
 10
5.889999999999999
 20
-93.50000000000001
 30
0.0
 11
8.409999999999998
 21
-93.50000000000001
 31
0.0
  0
LINE
  5
2B4
330
15C
100
AcDbEntity
  8
center
100
AcDbLine
 10
7.149999999999999
 20
-94.76000000000002
 30
0.0
 11
7.149999999999999
 21
-92.24000000000001
 31
0.0
  0
LINE
  5
2B5
330
15C
100
AcDbEntity
  8
center
100
AcDbLine
 10
5.889999999999999
 20
-88.50000000000001
 30
0.0
 11
8.409999999999998
 21
-88.50000000000001
 31
0.0
  0
LINE
  5
2B6
330
15C
100
AcDbEntity
  8
center
100
AcDbLine
 10
7.149999999999999
 20
-89.76000000000002
 30
0.0
 11
7.149999999999999
 21
-87.24000000000001
 31
0.0
  0
LINE
  5
2B7
330
15C
100
AcDbEntity
  8
center
100
AcDbLine
 10
36.59
 20
-88.50000000000001
 30
0.0
 11
39.11
 21
-88.50000000000001
 31
0.0
  0
LINE
  5
2B8
330
15C
100
AcDbEntity
  8
center
100
AcDbLine
 10
37.85
 20
-89.76000000000002
 30
0.0
 11
37.85
 21
-87.24000000000001
 31
0.0
  0
LINE
  5
2B9
330
15C
100
AcDbEntity
  8
center
100
AcDbLine
 10
5.889999999999999
 20
-83.5
 30
0.0
 11
8.409999999999998
 21
-83.5
 31
0.0
  0
LINE
  5
2BA
330
15C
100
AcDbEntity
  8
center
100
AcDbLine
 10
7.149999999999999
 20
-84.76
 30
0.0
 11
7.149999999999999
 21
-82.24
 31
0.0
  0
LINE
  5
2BB
330
15C
100
AcDbEntity
  8
center
100
AcDbLine
 10
36.59
 20
-83.5
 30
0.0
 11
39.11
 21
-83.5
 31
0.0
  0
LINE
  5
2BC
330
15C
100
AcDbEntity
  8
center
100
AcDbLine
 10
37.85
 20
-84.76
 30
0.0
 11
37.85
 21
-82.24
 31
0.0
  0
LINE
  5
2BD
330
15C
100
AcDbEntity
  8
center
100
AcDbLine
 10
5.889999999999999
 20
-78.5
 30
0.0
 11
8.409999999999998
 21
-78.5
 31
0.0
  0
LINE
  5
2BE
330
15C
100
AcDbEntity
  8
center
100
AcDbLine
 10
7.149999999999999
 20
-79.76
 30
0.0
 11
7.149999999999999
 21
-77.24
 31
0.0
  0
LINE
  5
2BF
330
15C
100
AcDbEntity
  8
center
100
AcDbLine
 10
36.59
 20
-78.5
 30
0.0
 11
39.11
 21
-78.5
 31
0.0
  0
LINE
  5
2C0
330
15C
100
AcDbEntity
  8
center
100
AcDbLine
 10
37.85
 20
-79.76
 30
0.0
 11
37.85
 21
-77.24
 31
0.0
  0
LINE
  5
2C1
330
15C
100
AcDbEntity
  8
center
100
AcDbLine
 10
5.889999999999999
 20
-73.50000000000001
 30
0.0
 11
8.409999999999998
 21
-73.50000000000001
 31
0.0
  0
LINE
  5
2C2
330
15C
100
AcDbEntity
  8
center
100
AcDbLine
 10
7.149999999999999
 20
-74.76000000000002
 30
0.0
 11
7.149999999999999
 21
-72.24000000000001
 31
0.0
  0
LINE
  5
2C3
330
15C
100
AcDbEntity
  8
center
100
AcDbLine
 10
36.59
 20
-73.50000000000001
 30
0.0
 11
39.11
 21
-73.50000000000001
 31
0.0
  0
LINE
  5
2C4
330
15C
100
AcDbEntity
  8
center
100
AcDbLine
 10
37.85
 20
-74.76000000000002
 30
0.0
 11
37.85
 21
-72.24000000000001
 31
0.0
  0
LINE
  5
2C5
330
15C
100
AcDbEntity
  8
center
100
AcDbLine
 10
5.889999999999999
 20
-68.5
 30
0.0
 11
8.409999999999998
 21
-68.5
 31
0.0
  0
LINE
  5
2C6
330
15C
100
AcDbEntity
  8
center
100
AcDbLine
 10
7.149999999999999
 20
-69.76
 30
0.0
 11
7.149999999999999
 21
-67.24
 31
0.0
  0
LINE
  5
2C7
330
15C
100
AcDbEntity
  8
center
100
AcDbLine
 10
36.59
 20
-68.5
 30
0.0
 11
39.11
 21
-68.5
 31
0.0
  0
LINE
  5
2C8
330
15C
100
AcDbEntity
  8
center
100
AcDbLine
 10
37.85
 20
-69.76
 30
0.0
 11
37.85
 21
-67.24
 31
0.0
  0
LINE
  5
2C9
330
15C
100
AcDbEntity
  8
center
100
AcDbLine
 10
5.889999999999999
 20
-63.5
 30
0.0
 11
8.409999999999998
 21
-63.5
 31
0.0
  0
LINE
  5
2CA
330
15C
100
AcDbEntity
  8
center
100
AcDbLine
 10
7.149999999999999
 20
-64.76
 30
0.0
 11
7.149999999999999
 21
-62.24
 31
0.0
  0
LINE
  5
2CB
330
15C
100
AcDbEntity
  8
center
100
AcDbLine
 10
36.59
 20
-63.5
 30
0.0
 11
39.11
 21
-63.5
 31
0.0
  0
LINE
  5
2CC
330
15C
100
AcDbEntity
  8
center
100
AcDbLine
 10
37.85
 20
-64.76
 30
0.0
 11
37.85
 21
-62.24
 31
0.0
  0
LINE
  5
2CD
330
15C
100
AcDbEntity
  8
center
100
AcDbLine
 10
5.889999999999999
 20
-43.50000000000001
 30
0.0
 11
8.409999999999998
 21
-43.50000000000001
 31
0.0
  0
LINE
  5
2CE
330
15C
100
AcDbEntity
  8
center
100
AcDbLine
 10
7.149999999999999
 20
-44.76000000000001
 30
0.0
 11
7.149999999999999
 21
-42.24000000000002
 31
0.0
  0
LINE
  5
2CF
330
15C
100
AcDbEntity
  8
center
100
AcDbLine
 10
36.59
 20
-43.50000000000001
 30
0.0
 11
39.11
 21
-43.50000000000001
 31
0.0
  0
LINE
  5
2D0
330
15C
100
AcDbEntity
  8
center
100
AcDbLine
 10
37.85
 20
-44.76000000000001
 30
0.0
 11
37.85
 21
-42.24000000000002
 31
0.0
  0
LINE
  5
2D1
330
15C
100
AcDbEntity
  8
center
100
AcDbLine
 10
5.889999999999999
 20
-13.50000000000001
 30
0.0
 11
8.409999999999998
 21
-13.50000000000001
 31
0.0
  0
LINE
  5
2D2
330
15C
100
AcDbEntity
  8
center
100
AcDbLine
 10
7.149999999999999
 20
-14.76000000000001
 30
0.0
 11
7.149999999999999
 21
-12.24000000000001
 31
0.0
  0
LINE
  5
2D3
330
15C
100
AcDbEntity
  8
center
100
AcDbLine
 10
36.59
 20
-13.50000000000001
 30
0.0
 11
39.11
 21
-13.50000000000001
 31
0.0
  0
LINE
  5
2D4
330
15C
100
AcDbEntity
  8
center
100
AcDbLine
 10
37.85
 20
-14.76000000000001
 30
0.0
 11
37.85
 21
-12.24000000000001
 31
0.0
  0
LINE
  5
2D5
330
15C
100
AcDbEntity
  8
center
100
AcDbLine
 10
5.889999999999999
 20
-8.500000000000007
 30
0.0
 11
8.409999999999998
 21
-8.500000000000007
 31
0.0
  0
LINE
  5
2D6
330
15C
100
AcDbEntity
  8
center
100
AcDbLine
 10
7.149999999999999
 20
-9.760000000000007
 30
0.0
 11
7.149999999999999
 21
-7.240000000000007
 31
0.0
  0
LINE
  5
2D7
330
15C
100
AcDbEntity
  8
center
100
AcDbLine
 10
36.59
 20
-8.500000000000007
 30
0.0
 11
39.11
 21
-8.500000000000007
 31
0.0
  0
LINE
  5
2D8
330
15C
100
AcDbEntity
  8
center
100
AcDbLine
 10
37.85
 20
-9.760000000000007
 30
0.0
 11
37.85
 21
-7.240000000000007
 31
0.0
  0
LINE
  5
2D9
330
15C
100
AcDbEntity
  8
center
100
AcDbLine
 10
5.889999999999999
 20
-3.500000000000003
 30
0.0
 11
8.409999999999998
 21
-3.500000000000003
 31
0.0
  0
LINE
  5
2DA
330
15C
100
AcDbEntity
  8
center
100
AcDbLine
 10
7.149999999999999
 20
-4.760000000000003
 30
0.0
 11
7.149999999999999
 21
-2.240000000000003
 31
0.0
  0
LINE
  5
2DB
330
15C
100
AcDbEntity
  8
center
100
AcDbLine
 10
36.59
 20
-3.500000000000003
 30
0.0
 11
39.11
 21
-3.500000000000003
 31
0.0
  0
LINE
  5
2DC
330
15C
100
AcDbEntity
  8
center
100
AcDbLine
 10
37.85
 20
-4.760000000000003
 30
0.0
 11
37.85
 21
-2.240000000000003
 31
0.0
  0
LINE
  5
2DD
330
15C
100
AcDbEntity
  8
center
100
AcDbLine
 10
3.8
 20
-161.5
 30
0.0
 11
8.199999999999998
 21
-161.5
 31
0.0
  0
LINE
  5
2DE
330
15C
100
AcDbEntity
  8
center
100
AcDbLine
 10
36.8
 20
-161.5
 30
0.0
 11
41.2
 21
-161.5
 31
0.0
  0
LINE
  5
2DF
330
15C
100
AcDbEntity
  8
center
100
AcDbLine
 10
3.8
 20
-156.5
 30
0.0
 11
8.199999999999998
 21
-156.5
 31
0.0
  0
LINE
  5
2E0
330
15C
100
AcDbEntity
  8
center
100
AcDbLine
 10
36.8
 20
-156.5
 30
0.0
 11
41.2
 21
-156.5
 31
0.0
  0
LINE
  5
2E1
330
15C
100
AcDbEntity
  8
center
100
AcDbLine
 10
3.8
 20
-151.5
 30
0.0
 11
8.199999999999998
 21
-151.5
 31
0.0
  0
LINE
  5
2E2
330
15C
100
AcDbEntity
  8
center
100
AcDbLine
 10
36.8
 20
-151.5
 30
0.0
 11
41.2
 21
-151.5
 31
0.0
  0
LINE
  5
2E3
330
15C
100
AcDbEntity
  8
center
100
AcDbLine
 10
3.8
 20
-146.5
 30
0.0
 11
8.199999999999998
 21
-146.5
 31
0.0
  0
LINE
  5
2E4
330
15C
100
AcDbEntity
  8
center
100
AcDbLine
 10
36.8
 20
-146.5
 30
0.0
 11
41.2
 21
-146.5
 31
0.0
  0
LINE
  5
2E5
330
15C
100
AcDbEntity
  8
center
100
AcDbLine
 10
3.8
 20
-141.5
 30
0.0
 11
8.199999999999998
 21
-141.5
 31
0.0
  0
LINE
  5
2E6
330
15C
100
AcDbEntity
  8
center
100
AcDbLine
 10
36.8
 20
-141.5
 30
0.0
 11
41.2
 21
-141.5
 31
0.0
  0
LINE
  5
2E7
330
15C
100
AcDbEntity
  8
center
100
AcDbLine
 10
3.8
 20
-136.5
 30
0.0
 11
8.199999999999998
 21
-136.5
 31
0.0
  0
LINE
  5
2E8
330
15C
100
AcDbEntity
  8
center
100
AcDbLine
 10
36.8
 20
-136.5
 30
0.0
 11
41.2
 21
-136.5
 31
0.0
  0
LINE
  5
2E9
330
15C
100
AcDbEntity
  8
center
100
AcDbLine
 10
3.8
 20
-131.5
 30
0.0
 11
8.199999999999998
 21
-131.5
 31
0.0
  0
LINE
  5
2EA
330
15C
100
AcDbEntity
  8
center
100
AcDbLine
 10
36.8
 20
-131.5
 30
0.0
 11
41.2
 21
-131.5
 31
0.0
  0
LINE
  5
2EB
330
15C
100
AcDbEntity
  8
center
100
AcDbLine
 10
3.8
 20
-126.5
 30
0.0
 11
8.199999999999998
 21
-126.5
 31
0.0
  0
LINE
  5
2EC
330
15C
100
AcDbEntity
  8
center
100
AcDbLine
 10
36.8
 20
-126.5
 30
0.0
 11
41.2
 21
-126.5
 31
0.0
  0
LINE
  5
2ED
330
15C
100
AcDbEntity
  8
center
100
AcDbLine
 10
3.8
 20
-121.5
 30
0.0
 11
8.199999999999998
 21
-121.5
 31
0.0
  0
LINE
  5
2EE
330
15C
100
AcDbEntity
  8
center
100
AcDbLine
 10
36.8
 20
-121.5
 30
0.0
 11
41.2
 21
-121.5
 31
0.0
  0
LINE
  5
2EF
330
15C
100
AcDbEntity
  8
center
100
AcDbLine
 10
3.8
 20
-116.5
 30
0.0
 11
8.199999999999998
 21
-116.5
 31
0.0
  0
LINE
  5
2F0
330
15C
100
AcDbEntity
  8
center
100
AcDbLine
 10
36.8
 20
-116.5
 30
0.0
 11
41.2
 21
-116.5
 31
0.0
  0
LINE
  5
2F1
330
15C
100
AcDbEntity
  8
center
100
AcDbLine
 10
3.8
 20
-111.5
 30
0.0
 11
8.199999999999998
 21
-111.5
 31
0.0
  0
LINE
  5
2F2
330
15C
100
AcDbEntity
  8
center
100
AcDbLine
 10
36.8
 20
-111.5
 30
0.0
 11
41.2
 21
-111.5
 31
0.0
  0
LINE
  5
2F3
330
15C
100
AcDbEntity
  8
center
100
AcDbLine
 10
3.8
 20
-106.5
 30
0.0
 11
8.199999999999998
 21
-106.5
 31
0.0
  0
LINE
  5
2F4
330
15C
100
AcDbEntity
  8
center
100
AcDbLine
 10
36.8
 20
-106.5
 30
0.0
 11
41.2
 21
-106.5
 31
0.0
  0
LINE
  5
2F5
330
15C
100
AcDbEntity
  8
center
100
AcDbLine
 10
3.8
 20
-101.5
 30
0.0
 11
8.199999999999998
 21
-101.5
 31
0.0
  0
LINE
  5
2F6
330
15C
100
AcDbEntity
  8
center
100
AcDbLine
 10
36.8
 20
-101.5
 30
0.0
 11
41.2
 21
-101.5
 31
0.0
  0
LINE
  5
2F7
330
15C
100
AcDbEntity
  8
center
100
AcDbLine
 10
3.8
 20
-96.5
 30
0.0
 11
8.199999999999998
 21
-96.5
 31
0.0
  0
LINE
  5
2F8
330
15C
100
AcDbEntity
  8
center
100
AcDbLine
 10
36.8
 20
-96.5
 30
0.0
 11
41.2
 21
-96.5
 31
0.0
  0
LINE
  5
2F9
330
15C
100
AcDbEntity
  8
center
100
AcDbLine
 10
3.8
 20
-91.5
 30
0.0
 11
8.199999999999998
 21
-91.5
 31
0.0
  0
LINE
  5
2FA
330
15C
100
AcDbEntity
  8
center
100
AcDbLine
 10
36.8
 20
-91.5
 30
0.0
 11
41.2
 21
-91.5
 31
0.0
  0
LINE
  5
2FB
330
15C
100
AcDbEntity
  8
center
100
AcDbLine
 10
3.8
 20
-86.50000000000001
 30
0.0
 11
8.199999999999998
 21
-86.50000000000001
 31
0.0
  0
LINE
  5
2FC
330
15C
100
AcDbEntity
  8
center
100
AcDbLine
 10
36.8
 20
-86.50000000000001
 30
0.0
 11
41.2
 21
-86.50000000000001
 31
0.0
  0
LINE
  5
2FD
330
15C
100
AcDbEntity
  8
center
100
AcDbLine
 10
3.8
 20
-81.5
 30
0.0
 11
8.199999999999998
 21
-81.5
 31
0.0
  0
LINE
  5
2FE
330
15C
100
AcDbEntity
  8
center
100
AcDbLine
 10
36.8
 20
-81.5
 30
0.0
 11
41.2
 21
-81.5
 31
0.0
  0
LINE
  5
2FF
330
15C
100
AcDbEntity
  8
center
100
AcDbLine
 10
3.8
 20
-76.5
 30
0.0
 11
8.199999999999998
 21
-76.5
 31
0.0
  0
LINE
  5
300
330
15C
100
AcDbEntity
  8
center
100
AcDbLine
 10
36.8
 20
-76.5
 30
0.0
 11
41.2
 21
-76.5
 31
0.0
  0
LINE
  5
301
330
15C
100
AcDbEntity
  8
center
100
AcDbLine
 10
3.8
 20
-71.50000000000001
 30
0.0
 11
8.199999999999998
 21
-71.50000000000001
 31
0.0
  0
LINE
  5
302
330
15C
100
AcDbEntity
  8
center
100
AcDbLine
 10
36.8
 20
-71.50000000000001
 30
0.0
 11
41.2
 21
-71.50000000000001
 31
0.0
  0
LINE
  5
303
330
15C
100
AcDbEntity
  8
center
100
AcDbLine
 10
3.8
 20
-66.5
 30
0.0
 11
8.199999999999998
 21
-66.5
 31
0.0
  0
LINE
  5
304
330
15C
100
AcDbEntity
  8
center
100
AcDbLine
 10
36.8
 20
-66.5
 30
0.0
 11
41.2
 21
-66.5
 31
0.0
  0
LINE
  5
305
330
15C
100
AcDbEntity
  8
center
100
AcDbLine
 10
3.8
 20
-61.5
 30
0.0
 11
8.199999999999998
 21
-61.5
 31
0.0
  0
LINE
  5
306
330
15C
100
AcDbEntity
  8
center
100
AcDbLine
 10
36.8
 20
-61.5
 30
0.0
 11
41.2
 21
-61.5
 31
0.0
  0
LINE
  5
307
330
15C
100
AcDbEntity
  8
center
100
AcDbLine
 10
3.8
 20
-56.50000000000001
 30
0.0
 11
8.199999999999998
 21
-56.50000000000001
 31
0.0
  0
LINE
  5
308
330
15C
100
AcDbEntity
  8
center
100
AcDbLine
 10
36.8
 20
-56.50000000000001
 30
0.0
 11
41.2
 21
-56.50000000000001
 31
0.0
  0
LINE
  5
309
330
15C
100
AcDbEntity
  8
center
100
AcDbLine
 10
3.8
 20
-51.50000000000001
 30
0.0
 11
8.199999999999998
 21
-51.50000000000001
 31
0.0
  0
LINE
  5
30A
330
15C
100
AcDbEntity
  8
center
100
AcDbLine
 10
36.8
 20
-51.50000000000001
 30
0.0
 11
41.2
 21
-51.50000000000001
 31
0.0
  0
LINE
  5
30B
330
15C
100
AcDbEntity
  8
center
100
AcDbLine
 10
3.8
 20
-46.5
 30
0.0
 11
8.199999999999998
 21
-46.5
 31
0.0
  0
LINE
  5
30C
330
15C
100
AcDbEntity
  8
center
100
AcDbLine
 10
36.8
 20
-46.5
 30
0.0
 11
41.2
 21
-46.5
 31
0.0
  0
LINE
  5
30D
330
15C
100
AcDbEntity
  8
center
100
AcDbLine
 10
3.8
 20
-41.50000000000001
 30
0.0
 11
8.199999999999998
 21
-41.50000000000001
 31
0.0
  0
LINE
  5
30E
330
15C
100
AcDbEntity
  8
center
100
AcDbLine
 10
36.8
 20
-41.50000000000001
 30
0.0
 11
41.2
 21
-41.50000000000001
 31
0.0
  0
LINE
  5
30F
330
15C
100
AcDbEntity
  8
center
100
AcDbLine
 10
3.8
 20
-36.50000000000001
 30
0.0
 11
8.199999999999998
 21
-36.50000000000001
 31
0.0
  0
LINE
  5
310
330
15C
100
AcDbEntity
  8
center
100
AcDbLine
 10
36.8
 20
-36.50000000000001
 30
0.0
 11
41.2
 21
-36.50000000000001
 31
0.0
  0
LINE
  5
311
330
15C
100
AcDbEntity
  8
center
100
AcDbLine
 10
3.8
 20
-31.5
 30
0.0
 11
8.199999999999998
 21
-31.5
 31
0.0
  0
LINE
  5
312
330
15C
100
AcDbEntity
  8
center
100
AcDbLine
 10
36.8
 20
-31.5
 30
0.0
 11
41.2
 21
-31.5
 31
0.0
  0
LINE
  5
313
330
15C
100
AcDbEntity
  8
center
100
AcDbLine
 10
3.8
 20
-26.5
 30
0.0
 11
8.199999999999998
 21
-26.5
 31
0.0
  0
LINE
  5
314
330
15C
100
AcDbEntity
  8
center
100
AcDbLine
 10
36.8
 20
-26.5
 30
0.0
 11
41.2
 21
-26.5
 31
0.0
  0
LINE
  5
315
330
15C
100
AcDbEntity
  8
center
100
AcDbLine
 10
3.8
 20
-21.49999999999999
 30
0.0
 11
8.199999999999998
 21
-21.49999999999999
 31
0.0
  0
LINE
  5
316
330
15C
100
AcDbEntity
  8
center
100
AcDbLine
 10
36.8
 20
-21.49999999999999
 30
0.0
 11
41.2
 21
-21.49999999999999
 31
0.0
  0
LINE
  5
317
330
15C
100
AcDbEntity
  8
center
100
AcDbLine
 10
3.8
 20
-16.50000000000001
 30
0.0
 11
8.199999999999998
 21
-16.50000000000001
 31
0.0
  0
LINE
  5
318
330
15C
100
AcDbEntity
  8
center
100
AcDbLine
 10
36.8
 20
-16.50000000000001
 30
0.0
 11
41.2
 21
-16.50000000000001
 31
0.0
  0
LINE
  5
319
330
15C
100
AcDbEntity
  8
center
100
AcDbLine
 10
3.8
 20
-11.50000000000001
 30
0.0
 11
8.199999999999998
 21
-11.50000000000001
 31
0.0
  0
LINE
  5
31A
330
15C
100
AcDbEntity
  8
center
100
AcDbLine
 10
36.8
 20
-11.50000000000001
 30
0.0
 11
41.2
 21
-11.50000000000001
 31
0.0
  0
LINE
  5
31B
330
15C
100
AcDbEntity
  8
center
100
AcDbLine
 10
3.8
 20
-6.500000000000005
 30
0.0
 11
8.199999999999998
 21
-6.500000000000005
 31
0.0
  0
LINE
  5
31C
330
15C
100
AcDbEntity
  8
center
100
AcDbLine
 10
36.8
 20
-6.500000000000005
 30
0.0
 11
41.2
 21
-6.500000000000005
 31
0.0
  0
LINE
  5
31D
330
15C
100
AcDbEntity
  8
center
100
AcDbLine
 10
36.59
 20
-28.5
 30
0.0
 11
39.11
 21
-28.5
 31
0.0
  0
LINE
  5
31E
330
15C
100
AcDbEntity
  8
center
100
AcDbLine
 10
37.8500000000004
 20
-34.75999999999964
 30
0.0
 11
37.85
 21
-27.23999999999999
 31
0.0
  0
LINE
  5
31F
330
15C
100
AcDbEntity
  8
center
100
AcDbLine
 10
36.58999999999985
 20
-38.49999999999999
 30
0.0
 11
39.11000000000001
 21
-38.49999999999999
 31
0.0
  0
LINE
  5
320
330
15C
100
AcDbEntity
  8
center
100
AcDbLine
 10
37.84999999999993
 20
-39.76000000000007
 30
0.0
 11
37.84999999999993
 21
-37.23999999999992
 31
0.0
  0
LINE
  5
321
330
15C
100
AcDbEntity
  8
center
100
AcDbLine
 10
36.58999999999995
 20
-53.49999999999999
 30
0.0
 11
39.11000000000001
 21
-53.49999999999999
 31
0.0
  0
LINE
  5
322
330
15C
100
AcDbEntity
  8
center
100
AcDbLine
 10
5.890000000000013
 20
-28.5
 30
0.0
 11
8.409999999999998
 21
-28.5
 31
0.0
  0
LINE
  5
323
330
15C
100
AcDbEntity
  8
center
100
AcDbLine
 10
7.149999999999785
 20
-34.76000000000021
 30
0.0
 11
7.150000000000006
 21
-27.24000000000001
 31
0.0
  0
LINE
  5
324
330
15C
100
AcDbEntity
  8
center
100
AcDbLine
 10
5.890000000000156
 20
-48.50000000000001
 30
0.0
 11
8.409999999999993
 21
-48.50000000000001
 31
0.0
  0
LINE
  5
325
330
15C
100
AcDbEntity
  8
center
100
AcDbLine
 10
5.890000000000004
 20
-58.50000000000001
 30
0.0
 11
8.41
 21
-58.50000000000001
 31
0.0
  0
LINE
  5
326
330
15C
100
AcDbEntity
  8
center
100
AcDbLine
 10
36.58999999999865
 20
-48.49999999999989
 30
0.0
 11
39.11000000000003
 21
-48.49999999999989
 31
0.0
  0
LINE
  5
327
330
15C
100
AcDbEntity
  8
center
100
AcDbLine
 10
36.59
 20
-58.50000000000001
 30
0.0
 11
39.11000000000001
 21
-58.50000000000001
 31
0.0
  0
LINE
  5
328
330
15C
100
AcDbEntity
  8
center
100
AcDbLine
 10
5.889999999999926
 20
-38.49999999999999
 30
0.0
 11
8.410000000000002
 21
-38.49999999999999
 31
0.0
  0
LINE
  5
329
330
15C
100
AcDbEntity
  8
center
100
AcDbLine
 10
7.149999999999964
 20
-39.76000000000003
 30
0.0
 11
7.149999999999964
 21
-37.23999999999995
 31
0.0
  0
LINE
  5
32A
330
15C
100
AcDbEntity
  8
center
100
AcDbLine
 10
5.889999999999999
 20
-18.50000000000002
 30
0.0
 11
8.409999999999997
 21
-18.50000000000002
 31
0.0
  0
LINE
  5
32B
330
15C
100
AcDbEntity
  8
center
100
AcDbLine
 10
7.149999999999998
 20
-19.76000000000002
 30
0.0
 11
7.149999999999998
 21
-17.24000000000002
 31
0.0
  0
LINE
  5
32C
330
15C
100
AcDbEntity
  8
center
100
AcDbLine
 10
5.889999999999563
 20
-33.49999999999999
 30
0.0
 11
8.410000000000007
 21
-33.49999999999999
 31
0.0
  0
LINE
  5
32D
330
15C
100
AcDbEntity
  8
center
100
AcDbLine
 10
36.59
 20
-18.50000000000001
 30
0.0
 11
39.11000000000001
 21
-18.50000000000001
 31
0.0
  0
LINE
  5
32E
330
15C
100
AcDbEntity
  8
center
100
AcDbLine
 10
37.85
 20
-19.76000000000002
 30
0.0
 11
37.85
 21
-17.24000000000001
 31
0.0
  0
LINE
  5
32F
330
15C
100
AcDbEntity
  8
center
100
AcDbLine
 10
5.88999999999997
 20
-53.5
 30
0.0
 11
8.41
 21
-53.5
 31
0.0
  0
LINE
  5
330
330
15C
100
AcDbEntity
  8
center
100
AcDbLine
 10
36.59000000000081
 20
-33.50000000000005
 30
0.0
 11
39.10999999999999
 21
-33.50000000000005
 31
0.0
  0
LINE
  5
331
330
15C
100
AcDbEntity
  8
bold
100
AcDbLine
 10
0.0
 20
-166.0
 30
0.0
 11
45.0
 21
-166.0
 31
0.0
  0
LINE
  5
332
330
15C
100
AcDbEntity
  8
bold
100
AcDbLine
 10
45.0
 20
-166.0
 30
0.0
 11
45.0
 21
-67.00025403784439
 31
0.0
  0
LINE
  5
333
330
15C
100
AcDbEntity
  8
bold
100
AcDbLine
 10
0.0
 20
-166.0
 30
0.0
 11
0.0
 21
-67.00025403784439
 31
0.0
  0
LINE
  5
334
330
15C
100
AcDbEntity
  8
bold
100
AcDbLine
 10
9.999999999999998
 20
-1.000000000000001
 30
0.0
 11
35.0
 21
-1.000000000000001
 31
0.0
  0
LINE
  5
335
330
15C
100
AcDbEntity
  8
bold
100
AcDbLine
 10
40.99999999999999
 20
-9.000000000000007
 30
0.0
 11
45.0
 21
-9.000000000000007
 31
0.0
  0
LINE
  5
336
330
15C
100
AcDbEntity
  8
bold
100
AcDbLine
 10
0.0
 20
-9.000000000000007
 30
0.0
 11
4.0
 21
-9.000000000000007
 31
0.0
  0
ARC
  5
337
330
15C
100
AcDbEntity
  8
bold
100
AcDbCircle
 10
7.149999999999999
 20
-48.5
 30
0.0
 40
1.200000000000002
100
AcDbArc
 50
194.5268300279137
 51
345.4731699720834
  0
CIRCLE
  5
338
330
15C
100
AcDbEntity
  8
bold
100
AcDbCircle
 10
37.85
 20
-118.5
 30
0.0
 40
1.2
  0
CIRCLE
  5
339
330
15C
100
AcDbEntity
  8
bold
100
AcDbCircle
 10
7.149999999999999
 20
-123.5
 30
0.0
 40
1.2
  0
CIRCLE
  5
33A
330
15C
100
AcDbEntity
  8
bold
100
AcDbCircle
 10
37.85
 20
-98.5
 30
0.0
 40
1.2
  0
ARC
  5
33B
330
15C
100
AcDbEntity
  8
bold
100
AcDbCircle
 10
7.15
 20
-33.50000000000001
 30
0.0
 40
1.200000000000003
100
AcDbArc
 50
65.04869890729961
 51
114.9513010927004
  0
CIRCLE
  5
33C
330
15C
100
AcDbEntity
  8
bold
100
AcDbCircle
 10
37.85
 20
-93.50000000000001
 30
0.0
 40
1.2
  0
CIRCLE
  5
33D
330
15C
100
AcDbEntity
  8
bold
100
AcDbCircle
 10
7.149999999999999
 20
-163.5
 30
0.0
 40
1.2
  0
CIRCLE
  5
33E
330
15C
100
AcDbEntity
  8
bold
100
AcDbCircle
 10
7.149999999999999
 20
-103.5
 30
0.0
 40
1.2
  0
LINE
  5
33F
330
15C
100
AcDbEntity
  8
bold
100
AcDbLine
 10
40.99999999999999
 20
-10.9
 30
0.0
 11
40.99999999999999
 21
-1.000000000000029
 31
0.0
  0
LINE
  5
340
330
15C
100
AcDbEntity
  8
bold
100
AcDbLine
 10
40.99999999999999
 20
-166.0
 30
0.0
 11
40.99999999999999
 21
-67.00025403784436
 31
0.0
  0
CIRCLE
  5
341
330
15C
100
AcDbEntity
  8
bold
100
AcDbCircle
 10
37.85
 20
-158.5
 30
0.0
 40
1.2
  0
LINE
  5
342
330
15C
100
AcDbEntity
  8
bold
100
AcDbLine
 10
39.0
 20
21.99999999999999
 30
0.0
 11
43.0
 21
21.99999999999999
 31
0.0
  0
LINE
  5
343
330
15C
100
AcDbEntity
  8
bold
100
AcDbLine
 10
39.0
 20
30.0
 30
0.0
 11
39.0
 21
21.99999999999999
 31
0.0
  0
LINE
  5
344
330
15C
100
AcDbEntity
  8
bold
100
AcDbLine
 10
43.0
 20
30.0
 30
0.0
 11
39.0
 21
30.0
 31
0.0
  0
LINE
  5
345
330
15C
100
AcDbEntity
  8
bold
100
AcDbLine
 10
43.0
 20
21.99999999999999
 30
0.0
 11
43.0
 21
30.0
 31
0.0
  0
CIRCLE
  5
346
330
15C
100
AcDbEntity
  8
bold
100
AcDbCircle
 10
37.85
 20
-163.5
 30
0.0
 40
1.2
  0
CIRCLE
  5
347
330
15C
100
AcDbEntity
  8
bold
100
AcDbCircle
 10
7.149999999999999
 20
-158.5
 30
0.0
 40
1.2
  0
CIRCLE
  5
348
330
15C
100
AcDbEntity
  8
bold
100
AcDbCircle
 10
7.149999999999999
 20
-153.5
 30
0.0
 40
1.2
  0
CIRCLE
  5
349
330
15C
100
AcDbEntity
  8
bold
100
AcDbCircle
 10
37.85
 20
-153.5
 30
0.0
 40
1.2
  0
CIRCLE
  5
34A
330
15C
100
AcDbEntity
  8
bold
100
AcDbCircle
 10
7.149999999999999
 20
-148.5
 30
0.0
 40
1.2
  0
CIRCLE
  5
34B
330
15C
100
AcDbEntity
  8
bold
100
AcDbCircle
 10
37.85
 20
-148.5
 30
0.0
 40
1.2
  0
CIRCLE
  5
34C
330
15C
100
AcDbEntity
  8
bold
100
AcDbCircle
 10
7.149999999999999
 20
-143.5
 30
0.0
 40
1.2
  0
CIRCLE
  5
34D
330
15C
100
AcDbEntity
  8
bold
100
AcDbCircle
 10
37.85
 20
-143.5
 30
0.0
 40
1.2
  0
CIRCLE
  5
34E
330
15C
100
AcDbEntity
  8
bold
100
AcDbCircle
 10
7.149999999999999
 20
-138.5
 30
0.0
 40
1.2
  0
CIRCLE
  5
34F
330
15C
100
AcDbEntity
  8
bold
100
AcDbCircle
 10
37.85
 20
-138.5
 30
0.0
 40
1.2
  0
CIRCLE
  5
350
330
15C
100
AcDbEntity
  8
bold
100
AcDbCircle
 10
7.149999999999999
 20
-133.5
 30
0.0
 40
1.2
  0
CIRCLE
  5
351
330
15C
100
AcDbEntity
  8
bold
100
AcDbCircle
 10
37.85
 20
-133.5
 30
0.0
 40
1.2
  0
CIRCLE
  5
352
330
15C
100
AcDbEntity
  8
bold
100
AcDbCircle
 10
7.149999999999999
 20
-128.5
 30
0.0
 40
1.2
  0
CIRCLE
  5
353
330
15C
100
AcDbEntity
  8
bold
100
AcDbCircle
 10
37.85
 20
-128.5
 30
0.0
 40
1.2
  0
CIRCLE
  5
354
330
15C
100
AcDbEntity
  8
bold
100
AcDbCircle
 10
37.85
 20
-123.5
 30
0.0
 40
1.2
  0
CIRCLE
  5
355
330
15C
100
AcDbEntity
  8
bold
100
AcDbCircle
 10
7.149999999999999
 20
-118.5
 30
0.0
 40
1.2
  0
CIRCLE
  5
356
330
15C
100
AcDbEntity
  8
bold
100
AcDbCircle
 10
7.149999999999999
 20
-113.5
 30
0.0
 40
1.2
  0
CIRCLE
  5
357
330
15C
100
AcDbEntity
  8
bold
100
AcDbCircle
 10
37.85
 20
-113.5
 30
0.0
 40
1.2
  0
CIRCLE
  5
358
330
15C
100
AcDbEntity
  8
bold
100
AcDbCircle
 10
7.149999999999999
 20
-108.5
 30
0.0
 40
1.2
  0
CIRCLE
  5
359
330
15C
100
AcDbEntity
  8
bold
100
AcDbCircle
 10
37.85
 20
-108.5
 30
0.0
 40
1.2
  0
CIRCLE
  5
35A
330
15C
100
AcDbEntity
  8
bold
100
AcDbCircle
 10
37.85
 20
-103.5
 30
0.0
 40
1.2
  0
CIRCLE
  5
35B
330
15C
100
AcDbEntity
  8
bold
100
AcDbCircle
 10
7.149999999999999
 20
-98.5
 30
0.0
 40
1.2
  0
CIRCLE
  5
35C
330
15C
100
AcDbEntity
  8
bold
100
AcDbCircle
 10
7.149999999999999
 20
-93.50000000000001
 30
0.0
 40
1.2
  0
CIRCLE
  5
35D
330
15C
100
AcDbEntity
  8
bold
100
AcDbCircle
 10
7.149999999999999
 20
-88.50000000000001
 30
0.0
 40
1.2
  0
CIRCLE
  5
35E
330
15C
100
AcDbEntity
  8
bold
100
AcDbCircle
 10
37.85
 20
-88.50000000000001
 30
0.0
 40
1.2
  0
CIRCLE
  5
35F
330
15C
100
AcDbEntity
  8
bold
100
AcDbCircle
 10
7.149999999999999
 20
-83.5
 30
0.0
 40
1.2
  0
CIRCLE
  5
360
330
15C
100
AcDbEntity
  8
bold
100
AcDbCircle
 10
37.85
 20
-83.5
 30
0.0
 40
1.2
  0
CIRCLE
  5
361
330
15C
100
AcDbEntity
  8
bold
100
AcDbCircle
 10
7.149999999999999
 20
-78.5
 30
0.0
 40
1.2
  0
CIRCLE
  5
362
330
15C
100
AcDbEntity
  8
bold
100
AcDbCircle
 10
37.85
 20
-78.5
 30
0.0
 40
1.2
  0
CIRCLE
  5
363
330
15C
100
AcDbEntity
  8
bold
100
AcDbCircle
 10
7.149999999999999
 20
-73.50000000000001
 30
0.0
 40
1.2
  0
CIRCLE
  5
364
330
15C
100
AcDbEntity
  8
bold
100
AcDbCircle
 10
37.85
 20
-73.50000000000001
 30
0.0
 40
1.2
  0
CIRCLE
  5
365
330
15C
100
AcDbEntity
  8
bold
100
AcDbCircle
 10
7.149999999999999
 20
-68.5
 30
0.0
 40
1.2
  0
CIRCLE
  5
366
330
15C
100
AcDbEntity
  8
bold
100
AcDbCircle
 10
37.85
 20
-68.5
 30
0.0
 40
1.2
  0
ARC
  5
367
330
15C
100
AcDbEntity
  8
bold
100
AcDbCircle
 10
7.149999999999999
 20
-58.50000000000001
 30
0.0
 40
1.200000000000002
100
AcDbArc
 50
14.52683002788747
 51
165.4731699721121
  0
ARC
  5
368
330
15C
100
AcDbEntity
  8
bold
100
AcDbCircle
 10
37.85
 20
-58.50000000000001
 30
0.0
 40
1.199999999999994
100
AcDbArc
 50
14.52683003074804
 51
165.4731699695821
  0
ARC
  5
369
330
15C
100
AcDbEntity
  8
bold
100
AcDbCircle
 10
37.84999999999999
 20
-48.5
 30
0.0
 40
1.199999999999998
100
AcDbArc
 50
194.5268300255279
 51
345.4731699747817
  0
ARC
  5
36A
330
15C
100
AcDbEntity
  8
bold
100
AcDbCircle
 10
37.84999999999999
 20
-33.50000000000002
 30
0.0
 40
1.200000000000017
100
AcDbArc
 50
65.04869890737214
 51
114.9513010926309
  0
ARC
  5
36B
330
15C
100
AcDbEntity
  8
bold
100
AcDbCircle
 10
7.150000000000001
 20
-28.49999999999999
 30
0.0
 40
1.200000000000006
100
AcDbArc
 50
245.0486989072997
 51
294.9513010927003
  0
ARC
  5
36C
330
15C
100
AcDbEntity
  8
bold
100
AcDbCircle
 10
37.85
 20
-28.50000000000002
 30
0.0
 40
1.199999999999981
100
AcDbArc
 50
245.0486989077306
 51
294.9513010922462
  0
CIRCLE
  5
36D
330
15C
100
AcDbEntity
  8
bold
100
AcDbCircle
 10
7.149999999999999
 20
-23.49999999999999
 30
0.0
 40
1.2
  0
CIRCLE
  5
36E
330
15C
100
AcDbEntity
  8
bold
100
AcDbCircle
 10
7.149999999999999
 20
-8.500000000000007
 30
0.0
 40
1.2
  0
CIRCLE
  5
36F
330
15C
100
AcDbEntity
  8
bold
100
AcDbCircle
 10
37.85
 20
-8.500000000000007
 30
0.0
 40
1.2
  0
CIRCLE
  5
370
330
15C
100
AcDbEntity
  8
bold
100
AcDbCircle
 10
7.149999999999999
 20
-3.500000000000003
 30
0.0
 40
1.2
  0
CIRCLE
  5
371
330
15C
100
AcDbEntity
  8
bold
100
AcDbCircle
 10
37.85
 20
-3.500000000000003
 30
0.0
 40
1.2
  0
LINE
  5
372
330
15C
100
AcDbEntity
  8
bold
100
AcDbLine
 10
40.99999999999999
 20
-1.000000000000029
 30
0.0
 11
45.0
 21
-1.000000000000029
 31
0.0
  0
LINE
  5
373
330
15C
100
AcDbEntity
  8
bold
100
AcDbLine
 10
45.0
 20
-10.89999999999999
 30
0.0
 11
45.0
 21
34.0
 31
0.0
  0
LINE
  5
374
330
15C
100
AcDbEntity
  8
bold
100
AcDbLine
 10
0.0
 20
34.0
 30
0.0
 11
45.0
 21
34.0
 31
0.0
  0
LINE
  5
375
330
15C
100
AcDbEntity
  8
bold
100
AcDbLine
 10
0.0
 20
-10.89999999999999
 30
0.0
 11
0.0
 21
34.0
 31
0.0
  0
LINE
  5
376
330
15C
100
AcDbEntity
  8
bold
100
AcDbLine
 10
0.0
 20
-1.000000000000029
 30
0.0
 11
4.0
 21
-1.000000000000029
 31
0.0
  0
LINE
  5
377
330
15C
100
AcDbEntity
  8
bold
100
AcDbLine
 10
4.0
 20
-10.9
 30
0.0
 11
4.0
 21
-1.000000000000029
 31
0.0
  0
LINE
  5
378
330
15C
100
AcDbEntity
  8
bold
100
AcDbLine
 10
4.0
 20
-166.0
 30
0.0
 11
4.0
 21
-67.00025403784436
 31
0.0
  0
LINE
  5
379
330
15C
100
AcDbEntity
  8
bold
100
AcDbLine
 10
9.999999999999998
 20
-10.90000000000001
 30
0.0
 11
9.999999999999998
 21
6.999999999999979
 31
0.0
  0
LINE
  5
37A
330
15C
100
AcDbEntity
  8
bold
100
AcDbLine
 10
9.999999999999998
 20
-166.0
 30
0.0
 11
9.999999999999998
 21
-67.00025403784437
 31
0.0
  0
LINE
  5
37B
330
15C
100
AcDbEntity
  8
bold
100
AcDbLine
 10
9.999999999999998
 20
6.999999999999979
 30
0.0
 11
35.0
 21
6.999999999999979
 31
0.0
  0
LINE
  5
37C
330
15C
100
AcDbEntity
  8
bold
100
AcDbLine
 10
35.0
 20
-10.90000000000001
 30
0.0
 11
35.0
 21
6.999999999999979
 31
0.0
  0
LINE
  5
37D
330
15C
100
AcDbEntity
  8
bold
100
AcDbLine
 10
34.99999999999999
 20
-166.0
 30
0.0
 11
34.99999999999999
 21
-67.00025403784437
 31
0.0
  0
ENDBLK
  5
15F
330
15C
100
AcDbEntity
  8
0
100
AcDbBlockEnd
  0
BLOCK
  5
382
330
381
100
AcDbEntity
  8
0
100
AcDbBlockBegin
  2
*D7
 70
     1
 10
0.0
 20
0.0
 30
0.0
  3
*D7
  1

  0
LINE
  5
384
330
381
100
AcDbEntity
  8
dimension
 62
     0
370
    -2
100
AcDbLine
 10
0.0
 20
-166.0
 30
0.0
 11
0.0
 21
-194.0
 31
0.0
  0
LINE
  5
385
330
381
100
AcDbEntity
  8
dimension
 62
     0
370
    -2
100
AcDbLine
 10
45.0
 20
-166.0
 30
0.0
 11
45.0
 21
-194.0
 31
0.0
  0
LINE
  5
386
330
381
100
AcDbEntity
  8
dimension
 62
     0
370
    -2
100
AcDbLine
 10
8.0
 20
-194.0
 30
0.0
 11
37.0
 21
-194.0
 31
0.0
  0
SOLID
  5
387
330
381
100
AcDbEntity
  8
dimension
 62
     0
100
AcDbTrace
 10
8.0
 20
-192.6666666666667
 30
0.0
 11
8.0
 21
-195.3333333333333
 31
0.0
 12
0.0
 22
-194.0
 32
0.0
 13
0.0
 23
-194.0
 33
0.0
  0
SOLID
  5
388
330
381
100
AcDbEntity
  8
dimension
 62
     0
100
AcDbTrace
 10
37.0
 20
-195.3333333333333
 30
0.0
 11
37.0
 21
-192.6666666666667
 31
0.0
 12
45.0
 22
-194.0
 32
0.0
 13
45.0
 23
-194.0
 33
0.0
  0
MTEXT
  5
389
330
381
100
AcDbEntity
  8
dimension
 62
     0
100
AcDbMText
 10
22.5
 20
-187.6
 30
0.0
 40
8.0
 41
0.0
 46
0.0
 71
     5
 72
     1
  1
45
 73
     1
 44
1.0
  0
POINT
  5
38A
330
381
100
AcDbEntity
  8
Defpoints
 62
     0
100
AcDbPoint
 10
0.0
 20
-166.0
 30
0.0
  0
POINT
  5
38B
330
381
100
AcDbEntity
  8
Defpoints
 62
     0
100
AcDbPoint
 10
45.0
 20
-166.0
 30
0.0
  0
POINT
  5
38C
330
381
100
AcDbEntity
  8
Defpoints
 62
     0
100
AcDbPoint
 10
45.0
 20
-194.0
 30
0.0
  0
ENDBLK
  5
383
330
381
100
AcDbEntity
  8
0
100
AcDbBlockEnd
  0
BLOCK
  5
38F
330
38E
100
AcDbEntity
  8
0
100
AcDbBlockBegin
  2
*D8
 70
     1
 10
0.0
 20
0.0
 30
0.0
  3
*D8
  1

  0
LINE
  5
391
330
38E
100
AcDbEntity
  8
dimension
 62
     0
370
    -2
100
AcDbLine
 10
0.0
 20
-28.5
 30
0.0
 11
-28.0
 21
-28.5
 31
0.0
  0
LINE
  5
392
330
38E
100
AcDbEntity
  8
dimension
 62
     0
370
    -2
100
AcDbLine
 10
0.0
 20
34.0
 30
0.0
 11
-28.0
 21
34.0
 31
0.0
  0
LINE
  5
393
330
38E
100
AcDbEntity
  8
dimension
 62
     0
370
    -2
100
AcDbLine
 10
-28.0
 20
-20.5
 30
0.0
 11
-28.0
 21
-11.65
 31
0.0
  0
LINE
  5
394
330
38E
100
AcDbEntity
  8
dimension
 62
     0
370
    -2
100
AcDbLine
 10
-28.0
 20
26.0
 30
0.0
 11
-28.0
 21
17.15
 31
0.0
  0
SOLID
  5
395
330
38E
100
AcDbEntity
  8
dimension
 62
     0
100
AcDbTrace
 10
-29.33333333333333
 20
-20.5
 30
0.0
 11
-26.66666666666667
 21
-20.5
 31
0.0
 12
-28.0
 22
-28.5
 32
0.0
 13
-28.0
 23
-28.5
 33
0.0
  0
SOLID
  5
396
330
38E
100
AcDbEntity
  8
dimension
 62
     0
100
AcDbTrace
 10
-26.66666666666667
 20
26.0
 30
0.0
 11
-29.33333333333333
 21
26.0
 31
0.0
 12
-28.0
 22
34.0
 32
0.0
 13
-28.0
 23
34.0
 33
0.0
  0
MTEXT
  5
397
330
38E
100
AcDbEntity
  8
dimension
 62
     0
100
AcDbMText
 10
-28.0
 20
2.75
 30
0.0
 40
8.0
 41
0.0
 46
0.0
 71
     5
 72
     1
  1
62.5
 11
6.123233995736766E-17
 21
1.0
 31
0.0
 73
     1
 44
1.0
  0
POINT
  5
398
330
38E
100
AcDbEntity
  8
Defpoints
 62
     0
100
AcDbPoint
 10
0.0
 20
-28.5
 30
0.0
  0
POINT
  5
399
330
38E
100
AcDbEntity
  8
Defpoints
 62
     0
100
AcDbPoint
 10
0.0
 20
34.0
 30
0.0
  0
POINT
  5
39A
330
38E
100
AcDbEntity
  8
Defpoints
 62
     0
100
AcDbPoint
 10
-28.0
 20
34.0
 30
0.0
  0
ENDBLK
  5
390
330
38E
100
AcDbEntity
  8
0
100
AcDbBlockEnd
  0
BLOCK
  5
39D
330
39C
100
AcDbEntity
  8
0
100
AcDbBlockBegin
  2
*D9
 70
     1
 10
0.0
 20
0.0
 30
0.0
  3
*D9
  1

  0
LINE
  5
39F
330
39C
100
AcDbEntity
  8
dimension
 62
     0
370
    -2
100
AcDbLine
 10
0.0
 20
34.0
 30
0.0
 11
-51.99999999999999
 21
34.0
 31
0.0
  0
LINE
  5
3A0
330
39C
100
AcDbEntity
  8
dimension
 62
     0
370
    -2
100
AcDbLine
 10
0.0
 20
-166.0
 30
0.0
 11
-52.00000000000001
 21
-166.0
 31
0.0
  0
LINE
  5
3A1
330
39C
100
AcDbEntity
  8
dimension
 62
     0
370
    -2
100
AcDbLine
 10
-51.99999999999999
 20
26.0
 30
0.0
 11
-52.0
 21
-53.31428571428572
 31
0.0
  0
LINE
  5
3A2
330
39C
100
AcDbEntity
  8
dimension
 62
     0
370
    -2
100
AcDbLine
 10
-52.00000000000001
 20
-158.0
 30
0.0
 11
-52.0
 21
-78.68571428571428
 31
0.0
  0
SOLID
  5
3A3
330
39C
100
AcDbEntity
  8
dimension
 62
     0
100
AcDbTrace
 10
-50.66666666666666
 20
26.0
 30
0.0
 11
-53.33333333333333
 21
26.0
 31
0.0
 12
-51.99999999999999
 22
34.0
 32
0.0
 13
-51.99999999999999
 23
34.0
 33
0.0
  0
SOLID
  5
3A4
330
39C
100
AcDbEntity
  8
dimension
 62
     0
100
AcDbTrace
 10
-53.33333333333334
 20
-158.0
 30
0.0
 11
-50.66666666666667
 21
-158.0
 31
0.0
 12
-52.00000000000001
 22
-166.0
 32
0.0
 13
-52.00000000000001
 23
-166.0
 33
0.0
  0
MTEXT
  5
3A5
330
39C
100
AcDbEntity
  8
dimension
 62
     0
100
AcDbMText
 10
-52.0
 20
-66.0
 30
0.0
 40
8.0
 41
0.0
 46
0.0
 71
     5
 72
     1
  1
200
 11
6.123233995736766E-17
 21
1.0
 31
0.0
 73
     1
 44
1.0
  0
POINT
  5
3A6
330
39C
100
AcDbEntity
  8
Defpoints
 62
     0
100
AcDbPoint
 10
0.0
 20
34.0
 30
0.0
  0
POINT
  5
3A7
330
39C
100
AcDbEntity
  8
Defpoints
 62
     0
100
AcDbPoint
 10
0.0
 20
-166.0
 30
0.0
  0
POINT
  5
3A8
330
39C
100
AcDbEntity
  8
Defpoints
 62
     0
100
AcDbPoint
 10
-52.00000000000001
 20
-166.0
 30
0.0
  0
ENDBLK
  5
39E
330
39C
100
AcDbEntity
  8
0
100
AcDbBlockEnd
  0
ENDSEC
  0
SECTION
  2
ENTITIES
  0
ATTDEF
  5
5F
330
1F
100
AcDbEntity
  8
attrib
100
AcDbText
 10
52.25
 20
34.0
 30
0.0
 40
0.5
  1
32655
100
AcDbAttributeDefinition
  3

  2
NB
 70
     8
280
     0
  0
ATTDEF
  5
60
330
1F
100
AcDbEntity
  8
attrib
100
AcDbText
 10
52.25
 20
33.5
 30
0.0
 40
0.5
  1
Universal adapters 16 A - 32 A, 3-pole, with leads
100
AcDbAttributeDefinition
  3

  2
NN
 70
     8
280
     0
  0
ATTDEF
  5
61
330
1F
100
AcDbEntity
  8
attrib
100
AcDbText
 10
52.25
 20
33.0
 30
0.0
 40
0.5
  1

100
AcDbAttributeDefinition
  3

  2
NT
 70
     8
280
     0
  0
ATTDEF
  5
62
330
1F
100
AcDbEntity
  8
attrib
100
AcDbText
 10
52.25
 20
32.5
 30
0.0
 40
0.5
  1
$ARTNR.$CABLE.
100
AcDbAttributeDefinition
  3

  2
NBSYN
 70
     8
280
     0
  0
ATTDEF
  5
63
330
1F
100
AcDbEntity
  8
attrib
100
AcDbText
 10
52.25
 20
32.0
 30
0.0
 40
0.5
  1
32655000
100
AcDbAttributeDefinition
  3

  2
LINA
 70
     8
280
     0
  0
ATTDEF
  5
64
330
1F
100
AcDbEntity
  8
attrib
100
AcDbText
 10
52.25
 20
31.5
 30
0.0
 40
0.5
  1
Wöhner
100
AcDbAttributeDefinition
  3

  2
CATALOG
 70
     8
280
     0
  0
ATTDEF
  5
65
330
1F
100
AcDbEntity
  8
attrib
100
AcDbText
 10
52.25
 20
31.0
 30
0.0
 40
0.5
  1
32655
100
AcDbAttributeDefinition
  3

  2
ARTNR
 70
     8
280
     0
  0
ATTDEF
  5
66
330
1F
100
AcDbEntity
  8
attrib
100
AcDbText
 10
52.25
 20
30.5
 30
0.0
 40
0.5
  1
12, 15, 20, 25, 30 x 5, 10 and section busbars
100
AcDbAttributeDefinition
  3

  2
BUSB
 70
     8
280
     0
  0
ATTDEF
  5
67
330
1F
100
AcDbEntity
  8
attrib
100
AcDbText
 10
52.25
 20
30.0
 30
0.0
 40
0.5
  1
EQUES®60Classic
100
AcDbAttributeDefinition
  3

  2
POF
 70
     8
280
     0
  0
ATTDEF
  5
68
330
1F
100
AcDbEntity
  8
attrib
100
AcDbText
 10
52.25
 20
29.5
 30
0.0
 40
0.5
  1
EEC6025-L
100
AcDbAttributeDefinition
  3

  2
TYPE
 70
     8
280
     0
  0
ATTDEF
  5
69
330
1F
100
AcDbEntity
  8
attrib
100
AcDbText
 10
52.25
 20
29.0
 30
0.0
 40
0.5
  1
4
100
AcDbAttributeDefinition
  3

  2
QNT
 70
     8
280
     0
  0
ATTDEF
  5
6A
330
1F
100
AcDbEntity
  8
attrib
100
AcDbText
 10
52.25
 20
28.5
 30
0.0
 40
0.5
  1
45
100
AcDbAttributeDefinition
  3

  2
W
 70
     8
280
     0
  0
ATTDEF
  5
6B
330
1F
100
AcDbEntity
  8
attrib
100
AcDbText
 10
52.25
 20
28.0
 30
0.0
 40
0.5
  1
200
100
AcDbAttributeDefinition
  3

  2
H
 70
     8
280
     0
  0
ATTDEF
  5
6C
330
1F
100
AcDbEntity
  8
attrib
100
AcDbText
 10
52.25
 20
27.5
 30
0.0
 40
0.5
  1
63
100
AcDbAttributeDefinition
  3

  2
D
 70
     8
280
     0
  0
ATTDEF
  5
6D
330
1F
100
AcDbEntity
  8
attrib
100
AcDbText
 10
52.25
 20
27.0
 30
0.0
 40
0.5
  1
62.5
100
AcDbAttributeDefinition
  3

  2
C
 70
     8
280
     0
  0
ATTDEF
  5
6E
330
1F
100
AcDbEntity
  8
attrib
100
AcDbText
 10
52.25
 20
26.5
 30
0.0
 40
0.5
  1
95
100
AcDbAttributeDefinition
  3

  2
DD
 70
     8
280
     0
  0
ATTDEF
  5
6F
330
1F
100
AcDbEntity
  8
attrib
100
AcDbText
 10
52.25
 20
26.0
 30
0.0
 40
0.5
  1
115
100
AcDbAttributeDefinition
  3

  2
E
 70
     8
280
     0
  0
ATTDEF
  5
70
330
1F
100
AcDbEntity
  8
attrib
100
AcDbText
 10
52.25
 20
25.5
 30
0.0
 40
0.5
  1
Product link
100
AcDbAttributeDefinition
  3

  2
LINK
 70
     8
280
     0
  0
ATTDEF
  5
71
330
1F
100
AcDbEntity
  8
attrib
100
AcDbText
 10
52.25
 20
25.0
 30
0.0
 40
0.5
  1
woehner
100
AcDbAttributeDefinition
  3

  2
COMPANY
 70
     8
280
     0
  0
ATTDEF
  5
72
330
1F
100
AcDbEntity
  8
attrib
100
AcDbText
 10
52.25
 20
24.5
 30
0.0
 40
0.5
  1
{$CADENAS_DATA/23d-libs/woehner/sys_60classic/adapters/adapters_16_32/universal_adapters_16_32_asmtab.prj},232 {VTYP=3D},{STYP=ASSTAB},{NB=32655},{LINA=32655000},{NN=Universaladapter 16 A - 32 A, 3-polig, mit Leitungen},{DATE=26.01.2024 06:39:57},{GEOMDAT
100
AcDbAttributeDefinition
  3

  2
PSOL_0
 70
     9
280
     0
  0
ATTDEF
  5
73
330
1F
100
AcDbEntity
  8
attrib
100
AcDbText
 10
52.25
 20
24.0
 30
0.0
 40
0.5
  1
E=29.09.2023 13:50:48},{VERSION=v230929135048},{LINEID=930},{WBVAR=CABLE},{WBNUMERIC=}  {NB=32655},{LINA=32655000},{KT=DUMMY},{WIRE=},{CABLE=},{ARTNRBASE=},{BOM=32655000},{ARTNR=32655},{BUSB=12, 15, 20, 25, 30 x 5, 10 and section busbars},{POF=EQUES®60Cla
100
AcDbAttributeDefinition
  3

  2
PSOL_1
 70
     9
280
     0
  0
ATTDEF
  5
74
330
1F
100
AcDbEntity
  8
attrib
100
AcDbText
 10
52.25
 20
23.5
 30
0.0
 40
0.5
  1
ssic},{TYPE=EEC6025-L},{QNT=4},{W=45},{H=200},{D=63},{C=62.5},{DD=95},{E=115},{CONCA=},{SCR=},{IPR=},{IPRF=},{SEARCH=},{EDZ=},{IODD=},{DIST=8.0},{LINK=Product link},{LINKX=https://www.woehner.de/de/produkte/32655.html},{PPATH=parts/universal_adapters_16_3
100
AcDbAttributeDefinition
  3

  2
PSOL_2
 70
     9
280
     0
  0
ATTDEF
  5
75
330
1F
100
AcDbEntity
  8
attrib
100
AcDbText
 10
52.25
 20
23.0
 30
0.0
 40
0.5
  1
2_asmtpl.prj},{AAO677=Wöhner},{MANUFACTURER_URL=www.woehner.de},{AAQ326=www.woehner.de/de/produkte/32655.html },{AAO676=32655},{TC=EEC6025-L},{EAN=4021267326593},{CTN=85369095},{MASS=0,333},{AAU731=EQUES®60Classic},{DESCRIPTION_LONG=busbar adapter 32 A, 1
100
AcDbAttributeDefinition
  3

  2
PSOL_3
 70
     9
280
     0
  0
ATTDEF
  5
76
330
1F
100
AcDbEntity
  8
attrib
100
AcDbText
 10
52.25
 20
22.5
 30
0.0
 40
0.5
  1
 adjustable mounting rail, 45 x 200, with leads AWG 10 (6 mm²)},{DESCRIPTION_SHORT=busbar adapter 32 A},{AAB414=Push in connection},{AAB460=32},{AAB509=45},{AAC144=1}
100
AcDbAttributeDefinition
  3

  2
PSOL_4
 70
     9
280
     0
  0
INSERT
  5
78
330
1F
100
AcDbEntity
  8
0
100
AcDbBlockReference
  2
1_80034CrossBoardScrew_0_in_32655_0
 10
0.0
 20
0.0
 30
0.0
  0
INSERT
  5
A0
330
1F
100
AcDbEntity
  8
0
100
AcDbBlockReference
  2
2_79350ACrossBoardAdapter_0_in_32655_0
 10
0.0
 20
0.0
 30
0.0
  0
INSERT
  5
FA
330
1F
100
AcDbEntity
  8
0
100
AcDbBlockReference
  2
3_AWG10999_1_0_in_32655_0
 10
0.0
 20
0.0
 30
0.0
  0
INSERT
  5
11B
330
1F
100
AcDbEntity
  8
0
100
AcDbBlockReference
  2
4_AWG10999_2_0_in_32655_0
 10
0.0
 20
0.0
 30
0.0
  0
INSERT
  5
13C
330
1F
100
AcDbEntity
  8
0
100
AcDbBlockReference
  2
5_AWG10999_3_0_in_32655_0
 10
0.0
 20
0.0
 30
0.0
  0
INSERT
  5
15D
330
1F
100
AcDbEntity
  8
0
100
AcDbBlockReference
  2
6_Basis45x200_0_in_32655_0
 10
0.0
 20
0.0
 30
0.0
  0
DIMENSION
  5
37F
330
1F
100
AcDbEntity
  8
dimension
100
AcDbDimension
280
     0
  2
*D7
 10
45.0
 20
-194.0
 30
0.0
 11
22.5
 21
-194.0
 31
0.0
 70
   160
  1
45
 71
     5
 42
45.0
 73
     0
 74
     0
 75
     0
  3
ISO-25
100
AcDbAlignedDimension
 13
0.0
 23
-166.0
 33
0.0
 14
45.0
 24
-166.0
 34
0.0
100
AcDbRotatedDimension
1001
ACAD
1000
DSTYLE
1002
{
1070
   147
1040
2.4
1070
    42
1040
0.0
1070
    44
1040
0.0
1070
    41
1040
8.0
1070
   140
1040
8.0
1002
}
  0
DIMENSION
  5
38D
330
1F
100
AcDbEntity
  8
dimension
100
AcDbDimension
280
     0
  2
*D8
 10
-28.0
 20
34.0
 30
0.0
 11
-28.0
 21
2.75
 31
0.0
 70
   160
  1
62.5
 71
     5
 42
62.5
 73
     0
 74
     0
 75
     0
 53
90.0
  3
ISO-25
100
AcDbAlignedDimension
 13
0.0
 23
-28.5
 33
0.0
 14
0.0
 24
34.0
 34
0.0
 50
90.0
100
AcDbRotatedDimension
1001
ACAD
1000
DSTYLE
1002
{
1070
   147
1040
2.4
1070
    42
1040
0.0
1070
    44
1040
0.0
1070
    41
1040
8.0
1070
   140
1040
8.0
1002
}
  0
DIMENSION
  5
39B
330
1F
100
AcDbEntity
  8
dimension
100
AcDbDimension
280
     0
  2
*D9
 10
-52.00000000000001
 20
-166.0
 30
0.0
 11
-52.0
 21
-66.0
 31
0.0
 70
   160
  1
200
 71
     5
 42
200.0
 73
     0
 74
     0
 75
     0
 53
90.0
  3
ISO-25
100
AcDbAlignedDimension
 13
0.0
 23
34.0
 33
0.0
 14
0.0
 24
-166.0
 34
0.0
 50
90.0
100
AcDbRotatedDimension
1001
ACAD
1000
DSTYLE
1002
{
1070
   147
1040
2.4
1070
    42
1040
0.0
1070
    44
1040
0.0
1070
    41
1040
8.0
1070
   140
1040
8.0
1002
}
  0
POINT
  5
3AA
330
1F
100
AcDbEntity
  8
connection
100
AcDbPoint
 10
37.85
 20
-23.5
 30
0.0
  0
POINT
  5
3AB
330
1F
100
AcDbEntity
  8
connection
100
AcDbPoint
 10
37.85
 20
-49.75
 30
0.0
  0
POINT
  5
3AC
330
1F
100
AcDbEntity
  8
connection
100
AcDbPoint
 10
22.5
 20
-68.34
 30
0.0
  0
POINT
  5
3AD
330
1F
100
AcDbEntity
  8
connection
100
AcDbPoint
 10
37.85
 20
-31.0
 30
0.0
  0
POINT
  5
3AE
330
1F
100
AcDbEntity
  8
connection
100
AcDbPoint
 10
33.0
 20
29.5
 30
0.0
  0
POINT
  5
3AF
330
1F
100
AcDbEntity
  8
connection
100
AcDbPoint
 10
22.5
 20
29.5
 30
0.0
  0
POINT
  5
3B0
330
1F
100
AcDbEntity
  8
connection
100
AcDbPoint
 10
12.0
 20
29.5
 30
0.0
  0
POINT
  5
3B1
330
1F
100
AcDbEntity
  8
connection
100
AcDbPoint
 10
2.5
 20
-6.0
 30
0.0
  0
POINT
  5
3B2
330
1F
100
AcDbEntity
  8
connection
100
AcDbPoint
 10
22.5
 20
-66.0
 30
0.0
  0
POINT
  5
3B3
330
1F
100
AcDbEntity
  8
connection
100
AcDbPoint
 10
42.5
 20
-106.0
 30
0.0
  0
POINT
  5
3B4
330
1F
100
AcDbEntity
  8
connection
100
AcDbPoint
 10
12.0
 20
19.0
 30
0.0
  0
POINT
  5
3B5
330
1F
100
AcDbEntity
  8
connection
100
AcDbPoint
 10
22.5
 20
19.0
 30
0.0
  0
POINT
  5
3B6
330
1F
100
AcDbEntity
  8
connection
100
AcDbPoint
 10
33.0
 20
19.0
 30
0.0
  0
POINT
  5
3B7
330
1F
100
AcDbEntity
  8
connection
100
AcDbPoint
 10
2.649999999999999
 20
-33.5
 30
0.0
  0
POINT
  5
3B8
330
1F
100
AcDbEntity
  8
connection
100
AcDbPoint
 10
2.649999999999999
 20
-73.5
 30
0.0
  0
POINT
  5
3B9
330
1F
100
AcDbEntity
  8
connection
100
AcDbPoint
 10
22.5
 20
-166.0
 30
0.0
  0
POINT
  5
3BA
330
1F
100
AcDbEntity
  8
connection
100
AcDbPoint
 10
22.5
 20
34.0
 30
0.0
  0
POINT
  5
3BB
330
1F
100
AcDbEntity
  8
connection
100
AcDbPoint
 10
0.0
 20
-166.0
 30
0.0
  0
POINT
  5
3BC
330
1F
100
AcDbEntity
  8
connection
100
AcDbPoint
 10
0.0
 20
0.0
 30
0.0
  0
POINT
  5
3BD
330
1F
100
AcDbEntity
  8
connection
100
AcDbPoint
 10
22.5
 20
-166.0
 30
0.0
  0
POINT
  5
3BE
330
1F
100
AcDbEntity
  8
connection
100
AcDbPoint
 10
4.0
 20
-136.5
 30
0.0
  0
POINT
  5
3BF
330
1F
100
AcDbEntity
  8
connection
100
AcDbPoint
 10
19.5
 20
2.0
 30
0.0
  0
POINT
  5
3C0
330
1F
100
AcDbEntity
  8
connection
100
AcDbPoint
 10
12.0
 20
19.0
 30
0.0
  0
POINT
  5
3C1
330
1F
100
AcDbEntity
  8
connection
100
AcDbPoint
 10
22.5
 20
19.0
 30
0.0
  0
POINT
  5
3C2
330
1F
100
AcDbEntity
  8
connection
100
AcDbPoint
 10
33.0
 20
19.0
 30
0.0
  0
POINT
  5
3C3
330
1F
100
AcDbEntity
  8
connection
100
AcDbPoint
 10
7.15
 20
-163.5
 30
0.0
  0
POINT
  5
3C4
330
1F
100
AcDbEntity
  8
connection
100
AcDbPoint
 10
22.5
 20
21.0
 30
0.0
  0
POINT
  5
3C5
330
1F
100
AcDbEntity
  8
connection
100
AcDbPoint
 10
-9.0
 20
-166.0
 30
0.0
  0
POINT
  5
3C6
330
1F
100
AcDbEntity
  8
connection
100
AcDbPoint
 10
54.0
 20
-166.0
 30
0.0
  0
POINT
  5
3C7
330
1F
100
AcDbEntity
  8
connection
100
AcDbPoint
 10
12.0
 20
29.5
 30
0.0
  0
POINT
  5
3C8
330
1F
100
AcDbEntity
  8
connection
100
AcDbPoint
 10
22.5
 20
29.5
 30
0.0
  0
POINT
  5
3C9
330
1F
100
AcDbEntity
  8
connection
100
AcDbPoint
 10
33.0
 20
29.5
 30
0.0
  0
POINT
  5
3CA
330
1F
100
AcDbEntity
  8
connection
100
AcDbPoint
 10
9.0
 20
34.0
 30
0.0
  0
POINT
  5
3CB
330
1F
100
AcDbEntity
  8
connection
100
AcDbPoint
 10
22.2
 20
34.0
 30
0.0
  0
POINT
  5
3CC
330
1F
100
AcDbEntity
  8
connection
100
AcDbPoint
 10
35.4
 20
34.0
 30
0.0
  0
POINT
  5
3CD
330
1F
100
AcDbEntity
  8
connection
100
AcDbPoint
 10
9.5
 20
27.5
 30
0.0
  0
POINT
  5
3CE
330
1F
100
AcDbEntity
  8
connection
100
AcDbPoint
 10
22.5
 20
27.5
 30
0.0
  0
POINT
  5
3CF
330
1F
100
AcDbEntity
  8
connection
100
AcDbPoint
 10
35.5
 20
27.5
 30
0.0
  0
POINT
  5
3D0
330
1F
100
AcDbEntity
  8
connection
100
AcDbPoint
 10
22.5
 20
34.0
 30
0.0
  0
POINT
  5
3D1
330
1F
100
AcDbEntity
  8
connection
100
AcDbPoint
 10
22.5
 20
-66.0
 30
0.0
  0
POINT
  5
3D2
330
1F
100
AcDbEntity
  8
connection
100
AcDbPoint
 10
0.0
 20
-28.5
 30
0.0
  0
POINT
  5
3D3
330
1F
100
AcDbEntity
  8
connection
100
AcDbPoint
 10
22.5
 20
-1.0
 30
0.0
  0
POINT
  5
3D4
330
1F
100
AcDbEntity
  8
connection
100
AcDbPoint
 10
0.0
 20
34.0
 30
0.0
  0
ENDSEC
  0
SECTION
  2
OBJECTS
  0
DICTIONARY
  5
C
330
0
100
AcDbDictionary
281
     1
  3
ACAD_DETAILVIEWSTYLE
350
3DC
  3
ACAD_GROUP
350
D
  3
ACAD_LAYOUT
350
1A
  3
ACAD_MATERIAL
350
43
  3
ACAD_MLEADERSTYLE
350
5B
  3
ACAD_MLINESTYLE
350
17
  3
ACAD_PLOTSETTINGS
350
19
  3
ACAD_PLOTSTYLENAME
350
E
  3
ACAD_SCALELIST
350
47
  3
ACAD_SECTIONVIEWSTYLE
350
3DD
  3
ACAD_TABLESTYLE
350
59
  3
ACAD_VISUALSTYLE
350
2A
  3
ACDB_RECOMPOSE_DATA
350
3D9
  3
AcDbVariableDictionary
350
3D5
  0
SUN
  5
5D
330
29
100
AcDbSun
 90
        1
290
     0
 63
     7
421
 16777215
 40
1.0
291
     1
 91
  2455826
 92
 54000000
292
     0
 70
     2
 71
   256
280
     1
  0
DICTIONARY
  5
3DC
102
{ACAD_REACTORS
330
C
102
}
330
C
100
AcDbDictionary
281
     1
  0
DICTIONARY
  5
D
102
{ACAD_REACTORS
330
C
102
}
330
C
100
AcDbDictionary
281
     1
  0
DICTIONARY
  5
1A
102
{ACAD_REACTORS
330
C
102
}
330
C
100
AcDbDictionary
281
     1
  3
Layout1
350
1E
  3
Layout2
350
26
  3
Model
350
22
  0
DICTIONARY
  5
43
102
{ACAD_REACTORS
330
C
102
}
330
C
100
AcDbDictionary
281
     1
  3
ByBlock
350
45
  3
ByLayer
350
44
  3
Global
350
46
  0
DICTIONARY
  5
5B
102
{ACAD_REACTORS
330
C
102
}
330
C
100
AcDbDictionary
281
     1
  3
Standard
350
5C
  0
DICTIONARY
  5
17
102
{ACAD_REACTORS
330
C
102
}
330
C
100
AcDbDictionary
281
     1
  3
Standard
350
18
  0
DICTIONARY
  5
19
102
{ACAD_REACTORS
330
C
102
}
330
C
100
AcDbDictionary
281
     1
  0
ACDBDICTIONARYWDFLT
  5
E
102
{ACAD_REACTORS
330
C
102
}
330
C
100
AcDbDictionary
281
     1
  3
Normal
350
F
100
AcDbDictionaryWithDefault
340
F
  0
DICTIONARY
  5
47
102
{ACAD_REACTORS
330
C
102
}
330
C
100
AcDbDictionary
281
     1
  3
A0
350
48
  3
A1
350
49
  3
A2
350
4A
  3
A3
350
4B
  3
A4
350
4C
  3
A5
350
4D
  3
A6
350
4E
  3
A7
350
4F
  3
A8
350
50
  3
A9
350
51
  3
B0
350
52
  3
B1
350
53
  3
B2
350
54
  3
B3
350
55
  3
B4
350
56
  3
B5
350
57
  3
B6
350
58
  0
DICTIONARY
  5
3DD
102
{ACAD_REACTORS
330
C
102
}
330
C
100
AcDbDictionary
281
     1
  0
DICTIONARY
  5
59
102
{ACAD_REACTORS
330
C
102
}
330
C
100
AcDbDictionary
281
     1
  3
Standard
350
5A
  0
DICTIONARY
  5
2A
102
{ACAD_REACTORS
330
C
102
}
330
C
100
AcDbDictionary
281
     1
  3
2dWireframe
350
2F
  3
Basic
350
32
  3
Brighten
350
36
  3
ColorChange
350
3A
  3
Conceptual
350
34
  3
Dim
350
35
  3
EdgeColorOff
350
3D
  3
Facepattern
350
39
  3
Flat
350
2B
  3
FlatWithEdges
350
2C
  3
Gouraud
350
2D
  3
GouraudWithEdges
350
2E
  3
Hidden
350
31
  3
JitterOff
350
3B
  3
Linepattern
350
38
  3
OverhangOff
350
3C
  3
Realistic
350
33
  3
Shaded
350
42
  3
Shaded with edges
350
41
  3
Shades of Gray
350
3E
  3
Sketchy
350
3F
  3
Thicken
350
37
  3
Wireframe
350
30
  3
X-Ray
350
40
  0
XRECORD
  5
3D9
102
{ACAD_REACTORS
330
C
102
}
330
C
100
AcDbXrecord
280
     1
 90
        1
330
5A
  0
DICTIONARY
  5
3D5
102
{ACAD_REACTORS
330
C
102
}
330
C
100
AcDbDictionary
281
     1
  3
CANNOSCALE
350
3D6
  3
CENTEREXE
350
3DE
  3
CENTERLTYPEFILE
350
3DF
  3
CMLEADERSTYLE
350
3DB
  3
CTABLESTYLE
350
3DA
  0
LAYOUT
  5
1E
102
{ACAD_REACTORS
330
1A
102
}
330
1A
100
AcDbPlotSettings
  1

  2
none_device
  4

  6

 40
0.0
 41
0.0
 42
0.0
 43
0.0
 44
0.0
 45
0.0
 46
0.0
 47
0.0
 48
0.0
 49
0.0
140
0.0
141
0.0
142
1.0
143
1.0
 70
   688
 72
     1
 73
     0
 74
     5
  7

 75
    16
 76
     0
 77
     2
 78
   300
147
1.0
148
0.0
149
0.0
100
AcDbLayout
  1
Layout1
 70
     1
 71
     1
 10
0.0
 20
0.0
 11
420.0
 21
297.0
 12
0.0
 22
0.0
 32
0.0
 14
1.000000000000000E+20
 24
1.000000000000000E+20
 34
1.000000000000000E+20
 15
-1.000000000000000E+20
 25
-1.000000000000000E+20
 35
-1.000000000000000E+20
146
0.0
 13
0.0
 23
0.0
 33
0.0
 16
1.0
 26
0.0
 36
0.0
 17
0.0
 27
1.0
 37
0.0
 76
     0
330
1B
  0
LAYOUT
  5
26
102
{ACAD_REACTORS
330
1A
102
}
330
1A
100
AcDbPlotSettings
  1

  2
none_device
  4

  6

 40
0.0
 41
0.0
 42
0.0
 43
0.0
 44
0.0
 45
0.0
 46
0.0
 47
0.0
 48
0.0
 49
0.0
140
0.0
141
0.0
142
1.0
143
1.0
 70
   688
 72
     1
 73
     0
 74
     5
  7

 75
    16
 76
     0
 77
     2
 78
   300
147
1.0
148
0.0
149
0.0
100
AcDbLayout
  1
Layout2
 70
     1
 71
     2
 10
0.0
 20
0.0
 11
0.0
 21
0.0
 12
0.0
 22
0.0
 32
0.0
 14
0.0
 24
0.0
 34
0.0
 15
0.0
 25
0.0
 35
0.0
146
0.0
 13
0.0
 23
0.0
 33
0.0
 16
1.0
 26
0.0
 36
0.0
 17
0.0
 27
1.0
 37
0.0
 76
     0
330
23
  0
LAYOUT
  5
22
102
{ACAD_REACTORS
330
1A
102
}
330
1A
100
AcDbPlotSettings
  1

  2
none_device
  4
Letter_(8.50_x_11.00_Inches)
  6

 40
6.35
 41
6.35
 42
6.35000508
 43
6.35000508
 44
215.9
 45
279.4
 46
0.0
 47
0.0
 48
0.0
 49
0.0
140
0.0
141
0.0
142
1.0
143
1.0
 70
  1712
 72
     1
 73
     0
 74
     0
  7

 75
     0
 76
     0
 77
     2
 78
   300
147
1.0
148
0.0
149
0.0
100
AcDbLayout
  1
Model
 70
     1
 71
     0
 10
0.0
 20
0.0
 11
420.0
 21
297.0
 12
0.0
 22
0.0
 32
0.0
 14
-56.0
 24
-195.3333333333333
 34
0.0
 15
55.70238095238095
 25
34.5
 35
0.0
146
0.0
 13
0.0
 23
0.0
 33
0.0
 16
1.0
 26
0.0
 36
0.0
 17
0.0
 27
1.0
 37
0.0
 76
     0
330
1F
331
29
  0
MATERIAL
  5
45
102
{ACAD_REACTORS
330
43
102
}
330
43
100
AcDbMaterial
  1
ByBlock
 72
     1
 94
      127
  0
MATERIAL
  5
44
102
{ACAD_REACTORS
330
43
102
}
330
43
100
AcDbMaterial
  1
ByLayer
 72
     1
 94
      127
  0
MATERIAL
  5
46
102
{ACAD_REACTORS
330
43
102
}
330
43
100
AcDbMaterial
  1
Global
 72
     1
 94
      127
  0
MLEADERSTYLE
  5
5C
102
{ACAD_REACTORS
330
5B
102
}
330
5B
100
AcDbMLeaderStyle
179
     2
170
     2
171
     1
172
     0
 90
        2
 40
0.0
 41
0.0
173
     1
 91
-1056964608
340
14
 92
       -2
290
     1
 42
2.0
291
     1
 43
8.0
  3
Standard
341
0
 44
4.0
300

342
11
174
     1
178
     6
175
     1
176
     0
 93
-1056964608
 45
4.0
292
     0
297
     0
 46
4.0
343
0
 94
-1056964608
 47
1.0
 49
1.0
140
1.0
293
     1
141
0.0
294
     1
177
     0
142
1.0
295
     0
296
     0
143
3.75
271
     0
272
     9
273
     9
298
     0
  0
MLINESTYLE
  5
18
102
{ACAD_REACTORS
330
17
102
}
330
17
100
AcDbMlineStyle
  2
Standard
 70
     0
  3

 62
   256
 51
90.0
 52
90.0
 71
     2
 49
0.5
 62
   256
  6
BYLAYER
 49
-0.5
 62
   256
  6
BYLAYER
  0
ACDBPLACEHOLDER
  5
F
102
{ACAD_REACTORS
330
E
102
}
330
E
  0
SCALE
  5
48
102
{ACAD_REACTORS
330
47
102
}
330
47
100
AcDbScale
 70
     0
300
1:1
140
1.0
141
1.0
290
     1
  0
SCALE
  5
49
102
{ACAD_REACTORS
330
47
102
}
330
47
100
AcDbScale
 70
     0
300
1:2
140
1.0
141
2.0
290
     0
  0
SCALE
  5
4A
102
{ACAD_REACTORS
330
47
102
}
330
47
100
AcDbScale
 70
     0
300
1:4
140
1.0
141
4.0
290
     0
  0
SCALE
  5
4B
102
{ACAD_REACTORS
330
47
102
}
330
47
100
AcDbScale
 70
     0
300
1:5
140
1.0
141
5.0
290
     0
  0
SCALE
  5
4C
102
{ACAD_REACTORS
330
47
102
}
330
47
100
AcDbScale
 70
     0
300
1:8
140
1.0
141
8.0
290
     0
  0
SCALE
  5
4D
102
{ACAD_REACTORS
330
47
102
}
330
47
100
AcDbScale
 70
     0
300
1:10
140
1.0
141
10.0
290
     0
  0
SCALE
  5
4E
102
{ACAD_REACTORS
330
47
102
}
330
47
100
AcDbScale
 70
     0
300
1:16
140
1.0
141
16.0
290
     0
  0
SCALE
  5
4F
102
{ACAD_REACTORS
330
47
102
}
330
47
100
AcDbScale
 70
     0
300
1:20
140
1.0
141
20.0
290
     0
  0
SCALE
  5
50
102
{ACAD_REACTORS
330
47
102
}
330
47
100
AcDbScale
 70
     0
300
1:30
140
1.0
141
30.0
290
     0
  0
SCALE
  5
51
102
{ACAD_REACTORS
330
47
102
}
330
47
100
AcDbScale
 70
     0
300
1:40
140
1.0
141
40.0
290
     0
  0
SCALE
  5
52
102
{ACAD_REACTORS
330
47
102
}
330
47
100
AcDbScale
 70
     0
300
1:50
140
1.0
141
50.0
290
     0
  0
SCALE
  5
53
102
{ACAD_REACTORS
330
47
102
}
330
47
100
AcDbScale
 70
     0
300
1:100
140
1.0
141
100.0
290
     0
  0
SCALE
  5
54
102
{ACAD_REACTORS
330
47
102
}
330
47
100
AcDbScale
 70
     0
300
2:1
140
2.0
141
1.0
290
     0
  0
SCALE
  5
55
102
{ACAD_REACTORS
330
47
102
}
330
47
100
AcDbScale
 70
     0
300
4:1
140
4.0
141
1.0
290
     0
  0
SCALE
  5
56
102
{ACAD_REACTORS
330
47
102
}
330
47
100
AcDbScale
 70
     0
300
8:1
140
8.0
141
1.0
290
     0
  0
SCALE
  5
57
102
{ACAD_REACTORS
330
47
102
}
330
47
100
AcDbScale
 70
     0
300
10:1
140
10.0
141
1.0
290
     0
  0
SCALE
  5
58
102
{ACAD_REACTORS
330
47
102
}
330
47
100
AcDbScale
 70
     0
300
100:1
140
100.0
141
1.0
290
     0
  0
TABLESTYLE
  5
5A
102
{ACAD_REACTORS
330
59
102
}
102
{ACAD_XDICTIONARY
360
3D7
102
}
330
59
100
AcDbTableStyle
  3
Standard
 70
     0
 71
     0
 40
0.06
 41
0.06
280
     0
281
     0
  7
Standard
140
4.5
170
     2
 62
     0
 63
   257
283
     0
 90
        4
 91
        0
  1

274
    -2
284
     1
 64
     0
275
    -2
285
     1
 65
     0
276
    -2
286
     1
 66
     0
277
    -2
287
     1
 67
     0
278
    -2
288
     1
 68
     0
279
    -2
289
     1
 69
     0
  7
Standard
140
6.0
170
     5
 62
     0
 63
   257
283
     0
 90
        4
 91
        0
  1

274
    -2
284
     1
 64
     0
275
    -2
285
     1
 65
     0
276
    -2
286
     1
 66
     0
277
    -2
287
     1
 67
     0
278
    -2
288
     1
 68
     0
279
    -2
289
     1
 69
     0
  7
Standard
140
4.5
170
     5
 62
     0
 63
   257
283
     0
 90
        4
 91
        0
  1

274
    -2
284
     1
 64
     0
275
    -2
285
     1
 65
     0
276
    -2
286
     1
 66
     0
277
    -2
287
     1
 67
     0
278
    -2
288
     1
 68
     0
279
    -2
289
     1
 69
     0
  0
VISUALSTYLE
  5
2F
102
{ACAD_REACTORS
330
2A
102
}
330
2A
100
AcDbVisualStyle
  2
2dWireframe
 70
     4
177
     3
291
     0
 70
    58
 90
        0
176
     1
 90
        2
176
     1
 90
        0
176
     1
 90
        0
176
     1
 40
0.6
176
     1
 40
30.0
176
     1
 62
     7
420
 16777215
176
     1
 90
        1
176
     1
 90
        4
176
     1
 62
     7
176
     1
 62
   257
176
     1
 90
        1
176
     1
 90
        1
176
     1
 40
1.0
176
     1
 90
        0
176
     1
 62
   257
176
     1
 40
1.0
176
     1
 90
        1
176
     1
 90
        6
176
     1
 90
        2
176
     1
 62
     7
176
     1
 90
        5
176
     1
 90
        0
176
     1
 90
        0
176
     1
290
     0
176
     1
 90
        1
176
     1
 40
0.0
176
     1
 90
        0
176
     1
290
     1
176
     1
290
     1
176
     1
290
     0
176
     1
290
     0
176
     1
290
     0
176
     1
290
     0
176
     1
290
     0
176
     1
290
     0
176
     1
290
     0
176
     1
 90
       50
176
     1
 40
0.0
176
     1
 40
1.0
176
     1
 90
        0
176
     1
 62
    18
420
        0
176
     1
 90
       50
176
     1
 90
        3
176
     1
 62
     5
420
      255
176
     1
290
     0
176
     1
 90
       50
176
     1
 90
       50
176
     1
 90
       50
176
     1
290
     0
176
     1
 90
       50
176
     1
 62
   256
176
     0
 40
1.0
176
     0
 90
        2
176
     1
  1
strokes_ogs.tif
176
     1
290
     0
176
     1
 40
1.0
176
     1
 40
1.0
176
     1
  0
VISUALSTYLE
  5
32
102
{ACAD_REACTORS
330
2A
102
}
330
2A
100
AcDbVisualStyle
  2
Basic
 70
     7
177
     3
291
     1
 70
    58
 90
        1
176
     1
 90
        0
176
     1
 90
        1
176
     1
 90
        0
176
     1
 40
0.6
176
     1
 40
30.0
176
     1
 62
     7
420
 16777215
176
     1
 90
        0
176
     1
 90
        4
176
     1
 62
     7
176
     1
 62
   257
176
     1
 90
        1
176
     1
 90
        1
176
     1
 40
1.0
176
     1
 90
        8
176
     1
 62
     7
176
     1
 40
1.0
176
     1
 90
        1
176
     1
 90
        6
176
     1
 90
        2
176
     1
 62
     7
176
     1
 90
        5
176
     1
 90
        0
176
     1
 90
        0
176
     1
290
     0
176
     1
 90
        1
176
     1
 40
0.0
176
     1
 90
        0
176
     1
290
     0
176
     1
290
     1
176
     1
290
     1
176
     1
290
     0
176
     1
290
     0
176
     1
290
     0
176
     1
290
     0
176
     1
290
     0
176
     1
290
     0
176
     1
 90
       50
176
     1
 40
0.0
176
     1
 40
1.0
176
     1
 90
        0
176
     1
 62
    18
420
        0
176
     1
 90
       50
176
     1
 90
        3
176
     1
 62
     5
420
      255
176
     1
290
     0
176
     1
 90
       50
176
     1
 90
       50
176
     1
 90
       50
176
     1
290
     0
176
     1
 90
       50
176
     1
 62
   256
176
     0
 40
1.0
176
     0
 90
        2
176
     1
  1
strokes_ogs.tif
176
     1
290
     0
176
     1
 40
1.0
176
     1
 40
1.0
176
     1
  0
VISUALSTYLE
  5
36
102
{ACAD_REACTORS
330
2A
102
}
330
2A
100
AcDbVisualStyle
  2
Brighten
 70
    12
177
     3
291
     1
 70
    58
 90
        2
176
     1
 90
        2
176
     1
 90
        0
176
     1
 90
        0
176
     1
 40
0.6
176
     1
 40
30.0
176
     1
 62
     7
420
 16777215
176
     1
 90
        1
176
     1
 90
        4
176
     1
 62
     7
176
     1
 62
   257
176
     1
 90
        1
176
     1
 90
        1
176
     1
 40
1.0
176
     1
 90
        8
176
     1
 62
     7
176
     1
 40
1.0
176
     1
 90
        1
176
     1
 90
        6
176
     1
 90
        2
176
     1
 62
     7
176
     1
 90
        5
176
     1
 90
        0
176
     1
 90
        0
176
     1
290
     0
176
     1
 90
        1
176
     1
 40
50.0
176
     1
 90
        0
176
     1
290
     0
176
     1
290
     1
176
     1
290
     1
176
     1
290
     0
176
     1
290
     0
176
     1
290
     0
176
     1
290
     0
176
     1
290
     0
176
     1
290
     0
176
     1
 90
       50
176
     1
 40
0.0
176
     1
 40
1.0
176
     1
 90
        0
176
     1
 62
    18
420
        0
176
     1
 90
       50
176
     1
 90
        3
176
     1
 62
     5
420
      255
176
     1
290
     0
176
     1
 90
       50
176
     1
 90
       50
176
     1
 90
       50
176
     1
290
     0
176
     1
 90
       50
176
     1
 62
   256
176
     0
 40
1.0
176
     0
 90
        2
176
     1
  1
strokes_ogs.tif
176
     1
290
     0
176
     1
 40
1.0
176
     1
 40
1.0
176
     1
  0
VISUALSTYLE
  5
3A
102
{ACAD_REACTORS
330
2A
102
}
330
2A
100
AcDbVisualStyle
  2
ColorChange
 70
    16
177
     3
291
     1
 70
    58
 90
        2
176
     1
 90
        2
176
     1
 90
        3
176
     1
 90
        0
176
     1
 40
0.6
176
     1
 40
30.0
176
     1
 62
     8
420
  8421504
176
     1
 90
        1
176
     1
 90
        4
176
     1
 62
     7
176
     1
 62
   257
176
     1
 90
        1
176
     1
 90
        1
176
     1
 40
1.0
176
     1
 90
        8
176
     1
 62
     8
420
  8421504
176
     1
 40
1.0
176
     1
 90
        1
176
     1
 90
        6
176
     1
 90
        2
176
     1
 62
     7
176
     1
 90
        5
176
     1
 90
        0
176
     1
 90
        0
176
     1
290
     0
176
     1
 90
        1
176
     1
 40
0.0
176
     1
 90
        0
176
     1
290
     0
176
     1
290
     1
176
     1
290
     1
176
     1
290
     0
176
     1
290
     0
176
     1
290
     0
176
     1
290
     0
176
     1
290
     0
176
     1
290
     0
176
     1
 90
       50
176
     1
 40
0.0
176
     1
 40
1.0
176
     1
 90
        0
176
     1
 62
    18
420
        0
176
     1
 90
       50
176
     1
 90
        3
176
     1
 62
     5
420
      255
176
     1
290
     0
176
     1
 90
       50
176
     1
 90
       50
176
     1
 90
       50
176
     1
290
     0
176
     1
 90
       50
176
     1
 62
   256
176
     0
 40
1.0
176
     0
 90
        2
176
     1
  1
strokes_ogs.tif
176
     1
290
     0
176
     1
 40
1.0
176
     1
 40
1.0
176
     1
  0
VISUALSTYLE
  5
34
102
{ACAD_REACTORS
330
2A
102
}
330
2A
100
AcDbVisualStyle
  2
Conceptual
 70
     9
177
     3
291
     0
 70
    58
 90
        3
176
     1
 90
        2
176
     1
 90
        0
176
     1
 90
        0
176
     1
 40
0.6
176
     1
 40
30.0
176
     1
 62
     7
420
 16777215
176
     1
 90
        2
176
     1
 90
        2
176
     1
 62
     7
176
     1
 62
   257
176
     1
 90
        1
176
     1
 90
        1
176
     1
 40
179.0
176
     1
 90
        8
176
     1
 62
     7
176
     1
 40
1.0
176
     1
 90
        1
176
     1
 90
        6
176
     1
 90
        2
176
     1
 62
     7
176
     1
 90
        3
176
     1
 90
        0
176
     1
 90
        0
176
     1
290
     0
176
     1
 90
        1
176
     1
 40
0.0
176
     1
 90
        0
176
     1
290
     0
176
     1
290
     1
176
     1
290
     1
176
     1
290
     0
176
     1
290
     0
176
     1
290
     0
176
     1
290
     0
176
     1
290
     0
176
     1
290
     0
176
     1
 90
       50
176
     1
 40
0.0
176
     1
 40
1.0
176
     1
 90
        0
176
     1
 62
    18
420
        0
176
     1
 90
       50
176
     1
 90
        3
176
     1
 62
     5
420
      255
176
     1
290
     0
176
     1
 90
       50
176
     1
 90
       50
176
     1
 90
       50
176
     1
290
     0
176
     1
 90
       50
176
     1
 62
   256
176
     0
 40
1.0
176
     0
 90
        2
176
     1
  1
strokes_ogs.tif
176
     1
290
     0
176
     1
 40
1.0
176
     1
 40
1.0
176
     1
  0
VISUALSTYLE
  5
35
102
{ACAD_REACTORS
330
2A
102
}
330
2A
100
AcDbVisualStyle
  2
Dim
 70
    11
177
     3
291
     1
 70
    58
 90
        2
176
     1
 90
        2
176
     1
 90
        0
176
     1
 90
        0
176
     1
 40
0.6
176
     1
 40
30.0
176
     1
 62
     7
420
 16777215
176
     1
 90
        1
176
     1
 90
        4
176
     1
 62
     7
176
     1
 62
   257
176
     1
 90
        1
176
     1
 90
        1
176
     1
 40
1.0
176
     1
 90
        8
176
     1
 62
     7
176
     1
 40
1.0
176
     1
 90
        1
176
     1
 90
        6
176
     1
 90
        2
176
     1
 62
     7
176
     1
 90
        5
176
     1
 90
        0
176
     1
 90
        0
176
     1
290
     0
176
     1
 90
        1
176
     1
 40
-50.0
176
     1
 90
        0
176
     1
290
     0
176
     1
290
     1
176
     1
290
     1
176
     1
290
     0
176
     1
290
     0
176
     1
290
     0
176
     1
290
     0
176
     1
290
     0
176
     1
290
     0
176
     1
 90
       50
176
     1
 40
0.0
176
     1
 40
1.0
176
     1
 90
        0
176
     1
 62
    18
420
        0
176
     1
 90
       50
176
     1
 90
        3
176
     1
 62
     5
420
      255
176
     1
290
     0
176
     1
 90
       50
176
     1
 90
       50
176
     1
 90
       50
176
     1
290
     0
176
     1
 90
       50
176
     1
 62
   256
176
     0
 40
1.0
176
     0
 90
        2
176
     1
  1
strokes_ogs.tif
176
     1
290
     0
176
     1
 40
1.0
176
     1
 40
1.0
176
     1
  0
VISUALSTYLE
  5
3D
102
{ACAD_REACTORS
330
2A
102
}
330
2A
100
AcDbVisualStyle
  2
EdgeColorOff
 70
    22
177
     3
291
     1
 70
    58
 90
        2
176
     0
 90
        2
176
     0
 90
        0
176
     0
 90
        0
176
     0
 40
0.6
176
     0
 40
30.0
176
     0
 62
     7
420
 16777215
176
     0
 90
        1
176
     0
 90
        4
176
     0
 62
     7
176
     0
 62
   257
176
     0
 90
        1
176
     0
 90
        1
176
     0
 40
1.0
176
     0
 90
        8
176
     2
 62
     7
176
     0
 40
1.0
176
     0
 90
        1
176
     0
 90
        6
176
     0
 90
        2
176
     0
 62
     7
176
     0
 90
        5
176
     0
 90
        0
176
     0
 90
        0
176
     0
290
     0
176
     0
 90
        1
176
     0
 40
0.0
176
     0
 90
        0
176
     0
290
     0
176
     0
290
     1
176
     0
290
     1
176
     0
290
     0
176
     0
290
     0
176
     0
290
     0
176
     0
290
     0
176
     0
290
     0
176
     0
290
     0
176
     0
 90
       50
176
     0
 40
0.0
176
     0
 40
1.0
176
     0
 90
        0
176
     0
 62
    18
420
        0
176
     0
 90
       50
176
     0
 90
        3
176
     0
 62
     5
420
      255
176
     0
290
     0
176
     0
 90
       50
176
     0
 90
       50
176
     0
 90
       50
176
     0
290
     0
176
     0
 90
       50
176
     0
 62
   256
176
     0
 40
1.0
176
     0
 90
        2
176
     0
  1
strokes_ogs.tif
176
     0
290
     0
176
     0
 40
1.0
176
     0
 40
1.0
176
     0
  0
VISUALSTYLE
  5
39
102
{ACAD_REACTORS
330
2A
102
}
330
2A
100
AcDbVisualStyle
  2
Facepattern
 70
    15
177
     3
291
     1
 70
    58
 90
        2
176
     1
 90
        2
176
     1
 90
        0
176
     1
 90
        0
176
     1
 40
0.6
176
     1
 40
30.0
176
     1
 62
     7
420
 16777215
176
     1
 90
        1
176
     1
 90
        4
176
     1
 62
     7
176
     1
 62
   257
176
     1
 90
        1
176
     1
 90
        1
176
     1
 40
1.0
176
     1
 90
        8
176
     1
 62
     7
176
     1
 40
1.0
176
     1
 90
        1
176
     1
 90
        6
176
     1
 90
        2
176
     1
 62
     7
176
     1
 90
        5
176
     1
 90
        0
176
     1
 90
        0
176
     1
290
     0
176
     1
 90
        1
176
     1
 40
0.0
176
     1
 90
        0
176
     1
290
     0
176
     1
290
     1
176
     1
290
     1
176
     1
290
     0
176
     1
290
     0
176
     1
290
     0
176
     1
290
     0
176
     1
290
     0
176
     1
290
     0
176
     1
 90
       50
176
     1
 40
0.0
176
     1
 40
1.0
176
     1
 90
        0
176
     1
 62
    18
420
        0
176
     1
 90
       50
176
     1
 90
        3
176
     1
 62
     5
420
      255
176
     1
290
     0
176
     1
 90
       50
176
     1
 90
       50
176
     1
 90
       50
176
     1
290
     0
176
     1
 90
       50
176
     1
 62
   256
176
     0
 40
1.0
176
     0
 90
        2
176
     1
  1
strokes_ogs.tif
176
     1
290
     0
176
     1
 40
1.0
176
     1
 40
1.0
176
     1
  0
VISUALSTYLE
  5
2B
102
{ACAD_REACTORS
330
2A
102
}
330
2A
100
AcDbVisualStyle
  2
Flat
 70
     0
177
     3
291
     1
 70
    58
 90
        2
176
     1
 90
        1
176
     1
 90
        1
176
     1
 90
        2
176
     1
 40
0.6
176
     1
 40
30.0
176
     1
 62
     7
420
 16777215
176
     1
 90
        0
176
     1
 90
        0
176
     1
 62
     7
176
     1
 62
   257
176
     1
 90
        1
176
     1
 90
        1
176
     1
 40
1.0
176
     1
 90
        8
176
     1
 62
     7
176
     1
 40
1.0
176
     1
 90
        1
176
     1
 90
        6
176
     1
 90
        2
176
     1
 62
     7
176
     1
 90
        5
176
     1
 90
        0
176
     1
 90
        0
176
     1
290
     0
176
     1
 90
       13
176
     1
 40
0.0
176
     1
 90
        0
176
     1
290
     0
176
     1
290
     1
176
     1
290
     1
176
     1
290
     0
176
     1
290
     0
176
     1
290
     0
176
     1
290
     0
176
     1
290
     0
176
     1
290
     0
176
     1
 90
       50
176
     1
 40
0.0
176
     1
 40
1.0
176
     1
 90
        0
176
     1
 62
    18
420
        0
176
     1
 90
       50
176
     1
 90
        3
176
     1
 62
     5
420
      255
176
     1
290
     0
176
     1
 90
       50
176
     1
 90
       50
176
     1
 90
       50
176
     1
290
     0
176
     1
 90
       50
176
     1
 62
   256
176
     0
 40
1.0
176
     0
 90
        2
176
     1
  1
strokes_ogs.tif
176
     1
290
     0
176
     1
 40
1.0
176
     1
 40
1.0
176
     1
  0
VISUALSTYLE
  5
2C
102
{ACAD_REACTORS
330
2A
102
}
330
2A
100
AcDbVisualStyle
  2
FlatWithEdges
 70
     1
177
     3
291
     1
 70
    58
 90
        2
176
     1
 90
        1
176
     1
 90
        1
176
     1
 90
        2
176
     1
 40
0.6
176
     1
 40
30.0
176
     1
 62
     7
420
 16777215
176
     1
 90
        1
176
     1
 90
        0
176
     1
 62
     7
176
     1
 62
   257
176
     1
 90
        1
176
     1
 90
        1
176
     1
 40
1.0
176
     1
 90
        0
176
     1
 62
   257
176
     1
 40
1.0
176
     1
 90
        1
176
     1
 90
        6
176
     1
 90
        2
176
     1
 62
     7
176
     1
 90
        5
176
     1
 90
        0
176
     1
 90
        0
176
     1
290
     0
176
     1
 90
       13
176
     1
 40
0.0
176
     1
 90
        0
176
     1
290
     0
176
     1
290
     1
176
     1
290
     1
176
     1
290
     0
176
     1
290
     0
176
     1
290
     0
176
     1
290
     0
176
     1
290
     0
176
     1
290
     0
176
     1
 90
       50
176
     1
 40
0.0
176
     1
 40
1.0
176
     1
 90
        0
176
     1
 62
    18
420
        0
176
     1
 90
       50
176
     1
 90
        3
176
     1
 62
     5
420
      255
176
     1
290
     0
176
     1
 90
       50
176
     1
 90
       50
176
     1
 90
       50
176
     1
290
     0
176
     1
 90
       50
176
     1
 62
   256
176
     0
 40
1.0
176
     0
 90
        2
176
     1
  1
strokes_ogs.tif
176
     1
290
     0
176
     1
 40
1.0
176
     1
 40
1.0
176
     1
  0
VISUALSTYLE
  5
2D
102
{ACAD_REACTORS
330
2A
102
}
330
2A
100
AcDbVisualStyle
  2
Gouraud
 70
     2
177
     3
291
     1
 70
    58
 90
        2
176
     1
 90
        2
176
     1
 90
        1
176
     1
 90
        2
176
     1
 40
0.6
176
     1
 40
30.0
176
     1
 62
     7
420
 16777215
176
     1
 90
        0
176
     1
 90
        0
176
     1
 62
     7
176
     1
 62
   257
176
     1
 90
        1
176
     1
 90
        1
176
     1
 40
1.0
176
     1
 90
        0
176
     1
 62
     7
176
     1
 40
1.0
176
     1
 90
        1
176
     1
 90
        6
176
     1
 90
        2
176
     1
 62
     7
176
     1
 90
        5
176
     1
 90
        0
176
     1
 90
        0
176
     1
290
     0
176
     1
 90
       13
176
     1
 40
0.0
176
     1
 90
        0
176
     1
290
     0
176
     1
290
     1
176
     1
290
     1
176
     1
290
     0
176
     1
290
     0
176
     1
290
     0
176
     1
290
     0
176
     1
290
     0
176
     1
290
     0
176
     1
 90
       50
176
     1
 40
0.0
176
     1
 40
1.0
176
     1
 90
        0
176
     1
 62
    18
420
        0
176
     1
 90
       50
176
     1
 90
        3
176
     1
 62
     5
420
      255
176
     1
290
     0
176
     1
 90
       50
176
     1
 90
       50
176
     1
 90
       50
176
     1
290
     0
176
     1
 90
       50
176
     1
 62
   256
176
     0
 40
1.0
176
     0
 90
        2
176
     1
  1
strokes_ogs.tif
176
     1
290
     0
176
     1
 40
1.0
176
     1
 40
1.0
176
     1
  0
VISUALSTYLE
  5
2E
102
{ACAD_REACTORS
330
2A
102
}
330
2A
100
AcDbVisualStyle
  2
GouraudWithEdges
 70
     3
177
     3
291
     1
 70
    58
 90
        2
176
     1
 90
        2
176
     1
 90
        1
176
     1
 90
        2
176
     1
 40
0.6
176
     1
 40
30.0
176
     1
 62
     7
420
 16777215
176
     1
 90
        1
176
     1
 90
        0
176
     1
 62
     7
176
     1
 62
   257
176
     1
 90
        1
176
     1
 90
        1
176
     1
 40
1.0
176
     1
 90
        0
176
     1
 62
   257
176
     1
 40
1.0
176
     1
 90
        1
176
     1
 90
        6
176
     1
 90
        2
176
     1
 62
     7
176
     1
 90
        5
176
     1
 90
        0
176
     1
 90
        0
176
     1
290
     0
176
     1
 90
       13
176
     1
 40
0.0
176
     1
 90
        0
176
     1
290
     0
176
     1
290
     1
176
     1
290
     1
176
     1
290
     0
176
     1
290
     0
176
     1
290
     0
176
     1
290
     0
176
     1
290
     0
176
     1
290
     0
176
     1
 90
       50
176
     1
 40
0.0
176
     1
 40
1.0
176
     1
 90
        0
176
     1
 62
    18
420
        0
176
     1
 90
       50
176
     1
 90
        3
176
     1
 62
     5
420
      255
176
     1
290
     0
176
     1
 90
       50
176
     1
 90
       50
176
     1
 90
       50
176
     1
290
     0
176
     1
 90
       50
176
     1
 62
   256
176
     0
 40
1.0
176
     0
 90
        2
176
     1
  1
strokes_ogs.tif
176
     1
290
     0
176
     1
 40
1.0
176
     1
 40
1.0
176
     1
  0
VISUALSTYLE
  5
31
102
{ACAD_REACTORS
330
2A
102
}
330
2A
100
AcDbVisualStyle
  2
Hidden
 70
     6
177
     3
291
     0
 70
    58
 90
        1
176
     1
 90
        2
176
     1
 90
        2
176
     1
 90
        0
176
     1
 40
0.6
176
     1
 40
30.0
176
     1
 62
     7
420
 16777215
176
     1
 90
        2
176
     1
 90
        2
176
     1
 62
     7
176
     1
 62
   257
176
     1
 90
        2
176
     1
 90
        1
176
     1
 40
40.0
176
     1
 90
        0
176
     1
 62
   257
176
     1
 40
1.0
176
     1
 90
        1
176
     1
 90
        6
176
     1
 90
        2
176
     1
 62
     7
176
     1
 90
        3
176
     1
 90
        0
176
     1
 90
        0
176
     1
290
     0
176
     1
 90
        1
176
     1
 40
0.0
176
     1
 90
        0
176
     1
290
     0
176
     1
290
     1
176
     1
290
     1
176
     1
290
     0
176
     1
290
     0
176
     1
290
     0
176
     1
290
     0
176
     1
290
     0
176
     1
290
     0
176
     1
 90
       50
176
     1
 40
0.0
176
     1
 40
1.0
176
     1
 90
        0
176
     1
 62
    18
420
        0
176
     1
 90
       50
176
     1
 90
        3
176
     1
 62
     5
420
      255
176
     1
290
     0
176
     1
 90
       50
176
     1
 90
       50
176
     1
 90
       50
176
     1
290
     0
176
     1
 90
       50
176
     1
 62
   256
176
     0
 40
1.0
176
     0
 90
        2
176
     1
  1
strokes_ogs.tif
176
     1
290
     0
176
     1
 40
1.0
176
     1
 40
1.0
176
     1
  0
VISUALSTYLE
  5
3B
102
{ACAD_REACTORS
330
2A
102
}
330
2A
100
AcDbVisualStyle
  2
JitterOff
 70
    20
177
     3
291
     1
 70
    58
 90
        2
176
     0
 90
        2
176
     0
 90
        0
176
     0
 90
        0
176
     0
 40
0.6
176
     0
 40
30.0
176
     0
 62
     7
420
 16777215
176
     0
 90
        1
176
     0
 90
        4
176
     0
 62
     7
176
     0
 62
   257
176
     0
 90
        1
176
     0
 90
        1
176
     0
 40
1.0
176
     0
 90
       10
176
     2
 62
     7
176
     0
 40
1.0
176
     0
 90
        1
176
     0
 90
        6
176
     0
 90
        2
176
     0
 62
     7
176
     0
 90
        5
176
     0
 90
        0
176
     0
 90
        0
176
     0
290
     0
176
     0
 90
        1
176
     0
 40
0.0
176
     0
 90
        0
176
     0
290
     0
176
     0
290
     1
176
     0
290
     1
176
     0
290
     0
176
     0
290
     0
176
     0
290
     0
176
     0
290
     0
176
     0
290
     0
176
     0
290
     0
176
     0
 90
       50
176
     0
 40
0.0
176
     0
 40
1.0
176
     0
 90
        0
176
     0
 62
    18
420
        0
176
     0
 90
       50
176
     0
 90
        3
176
     0
 62
     5
420
      255
176
     0
290
     0
176
     0
 90
       50
176
     0
 90
       50
176
     0
 90
       50
176
     0
290
     0
176
     0
 90
       50
176
     0
 62
   256
176
     0
 40
1.0
176
     0
 90
        2
176
     0
  1
strokes_ogs.tif
176
     0
290
     0
176
     0
 40
1.0
176
     0
 40
1.0
176
     0
  0
VISUALSTYLE
  5
38
102
{ACAD_REACTORS
330
2A
102
}
330
2A
100
AcDbVisualStyle
  2
Linepattern
 70
    14
177
     3
291
     1
 70
    58
 90
        2
176
     1
 90
        2
176
     1
 90
        0
176
     1
 90
        0
176
     1
 40
0.6
176
     1
 40
30.0
176
     1
 62
     7
420
 16777215
176
     1
 90
        1
176
     1
 90
        4
176
     1
 62
     7
176
     1
 62
   257
176
     1
 90
        7
176
     1
 90
        7
176
     1
 40
1.0
176
     1
 90
        8
176
     1
 62
     7
176
     1
 40
1.0
176
     1
 90
        1
176
     1
 90
        6
176
     1
 90
        2
176
     1
 62
     7
176
     1
 90
        5
176
     1
 90
        0
176
     1
 90
        0
176
     1
290
     0
176
     1
 90
        1
176
     1
 40
0.0
176
     1
 90
        0
176
     1
290
     0
176
     1
290
     1
176
     1
290
     1
176
     1
290
     0
176
     1
290
     0
176
     1
290
     0
176
     1
290
     0
176
     1
290
     0
176
     1
290
     0
176
     1
 90
       50
176
     1
 40
0.0
176
     1
 40
1.0
176
     1
 90
        0
176
     1
 62
    18
420
        0
176
     1
 90
       50
176
     1
 90
        3
176
     1
 62
     5
420
      255
176
     1
290
     0
176
     1
 90
       50
176
     1
 90
       50
176
     1
 90
       50
176
     1
290
     0
176
     1
 90
       50
176
     1
 62
   256
176
     0
 40
1.0
176
     0
 90
        2
176
     1
  1
strokes_ogs.tif
176
     1
290
     0
176
     1
 40
1.0
176
     1
 40
1.0
176
     1
  0
VISUALSTYLE
  5
3C
102
{ACAD_REACTORS
330
2A
102
}
330
2A
100
AcDbVisualStyle
  2
OverhangOff
 70
    21
177
     3
291
     1
 70
    58
 90
        2
176
     0
 90
        2
176
     0
 90
        0
176
     0
 90
        0
176
     0
 40
0.6
176
     0
 40
30.0
176
     0
 62
     7
420
 16777215
176
     0
 90
        1
176
     0
 90
        4
176
     0
 62
     7
176
     0
 62
   257
176
     0
 90
        1
176
     0
 90
        1
176
     0
 40
1.0
176
     0
 90
        9
176
     2
 62
     7
176
     0
 40
1.0
176
     0
 90
        1
176
     0
 90
        6
176
     0
 90
        2
176
     0
 62
     7
176
     0
 90
        5
176
     0
 90
        0
176
     0
 90
        0
176
     0
290
     0
176
     0
 90
        1
176
     0
 40
0.0
176
     0
 90
        0
176
     0
290
     0
176
     0
290
     1
176
     0
290
     1
176
     0
290
     0
176
     0
290
     0
176
     0
290
     0
176
     0
290
     0
176
     0
290
     0
176
     0
290
     0
176
     0
 90
       50
176
     0
 40
0.0
176
     0
 40
1.0
176
     0
 90
        0
176
     0
 62
    18
420
        0
176
     0
 90
       50
176
     0
 90
        3
176
     0
 62
     5
420
      255
176
     0
290
     0
176
     0
 90
       50
176
     0
 90
       50
176
     0
 90
       50
176
     0
290
     0
176
     0
 90
       50
176
     0
 62
   256
176
     0
 40
1.0
176
     0
 90
        2
176
     0
  1
strokes_ogs.tif
176
     0
290
     0
176
     0
 40
1.0
176
     0
 40
1.0
176
     0
  0
VISUALSTYLE
  5
33
102
{ACAD_REACTORS
330
2A
102
}
330
2A
100
AcDbVisualStyle
  2
Realistic
 70
     8
177
     3
291
     0
 70
    58
 90
        2
176
     1
 90
        3
176
     1
 90
        0
176
     1
 90
        2
176
     1
 40
0.6
176
     1
 40
30.0
176
     1
 62
     7
420
 16777215
176
     1
 90
        0
176
     1
 90
        0
176
     1
 62
     7
176
     1
 62
   257
176
     1
 90
        1
176
     1
 90
        1
176
     1
 40
1.0
176
     1
 90
        8
176
     1
 62
   257
176
     1
 40
1.0
176
     1
 90
        1
176
     1
 90
        6
176
     1
 90
        2
176
     1
 62
     7
176
     1
 90
        3
176
     1
 90
        0
176
     1
 90
        0
176
     1
290
     0
176
     1
 90
       13
176
     1
 40
0.0
176
     1
 90
        0
176
     1
290
     0
176
     1
290
     1
176
     1
290
     1
176
     1
290
     0
176
     1
290
     0
176
     1
290
     0
176
     1
290
     0
176
     1
290
     0
176
     1
290
     0
176
     1
 90
       50
176
     1
 40
0.0
176
     1
 40
1.0
176
     1
 90
        0
176
     1
 62
    18
420
        0
176
     1
 90
       50
176
     1
 90
        3
176
     1
 62
     5
420
      255
176
     1
290
     0
176
     1
 90
       50
176
     1
 90
       50
176
     1
 90
       50
176
     1
290
     0
176
     1
 90
       50
176
     1
 62
   256
176
     0
 40
1.0
176
     0
 90
        2
176
     1
  1
strokes_ogs.tif
176
     1
290
     0
176
     1
 40
1.0
176
     1
 40
1.0
176
     1
  0
VISUALSTYLE
  5
42
102
{ACAD_REACTORS
330
2A
102
}
330
2A
100
AcDbVisualStyle
  2
Shaded
 70
    27
177
     3
291
     0
 70
    58
 90
        2
176
     1
 90
        2
176
     1
 90
        1
176
     1
 90
        2
176
     1
 40
0.6
176
     1
 40
30.0
176
     1
 62
     7
420
 16777215
176
     1
 90
        0
176
     1
 90
        4
176
     1
 62
     7
176
     1
 62
   257
176
     1
 90
        1
176
     1
 90
        1
176
     1
 40
1.0
176
     1
 90
        8
176
     1
 62
   257
176
     1
 40
1.0
176
     1
 90
        1
176
     1
 90
        6
176
     1
 90
        2
176
     1
 62
     8
420
  7895160
176
     1
 90
        3
176
     1
 90
        0
176
     1
 90
        0
176
     1
290
     0
176
     1
 90
        5
176
     1
 40
0.0
176
     1
 90
        0
176
     1
290
     0
176
     1
290
     1
176
     1
290
     1
176
     1
290
     0
176
     1
290
     0
176
     1
290
     0
176
     1
290
     0
176
     1
290
     0
176
     1
290
     0
176
     1
 90
       50
176
     1
 40
0.0
176
     1
 40
1.0
176
     1
 90
        0
176
     1
 62
    18
420
        0
176
     1
 90
       50
176
     1
 90
        3
176
     1
 62
     5
420
      255
176
     1
290
     0
176
     1
 90
       50
176
     1
 90
       50
176
     1
 90
       50
176
     1
290
     0
176
     1
 90
       50
176
     1
 62
   256
176
     0
 40
1.0
176
     0
 90
        2
176
     1
  1
strokes_ogs.tif
176
     1
290
     0
176
     1
 40
1.0
176
     1
 40
1.0
176
     1
  0
VISUALSTYLE
  5
41
102
{ACAD_REACTORS
330
2A
102
}
330
2A
100
AcDbVisualStyle
  2
Shaded with edges
 70
    26
177
     3
291
     0
 70
    58
 90
        2
176
     1
 90
        2
176
     1
 90
        1
176
     1
 90
        2
176
     1
 40
0.6
176
     1
 40
30.0
176
     1
 62
     7
420
 16777215
176
     1
 90
        1
176
     1
 90
       10
176
     1
 62
     7
176
     1
 62
   257
176
     1
 90
        2
176
     1
 90
        1
176
     1
 40
1.0
176
     1
 90
        8
176
     1
 62
   257
176
     1
 40
1.0
176
     1
 90
        1
176
     1
 90
        6
176
     1
 90
        2
176
     1
 62
     7
176
     1
 90
        3
176
     1
 90
        0
176
     1
 90
        0
176
     1
290
     0
176
     1
 90
        5
176
     1
 40
0.0
176
     1
 90
        0
176
     1
290
     0
176
     1
290
     1
176
     1
290
     1
176
     1
290
     0
176
     1
290
     0
176
     1
290
     0
176
     1
290
     0
176
     1
290
     0
176
     1
290
     0
176
     1
 90
       50
176
     1
 40
0.0
176
     1
 40
1.0
176
     1
 90
        0
176
     1
 62
    18
420
        0
176
     1
 90
       50
176
     1
 90
        3
176
     1
 62
     5
420
      255
176
     1
290
     0
176
     1
 90
       50
176
     1
 90
       50
176
     1
 90
       50
176
     1
290
     0
176
     1
 90
       50
176
     1
 62
   256
176
     0
 40
1.0
176
     0
 90
        2
176
     1
  1
strokes_ogs.tif
176
     1
290
     0
176
     1
 40
1.0
176
     1
 40
1.0
176
     1
  0
VISUALSTYLE
  5
3E
102
{ACAD_REACTORS
330
2A
102
}
330
2A
100
AcDbVisualStyle
  2
Shades of Gray
 70
    23
177
     3
291
     0
 70
    58
 90
        2
176
     1
 90
        2
176
     1
 90
        3
176
     1
 90
        0
176
     1
 40
0.6
176
     1
 40
30.0
176
     1
 62
     7
420
 16777215
176
     1
 90
        2
176
     1
 90
        2
176
     1
 62
     7
176
     1
 62
     7
176
     1
 90
        1
176
     1
 90
        1
176
     1
 40
40.0
176
     1
 90
        8
176
     1
 62
     7
176
     1
 40
1.0
176
     1
 90
        1
176
     1
 90
        6
176
     1
 90
        2
176
     1
 62
     7
176
     1
 90
        3
176
     1
 90
        0
176
     1
 90
        0
176
     1
290
     0
176
     1
 90
        1
176
     1
 40
0.0
176
     1
 90
        0
176
     1
290
     0
176
     1
290
     1
176
     1
290
     1
176
     1
290
     0
176
     1
290
     0
176
     1
290
     0
176
     1
290
     0
176
     1
290
     0
176
     1
290
     0
176
     1
 90
       50
176
     1
 40
0.0
176
     1
 40
1.0
176
     1
 90
        0
176
     1
 62
    18
420
        0
176
     1
 90
       50
176
     1
 90
        3
176
     1
 62
     5
420
      255
176
     1
290
     0
176
     1
 90
       50
176
     1
 90
       50
176
     1
 90
       50
176
     1
290
     0
176
     1
 90
       50
176
     1
 62
   256
176
     0
 40
1.0
176
     0
 90
        2
176
     1
  1
strokes_ogs.tif
176
     1
290
     0
176
     1
 40
1.0
176
     1
 40
1.0
176
     1
  0
VISUALSTYLE
  5
3F
102
{ACAD_REACTORS
330
2A
102
}
330
2A
100
AcDbVisualStyle
  2
Sketchy
 70
    24
177
     3
291
     0
 70
    58
 90
        1
176
     1
 90
        2
176
     1
 90
        2
176
     1
 90
        0
176
     1
 40
0.6
176
     1
 40
30.0
176
     1
 62
     7
420
 16777215
176
     1
 90
        2
176
     1
 90
        2
176
     1
 62
     7
176
     1
 62
     7
176
     1
 90
        1
176
     1
 90
        1
176
     1
 40
40.0
176
     1
 90
       11
176
     1
 62
     7
176
     1
 40
1.0
176
     1
 90
        1
176
     1
 90
        6
176
     1
 90
        2
176
     1
 62
     7
176
     1
 90
        6
176
     1
 90
        0
176
     1
 90
        0
176
     1
290
     0
176
     1
 90
        1
176
     1
 40
0.0
176
     1
 90
        0
176
     1
290
     0
176
     1
290
     1
176
     1
290
     1
176
     1
290
     0
176
     1
290
     0
176
     1
290
     0
176
     1
290
     0
176
     1
290
     0
176
     1
290
     0
176
     1
 90
       50
176
     1
 40
0.0
176
     1
 40
1.0
176
     1
 90
        0
176
     1
 62
    18
420
        0
176
     1
 90
       50
176
     1
 90
        3
176
     1
 62
     5
420
      255
176
     1
290
     0
176
     1
 90
       50
176
     1
 90
       50
176
     1
 90
       50
176
     1
290
     0
176
     1
 90
       50
176
     1
 62
   256
176
     0
 40
1.0
176
     0
 90
        2
176
     1
  1
strokes_ogs.tif
176
     1
290
     0
176
     1
 40
1.0
176
     1
 40
1.0
176
     1
  0
VISUALSTYLE
  5
37
102
{ACAD_REACTORS
330
2A
102
}
330
2A
100
AcDbVisualStyle
  2
Thicken
 70
    13
177
     3
291
     1
 70
    58
 90
        2
176
     1
 90
        2
176
     1
 90
        0
176
     1
 90
        0
176
     1
 40
0.6
176
     1
 40
30.0
176
     1
 62
     7
420
 16777215
176
     1
 90
        1
176
     1
 90
        4
176
     1
 62
     7
176
     1
 62
   257
176
     1
 90
        1
176
     1
 90
        1
176
     1
 40
1.0
176
     1
 90
       12
176
     1
 62
     7
176
     1
 40
1.0
176
     1
 90
        1
176
     1
 90
        6
176
     1
 90
        2
176
     1
 62
     7
176
     1
 90
        5
176
     1
 90
        0
176
     1
 90
        0
176
     1
290
     0
176
     1
 90
        1
176
     1
 40
0.0
176
     1
 90
        0
176
     1
290
     0
176
     1
290
     1
176
     1
290
     1
176
     1
290
     0
176
     1
290
     0
176
     1
290
     0
176
     1
290
     0
176
     1
290
     0
176
     1
290
     0
176
     1
 90
       50
176
     1
 40
0.0
176
     1
 40
1.0
176
     1
 90
        0
176
     1
 62
    18
420
        0
176
     1
 90
       50
176
     1
 90
        3
176
     1
 62
     5
420
      255
176
     1
290
     0
176
     1
 90
       50
176
     1
 90
       50
176
     1
 90
       50
176
     1
290
     0
176
     1
 90
       50
176
     1
 62
   256
176
     0
 40
1.0
176
     0
 90
        2
176
     1
  1
strokes_ogs.tif
176
     1
290
     0
176
     1
 40
1.0
176
     1
 40
1.0
176
     1
  0
VISUALSTYLE
  5
30
102
{ACAD_REACTORS
330
2A
102
}
330
2A
100
AcDbVisualStyle
  2
Wireframe
 70
     5
177
     3
291
     0
 70
    58
 90
        0
176
     1
 90
        2
176
     1
 90
        0
176
     1
 90
        0
176
     1
 40
0.6
176
     1
 40
30.0
176
     1
 62
     7
420
 16777215
176
     1
 90
        1
176
     1
 90
        4
176
     1
 62
     7
176
     1
 62
   257
176
     1
 90
        1
176
     1
 90
        1
176
     1
 40
1.0
176
     1
 90
        0
176
     1
 62
   257
176
     1
 40
1.0
176
     1
 90
        1
176
     1
 90
        6
176
     1
 90
        2
176
     1
 62
     7
176
     1
 90
        3
176
     1
 90
        0
176
     1
 90
        0
176
     1
290
     0
176
     1
 90
        1
176
     1
 40
0.0
176
     1
 90
        0
176
     1
290
     0
176
     1
290
     1
176
     1
290
     1
176
     1
290
     0
176
     1
290
     0
176
     1
290
     0
176
     1
290
     0
176
     1
290
     0
176
     1
290
     0
176
     1
 90
       50
176
     1
 40
0.0
176
     1
 40
1.0
176
     1
 90
        0
176
     1
 62
    18
420
        0
176
     1
 90
       50
176
     1
 90
        3
176
     1
 62
     5
420
      255
176
     1
290
     0
176
     1
 90
       50
176
     1
 90
       50
176
     1
 90
       50
176
     1
290
     0
176
     1
 90
       50
176
     1
 62
   256
176
     0
 40
1.0
176
     0
 90
        2
176
     1
  1
strokes_ogs.tif
176
     1
290
     0
176
     1
 40
1.0
176
     1
 40
1.0
176
     1
  0
VISUALSTYLE
  5
40
102
{ACAD_REACTORS
330
2A
102
}
330
2A
100
AcDbVisualStyle
  2
X-Ray
 70
    25
177
     3
291
     0
 70
    58
 90
        2
176
     1
 90
        2
176
     1
 90
        1
176
     1
 90
        1
176
     1
 40
0.5
176
     1
 40
30.0
176
     1
 62
     7
420
 16777215
176
     1
 90
        1
176
     1
 90
        0
176
     1
 62
     7
176
     1
 62
   257
176
     1
 90
        1
176
     1
 90
        1
176
     1
 40
1.0
176
     1
 90
        8
176
     1
 62
     7
176
     1
 40
1.0
176
     1
 90
        1
176
     1
 90
        6
176
     1
 90
        2
176
     1
 62
     7
176
     1
 90
        3
176
     1
 90
        0
176
     1
 90
        0
176
     1
290
     0
176
     1
 90
       13
176
     1
 40
0.0
176
     1
 90
        0
176
     1
290
     0
176
     1
290
     1
176
     1
290
     1
176
     1
290
     0
176
     1
290
     0
176
     1
290
     0
176
     1
290
     0
176
     1
290
     0
176
     1
290
     0
176
     1
 90
       50
176
     1
 40
0.0
176
     1
 40
1.0
176
     1
 90
        0
176
     1
 62
    18
420
        0
176
     1
 90
       50
176
     1
 90
        3
176
     1
 62
     5
420
      255
176
     1
290
     0
176
     1
 90
       50
176
     1
 90
       50
176
     1
 90
       50
176
     1
290
     0
176
     1
 90
       50
176
     1
 62
   256
176
     0
 40
1.0
176
     0
 90
        2
176
     1
  1
strokes_ogs.tif
176
     1
290
     0
176
     1
 40
1.0
176
     1
 40
1.0
176
     1
  0
DICTIONARYVAR
  5
3D6
102
{ACAD_REACTORS
330
3D5
102
}
330
3D5
100
DictionaryVariables
280
     0
  1
1:1
  0
DICTIONARYVAR
  5
3DE
102
{ACAD_REACTORS
330
3D5
102
}
330
3D5
100
DictionaryVariables
280
     0
  1
3.500000
  0
DICTIONARYVAR
  5
3DF
102
{ACAD_REACTORS
330
3D5
102
}
330
3D5
100
DictionaryVariables
280
     0
  1
acadiso.lin
  0
DICTIONARYVAR
  5
3DB
102
{ACAD_REACTORS
330
3D5
102
}
330
3D5
100
DictionaryVariables
280
     0
  1
Standard
  0
DICTIONARYVAR
  5
3DA
102
{ACAD_REACTORS
330
3D5
102
}
330
3D5
100
DictionaryVariables
280
     0
  1
Standard
  0
DICTIONARY
  5
3D7
330
5A
100
AcDbDictionary
280
     1
281
     1
  3
ACAD_ROUNDTRIP_2008_TABLESTYLE_CELLSTYLEMAP
360
3D8
  0
CELLSTYLEMAP
  5
3D8
102
{ACAD_REACTORS
330
3D7
102
}
330
3D7
100
AcDbCellStyleMap
 90
        3
300
CELLSTYLE
  1
TABLEFORMAT_BEGIN
 90
        5
170
     1
 91
        0
 92
    32768
 62
   257
 93
        1
300
CONTENTFORMAT
  1
CONTENTFORMAT_BEGIN
 90
        0
 91
        0
 92
        4
 93
        0
300

 40
0.0
140
1.0
 94
        5
 62
     0
340
11
144
6.0
309
CONTENTFORMAT_END
171
     1
301
MARGIN
  1
CELLMARGIN_BEGIN
 40
1.5
 40
1.5
 40
1.5
 40
1.5
 40
1.5
 40
1.5
309
CELLMARGIN_END
 94
        6
 95
        1
302
GRIDFORMAT
  1
GRIDFORMAT_BEGIN
 90
        0
 91
        1
 62
     0
 92
       -2
340
14
 93
        0
 40
0.045
309
GRIDFORMAT_END
 95
        2
302
GRIDFORMAT
  1
GRIDFORMAT_BEGIN
 90
        0
 91
        1
 62
     0
 92
       -2
340
14
 93
        0
 40
0.045
309
GRIDFORMAT_END
 95
        4
302
GRIDFORMAT
  1
GRIDFORMAT_BEGIN
 90
        0
 91
        1
 62
     0
 92
       -2
340
14
 93
        0
 40
0.045
309
GRIDFORMAT_END
 95
        8
302
GRIDFORMAT
  1
GRIDFORMAT_BEGIN
 90
        0
 91
        1
 62
     0
 92
       -2
340
14
 93
        0
 40
0.045
309
GRIDFORMAT_END
 95
       16
302
GRIDFORMAT
  1
GRIDFORMAT_BEGIN
 90
        0
 91
        1
 62
     0
 92
       -2
340
14
 93
        0
 40
0.045
309
GRIDFORMAT_END
 95
       32
302
GRIDFORMAT
  1
GRIDFORMAT_BEGIN
 90
        0
 91
        1
 62
     0
 92
       -2
340
14
 93
        0
 40
0.045
309
GRIDFORMAT_END
309
TABLEFORMAT_END
  1
CELLSTYLE_BEGIN
 90
        1
 91
        1
300
_TITLE
309
CELLSTYLE_END
300
CELLSTYLE
  1
TABLEFORMAT_BEGIN
 90
        5
170
     1
 91
        0
 92
        0
 62
   257
 93
        1
300
CONTENTFORMAT
  1
CONTENTFORMAT_BEGIN
 90
        0
 91
        0
 92
        4
 93
        0
300

 40
0.0
140
1.0
 94
        5
 62
     0
340
11
144
4.5
309
CONTENTFORMAT_END
171
     1
301
MARGIN
  1
CELLMARGIN_BEGIN
 40
1.5
 40
1.5
 40
1.5
 40
1.5
 40
1.5
 40
1.5
309
CELLMARGIN_END
 94
        6
 95
        1
302
GRIDFORMAT
  1
GRIDFORMAT_BEGIN
 90
        0
 91
        1
 62
     0
 92
       -2
340
14
 93
        0
 40
0.045
309
GRIDFORMAT_END
 95
        2
302
GRIDFORMAT
  1
GRIDFORMAT_BEGIN
 90
        0
 91
        1
 62
     0
 92
       -2
340
14
 93
        0
 40
0.045
309
GRIDFORMAT_END
 95
        4
302
GRIDFORMAT
  1
GRIDFORMAT_BEGIN
 90
        0
 91
        1
 62
     0
 92
       -2
340
14
 93
        0
 40
0.045
309
GRIDFORMAT_END
 95
        8
302
GRIDFORMAT
  1
GRIDFORMAT_BEGIN
 90
        0
 91
        1
 62
     0
 92
       -2
340
14
 93
        0
 40
0.045
309
GRIDFORMAT_END
 95
       16
302
GRIDFORMAT
  1
GRIDFORMAT_BEGIN
 90
        0
 91
        1
 62
     0
 92
       -2
340
14
 93
        0
 40
0.045
309
GRIDFORMAT_END
 95
       32
302
GRIDFORMAT
  1
GRIDFORMAT_BEGIN
 90
        0
 91
        1
 62
     0
 92
       -2
340
14
 93
        0
 40
0.045
309
GRIDFORMAT_END
309
TABLEFORMAT_END
  1
CELLSTYLE_BEGIN
 90
        2
 91
        1
300
_HEADER
309
CELLSTYLE_END
300
CELLSTYLE
  1
TABLEFORMAT_BEGIN
 90
        5
170
     1
 91
        0
 92
        0
 62
   257
 93
        1
300
CONTENTFORMAT
  1
CONTENTFORMAT_BEGIN
 90
        0
 91
        0
 92
        4
 93
        0
300

 40
0.0
140
1.0
 94
        2
 62
     0
340
11
144
4.5
309
CONTENTFORMAT_END
171
     1
301
MARGIN
  1
CELLMARGIN_BEGIN
 40
1.5
 40
1.5
 40
1.5
 40
1.5
 40
1.5
 40
1.5
309
CELLMARGIN_END
 94
        6
 95
        1
302
GRIDFORMAT
  1
GRIDFORMAT_BEGIN
 90
        0
 91
        1
 62
     0
 92
       -2
340
14
 93
        0
 40
0.045
309
GRIDFORMAT_END
 95
        2
302
GRIDFORMAT
  1
GRIDFORMAT_BEGIN
 90
        0
 91
        1
 62
     0
 92
       -2
340
14
 93
        0
 40
0.045
309
GRIDFORMAT_END
 95
        4
302
GRIDFORMAT
  1
GRIDFORMAT_BEGIN
 90
        0
 91
        1
 62
     0
 92
       -2
340
14
 93
        0
 40
0.045
309
GRIDFORMAT_END
 95
        8
302
GRIDFORMAT
  1
GRIDFORMAT_BEGIN
 90
        0
 91
        1
 62
     0
 92
       -2
340
14
 93
        0
 40
0.045
309
GRIDFORMAT_END
 95
       16
302
GRIDFORMAT
  1
GRIDFORMAT_BEGIN
 90
        0
 91
        1
 62
     0
 92
       -2
340
14
 93
        0
 40
0.045
309
GRIDFORMAT_END
 95
       32
302
GRIDFORMAT
  1
GRIDFORMAT_BEGIN
 90
        0
 91
        1
 62
     0
 92
       -2
340
14
 93
        0
 40
0.045
309
GRIDFORMAT_END
309
TABLEFORMAT_END
  1
CELLSTYLE_BEGIN
 90
        3
 91
        2
300
_DATA
309
CELLSTYLE_END
  0
ENDSEC
  0
EOF
