  0
SECTION
  2
HEADER
  9
$ACADVER
  1
AC1027
  9
$ACADMAINTVER
 70
   105
  9
$DWGCODEPAGE
  3
ANSI_1252
  9
$COMMENTS
  1
File was created by Cadenas
  9
$LASTSAVEDBY
  1
psAdmin
  9
$CUSTOMPROPERTYTAG
  1
NB
  9
$CUSTOMPROPERTY
  1
33394
  9
$CUSTOMPROPERTYTAG
  1
NN
  9
$CUSTOMPROPERTY
  1
Size 00, with fuse monitor
  9
$CUSTOMPROPERTYTAG
  1
NT
  9
$CUSTOMPROPERTY
  1

  9
$CUSTOMPROPERTYTAG
  1
NBSYN
  9
$CUSTOMPROPERTY
  1
$ARTNR.
  9
$CUSTOMPROPERTYTAG
  1
LINA
  9
$CUSTOMPROPERTY
  1
33394000
  9
$CUSTOMPROPERTYTAG
  1
CATALOG
  9
$CUSTOMPROPERTY
  1
Wöhner
  9
$CUSTOMPROPERTYTAG
  1
ARTNR
  9
$CUSTOMPROPERTY
  1
33394
  9
$CUSTOMPROPERTYTAG
  1
BUSB
  9
$CUSTOMPROPERTY
  1
12, 15, 20, 25, 30 x 5, 10 and section busbars
  9
$CUSTOMPROPERTYTAG
  1
POF
  9
$CUSTOMPROPERTY
  1
QUADRON®60Classic
  9
$CUSTOMPROPERTYTAG
  1
TYPE
  9
$CUSTOMPROPERTY
  1
QCB-NH00
  9
$CUSTOMPROPERTYTAG
  1
QNT
  9
$CUSTOMPROPERTY
  1
1
  9
$CUSTOMPROPERTYTAG
  1
W
  9
$CUSTOMPROPERTY
  1
106
  9
$CUSTOMPROPERTYTAG
  1
H
  9
$CUSTOMPROPERTY
  1
200
  9
$CUSTOMPROPERTYTAG
  1
D
  9
$CUSTOMPROPERTY
  1
137
  9
$CUSTOMPROPERTYTAG
  1
IPRF
  9
$CUSTOMPROPERTY
  1
IP30
  9
$CUSTOMPROPERTYTAG
  1
LINK
  9
$CUSTOMPROPERTY
  1
Product link
  9
$CUSTOMPROPERTYTAG
  1
COMPANY
  9
$CUSTOMPROPERTY
  1
woehner
  9
$REQUIREDVERSIONS
160
                 0
  9
$INSBASE
 10
0.0
 20
0.0
 30
0.0
  9
$EXTMIN
 10
0.0
 20
-220.6275553571913
 30
0.0
  9
$EXTMAX
 10
113.4523809523809
 20
32.5
 30
0.0
  9
$LIMMIN
 10
0.0
 20
0.0
  9
$LIMMAX
 10
420.0
 20
297.0
  9
$ORTHOMODE
 70
     0
  9
$REGENMODE
 70
     1
  9
$FILLMODE
 70
     1
  9
$QTEXTMODE
 70
     0
  9
$MIRRTEXT
 70
     1
  9
$LTSCALE
 40
1.0
  9
$ATTMODE
 70
     1
  9
$TEXTSIZE
 40
2.5
  9
$TRACEWID
 40
1.0
  9
$TEXTSTYLE
  7
Standard
  9
$CLAYER
  8
0
  9
$CELTYPE
  6
ByLayer
  9
$CECOLOR
 62
   256
  9
$CELTSCALE
 40
1.0
  9
$DISPSILH
 70
     0
  9
$DIMSCALE
 40
1.0
  9
$DIMASZ
 40
2.5
  9
$DIMEXO
 40
0.625
  9
$DIMDLI
 40
3.75
  9
$DIMRND
 40
0.0
  9
$DIMDLE
 40
0.0
  9
$DIMEXE
 40
1.25
  9
$DIMTP
 40
0.0
  9
$DIMTM
 40
0.0
  9
$DIMTXT
 40
2.5
  9
$DIMCEN
 40
2.5
  9
$DIMTSZ
 40
0.0
  9
$DIMTOL
 70
     0
  9
$DIMLIM
 70
     0
  9
$DIMTIH
 70
     0
  9
$DIMTOH
 70
     0
  9
$DIMSE1
 70
     0
  9
$DIMSE2
 70
     0
  9
$DIMTAD
 70
     1
  9
$DIMZIN
 70
     8
  9
$DIMBLK
  1

  9
$DIMASO
 70
     1
  9
$DIMSHO
 70
     1
  9
$DIMPOST
  1

  9
$DIMAPOST
  1

  9
$DIMALT
 70
     0
  9
$DIMALTD
 70
     3
  9
$DIMALTF
 40
0.03937007874016
  9
$DIMLFAC
 40
1.0
  9
$DIMTOFL
 70
     1
  9
$DIMTVP
 40
0.0
  9
$DIMTIX
 70
     0
  9
$DIMSOXD
 70
     0
  9
$DIMSAH
 70
     0
  9
$DIMBLK1
  1

  9
$DIMBLK2
  1

  9
$DIMSTYLE
  2
ISO-25
  9
$DIMCLRD
 70
     0
  9
$DIMCLRE
 70
     0
  9
$DIMCLRT
 70
     0
  9
$DIMTFAC
 40
1.0
  9
$DIMGAP
 40
0.625
  9
$DIMJUST
 70
     0
  9
$DIMSD1
 70
     0
  9
$DIMSD2
 70
     0
  9
$DIMTOLJ
 70
     0
  9
$DIMTZIN
 70
     8
  9
$DIMALTZ
 70
     0
  9
$DIMALTTZ
 70
     0
  9
$DIMUPT
 70
     0
  9
$DIMDEC
 70
     2
  9
$DIMTDEC
 70
     2
  9
$DIMALTU
 70
     2
  9
$DIMALTTD
 70
     3
  9
$DIMTXSTY
  7
Standard
  9
$DIMAUNIT
 70
     0
  9
$DIMADEC
 70
     0
  9
$DIMALTRND
 40
0.0
  9
$DIMAZIN
 70
     0
  9
$DIMDSEP
 70
    44
  9
$DIMATFIT
 70
     3
  9
$DIMFRAC
 70
     0
  9
$DIMLDRBLK
  1

  9
$DIMLUNIT
 70
     2
  9
$DIMLWD
 70
    -2
  9
$DIMLWE
 70
    -2
  9
$DIMTMOVE
 70
     0
  9
$DIMFXL
 40
1.0
  9
$DIMFXLON
 70
     0
  9
$DIMJOGANG
 40
0.7853981633974483
  9
$DIMTFILL
 70
     0
  9
$DIMTFILLCLR
 70
     0
  9
$DIMARCSYM
 70
     0
  9
$DIMLTYPE
  6

  9
$DIMLTEX1
  6

  9
$DIMLTEX2
  6

  9
$DIMTXTDIRECTION
 70
     0
  9
$LUNITS
 70
     2
  9
$LUPREC
 70
     4
  9
$SKETCHINC
 40
1.0
  9
$FILLETRAD
 40
0.0
  9
$AUNITS
 70
     0
  9
$AUPREC
 70
     0
  9
$MENU
  1
.
  9
$ELEVATION
 40
0.0
  9
$PELEVATION
 40
0.0
  9
$THICKNESS
 40
0.0
  9
$LIMCHECK
 70
     0
  9
$CHAMFERA
 40
0.0
  9
$CHAMFERB
 40
0.0
  9
$CHAMFERC
 40
0.0
  9
$CHAMFERD
 40
0.0
  9
$SKPOLY
 70
     0
  9
$TDCREATE
 40
2460360.543642639
  9
$TDUCREATE
 40
2460360.501975972
  9
$TDUPDATE
 40
2460360.543643542
  9
$TDUUPDATE
 40
2460360.501976875
  9
$TDINDWG
 40
0.0000000116
  9
$TDUSRTIMER
 40
0.0000000116
  9
$USRTIMER
 70
     1
  9
$ANGBASE
 50
0.0
  9
$ANGDIR
 70
     0
  9
$PDMODE
 70
     0
  9
$PDSIZE
 40
0.0
  9
$PLINEWID
 40
0.0
  9
$SPLFRAME
 70
     0
  9
$SPLINETYPE
 70
     6
  9
$SPLINESEGS
 70
     8
  9
$HANDSEED
  5
37D
  9
$SURFTAB1
 70
     6
  9
$SURFTAB2
 70
     6
  9
$SURFTYPE
 70
     6
  9
$SURFU
 70
     6
  9
$SURFV
 70
     6
  9
$UCSBASE
  2

  9
$UCSNAME
  2

  9
$UCSORG
 10
0.0
 20
0.0
 30
0.0
  9
$UCSXDIR
 10
1.0
 20
0.0
 30
0.0
  9
$UCSYDIR
 10
0.0
 20
1.0
 30
0.0
  9
$UCSORTHOREF
  2

  9
$UCSORTHOVIEW
 70
     0
  9
$UCSORGTOP
 10
0.0
 20
0.0
 30
0.0
  9
$UCSORGBOTTOM
 10
0.0
 20
0.0
 30
0.0
  9
$UCSORGLEFT
 10
0.0
 20
0.0
 30
0.0
  9
$UCSORGRIGHT
 10
0.0
 20
0.0
 30
0.0
  9
$UCSORGFRONT
 10
0.0
 20
0.0
 30
0.0
  9
$UCSORGBACK
 10
0.0
 20
0.0
 30
0.0
  9
$PUCSBASE
  2

  9
$PUCSNAME
  2

  9
$PUCSORG
 10
0.0
 20
0.0
 30
0.0
  9
$PUCSXDIR
 10
1.0
 20
0.0
 30
0.0
  9
$PUCSYDIR
 10
0.0
 20
1.0
 30
0.0
  9
$PUCSORTHOREF
  2

  9
$PUCSORTHOVIEW
 70
     0
  9
$PUCSORGTOP
 10
0.0
 20
0.0
 30
0.0
  9
$PUCSORGBOTTOM
 10
0.0
 20
0.0
 30
0.0
  9
$PUCSORGLEFT
 10
0.0
 20
0.0
 30
0.0
  9
$PUCSORGRIGHT
 10
0.0
 20
0.0
 30
0.0
  9
$PUCSORGFRONT
 10
0.0
 20
0.0
 30
0.0
  9
$PUCSORGBACK
 10
0.0
 20
0.0
 30
0.0
  9
$USERI1
 70
     0
  9
$USERI2
 70
     0
  9
$USERI3
 70
     0
  9
$USERI4
 70
     0
  9
$USERI5
 70
     0
  9
$USERR1
 40
0.0
  9
$USERR2
 40
0.0
  9
$USERR3
 40
0.0
  9
$USERR4
 40
0.0
  9
$USERR5
 40
0.0
  9
$WORLDVIEW
 70
     1
  9
$SHADEDGE
 70
     3
  9
$SHADEDIF
 70
    70
  9
$TILEMODE
 70
     1
  9
$MAXACTVP
 70
    64
  9
$PINSBASE
 10
0.0
 20
0.0
 30
0.0
  9
$PLIMCHECK
 70
     0
  9
$PEXTMIN
 10
1.000000000000000E+20
 20
1.000000000000000E+20
 30
1.000000000000000E+20
  9
$PEXTMAX
 10
-1.000000000000000E+20
 20
-1.000000000000000E+20
 30
-1.000000000000000E+20
  9
$PLIMMIN
 10
0.0
 20
0.0
  9
$PLIMMAX
 10
420.0
 20
297.0
  9
$UNITMODE
 70
     0
  9
$VISRETAIN
 70
     1
  9
$PLINEGEN
 70
     0
  9
$PSLTSCALE
 70
     1
  9
$TREEDEPTH
 70
  3020
  9
$CMLSTYLE
  2
Standard
  9
$CMLJUST
 70
     0
  9
$CMLSCALE
 40
20.0
  9
$PROXYGRAPHICS
 70
     1
  9
$MEASUREMENT
 70
     1
  9
$CELWEIGHT
370
    -1
  9
$ENDCAPS
280
     0
  9
$JOINSTYLE
280
     0
  9
$LWDISPLAY
290
     0
  9
$INSUNITS
 70
     4
  9
$HYPERLINKBASE
  1

  9
$STYLESHEET
  1

  9
$XEDIT
290
     1
  9
$CEPSNTYPE
380
     0
  9
$PSTYLEMODE
290
     1
  9
$FINGERPRINTGUID
  2
{d1371dff-aada-4e2e-8ee7-6f6c10a90ea7}
  9
$VERSIONGUID
  2
{FAEB1C32-E019-11D5-929B-00C0DF256EC4}
  9
$EXTNAMES
290
     1
  9
$PSVPSCALE
 40
0.0
  9
$OLESTARTUP
290
     0
  9
$SORTENTS
280
   127
  9
$INDEXCTL
280
     0
  9
$HIDETEXT
280
     1
  9
$XCLIPFRAME
280
     2
  9
$HALOGAP
280
     0
  9
$OBSCOLOR
 70
   257
  9
$OBSLTYPE
280
     0
  9
$INTERSECTIONDISPLAY
280
     0
  9
$INTERSECTIONCOLOR
 70
   257
  9
$DIMASSOC
280
     2
  9
$PROJECTNAME
  1

  9
$CAMERADISPLAY
290
     0
  9
$LENSLENGTH
 40
50.0
  9
$CAMERAHEIGHT
 40
0.0
  9
$STEPSPERSEC
 40
2.0
  9
$STEPSIZE
 40
6.0
  9
$3DDWFPREC
 40
2.0
  9
$PSOLWIDTH
 40
5.0
  9
$PSOLHEIGHT
 40
80.0
  9
$LOFTANG1
 40
1.570796326794897
  9
$LOFTANG2
 40
1.570796326794897
  9
$LOFTMAG1
 40
0.0
  9
$LOFTMAG2
 40
0.0
  9
$LOFTPARAM
 70
     7
  9
$LOFTNORMALS
280
     1
  9
$LATITUDE
 40
37.795
  9
$LONGITUDE
 40
-122.394
  9
$NORTHDIRECTION
 40
0.0
  9
$TIMEZONE
 70
 -8000
  9
$LIGHTGLYPHDISPLAY
280
     1
  9
$TILEMODELIGHTSYNCH
280
     1
  9
$CMATERIAL
347
44
  9
$SOLIDHIST
280
     0
  9
$SHOWHIST
280
     1
  9
$DWFFRAME
280
     2
  9
$DGNFRAME
280
     2
  9
$REALWORLDSCALE
290
     1
  9
$INTERFERECOLOR
 62
   256
  9
$CSHADOW
280
     0
  9
$SHADOWPLANELOCATION
 40
0.0
  0
ENDSEC
  0
SECTION
  2
CLASSES
  0
CLASS
  1
ACDBDICTIONARYWDFLT
  2
AcDbDictionaryWithDefault
  3
ObjectDBX Classes
 90
        0
 91
        3
280
     0
281
     0
  0
CLASS
  1
VISUALSTYLE
  2
AcDbVisualStyle
  3
ObjectDBX Classes
 90
     4095
 91
        3
280
     0
281
     0
  0
CLASS
  1
MATERIAL
  2
AcDbMaterial
  3
ObjectDBX Classes
 90
     1153
 91
        3
280
     0
281
     0
  0
CLASS
  1
SCALE
  2
AcDbScale
  3
ObjectDBX Classes
 90
     1153
 91
        3
280
     0
281
     0
  0
CLASS
  1
TABLESTYLE
  2
AcDbTableStyle
  3
ObjectDBX Classes
 90
     4095
 91
        3
280
     0
281
     0
  0
CLASS
  1
MLEADERSTYLE
  2
AcDbMLeaderStyle
  3
ACDB_MLEADERSTYLE_CLASS
 90
     4095
 91
        3
280
     0
281
     0
  0
CLASS
  1
SUN
  2
AcDbSun
  3
SCENEOE
 90
     1153
 91
        3
280
     0
281
     0
  0
CLASS
  1
DICTIONARYVAR
  2
AcDbDictionaryVar
  3
ObjectDBX Classes
 90
        0
 91
        3
280
     0
281
     0
  0
CLASS
  1
CELLSTYLEMAP
  2
AcDbCellStyleMap
  3
ObjectDBX Classes
 90
     1152
 91
        3
280
     0
281
     0
  0
ENDSEC
  0
SECTION
  2
TABLES
  0
TABLE
  2
VPORT
  5
8
330
0
100
AcDbSymbolTable
 70
     1
  0
VPORT
  5
29
330
8
100
AcDbSymbolTableRecord
100
AcDbViewportTableRecord
  2
*Active
 70
     0
 10
0.0
 20
0.0
 11
1.0
 21
1.0
 12
56.72619047619048
 22
-94.06377767859564
 13
0.0
 23
0.0
 14
10.0
 24
10.0
 15
10.0
 25
10.0
 16
0.0
 26
0.0
 36
1.0
 17
0.0
 27
0.0
 37
0.0
 40
258.1901064643351
 41
0.4482024123856724
 42
50.0
 43
0.0
 44
0.0
 50
0.0
 51
0.0
 71
     0
 72
   100
 73
     1
 74
     3
 75
     0
 76
     0
 77
     0
 78
     0
281
     0
 65
     1
110
0.0
120
0.0
130
0.0
111
1.0
121
0.0
131
0.0
112
0.0
122
1.0
132
0.0
 79
     0
146
0.0
348
2F
 60
     3
 61
     5
292
     1
282
     1
141
0.0
142
0.0
 63
   250
361
5D
  0
ENDTAB
  0
TABLE
  2
LTYPE
  5
5
330
0
100
AcDbSymbolTable
 70
     3
  0
LTYPE
  5
14
330
5
100
AcDbSymbolTableRecord
100
AcDbLinetypeTableRecord
  2
ByBlock
 70
     0
  3

 72
    65
 73
     0
 40
0.0
  0
LTYPE
  5
15
330
5
100
AcDbSymbolTableRecord
100
AcDbLinetypeTableRecord
  2
ByLayer
 70
     0
  3

 72
    65
 73
     0
 40
0.0
  0
LTYPE
  5
16
330
5
100
AcDbSymbolTableRecord
100
AcDbLinetypeTableRecord
  2
Continuous
 70
     0
  3
Solid line
 72
    65
 73
     0
 40
0.0
  0
LTYPE
  5
86
330
5
100
AcDbSymbolTableRecord
100
AcDbLinetypeTableRecord
  2
Dashed
 70
     0
  3

 72
    65
 73
     2
 40
2.0
 49
1.0
 74
     0
 49
-1.0
 74
     0
  0
LTYPE
  5
18E
330
5
100
AcDbSymbolTableRecord
100
AcDbLinetypeTableRecord
  2
Center
 70
     0
  3

 72
    65
 73
     4
 40
1.5
 49
0.45
 74
     0
 49
-0.5
 74
     0
 49
0.05
 74
     0
 49
-0.5
 74
     0
  0
ENDTAB
  0
TABLE
  2
LAYER
  5
2
330
0
100
AcDbSymbolTable
 70
     8
  0
LAYER
  5
10
330
2
100
AcDbSymbolTableRecord
100
AcDbLayerTableRecord
  2
0
 70
     0
 62
     7
  6
Continuous
370
    -3
390
F
347
46
348
0
  0
LAYER
  5
5E
330
2
100
AcDbSymbolTableRecord
100
AcDbLayerTableRecord
  2
attrib
 70
     0
 62
    -2
  6
Continuous
370
    35
390
F
347
46
348
0
  0
LAYER
  5
87
330
2
100
AcDbSymbolTableRecord
100
AcDbLayerTableRecord
  2
hidden
 70
     0
 62
    -6
  6
Dashed
370
    25
390
F
347
46
348
0
  0
LAYER
  5
91
330
2
100
AcDbSymbolTableRecord
100
AcDbLayerTableRecord
  2
bold
 70
     0
 62
     7
  6
Continuous
370
    50
390
F
347
46
348
0
  0
LAYER
  5
18F
330
2
100
AcDbSymbolTableRecord
100
AcDbLayerTableRecord
  2
center
 70
     0
 62
    -7
  6
Center
370
    25
390
F
347
46
348
0
  0
LAYER
  5
317
330
2
100
AcDbSymbolTableRecord
100
AcDbLayerTableRecord
  2
dimension
 70
     0
 62
    -5
  6
Continuous
370
    25
390
F
347
46
348
0
  0
LAYER
  5
319
330
2
100
AcDbSymbolTableRecord
100
AcDbLayerTableRecord
  2
Defpoints
 70
     0
 62
     7
  6
Continuous
290
     0
370
    -3
390
F
347
46
348
0
  0
LAYER
  5
340
330
2
100
AcDbSymbolTableRecord
100
AcDbLayerTableRecord
  2
connection
 70
     0
 62
    -7
  6
Continuous
370
    50
390
F
347
46
348
0
  0
ENDTAB
  0
TABLE
  2
STYLE
  5
3
330
0
100
AcDbSymbolTable
 70
     1
  0
STYLE
  5
11
330
3
100
AcDbSymbolTableRecord
100
AcDbTextStyleTableRecord
  2
Standard
 70
     0
 40
0.0
 41
1.0
 50
0.0
 71
     0
 42
2.5
  3
txt
  4

  0
ENDTAB
  0
TABLE
  2
VIEW
  5
6
330
0
100
AcDbSymbolTable
 70
     0
  0
ENDTAB
  0
TABLE
  2
UCS
  5
7
330
0
100
AcDbSymbolTable
 70
     0
  0
ENDTAB
  0
TABLE
  2
APPID
  5
9
330
0
100
AcDbSymbolTable
 70
     1
  0
APPID
  5
12
330
9
100
AcDbSymbolTableRecord
100
AcDbRegAppTableRecord
  2
ACAD
 70
     0
  0
ENDTAB
  0
TABLE
  2
DIMSTYLE
  5
A
330
0
100
AcDbSymbolTable
 70
     1
100
AcDbDimStyleTable
  0
DIMSTYLE
105
27
102
{ACAD_REACTORS
330
318
330
326
330
333
102
}
330
A
100
AcDbSymbolTableRecord
100
AcDbDimStyleTableRecord
  2
ISO-25
 70
     0
 41
2.5
 42
0.625
 43
3.75
 44
1.25
 73
     0
 74
     0
 77
     1
 78
     8
140
2.5
141
2.5
143
0.03937007874016
147
0.625
171
     3
172
     1
178
     0
271
     2
272
     2
274
     3
278
    44
283
     0
284
     8
340
11
  0
ENDTAB
  0
TABLE
  2
BLOCK_RECORD
  5
1
330
0
100
AcDbSymbolTable
 70
    16
  0
BLOCK_RECORD
  5
1F
330
1
100
AcDbSymbolTableRecord
100
AcDbBlockTableRecord
  2
*Model_Space
340
22
 70
     0
280
     1
281
     0
  0
BLOCK_RECORD
  5
1B
330
1
100
AcDbSymbolTableRecord
100
AcDbBlockTableRecord
  2
*Paper_Space
340
1E
 70
     0
280
     1
281
     0
  0
BLOCK_RECORD
  5
23
330
1
100
AcDbSymbolTableRecord
100
AcDbBlockTableRecord
  2
*Paper_Space0
340
26
 70
     0
280
     1
281
     0
  0
BLOCK_RECORD
  5
75
330
1
100
AcDbSymbolTableRecord
100
AcDbBlockTableRecord
  2
1_79638000_0_in_33394_0
340
0
102
{BLKREFS
331
76
102
}
 70
     0
280
     1
281
     0
  0
BLOCK_RECORD
  5
9B
330
1
100
AcDbSymbolTableRecord
100
AcDbBlockTableRecord
  2
2_30775000_0_in_33394_0
340
0
102
{BLKREFS
331
9C
102
}
 70
     0
280
     1
281
     0
  0
BLOCK_RECORD
  5
DA
330
1
100
AcDbSymbolTableRecord
100
AcDbBlockTableRecord
  2
3_79458000_0_in_33394_0
340
0
102
{BLKREFS
331
DB
102
}
 70
     0
280
     1
281
     0
  0
BLOCK_RECORD
  5
10F
330
1
100
AcDbSymbolTableRecord
100
AcDbBlockTableRecord
  2
4_79461000_0_in_33394_0
340
0
102
{BLKREFS
331
110
102
}
 70
     0
280
     1
281
     0
  0
BLOCK_RECORD
  5
163
330
1
100
AcDbSymbolTableRecord
100
AcDbBlockTableRecord
  2
5_30754000_1_0_in_33394_0
340
0
102
{BLKREFS
331
164
102
}
 70
     0
280
     1
281
     0
  0
BLOCK_RECORD
  5
196
330
1
100
AcDbSymbolTableRecord
100
AcDbBlockTableRecord
  2
6_30754000_2_0_in_33394_0
340
0
102
{BLKREFS
331
197
102
}
 70
     0
280
     1
281
     0
  0
BLOCK_RECORD
  5
1C7
330
1
100
AcDbSymbolTableRecord
100
AcDbBlockTableRecord
  2
7_30754000_3_0_in_33394_0
340
0
102
{BLKREFS
331
1C8
102
}
 70
     0
280
     1
281
     0
  0
BLOCK_RECORD
  5
1F8
330
1
100
AcDbSymbolTableRecord
100
AcDbBlockTableRecord
  2
8_30754000_4_0_in_33394_0
340
0
102
{BLKREFS
331
1F9
102
}
 70
     0
280
     1
281
     0
  0
BLOCK_RECORD
  5
22A
330
1
100
AcDbSymbolTableRecord
100
AcDbBlockTableRecord
  2
9_30754000_5_0_in_33394_0
340
0
102
{BLKREFS
331
22B
102
}
 70
     0
280
     1
281
     0
  0
BLOCK_RECORD
  5
25C
330
1
100
AcDbSymbolTableRecord
100
AcDbBlockTableRecord
  2
10_30754000_6_0_in_33394_0
340
0
102
{BLKREFS
331
25D
102
}
 70
     0
280
     1
281
     0
  0
BLOCK_RECORD
  5
28E
330
1
100
AcDbSymbolTableRecord
100
AcDbBlockTableRecord
  2
11_30142000_0_in_33394_0
340
0
102
{BLKREFS
331
28F
102
}
 70
     0
280
     1
281
     0
  0
BLOCK_RECORD
  5
2E5
330
1
100
AcDbSymbolTableRecord
100
AcDbBlockTableRecord
  2
12_79427000_0_in_33394_0
340
0
102
{BLKREFS
331
2E6
102
}
 70
     0
280
     1
281
     0
  0
BLOCK_RECORD
  5
31A
330
1
100
AcDbSymbolTableRecord
100
AcDbBlockTableRecord
  2
*D13
340
0
 70
     0
280
     1
281
     0
  0
BLOCK_RECORD
  5
327
330
1
100
AcDbSymbolTableRecord
100
AcDbBlockTableRecord
  2
*D14
340
0
 70
     0
280
     1
281
     0
  0
BLOCK_RECORD
  5
334
330
1
100
AcDbSymbolTableRecord
100
AcDbBlockTableRecord
  2
*D15
340
0
 70
     0
280
     1
281
     0
  0
ENDTAB
  0
ENDSEC
  0
SECTION
  2
BLOCKS
  0
BLOCK
  5
20
330
1F
100
AcDbEntity
  8
0
100
AcDbBlockBegin
  2
*Model_Space
 70
     2
 10
0.0
 20
0.0
 30
0.0
  3
*Model_Space
  1

  0
ENDBLK
  5
21
330
1F
100
AcDbEntity
  8
0
100
AcDbBlockEnd
  0
BLOCK
  5
1C
330
1B
100
AcDbEntity
 67
     1
  8
0
100
AcDbBlockBegin
  2
*Paper_Space
 70
     0
 10
0.0
 20
0.0
 30
0.0
  3
*Paper_Space
  1

  0
ENDBLK
  5
1D
330
1B
100
AcDbEntity
 67
     1
  8
0
100
AcDbBlockEnd
  0
BLOCK
  5
24
330
23
100
AcDbEntity
  8
0
100
AcDbBlockBegin
  2
*Paper_Space0
 70
     0
 10
0.0
 20
0.0
 30
0.0
  3
*Paper_Space0
  1

  0
ENDBLK
  5
25
330
23
100
AcDbEntity
  8
0
100
AcDbBlockEnd
  0
BLOCK
  5
77
330
75
100
AcDbEntity
  8
0
100
AcDbBlockBegin
  2
1_79638000_0_in_33394_0
 70
     2
 10
0.0
 20
0.0
 30
0.0
  3
1_79638000_0_in_33394_0
  1

  0
ATTDEF
  5
79
330
75
100
AcDbEntity
  8
attrib
100
AcDbText
 10
82.5
 20
-28.0
 30
0.0
 40
0.5
  1
79638000
100
AcDbAttributeDefinition
  3

  2
NB
 70
     8
280
     0
  0
ATTDEF
  5
7A
330
75
100
AcDbEntity
  8
attrib
100
AcDbText
 10
82.5
 20
-28.5
 30
0.0
 40
0.5
  1
Size 1 fuse monitoring
100
AcDbAttributeDefinition
  3

  2
NN
 70
     8
280
     0
  0
ATTDEF
  5
7B
330
75
100
AcDbEntity
  8
attrib
100
AcDbText
 10
82.5
 20
-29.0
 30
0.0
 40
0.5
  1

100
AcDbAttributeDefinition
  3

  2
NT
 70
     8
280
     0
  0
ATTDEF
  5
7C
330
75
100
AcDbEntity
  8
attrib
100
AcDbText
 10
82.5
 20
-29.5
 30
0.0
 40
0.5
  1
$NBX.
100
AcDbAttributeDefinition
  3

  2
NBSYN
 70
     8
280
     0
  0
ATTDEF
  5
7D
330
75
100
AcDbEntity
  8
attrib
100
AcDbText
 10
82.5
 20
-30.0
 30
0.0
 40
0.5
  1
79638000
100
AcDbAttributeDefinition
  3

  2
LINA
 70
     8
280
     0
  0
ATTDEF
  5
7E
330
75
100
AcDbEntity
  8
attrib
100
AcDbText
 10
82.5
 20
-30.5
 30
0.0
 40
0.5
  1
Wöhner
100
AcDbAttributeDefinition
  3

  2
CATALOG
 70
     8
280
     0
  0
ATTDEF
  5
7F
330
75
100
AcDbEntity
  8
attrib
100
AcDbText
 10
82.5
 20
-31.0
 30
0.0
 40
0.5
  1
79638000
100
AcDbAttributeDefinition
  3

  2
NBX
 70
     8
280
     0
  0
ATTDEF
  5
80
330
75
100
AcDbEntity
  8
attrib
100
AcDbText
 10
82.5
 20
-31.5
 30
0.0
 40
0.5
  1
79638000
100
AcDbAttributeDefinition
  3

  2
ARTNR
 70
     8
280
     0
  0
ATTDEF
  5
81
330
75
100
AcDbEntity
  8
attrib
100
AcDbText
 10
82.5
 20
-32.0
 30
0.0
 40
0.5
  1
QUADRON®60Classic
100
AcDbAttributeDefinition
  3

  2
POF
 70
     8
280
     0
  0
ATTDEF
  5
82
330
75
100
AcDbEntity
  8
attrib
100
AcDbText
 10
82.5
 20
-32.5
 30
0.0
 40
0.5
  1
2
100
AcDbAttributeDefinition
  3

  2
VER
 70
     8
280
     0
  0
ATTDEF
  5
83
330
75
100
AcDbEntity
  8
attrib
100
AcDbText
 10
82.5
 20
-33.0
 30
0.0
 40
0.5
  1
woehner
100
AcDbAttributeDefinition
  3

  2
COMPANY
 70
     8
280
     0
  0
ATTDEF
  5
84
330
75
100
AcDbEntity
  8
attrib
100
AcDbText
 10
82.5
 20
-33.5
 30
0.0
 40
0.5
  1
{$CADENAS_DATA/23d-libs/woehner/sys_60classic/nh_fuse_switch/parts/size1_2_3/size_1_2_3_fuse_monitoring.prj},173 {VTYP=3D},{NB=79638000},{LINA=79638000},{NN=Size 1 fuse monitoring},{DATE=26.01.2024 06:39:58},{GEOMDATE=11.01.2023 13:43:00},{VERSION=},{LINE
100
AcDbAttributeDefinition
  3

  2
PSOL_0
 70
     9
280
     0
  0
ATTDEF
  5
85
330
75
100
AcDbEntity
  8
attrib
100
AcDbText
 10
82.5
 20
-34.0
 30
0.0
 40
0.5
  1
ID=960},{WBVAR=},{WBNUMERIC=}  {NB=79638000},{LINA=79638000},{KT=DUMMY},{NBX=79638000},{ARTNR=79638000},{POF=QUADRON®60Classic},{VER=2}
100
AcDbAttributeDefinition
  3

  2
PSOL_1
 70
     9
280
     0
  0
LINE
  5
88
330
75
100
AcDbEntity
  8
hidden
100
AcDbLine
 10
56.49999999999999
 20
-109.0
 30
0.0
 11
56.49999999999999
 21
-110.0
 31
0.0
  0
LINE
  5
89
330
75
100
AcDbEntity
  8
hidden
100
AcDbLine
 10
56.49999999999999
 20
-109.0
 30
0.0
 11
73.5
 21
-109.0
 31
0.0
  0
LINE
  5
8A
330
75
100
AcDbEntity
  8
hidden
100
AcDbLine
 10
73.5
 20
-109.0
 30
0.0
 11
73.5
 21
-110.0
 31
0.0
  0
LINE
  5
8B
330
75
100
AcDbEntity
  8
hidden
100
AcDbLine
 10
77.5
 20
-120.0
 30
0.0
 11
77.5
 21
-119.9163393212683
 31
0.0
  0
LINE
  5
8C
330
75
100
AcDbEntity
  8
hidden
100
AcDbLine
 10
27.5
 20
-120.0
 30
0.0
 11
27.5
 21
-119.9163393212683
 31
0.0
  0
LINE
  5
8D
330
75
100
AcDbEntity
  8
hidden
100
AcDbLine
 10
27.5
 20
-120.0
 30
0.0
 11
77.5
 21
-120.0
 31
0.0
  0
LINE
  5
8E
330
75
100
AcDbEntity
  8
hidden
100
AcDbLine
 10
77.5
 20
-28.93305406880933
 30
0.0
 11
77.5
 21
-28.0
 31
0.0
  0
LINE
  5
8F
330
75
100
AcDbEntity
  8
hidden
100
AcDbLine
 10
27.5
 20
-28.0
 30
0.0
 11
77.5
 21
-28.0
 31
0.0
  0
LINE
  5
90
330
75
100
AcDbEntity
  8
hidden
100
AcDbLine
 10
27.5
 20
-28.93305406880933
 30
0.0
 11
27.5
 21
-28.0
 31
0.0
  0
LINE
  5
92
330
75
100
AcDbEntity
  8
bold
100
AcDbLine
 10
27.5
 20
-119.9163393212683
 30
0.0
 11
27.5
 21
-28.93305406880933
 31
0.0
  0
LINE
  5
93
330
75
100
AcDbEntity
  8
bold
100
AcDbLine
 10
42.49999999999999
 20
-114.6461372297524
 30
0.0
 11
77.5
 21
-114.6461372297524
 31
0.0
  0
LINE
  5
94
330
75
100
AcDbEntity
  8
bold
100
AcDbLine
 10
42.49999999999999
 20
-91.36182521531067
 30
0.0
 11
42.49999999999999
 21
-114.6461372297524
 31
0.0
  0
LINE
  5
95
330
75
100
AcDbEntity
  8
bold
100
AcDbLine
 10
42.49999999999999
 20
-110.0
 30
0.0
 11
77.5
 21
-110.0
 31
0.0
  0
LINE
  5
96
330
75
100
AcDbEntity
  8
bold
100
AcDbLine
 10
42.49999999999999
 20
-91.36182521531067
 30
0.0
 11
77.5
 21
-91.36182521531067
 31
0.0
  0
LINE
  5
97
330
75
100
AcDbEntity
  8
bold
100
AcDbLine
 10
77.5
 20
-119.9163393212683
 30
0.0
 11
77.5
 21
-28.93305406880933
 31
0.0
  0
LINE
  5
98
330
75
100
AcDbEntity
  8
bold
100
AcDbLine
 10
27.5
 20
-105.0
 30
0.0
 11
42.49999999999999
 21
-105.0
 31
0.0
  0
LWPOLYLINE
  5
99
330
75
100
AcDbEntity
  8
bold
100
AcDbPolyline
 90
       24
 70
     0
 43
0.0
 10
51.0858
 20
-43.36170000000001
 10
51.12320594959709
 20
-43.68478365525985
 10
51.23837263163824
 20
-44.00065072063547
 10
51.53585956133274
 20
-44.39629888581348
 10
51.88070157417111
 20
-44.63308943670532
 10
52.22964772826211
 20
-44.74981789454864
 10
52.61467271947998
 20
-44.77124312009497
 10
52.94976399027603
 20
-44.7024736546677
 10
53.25335439232467
 20
-44.55853699790954
 10
53.59778044873418
 20
-44.25323784349121
 10
53.8589881582792
 20
-43.75299633994827
 10
53.91290520664586
 20
-43.42223873270549
 10
53.88829492447329
 20
-43.09225827590798
 10
53.78464672879745
 20
-42.77027226554526
 10
53.59758140991055
 20
-42.46991712921866
 10
53.27400751996889
 20
-42.1781147690041
 10
52.93292356940982
 20
-42.01539437977499
 10
52.605505916848
 20
-41.95144110833859
 10
52.26458323284227
 20
-41.96723214962086
 10
51.96545935490365
 20
-42.05241472217092
 10
51.61360280259333
 20
-42.2597645897197
 10
51.27764525011236
 20
-42.65049643882562
 10
51.08936808128838
 20
-43.26130463201939
 10
51.0858
 20
-43.36170000000001
  0
LWPOLYLINE
  5
9A
330
75
100
AcDbEntity
  8
bold
100
AcDbPolyline
 90
       20
 70
     0
 43
0.0
 10
50.49999999999999
 20
-71.3619
 10
50.61712273227378
 20
-72.03626873791707
 10
50.95856441941072
 20
-72.63625330693392
 10
51.47903097683822
 20
-73.0816738961108
 10
52.10726331118802
 20
-73.32296040020725
 10
52.76941384226227
 20
-73.34367097102502
 10
53.39630954824037
 20
-73.14981196476033
 10
53.92594362192255
 20
-72.7642853917873
 10
54.3045297359585
 20
-72.22426444270478
 10
54.48797971729364
 20
-71.58084438478546
 10
54.4460302756867
 20
-70.90041742599448
 10
54.17190383405571
 20
-70.26429462024377
 10
53.69542175970807
 20
-69.75847653241058
 10
53.08539105958246
 20
-69.44948861450762
 10
52.42713136019739
 20
-69.36322790049661
 10
51.79267145801291
 20
-69.49115513933876
 10
51.23529114749993
 20
-69.81254157845645
 10
50.80344671468107
 20
-70.30279332450714
 10
50.54862780068488
 20
-70.9235547710536
 10
50.49999999999999
 20
-71.3619
  0
ENDBLK
  5
78
330
75
100
AcDbEntity
  8
0
100
AcDbBlockEnd
  0
BLOCK
  5
9D
330
9B
100
AcDbEntity
  8
0
100
AcDbBlockBegin
  2
2_30775000_0_in_33394_0
 70
     2
 10
0.0
 20
0.0
 30
0.0
  3
2_30775000_0_in_33394_0
  1

  0
ATTDEF
  5
9F
330
9B
100
AcDbEntity
  8
attrib
100
AcDbText
 10
109.5
 20
30.0
 30
0.0
 40
0.5
  1
30775000
100
AcDbAttributeDefinition
  3

  2
NB
 70
     8
280
     0
  0
ATTDEF
  5
A0
330
9B
100
AcDbEntity
  8
attrib
100
AcDbText
 10
109.5
 20
29.5
 30
0.0
 40
0.5
  1
Size 00 cover
100
AcDbAttributeDefinition
  3

  2
NN
 70
     8
280
     0
  0
ATTDEF
  5
A1
330
9B
100
AcDbEntity
  8
attrib
100
AcDbText
 10
109.5
 20
29.0
 30
0.0
 40
0.5
  1

100
AcDbAttributeDefinition
  3

  2
NT
 70
     8
280
     0
  0
ATTDEF
  5
A2
330
9B
100
AcDbEntity
  8
attrib
100
AcDbText
 10
109.5
 20
28.5
 30
0.0
 40
0.5
  1
$BOM.
100
AcDbAttributeDefinition
  3

  2
NBSYN
 70
     8
280
     0
  0
ATTDEF
  5
A3
330
9B
100
AcDbEntity
  8
attrib
100
AcDbText
 10
109.5
 20
28.0
 30
0.0
 40
0.5
  1
30775000
100
AcDbAttributeDefinition
  3

  2
LINA
 70
     8
280
     0
  0
ATTDEF
  5
A4
330
9B
100
AcDbEntity
  8
attrib
100
AcDbText
 10
109.5
 20
27.5
 30
0.0
 40
0.5
  1
Wöhner
100
AcDbAttributeDefinition
  3

  2
CATALOG
 70
     8
280
     0
  0
ATTDEF
  5
A5
330
9B
100
AcDbEntity
  8
attrib
100
AcDbText
 10
109.5
 20
27.0
 30
0.0
 40
0.5
  1
30775000
100
AcDbAttributeDefinition
  3

  2
BOM
 70
     8
280
     0
  0
ATTDEF
  5
A6
330
9B
100
AcDbEntity
  8
attrib
100
AcDbText
 10
109.5
 20
26.5
 30
0.0
 40
0.5
  1
QUADRON®60Classic
100
AcDbAttributeDefinition
  3

  2
POF
 70
     8
280
     0
  0
ATTDEF
  5
A7
330
9B
100
AcDbEntity
  8
attrib
100
AcDbText
 10
109.5
 20
26.0
 30
0.0
 40
0.5
  1
QCB-NH00
100
AcDbAttributeDefinition
  3

  2
TYPE
 70
     8
280
     0
  0
ATTDEF
  5
A8
330
9B
100
AcDbEntity
  8
attrib
100
AcDbText
 10
109.5
 20
25.5
 30
0.0
 40
0.5
  1
woehner
100
AcDbAttributeDefinition
  3

  2
COMPANY
 70
     8
280
     0
  0
ATTDEF
  5
A9
330
9B
100
AcDbEntity
  8
attrib
100
AcDbText
 10
109.5
 20
25.0
 30
0.0
 40
0.5
  1
{$CADENAS_DATA/23d-libs/woehner/sys_60classic/nh_fuse_switch/parts/size00_cover.prj},164 {VTYP=3D},{NB=30775000},{LINA=30775000},{NN=Size 00 cover},{DATE=26.01.2024 06:39:58},{GEOMDATE=11.01.2023 12:27:00},{VERSION=},{LINEID=930},{WBVAR=},{WBNUMERIC=}  {N
100
AcDbAttributeDefinition
  3

  2
PSOL_0
 70
     9
280
     0
  0
ATTDEF
  5
AA
330
9B
100
AcDbEntity
  8
attrib
100
AcDbText
 10
109.5
 20
24.5
 30
0.0
 40
0.5
  1
B=30775000},{LINA=30775000},{KT=DUMMY},{BOM=30775000},{POF=QUADRON®60Classic},{TYPE=QCB-NH00}
100
AcDbAttributeDefinition
  3

  2
PSOL_1
 70
     9
280
     0
  0
LINE
  5
AB
330
9B
100
AcDbEntity
  8
hidden
100
AcDbLine
 10
8.5
 20
-5.02607553733564
 30
0.0
 11
96.5
 21
-5.02607553733564
 31
0.0
  0
LINE
  5
AC
330
9B
100
AcDbEntity
  8
hidden
100
AcDbLine
 10
9.499999999999995
 20
16.00000000000001
 30
0.0
 11
9.499999999999995
 21
17.00000000000001
 31
0.0
  0
LINE
  5
AD
330
9B
100
AcDbEntity
  8
hidden
100
AcDbLine
 10
95.5
 20
16.00000000000001
 30
0.0
 11
95.5
 21
17.00000000000001
 31
0.0
  0
LINE
  5
AE
330
9B
100
AcDbEntity
  8
hidden
100
AcDbLine
 10
9.499999999999995
 20
29.0
 30
0.0
 11
9.499999999999995
 21
30.0
 31
0.0
  0
LINE
  5
AF
330
9B
100
AcDbEntity
  8
hidden
100
AcDbLine
 10
95.5
 20
29.0
 30
0.0
 11
95.5
 21
30.0
 31
0.0
  0
LINE
  5
B0
330
9B
100
AcDbEntity
  8
hidden
100
AcDbLine
 10
8.5
 20
-10.7723247661049
 30
0.0
 11
96.5
 21
-10.7723247661049
 31
0.0
  0
LINE
  5
B1
330
9B
100
AcDbEntity
  8
hidden
100
AcDbLine
 10
96.5
 20
17.00000000000001
 30
0.0
 11
8.5
 21
17.00000000000001
 31
0.0
  0
LINE
  5
B2
330
9B
100
AcDbEntity
  8
hidden
100
AcDbLine
 10
103.5
 20
-125.0
 30
0.0
 11
103.5
 21
29.0
 31
0.0
  0
LINE
  5
B3
330
9B
100
AcDbEntity
  8
hidden
100
AcDbLine
 10
96.5
 20
17.00000000000001
 30
0.0
 11
96.5
 21
-10.7723247661049
 31
0.0
  0
LINE
  5
B4
330
9B
100
AcDbEntity
  8
hidden
100
AcDbLine
 10
1.499999999999994
 20
-125.0
 30
0.0
 11
103.5
 21
-125.0
 31
0.0
  0
LINE
  5
B5
330
9B
100
AcDbEntity
  8
hidden
100
AcDbLine
 10
8.5
 20
17.00000000000001
 30
0.0
 11
8.5
 21
-10.7723247661049
 31
0.0
  0
LINE
  5
B6
330
9B
100
AcDbEntity
  8
hidden
100
AcDbLine
 10
1.499999999999994
 20
29.0
 30
0.0
 11
103.5
 21
29.0
 31
0.0
  0
LINE
  5
B7
330
9B
100
AcDbEntity
  8
hidden
100
AcDbLine
 10
1.499999999999994
 20
-125.0
 30
0.0
 11
1.499999999999994
 21
29.0
 31
0.0
  0
LWPOLYLINE
  5
B8
330
9B
100
AcDbEntity
  8
hidden
100
AcDbPolyline
 90
       13
 70
     0
 43
0.0
 10
27.47115026553673
 20
-35.35812720373187
 10
28.04036670112431
 20
-36.06080410191762
 10
29.25533795165377
 20
-37.22096002872397
 10
30.65208133601646
 20
-38.16164696062746
 10
32.18841982033022
 20
-38.85734717142066
 10
33.81130047066667
 20
-39.28139534052277
 10
35.48291321183121
 20
-39.4302468068401
 10
37.14837843338315
 20
-39.29663226013934
 10
38.76807072315025
 20
-38.8897845701085
 10
40.29484348640054
 20
-38.21821153668678
 10
41.68791580036761
 20
-37.3053585724193
 10
42.96401844992767
 20
-36.11123570189975
 10
44.01239991085465
 20
-34.71811740927826
  0
LWPOLYLINE
  5
B9
330
9B
100
AcDbEntity
  8
hidden
100
AcDbPolyline
 90
       13
 70
     0
 43
0.0
 10
61.00000000000001
 20
-34.73807312357363
 10
59.99464016558735
 20
-33.38693050284746
 10
58.77605682070867
 20
-32.22058621163948
 10
57.37384204477892
 20
-31.27521897956022
 10
55.83018921112237
 20
-30.57669855883201
 10
54.20459593435258
 20
-30.15332322023757
 10
52.52981419177146
 20
-30.0059444444003
 10
50.87347769040555
 20
-30.14008580216336
 10
49.2630112193985
 20
-30.54429846356548
 10
47.74562455605155
 20
-31.20949210122841
 10
46.36027422050898
 20
-32.11262644888994
 10
45.07109785261555
 20
-33.31351261140693
 10
44.01239991085465
 20
-34.71811740927826
  0
LWPOLYLINE
  5
BA
330
9B
100
AcDbEntity
  8
hidden
100
AcDbPolyline
 90
       13
 70
     0
 43
0.0
 10
61.00000000000001
 20
-34.73807312357363
 10
62.00005822104728
 20
-36.0831685756363
 10
63.21236533993719
 20
-37.24621244959289
 10
64.60697399883001
 20
-38.19019459752838
 10
66.14176423798132
 20
-38.88949529188
 10
67.76373262650357
 20
-39.31731959318598
 10
69.43508280206476
 20
-39.47003553279785
 10
71.10092040793157
 20
-39.34024572348986
 10
72.72162171288632
 20
-38.9370912093857
 10
74.24997486486431
 20
-38.2689866772505
 10
75.64518335590338
 20
-37.35927163196687
 10
76.93945231003705
 20
-36.15079202027799
 10
77.53211325823139
 20
-35.42718813094499
  0
LWPOLYLINE
  5
BB
330
9B
100
AcDbEntity
  8
hidden
100
AcDbPolyline
 90
       13
 70
     0
 43
0.0
 10
77.52898637121598
 20
-104.5735980049438
 10
77.00101469939064
 20
-103.9230451996503
 10
75.78943534741617
 20
-102.7602439283897
 10
74.39469684934755
 20
-101.8157535760294
 10
72.8590039226926
 20
-101.1157786150081
 10
71.23876036351636
 20
-100.6881269590315
 10
69.56890544329016
 20
-100.5349911536764
 10
67.9070692418391
 20
-100.6634617978285
 10
66.29014822392188
 20
-101.0639115740596
 10
64.76534748116069
 20
-101.7277526343369
 10
63.37300413556782
 20
-102.6315947846153
 10
62.06790707045471
 20
-103.8460720604863
 10
61.00000016614627
 20
-105.266926608338
  0
LWPOLYLINE
  5
BC
330
9B
100
AcDbEntity
  8
hidden
100
AcDbPolyline
 90
        7
 70
     0
 43
0.0
 10
52.50409781633832
 20
-109.999099160395
 10
54.14415539015877
 20
-109.8619916471766
 10
55.74851729626331
 20
-109.4567495693104
 10
57.25952152345471
 20
-108.792736224925
 10
58.63876105499736
 20
-107.8931238604686
 10
59.93662934330868
 20
-106.6828590962035
 10
61.00000016614627
 20
-105.266926608338
  0
LWPOLYLINE
  5
BD
330
9B
100
AcDbEntity
  8
hidden
100
AcDbPolyline
 90
        8
 70
     0
 43
0.0
 10
44.01240008914535
 20
-105.2868828769022
 10
45.02045855867247
 20
-106.6351345257409
 10
46.24176279576879
 20
-107.7987453185755
 10
47.64720331859345
 20
-108.7414850749579
 10
49.19442943044913
 20
-109.4369600969563
 10
50.819564971411
 20
-109.8558162270527
 10
52.49342915794655
 20
-109.9990978412015
 10
52.50409781633832
 20
-109.999099160395
  0
LWPOLYLINE
  5
BE
330
9B
100
AcDbEntity
  8
hidden
100
AcDbPolyline
 90
       12
 70
     0
 43
0.0
 10
42.5249105522546
 20
-103.4333454036432
 10
41.79609988127199
 20
-102.7855193142155
 10
40.39924902666927
 20
-101.8443293021021
 10
38.8620334920749
 20
-101.147954873818
 10
37.24090401302267
 20
-100.7240646562654
 10
35.57081269578942
 20
-100.5747713265929
 10
33.90936043889494
 20
-100.707031957599
 10
32.29345505097573
 20
-101.1111349519857
 10
30.77021929838506
 20
-101.7784066540011
 10
29.37999015219896
 20
-102.6853491515946
 10
28.09301252482897
 20
-103.8855479645245
 10
27.4685633014436
 20
-104.6503891188339
  0
LWPOLYLINE
  5
BF
330
9B
100
AcDbEntity
  8
hidden
100
AcDbPolyline
 90
        3
 70
     0
 43
0.0
 10
44.01240008914535
 20
-105.2868828769022
 10
43.01032363484983
 20
-103.9454236123206
 10
42.5249105522546
 20
-103.4333454036432
  0
LINE
  5
C0
330
9B
100
AcDbEntity
  8
bold
100
AcDbLine
 10
9.499999999999995
 20
-4.000000000000004
 30
0.0
 11
95.5
 21
-4.000000000000004
 31
0.0
  0
LINE
  5
C1
330
9B
100
AcDbEntity
  8
bold
100
AcDbLine
 10
0.4999999999999935
 20
-126.0
 30
0.0
 11
0.4999999999999935
 21
30.0
 31
0.0
  0
LINE
  5
C2
330
9B
100
AcDbEntity
  8
bold
100
AcDbLine
 10
104.5
 20
-126.0
 30
0.0
 11
104.5
 21
30.0
 31
0.0
  0
LINE
  5
C3
330
9B
100
AcDbEntity
  8
bold
100
AcDbLine
 10
9.499999999999995
 20
16.00000000000001
 30
0.0
 11
9.499999999999995
 21
-9.97609919792003
 31
0.0
  0
LINE
  5
C4
330
9B
100
AcDbEntity
  8
bold
100
AcDbLine
 10
9.499999999999995
 20
16.00000000000001
 30
0.0
 11
95.5
 21
16.00000000000001
 31
0.0
  0
LINE
  5
C5
330
9B
100
AcDbEntity
  8
bold
100
AcDbLine
 10
95.5
 20
16.00000000000001
 30
0.0
 11
95.5
 21
-9.97609919792003
 31
0.0
  0
LINE
  5
C6
330
9B
100
AcDbEntity
  8
bold
100
AcDbLine
 10
9.499999999999995
 20
-9.97609919792003
 30
0.0
 11
95.5
 21
-9.97609919792003
 31
0.0
  0
LINE
  5
C7
330
9B
100
AcDbEntity
  8
bold
100
AcDbLine
 10
0.4999999999999935
 20
30.0
 30
0.0
 11
104.5
 21
30.0
 31
0.0
  0
LINE
  5
C8
330
9B
100
AcDbEntity
  8
bold
100
AcDbLine
 10
0.4999999999999935
 20
-9.999999999999995
 30
0.0
 11
104.5
 21
-9.999999999999995
 31
0.0
  0
LINE
  5
C9
330
9B
100
AcDbEntity
  8
bold
100
AcDbLine
 10
0.4999999999999935
 20
-126.0
 30
0.0
 11
104.5
 21
-126.0
 31
0.0
  0
LWPOLYLINE
  5
CA
330
9B
100
AcDbEntity
  8
bold
100
AcDbPolyline
 90
       17
 70
     0
 43
0.0
 10
27.03720008914535
 20
-34.71811740927826
 10
26.02874699836493
 20
-33.36942887113374
 10
24.80752449606418
 20
-32.20600378264172
 10
23.40320304866115
 20
-31.26395153525119
 10
21.85803722015611
 20
-30.56904442410577
 10
20.23160980187521
 20
-30.14944203147246
 10
18.55665252077474
 20
-30.00590248690276
 10
16.90071449804411
 20
-30.14379834846811
 10
15.29127020364897
 20
-30.55162652509928
 10
13.77536481372533
 20
-31.22025481764758
 10
12.39204119765101
 20
-32.12653012699526
 10
11.16846191535823
 20
-33.26053087069072
 10
10.15041749350935
 20
-34.57877062779395
 10
9.35851377294928
 20
-36.06830933963585
 10
8.826613909770389
 20
-37.66847802500242
 10
8.626722491503681
 20
-38.76785790450078
 10
8.550353484710802
 20
-39.88314362958722
  0
LINE
  5
CB
330
9B
100
AcDbEntity
  8
bold
100
AcDbLine
 10
27.03720008914535
 20
-34.71811740927826
 30
0.0
 11
27.47115026553673
 21
-35.35812720373187
 31
0.0
  0
LINE
  5
CC
330
9B
100
AcDbEntity
  8
bold
100
AcDbLine
 10
77.53211325823139
 20
-35.42718813094499
 30
0.0
 11
78.00000000000001
 21
-34.73807312357363
 31
0.0
  0
LWPOLYLINE
  5
CD
330
9B
100
AcDbEntity
  8
bold
100
AcDbPolyline
 90
       17
 70
     0
 43
0.0
 10
96.4992465152892
 20
-39.88314362958804
 10
96.34397825737325
 20
-38.25125478540152
 10
95.92609501167817
 20
-36.66692817759483
 10
95.22345749979422
 20
-35.11905271118232
 10
94.26952392918648
 20
-33.71030646850527
 10
93.08833897358146
 20
-32.48439826066529
 10
91.71482593262019
 20
-31.47328079529671
 10
90.20146355482437
 20
-30.7173101733839
 10
88.58020682772
 20
-30.22465572568057
 10
86.92119020372543
 20
-30.01581442402697
 10
85.25012288559134
 20
-30.08431710215165
 10
83.62835846572138
 20
-30.42811461159623
 10
82.08695713062014
 20
-31.0323247574885
 10
80.66417650721748
 20
-31.8865236589746
 10
79.40327493932365
 20
-32.96058287348483
 10
78.65097110483549
 20
-33.81003454406991
 10
78.00000000000001
 20
-34.73807312357363
  0
LINE
  5
CE
330
9B
100
AcDbEntity
  8
bold
100
AcDbLine
 10
96.5
 20
-99.9991
 30
0.0
 11
96.5
 21
-93.60687011630698
 31
0.0
  0
LWPOLYLINE
  5
CF
330
9B
100
AcDbEntity
  8
bold
100
AcDbPolyline
 90
       17
 70
     0
 43
0.0
 10
77.99999999999999
 20
-105.2669268764264
 10
79.00498475264155
 20
-106.6176527381658
 10
80.22367329461818
 20
-107.7841962156746
 10
81.6270338678464
 20
-108.7302588811252
 10
83.17277811219479
 20
-109.429348910252
 10
84.7971158270109
 20
-109.8519623710319
 10
86.47084171135727
 20
-109.9990574896198
 10
88.12198002803746
 20
-109.8656622236878
 10
89.72737112818008
 20
-109.4639864547331
 10
91.23982873802592
 20
-108.8033660482463
 10
92.62105942522423
 20
-107.9068576791954
 10
93.8468739806487
 20
-106.7817936841751
 10
94.86872416095501
 20
-105.4730798974647
 10
95.66877683493621
 20
-103.9883930169868
 10
96.20945962267801
 20
-102.3920884737677
 10
96.4268109482861
 20
-101.2046577088772
 10
96.5
 20
-99.9991
  0
LINE
  5
D0
330
9B
100
AcDbEntity
  8
bold
100
AcDbLine
 10
77.99999999999999
 20
-105.2669268764264
 30
0.0
 11
77.52898637121598
 21
-104.5735980049438
 31
0.0
  0
LINE
  5
D1
330
9B
100
AcDbEntity
  8
bold
100
AcDbLine
 10
27.4685633014436
 20
-104.6503891188339
 30
0.0
 11
27.03720008914535
 21
-105.2868825907217
 31
0.0
  0
LWPOLYLINE
  5
D2
330
9B
100
AcDbEntity
  8
bold
100
AcDbPolyline
 90
       17
 70
     0
 43
0.0
 10
8.549599999999998
 20
-99.9991
 10
8.695913725385877
 20
-101.697584811018
 10
9.126407989150806
 20
-103.3462558563455
 10
9.832706988978131
 20
-104.8976426815485
 10
10.7918755718594
 20
-106.3092277084565
 10
11.97882287962788
 20
-107.5359335628131
 10
13.35936527572206
 20
-108.5466998682028
 10
14.87605235112455
 20
-109.2987509541806
 10
16.50063023948745
 20
-109.7869354563461
 10
18.15701873710795
 20
-109.9903445270385
 10
19.82467213525162
 20
-109.9174764321538
 10
21.43966892341591
 20
-109.5713463067386
 10
22.97391939456753
 20
-108.9671208460314
 10
24.39091464176316
 20
-108.1145422856255
 10
25.64643424135972
 20
-107.044307147463
 10
26.39149701457163
 20
-106.2040047311224
 10
27.03720008914535
 20
-105.2868825907217
  0
LINE
  5
D3
330
9B
100
AcDbEntity
  8
bold
100
AcDbLine
 10
8.549599999999998
 20
-93.60687011630698
 30
0.0
 11
8.549599999999998
 21
-99.9991
 31
0.0
  0
LINE
  5
D4
330
9B
100
AcDbEntity
  8
bold
100
AcDbLine
 10
8.529599999999991
 20
-93.60687011630722
 30
0.0
 11
8.529599999999991
 21
-39.88314362958761
 31
0.0
  0
LINE
  5
D5
330
9B
100
AcDbEntity
  8
bold
100
AcDbLine
 10
96.52
 20
-93.60687011630722
 30
0.0
 11
96.52
 21
-39.88314362958761
 31
0.0
  0
LINE
  5
D6
330
9B
100
AcDbEntity
  8
bold
100
AcDbLine
 10
8.529599999999991
 20
-93.60687011630722
 30
0.0
 11
8.549599999999998
 21
-93.60687011630698
 31
0.0
  0
LINE
  5
D7
330
9B
100
AcDbEntity
  8
bold
100
AcDbLine
 10
96.5
 20
-93.60687011630698
 30
0.0
 11
96.52
 21
-93.60687011630722
 31
0.0
  0
LINE
  5
D8
330
9B
100
AcDbEntity
  8
bold
100
AcDbLine
 10
96.52
 20
-39.88314362958761
 30
0.0
 11
96.4992465152892
 21
-39.88314362958804
 31
0.0
  0
LINE
  5
D9
330
9B
100
AcDbEntity
  8
bold
100
AcDbLine
 10
8.550353484710802
 20
-39.88314362958722
 30
0.0
 11
8.529599999999991
 21
-39.88314362958761
 31
0.0
  0
ENDBLK
  5
9E
330
9B
100
AcDbEntity
  8
0
100
AcDbBlockEnd
  0
BLOCK
  5
DC
330
DA
100
AcDbEntity
  8
0
100
AcDbBlockBegin
  2
3_79458000_0_in_33394_0
 70
     2
 10
0.0
 20
0.0
 30
0.0
  3
3_79458000_0_in_33394_0
  1

  0
ATTDEF
  5
DE
330
DA
100
AcDbEntity
  8
attrib
100
AcDbText
 10
109.0
 20
-73.9076
 30
0.0
 40
0.5
  1
79458000
100
AcDbAttributeDefinition
  3

  2
NB
 70
     8
280
     0
  0
ATTDEF
  5
DF
330
DA
100
AcDbEntity
  8
attrib
100
AcDbText
 10
109.0
 20
-74.4076
 30
0.0
 40
0.5
  1
Size 00 middle
100
AcDbAttributeDefinition
  3

  2
NN
 70
     8
280
     0
  0
ATTDEF
  5
E0
330
DA
100
AcDbEntity
  8
attrib
100
AcDbText
 10
109.0
 20
-74.9076
 30
0.0
 40
0.5
  1

100
AcDbAttributeDefinition
  3

  2
NT
 70
     8
280
     0
  0
ATTDEF
  5
E1
330
DA
100
AcDbEntity
  8
attrib
100
AcDbText
 10
109.0
 20
-75.4076
 30
0.0
 40
0.5
  1
$BOM.
100
AcDbAttributeDefinition
  3

  2
NBSYN
 70
     8
280
     0
  0
ATTDEF
  5
E2
330
DA
100
AcDbEntity
  8
attrib
100
AcDbText
 10
109.0
 20
-75.9076
 30
0.0
 40
0.5
  1
79458000
100
AcDbAttributeDefinition
  3

  2
LINA
 70
     8
280
     0
  0
ATTDEF
  5
E3
330
DA
100
AcDbEntity
  8
attrib
100
AcDbText
 10
109.0
 20
-76.4076
 30
0.0
 40
0.5
  1
Wöhner
100
AcDbAttributeDefinition
  3

  2
CATALOG
 70
     8
280
     0
  0
ATTDEF
  5
E4
330
DA
100
AcDbEntity
  8
attrib
100
AcDbText
 10
109.0
 20
-76.9076
 30
0.0
 40
0.5
  1
79458000
100
AcDbAttributeDefinition
  3

  2
BOM
 70
     8
280
     0
  0
ATTDEF
  5
E5
330
DA
100
AcDbEntity
  8
attrib
100
AcDbText
 10
109.0
 20
-77.4076
 30
0.0
 40
0.5
  1
QUADRON®60Classic
100
AcDbAttributeDefinition
  3

  2
POF
 70
     8
280
     0
  0
ATTDEF
  5
E6
330
DA
100
AcDbEntity
  8
attrib
100
AcDbText
 10
109.0
 20
-77.9076
 30
0.0
 40
0.5
  1
QCB-NH00
100
AcDbAttributeDefinition
  3

  2
TYPE
 70
     8
280
     0
  0
ATTDEF
  5
E7
330
DA
100
AcDbEntity
  8
attrib
100
AcDbText
 10
109.0
 20
-78.4076
 30
0.0
 40
0.5
  1
woehner
100
AcDbAttributeDefinition
  3

  2
COMPANY
 70
     8
280
     0
  0
ATTDEF
  5
E8
330
DA
100
AcDbEntity
  8
attrib
100
AcDbText
 10
109.0
 20
-78.9076
 30
0.0
 40
0.5
  1
{$CADENAS_DATA/23d-libs/woehner/sys_60classic/nh_fuse_switch/parts/size00_middle3.prj},166 {VTYP=3D},{NB=79458000},{LINA=79458000},{NN=Size 00 middle},{DATE=26.01.2024 06:39:58},{GEOMDATE=23.05.2023 11:39:00},{VERSION=},{LINEID=1040},{WBVAR=},{WBNUMERIC=}
100
AcDbAttributeDefinition
  3

  2
PSOL_0
 70
     9
280
     0
  0
ATTDEF
  5
E9
330
DA
100
AcDbEntity
  8
attrib
100
AcDbText
 10
109.0
 20
-79.4076
 30
0.0
 40
0.5
  1
  {NB=79458000},{LINA=79458000},{KT=DUMMY},{BOM=79458000},{POF=QUADRON®60Classic},{TYPE=QCB-NH00}
100
AcDbAttributeDefinition
  3

  2
PSOL_1
 70
     9
280
     0
  0
LINE
  5
EA
330
DA
100
AcDbEntity
  8
hidden
100
AcDbLine
 10
103.0
 20
-74.9076
 30
0.0
 11
1.999999999999995
 21
-74.9076
 31
0.0
  0
LINE
  5
EB
330
DA
100
AcDbEntity
  8
hidden
100
AcDbLine
 10
104.0
 20
-73.9076
 30
0.0
 11
0.999999999999994
 21
-73.9076
 31
0.0
  0
LINE
  5
EC
330
DA
100
AcDbEntity
  8
hidden
100
AcDbLine
 10
103.0
 20
-74.9076
 30
0.0
 11
103.0
 21
-162.964
 31
0.0
  0
LINE
  5
ED
330
DA
100
AcDbEntity
  8
hidden
100
AcDbLine
 10
1.999999999999995
 20
-74.9076
 30
0.0
 11
1.999999999999995
 21
-162.964
 31
0.0
  0
LINE
  5
EE
330
DA
100
AcDbEntity
  8
hidden
100
AcDbLine
 10
103.0
 20
-162.964
 30
0.0
 11
1.999999999999995
 21
-162.964
 31
0.0
  0
LINE
  5
EF
330
DA
100
AcDbEntity
  8
hidden
100
AcDbLine
 10
103.0
 20
-97.9314
 30
0.0
 11
1.999999999999995
 21
-97.9314
 31
0.0
  0
LINE
  5
F0
330
DA
100
AcDbEntity
  8
hidden
100
AcDbLine
 10
48.99999999999999
 20
-116.9314
 30
0.0
 11
55.0
 21
-116.9314
 31
0.0
  0
LINE
  5
F1
330
DA
100
AcDbEntity
  8
hidden
100
AcDbLine
 10
22.0
 20
-116.9314
 30
0.0
 11
22.0
 21
-96.9314
 31
0.0
  0
LINE
  5
F2
330
DA
100
AcDbEntity
  8
hidden
100
AcDbLine
 10
82.0
 20
-116.9314
 30
0.0
 11
82.0
 21
-96.9314
 31
0.0
  0
LINE
  5
F3
330
DA
100
AcDbEntity
  8
hidden
100
AcDbLine
 10
55.0
 20
-116.9314
 30
0.0
 11
55.0
 21
-96.9314
 31
0.0
  0
LINE
  5
F4
330
DA
100
AcDbEntity
  8
hidden
100
AcDbLine
 10
82.0
 20
-116.9314
 30
0.0
 11
88.0
 21
-116.9314
 31
0.0
  0
LINE
  5
F5
330
DA
100
AcDbEntity
  8
hidden
100
AcDbLine
 10
16.0
 20
-116.9314
 30
0.0
 11
22.0
 21
-116.9314
 31
0.0
  0
LINE
  5
F6
330
DA
100
AcDbEntity
  8
hidden
100
AcDbLine
 10
48.99999999999999
 20
-116.9314
 30
0.0
 11
48.99999999999999
 21
-96.9314
 31
0.0
  0
LINE
  5
F7
330
DA
100
AcDbEntity
  8
hidden
100
AcDbLine
 10
16.0
 20
-116.9314
 30
0.0
 11
16.0
 21
-96.9314
 31
0.0
  0
LINE
  5
F8
330
DA
100
AcDbEntity
  8
hidden
100
AcDbLine
 10
88.0
 20
-116.9314
 30
0.0
 11
88.0
 21
-96.9314
 31
0.0
  0
LINE
  5
F9
330
DA
100
AcDbEntity
  8
hidden
100
AcDbLine
 10
68.5
 20
-96.9314
 30
0.0
 11
36.5
 21
-96.9314
 31
0.0
  0
LINE
  5
FA
330
DA
100
AcDbEntity
  8
hidden
100
AcDbLine
 10
35.5
 20
-96.9314
 30
0.0
 11
0.999999999999994
 21
-96.9314
 31
0.0
  0
LINE
  5
FB
330
DA
100
AcDbEntity
  8
hidden
100
AcDbLine
 10
0.999999999999994
 20
-96.9314
 30
0.0
 11
0.999999999999994
 21
-126.0
 31
0.0
  0
LINE
  5
FC
330
DA
100
AcDbEntity
  8
hidden
100
AcDbLine
 10
104.0
 20
-96.9314
 30
0.0
 11
104.0
 21
-126.0
 31
0.0
  0
LINE
  5
FD
330
DA
100
AcDbEntity
  8
hidden
100
AcDbLine
 10
104.0
 20
-96.9314
 30
0.0
 11
69.5
 21
-96.9314
 31
0.0
  0
LINE
  5
FE
330
DA
100
AcDbEntity
  8
hidden
100
AcDbLine
 10
36.5
 20
-116.9314
 30
0.0
 11
35.5
 21
-116.9314
 31
0.0
  0
LINE
  5
FF
330
DA
100
AcDbEntity
  8
hidden
100
AcDbLine
 10
68.5
 20
-116.9314
 30
0.0
 11
69.5
 21
-116.9314
 31
0.0
  0
LINE
  5
100
330
DA
100
AcDbEntity
  8
hidden
100
AcDbLine
 10
68.5
 20
-76.9314
 30
0.0
 11
69.5
 21
-76.9314
 31
0.0
  0
LINE
  5
101
330
DA
100
AcDbEntity
  8
hidden
100
AcDbLine
 10
69.5
 20
-76.9314
 30
0.0
 11
69.5
 21
-116.9314
 31
0.0
  0
LINE
  5
102
330
DA
100
AcDbEntity
  8
hidden
100
AcDbLine
 10
68.5
 20
-76.9314
 30
0.0
 11
68.5
 21
-116.9314
 31
0.0
  0
LINE
  5
103
330
DA
100
AcDbEntity
  8
hidden
100
AcDbLine
 10
68.5
 20
-94.93140000000005
 30
0.0
 11
69.5
 21
-94.93140000000005
 31
0.0
  0
LINE
  5
104
330
DA
100
AcDbEntity
  8
hidden
100
AcDbLine
 10
68.5
 20
-113.7192826274667
 30
0.0
 11
69.5
 21
-113.7192826274667
 31
0.0
  0
LINE
  5
105
330
DA
100
AcDbEntity
  8
hidden
100
AcDbLine
 10
36.5
 20
-76.9314
 30
0.0
 11
35.5
 21
-76.9314
 31
0.0
  0
LINE
  5
106
330
DA
100
AcDbEntity
  8
hidden
100
AcDbLine
 10
35.5
 20
-76.9314
 30
0.0
 11
35.5
 21
-116.9314
 31
0.0
  0
LINE
  5
107
330
DA
100
AcDbEntity
  8
hidden
100
AcDbLine
 10
36.5
 20
-76.9314
 30
0.0
 11
36.5
 21
-116.9314
 31
0.0
  0
LINE
  5
108
330
DA
100
AcDbEntity
  8
hidden
100
AcDbLine
 10
36.5
 20
-113.7192826274667
 30
0.0
 11
35.5
 21
-113.7192826274667
 31
0.0
  0
LINE
  5
109
330
DA
100
AcDbEntity
  8
hidden
100
AcDbLine
 10
36.5
 20
-94.93140000000005
 30
0.0
 11
35.5
 21
-94.93140000000005
 31
0.0
  0
LINE
  5
10A
330
DA
100
AcDbEntity
  8
bold
100
AcDbLine
 10
104.0
 20
-169.072
 30
0.0
 11
0.999999999999994
 21
-169.072
 31
0.0
  0
LINE
  5
10B
330
DA
100
AcDbEntity
  8
bold
100
AcDbLine
 10
104.0
 20
-166.464
 30
0.0
 11
0.999999999999994
 21
-166.464
 31
0.0
  0
LINE
  5
10C
330
DA
100
AcDbEntity
  8
bold
100
AcDbLine
 10
104.0
 20
-163.964
 30
0.0
 11
0.999999999999994
 21
-163.964
 31
0.0
  0
LINE
  5
10D
330
DA
100
AcDbEntity
  8
bold
100
AcDbLine
 10
0.999999999999994
 20
-126.0
 30
0.0
 11
0.999999999999994
 21
-169.072
 31
0.0
  0
LINE
  5
10E
330
DA
100
AcDbEntity
  8
bold
100
AcDbLine
 10
104.0
 20
-126.0
 30
0.0
 11
104.0
 21
-169.072
 31
0.0
  0
ENDBLK
  5
DD
330
DA
100
AcDbEntity
  8
0
100
AcDbBlockEnd
  0
BLOCK
  5
111
330
10F
100
AcDbEntity
  8
0
100
AcDbBlockBegin
  2
4_79461000_0_in_33394_0
 70
     2
 10
0.0
 20
0.0
 30
0.0
  3
4_79461000_0_in_33394_0
  1

  0
ATTDEF
  5
113
330
10F
100
AcDbEntity
  8
attrib
100
AcDbText
 10
109.0
 20
29.883
 30
0.0
 40
0.5
  1
79461000
100
AcDbAttributeDefinition
  3

  2
NB
 70
     8
280
     0
  0
ATTDEF
  5
114
330
10F
100
AcDbEntity
  8
attrib
100
AcDbText
 10
109.0
 20
29.383
 30
0.0
 40
0.5
  1
Size 00 middle
100
AcDbAttributeDefinition
  3

  2
NN
 70
     8
280
     0
  0
ATTDEF
  5
115
330
10F
100
AcDbEntity
  8
attrib
100
AcDbText
 10
109.0
 20
28.883
 30
0.0
 40
0.5
  1

100
AcDbAttributeDefinition
  3

  2
NT
 70
     8
280
     0
  0
ATTDEF
  5
116
330
10F
100
AcDbEntity
  8
attrib
100
AcDbText
 10
109.0
 20
28.383
 30
0.0
 40
0.5
  1
$BOM.
100
AcDbAttributeDefinition
  3

  2
NBSYN
 70
     8
280
     0
  0
ATTDEF
  5
117
330
10F
100
AcDbEntity
  8
attrib
100
AcDbText
 10
109.0
 20
27.883
 30
0.0
 40
0.5
  1
79461000
100
AcDbAttributeDefinition
  3

  2
LINA
 70
     8
280
     0
  0
ATTDEF
  5
118
330
10F
100
AcDbEntity
  8
attrib
100
AcDbText
 10
109.0
 20
27.383
 30
0.0
 40
0.5
  1
Wöhner
100
AcDbAttributeDefinition
  3

  2
CATALOG
 70
     8
280
     0
  0
ATTDEF
  5
119
330
10F
100
AcDbEntity
  8
attrib
100
AcDbText
 10
109.0
 20
26.883
 30
0.0
 40
0.5
  1
79461000
100
AcDbAttributeDefinition
  3

  2
BOM
 70
     8
280
     0
  0
ATTDEF
  5
11A
330
10F
100
AcDbEntity
  8
attrib
100
AcDbText
 10
109.0
 20
26.383
 30
0.0
 40
0.5
  1
QUADRON®60Classic
100
AcDbAttributeDefinition
  3

  2
POF
 70
     8
280
     0
  0
ATTDEF
  5
11B
330
10F
100
AcDbEntity
  8
attrib
100
AcDbText
 10
109.0
 20
25.883
 30
0.0
 40
0.5
  1
QCB-NH00
100
AcDbAttributeDefinition
  3

  2
TYPE
 70
     8
280
     0
  0
ATTDEF
  5
11C
330
10F
100
AcDbEntity
  8
attrib
100
AcDbText
 10
109.0
 20
25.383
 30
0.0
 40
0.5
  1
woehner
100
AcDbAttributeDefinition
  3

  2
COMPANY
 70
     8
280
     0
  0
ATTDEF
  5
11D
330
10F
100
AcDbEntity
  8
attrib
100
AcDbText
 10
109.0
 20
24.883
 30
0.0
 40
0.5
  1
{$CADENAS_DATA/23d-libs/woehner/sys_60classic/nh_fuse_switch/parts/size00_middle2.prj},166 {VTYP=3D},{NB=79461000},{LINA=79461000},{NN=Size 00 middle},{DATE=26.01.2024 06:39:58},{GEOMDATE=23.05.2023 11:37:00},{VERSION=},{LINEID=1040},{WBVAR=},{WBNUMERIC=}
100
AcDbAttributeDefinition
  3

  2
PSOL_0
 70
     9
280
     0
  0
ATTDEF
  5
11E
330
10F
100
AcDbEntity
  8
attrib
100
AcDbText
 10
109.0
 20
24.383
 30
0.0
 40
0.5
  1
  {NB=79461000},{LINA=79461000},{KT=DUMMY},{BOM=79461000},{POF=QUADRON®60Classic},{TYPE=QCB-NH00}
100
AcDbAttributeDefinition
  3

  2
PSOL_1
 70
     9
280
     0
  0
LINE
  5
11F
330
10F
100
AcDbEntity
  8
hidden
100
AcDbLine
 10
0.999999999999994
 20
29.883
 30
0.0
 11
104.0
 21
29.883
 31
0.0
  0
LINE
  5
120
330
10F
100
AcDbEntity
  8
hidden
100
AcDbLine
 10
0.999999999999994
 20
27.117
 30
0.0
 11
104.0
 21
27.117
 31
0.0
  0
LINE
  5
121
330
10F
100
AcDbEntity
  8
hidden
100
AcDbLine
 10
1.999999999999995
 20
23.979
 30
0.0
 11
103.0
 21
23.979
 31
0.0
  0
LINE
  5
122
330
10F
100
AcDbEntity
  8
hidden
100
AcDbLine
 10
0.999999999999994
 20
24.979
 30
0.0
 11
104.0
 21
24.979
 31
0.0
  0
LINE
  5
123
330
10F
100
AcDbEntity
  8
hidden
100
AcDbLine
 10
41.99999999999999
 20
-18.021
 30
0.0
 11
63.5
 21
-18.021
 31
0.0
  0
LINE
  5
124
330
10F
100
AcDbEntity
  8
hidden
100
AcDbLine
 10
75.00000000000001
 20
-18.021
 30
0.0
 11
103.0
 21
-18.021
 31
0.0
  0
LINE
  5
125
330
10F
100
AcDbEntity
  8
hidden
100
AcDbLine
 10
1.999999999999995
 20
-18.021
 30
0.0
 11
30.5
 21
-18.021
 31
0.0
  0
LINE
  5
126
330
10F
100
AcDbEntity
  8
hidden
100
AcDbLine
 10
1.999999999999995
 20
-44.02100000000001
 30
0.0
 11
103.0
 21
-44.02100000000001
 31
0.0
  0
LINE
  5
127
330
10F
100
AcDbEntity
  8
hidden
100
AcDbLine
 10
16.0
 20
-44.02100000000001
 30
0.0
 11
16.0
 21
-34.021
 31
0.0
  0
LINE
  5
128
330
10F
100
AcDbEntity
  8
hidden
100
AcDbLine
 10
103.0
 20
-44.02100000000001
 30
0.0
 11
103.0
 21
23.979
 31
0.0
  0
LINE
  5
129
330
10F
100
AcDbEntity
  8
hidden
100
AcDbLine
 10
22.0
 20
-34.021
 30
0.0
 11
16.0
 21
-34.021
 31
0.0
  0
LINE
  5
12A
330
10F
100
AcDbEntity
  8
hidden
100
AcDbLine
 10
41.99999999999999
 20
-20.76503065089104
 30
0.0
 11
63.5
 21
-20.76503065089104
 31
0.0
  0
LINE
  5
12B
330
10F
100
AcDbEntity
  8
hidden
100
AcDbLine
 10
30.5
 20
-18.021
 30
0.0
 11
30.5
 21
-33.021
 31
0.0
  0
LINE
  5
12C
330
10F
100
AcDbEntity
  8
hidden
100
AcDbLine
 10
88.0
 20
-44.02100000000001
 30
0.0
 11
88.0
 21
-34.021
 31
0.0
  0
LINE
  5
12D
330
10F
100
AcDbEntity
  8
hidden
100
AcDbLine
 10
48.99999999999999
 20
-44.02100000000001
 30
0.0
 11
48.99999999999999
 21
-34.021
 31
0.0
  0
LINE
  5
12E
330
10F
100
AcDbEntity
  8
hidden
100
AcDbLine
 10
1.999999999999995
 20
-20.76503065089104
 30
0.0
 11
30.5
 21
-20.76503065089104
 31
0.0
  0
LINE
  5
12F
330
10F
100
AcDbEntity
  8
hidden
100
AcDbLine
 10
75.00000000000001
 20
-33.021
 30
0.0
 11
75.00000000000001
 21
-18.021
 31
0.0
  0
LINE
  5
130
330
10F
100
AcDbEntity
  8
hidden
100
AcDbLine
 10
55.0
 20
-44.02100000000001
 30
0.0
 11
55.0
 21
-34.021
 31
0.0
  0
LINE
  5
131
330
10F
100
AcDbEntity
  8
hidden
100
AcDbLine
 10
1.999999999999995
 20
-44.02100000000001
 30
0.0
 11
1.999999999999995
 21
23.979
 31
0.0
  0
LINE
  5
132
330
10F
100
AcDbEntity
  8
hidden
100
AcDbLine
 10
22.0
 20
-44.02100000000001
 30
0.0
 11
22.0
 21
-34.021
 31
0.0
  0
LINE
  5
133
330
10F
100
AcDbEntity
  8
hidden
100
AcDbLine
 10
41.99999999999999
 20
-33.021
 30
0.0
 11
41.99999999999999
 21
-18.021
 31
0.0
  0
LINE
  5
134
330
10F
100
AcDbEntity
  8
hidden
100
AcDbLine
 10
55.0
 20
-34.021
 30
0.0
 11
48.99999999999999
 21
-34.021
 31
0.0
  0
LINE
  5
135
330
10F
100
AcDbEntity
  8
hidden
100
AcDbLine
 10
63.5
 20
-18.021
 30
0.0
 11
63.5
 21
-33.021
 31
0.0
  0
LINE
  5
136
330
10F
100
AcDbEntity
  8
hidden
100
AcDbLine
 10
63.5
 20
-33.021
 30
0.0
 11
68.5
 21
-33.021
 31
0.0
  0
LINE
  5
137
330
10F
100
AcDbEntity
  8
hidden
100
AcDbLine
 10
36.5
 20
-33.021
 30
0.0
 11
41.99999999999999
 21
-33.021
 31
0.0
  0
LINE
  5
138
330
10F
100
AcDbEntity
  8
hidden
100
AcDbLine
 10
69.5
 20
-33.021
 30
0.0
 11
75.00000000000001
 21
-33.021
 31
0.0
  0
LINE
  5
139
330
10F
100
AcDbEntity
  8
hidden
100
AcDbLine
 10
88.0
 20
-34.021
 30
0.0
 11
82.0
 21
-34.021
 31
0.0
  0
LINE
  5
13A
330
10F
100
AcDbEntity
  8
hidden
100
AcDbLine
 10
82.0
 20
-44.02100000000001
 30
0.0
 11
82.0
 21
-34.021
 31
0.0
  0
LINE
  5
13B
330
10F
100
AcDbEntity
  8
hidden
100
AcDbLine
 10
75.00000000000001
 20
-20.76503065089104
 30
0.0
 11
103.0
 21
-20.76503065089104
 31
0.0
  0
LINE
  5
13C
330
10F
100
AcDbEntity
  8
hidden
100
AcDbLine
 10
30.5
 20
-33.021
 30
0.0
 11
35.5
 21
-33.021
 31
0.0
  0
LINE
  5
13D
330
10F
100
AcDbEntity
  8
hidden
100
AcDbLine
 10
104.0
 20
-45.02100000000001
 30
0.0
 11
104.0
 21
29.883
 31
0.0
  0
LINE
  5
13E
330
10F
100
AcDbEntity
  8
hidden
100
AcDbLine
 10
82.99999999999999
 20
-45.02100000000001
 30
0.0
 11
82.99999999999999
 21
-30.021
 31
0.0
  0
LINE
  5
13F
330
10F
100
AcDbEntity
  8
hidden
100
AcDbLine
 10
87.0
 20
-45.02100000000001
 30
0.0
 11
87.0
 21
-30.021
 31
0.0
  0
LINE
  5
140
330
10F
100
AcDbEntity
  8
hidden
100
AcDbLine
 10
69.5
 20
-32.021
 30
0.0
 11
74.0
 21
-32.021
 31
0.0
  0
LINE
  5
141
330
10F
100
AcDbEntity
  8
hidden
100
AcDbLine
 10
86.79469228026525
 20
-30.021
 30
0.0
 11
82.99999999999999
 21
-30.021
 31
0.0
  0
LINE
  5
142
330
10F
100
AcDbEntity
  8
hidden
100
AcDbLine
 10
87.0
 20
-30.021
 30
0.0
 11
86.96238395551748
 21
-30.021
 31
0.0
  0
LINE
  5
143
330
10F
100
AcDbEntity
  8
hidden
100
AcDbLine
 10
40.99999999999999
 20
-17.021
 30
0.0
 11
64.5
 21
-17.021
 31
0.0
  0
LINE
  5
144
330
10F
100
AcDbEntity
  8
hidden
100
AcDbLine
 10
74.0
 20
-17.021
 30
0.0
 11
104.0
 21
-17.021
 31
0.0
  0
LINE
  5
145
330
10F
100
AcDbEntity
  8
hidden
100
AcDbLine
 10
74.0
 20
-17.021
 30
0.0
 11
74.0
 21
-32.021
 31
0.0
  0
LINE
  5
146
330
10F
100
AcDbEntity
  8
hidden
100
AcDbLine
 10
74.0
 20
-20.02099999999998
 30
0.0
 11
104.0
 21
-20.02099999999998
 31
0.0
  0
LINE
  5
147
330
10F
100
AcDbEntity
  8
hidden
100
AcDbLine
 10
0.999999999999994
 20
-17.021
 30
0.0
 11
31.5
 21
-17.021
 31
0.0
  0
LINE
  5
148
330
10F
100
AcDbEntity
  8
hidden
100
AcDbLine
 10
31.5
 20
-32.021
 30
0.0
 11
35.5
 21
-32.021
 31
0.0
  0
LINE
  5
149
330
10F
100
AcDbEntity
  8
hidden
100
AcDbLine
 10
31.5
 20
-32.021
 30
0.0
 11
31.5
 21
-17.021
 31
0.0
  0
LINE
  5
14A
330
10F
100
AcDbEntity
  8
hidden
100
AcDbLine
 10
0.999999999999994
 20
-20.02099999999998
 30
0.0
 11
31.5
 21
-20.02099999999998
 31
0.0
  0
LINE
  5
14B
330
10F
100
AcDbEntity
  8
hidden
100
AcDbLine
 10
0.999999999999994
 20
-45.02100000000001
 30
0.0
 11
0.999999999999994
 21
29.883
 31
0.0
  0
LINE
  5
14C
330
10F
100
AcDbEntity
  8
hidden
100
AcDbLine
 10
0.999999999999994
 20
-45.02100000000001
 30
0.0
 11
104.0
 21
-45.02100000000001
 31
0.0
  0
LINE
  5
14D
330
10F
100
AcDbEntity
  8
hidden
100
AcDbLine
 10
16.99999999999999
 20
-45.02100000000001
 30
0.0
 11
16.99999999999999
 21
-30.021
 31
0.0
  0
LINE
  5
14E
330
10F
100
AcDbEntity
  8
hidden
100
AcDbLine
 10
18.37535233016278
 20
-30.021
 30
0.0
 11
16.99999999999999
 21
-30.021
 31
0.0
  0
LINE
  5
14F
330
10F
100
AcDbEntity
  8
hidden
100
AcDbLine
 10
21.0
 20
-30.021
 30
0.0
 11
18.73282480531518
 21
-30.021
 31
0.0
  0
LINE
  5
150
330
10F
100
AcDbEntity
  8
hidden
100
AcDbLine
 10
21.0
 20
-45.02100000000001
 30
0.0
 11
21.0
 21
-30.021
 31
0.0
  0
LINE
  5
151
330
10F
100
AcDbEntity
  8
hidden
100
AcDbLine
 10
64.5
 20
-32.021
 30
0.0
 11
68.5
 21
-32.021
 31
0.0
  0
LINE
  5
152
330
10F
100
AcDbEntity
  8
hidden
100
AcDbLine
 10
64.5
 20
-17.021
 30
0.0
 11
64.5
 21
-32.021
 31
0.0
  0
LINE
  5
153
330
10F
100
AcDbEntity
  8
hidden
100
AcDbLine
 10
40.99999999999999
 20
-20.02099999999998
 30
0.0
 11
64.5
 21
-20.02099999999998
 31
0.0
  0
LINE
  5
154
330
10F
100
AcDbEntity
  8
hidden
100
AcDbLine
 10
41.0
 20
-32.021
 30
0.0
 11
40.99999999999999
 21
-17.021
 31
0.0
  0
LINE
  5
155
330
10F
100
AcDbEntity
  8
hidden
100
AcDbLine
 10
36.5
 20
-32.021
 30
0.0
 11
41.0
 21
-32.021
 31
0.0
  0
LINE
  5
156
330
10F
100
AcDbEntity
  8
hidden
100
AcDbLine
 10
49.99999999999999
 20
-45.02100000000001
 30
0.0
 11
49.99999999999999
 21
-30.021
 31
0.0
  0
LINE
  5
157
330
10F
100
AcDbEntity
  8
hidden
100
AcDbLine
 10
52.34391279115964
 20
-30.021
 30
0.0
 11
49.99999999999999
 21
-30.021
 31
0.0
  0
LINE
  5
158
330
10F
100
AcDbEntity
  8
hidden
100
AcDbLine
 10
54.0
 20
-30.021
 30
0.0
 11
52.70090239290179
 21
-30.021
 31
0.0
  0
LINE
  5
159
330
10F
100
AcDbEntity
  8
hidden
100
AcDbLine
 10
54.0
 20
-45.02100000000001
 30
0.0
 11
54.0
 21
-30.021
 31
0.0
  0
LINE
  5
15A
330
10F
100
AcDbEntity
  8
hidden
100
AcDbLine
 10
68.5
 20
-15.021
 30
0.0
 11
69.5
 21
-15.021
 31
0.0
  0
LINE
  5
15B
330
10F
100
AcDbEntity
  8
hidden
100
AcDbLine
 10
68.5
 20
-73.021
 30
0.0
 11
68.5
 21
-15.021
 31
0.0
  0
LINE
  5
15C
330
10F
100
AcDbEntity
  8
hidden
100
AcDbLine
 10
69.5
 20
-73.021
 30
0.0
 11
69.5
 21
-15.021
 31
0.0
  0
LINE
  5
15D
330
10F
100
AcDbEntity
  8
hidden
100
AcDbLine
 10
68.5
 20
-19.02099999999998
 30
0.0
 11
69.5
 21
-19.02099999999998
 31
0.0
  0
LINE
  5
15E
330
10F
100
AcDbEntity
  8
hidden
100
AcDbLine
 10
0.999999999999994
 20
-73.021
 30
0.0
 11
104.0
 21
-73.021
 31
0.0
  0
LINE
  5
15F
330
10F
100
AcDbEntity
  8
hidden
100
AcDbLine
 10
35.5
 20
-73.021
 30
0.0
 11
35.5
 21
-15.021
 31
0.0
  0
LINE
  5
160
330
10F
100
AcDbEntity
  8
hidden
100
AcDbLine
 10
36.5
 20
-73.021
 30
0.0
 11
36.5
 21
-15.021
 31
0.0
  0
LINE
  5
161
330
10F
100
AcDbEntity
  8
hidden
100
AcDbLine
 10
36.5
 20
-19.02099999999998
 30
0.0
 11
35.5
 21
-19.02099999999998
 31
0.0
  0
LINE
  5
162
330
10F
100
AcDbEntity
  8
hidden
100
AcDbLine
 10
36.5
 20
-15.021
 30
0.0
 11
35.5
 21
-15.021
 31
0.0
  0
ENDBLK
  5
112
330
10F
100
AcDbEntity
  8
0
100
AcDbBlockEnd
  0
BLOCK
  5
165
330
163
100
AcDbEntity
  8
0
100
AcDbBlockBegin
  2
5_30754000_1_0_in_33394_0
 70
     2
 10
0.0
 20
0.0
 30
0.0
  3
5_30754000_1_0_in_33394_0
  1

  0
ATTDEF
  5
167
330
163
100
AcDbEntity
  8
attrib
100
AcDbText
 10
100.6499999999999
 20
-103.0
 30
0.0
 40
0.5
  1
30754000
100
AcDbAttributeDefinition
  3

  2
NB
 70
     8
280
     0
  0
ATTDEF
  5
168
330
163
100
AcDbEntity
  8
attrib
100
AcDbText
 10
100.6499999999999
 20
-103.5
 30
0.0
 40
0.5
  1
Size 00, with fuse monitor contact
100
AcDbAttributeDefinition
  3

  2
NN
 70
     8
280
     0
  0
ATTDEF
  5
169
330
163
100
AcDbEntity
  8
attrib
100
AcDbText
 10
100.6499999999999
 20
-104.0
 30
0.0
 40
0.5
  1

100
AcDbAttributeDefinition
  3

  2
NT
 70
     8
280
     0
  0
ATTDEF
  5
16A
330
163
100
AcDbEntity
  8
attrib
100
AcDbText
 10
100.6499999999999
 20
-104.5
 30
0.0
 40
0.5
  1
$BOM.
100
AcDbAttributeDefinition
  3

  2
NBSYN
 70
     8
280
     0
  0
ATTDEF
  5
16B
330
163
100
AcDbEntity
  8
attrib
100
AcDbText
 10
100.6499999999999
 20
-105.0
 30
0.0
 40
0.5
  1
30754000
100
AcDbAttributeDefinition
  3

  2
LINA
 70
     8
280
     0
  0
ATTDEF
  5
16C
330
163
100
AcDbEntity
  8
attrib
100
AcDbText
 10
100.6499999999999
 20
-105.5
 30
0.0
 40
0.5
  1
Wöhner
100
AcDbAttributeDefinition
  3

  2
CATALOG
 70
     8
280
     0
  0
ATTDEF
  5
16D
330
163
100
AcDbEntity
  8
attrib
100
AcDbText
 10
100.6499999999999
 20
-106.0
 30
0.0
 40
0.5
  1
30754000
100
AcDbAttributeDefinition
  3

  2
BOM
 70
     8
280
     0
  0
ATTDEF
  5
16E
330
163
100
AcDbEntity
  8
attrib
100
AcDbText
 10
100.6499999999999
 20
-106.5
 30
0.0
 40
0.5
  1
QUADRON®60Classic
100
AcDbAttributeDefinition
  3

  2
POF
 70
     8
280
     0
  0
ATTDEF
  5
16F
330
163
100
AcDbEntity
  8
attrib
100
AcDbText
 10
100.6499999999999
 20
-107.0
 30
0.0
 40
0.5
  1
QCB-NH00
100
AcDbAttributeDefinition
  3

  2
TYPE
 70
     8
280
     0
  0
ATTDEF
  5
170
330
163
100
AcDbEntity
  8
attrib
100
AcDbText
 10
100.6499999999999
 20
-107.5
 30
0.0
 40
0.5
  1
woehner
100
AcDbAttributeDefinition
  3

  2
COMPANY
 70
     8
280
     0
  0
ATTDEF
  5
171
330
163
100
AcDbEntity
  8
attrib
100
AcDbText
 10
100.6499999999999
 20
-108.0
 30
0.0
 40
0.5
  1
{$CADENAS_DATA/23d-libs/woehner/sys_60classic/nh_fuse_switch/parts/size00_fuse_monitor/size00_contact.prj},185 {VTYP=3D},{NB=30754000},{LINA=30754000},{NN=Size 00, with fuse monitor contact},{DATE=26.01.2024 07:00:26},{GEOMDATE=14.09.2023 07:20:00},{VERSI
100
AcDbAttributeDefinition
  3

  2
PSOL_0
 70
     9
280
     0
  0
ATTDEF
  5
172
330
163
100
AcDbEntity
  8
attrib
100
AcDbText
 10
100.6499999999999
 20
-108.5
 30
0.0
 40
0.5
  1
ON=},{LINEID=930},{WBVAR=},{WBNUMERIC=}  {NB=30754000},{LINA=30754000},{KT=DUMMY},{BOM=30754000},{POF=QUADRON®60Classic},{TYPE=QCB-NH00}
100
AcDbAttributeDefinition
  3

  2
PSOL_1
 70
     9
280
     0
  0
LINE
  5
173
330
163
100
AcDbEntity
  8
hidden
100
AcDbLine
 10
95.5
 20
-138.0
 30
0.0
 11
95.5
 21
-125.0
 31
0.0
  0
LINE
  5
174
330
163
100
AcDbEntity
  8
hidden
100
AcDbLine
 10
75.50000000000001
 20
-138.0
 30
0.0
 11
75.50000000000001
 21
-125.0
 31
0.0
  0
CIRCLE
  5
175
330
163
100
AcDbEntity
  8
hidden
100
AcDbCircle
 10
85.5
 20
-127.0
 30
0.0
 40
4.25
  0
LINE
  5
176
330
163
100
AcDbEntity
  8
hidden
100
AcDbLine
 10
78.5
 20
-119.0
 30
0.0
 11
75.50000000000001
 21
-119.0
 31
0.0
  0
ARC
  5
177
330
163
100
AcDbEntity
  8
hidden
100
AcDbCircle
 10
78.50000000000001
 20
-122.0
 30
0.0
 40
3.0
100
AcDbArc
 50
269.9999999999997
 51
90.00000000000028
  0
LINE
  5
178
330
163
100
AcDbEntity
  8
hidden
100
AcDbLine
 10
75.50000000000001
 20
-138.0
 30
0.0
 11
95.5
 21
-138.0
 31
0.0
  0
ARC
  5
179
330
163
100
AcDbEntity
  8
hidden
100
AcDbCircle
 10
92.49999999999999
 20
-122.0
 30
0.0
 40
2.999999999999986
100
AcDbArc
 50
89.99999999999947
 51
270.0000000000006
  0
LINE
  5
17A
330
163
100
AcDbEntity
  8
hidden
100
AcDbLine
 10
95.5
 20
-119.0
 30
0.0
 11
92.50000000000001
 21
-119.0
 31
0.0
  0
LINE
  5
17B
330
163
100
AcDbEntity
  8
hidden
100
AcDbLine
 10
75.50000000000001
 20
-107.0
 30
0.0
 11
95.5
 21
-107.0
 31
0.0
  0
LINE
  5
17C
330
163
100
AcDbEntity
  8
hidden
100
AcDbLine
 10
75.50000000000001
 20
-103.0
 30
0.0
 11
95.5
 21
-103.0
 31
0.0
  0
LWPOLYLINE
  5
17D
330
163
100
AcDbEntity
  8
hidden
100
AcDbPolyline
 90
       19
 70
     0
 43
0.0
 10
81.5
 20
-107.0
 10
81.49238939618348
 20
-106.8256885145047
 10
81.46961550602441
 20
-106.6527036446662
 10
81.43185165257815
 20
-106.482361909795
 10
81.37938524157181
 20
-106.3159597133487
 10
81.3126155740733
 20
-106.1547634765186
 10
81.23205080756887
 20
-106.0
 10
81.13830408857798
 20
-105.8528471272979
 10
81.03208888623796
 20
-105.7144247806269
 10
80.91421356237309
 20
-105.5857864376269
 10
80.78557521937309
 20
-105.4679111137621
 10
80.6471528727021
 20
-105.361695911422
 10
80.5
 20
-105.2679491924311
 10
80.3452365234814
 20
-105.1873844259267
 10
80.18404028665134
 20
-105.1206147584282
 10
80.01763809020504
 20
-105.0681483474219
 10
79.84729635533387
 20
-105.0303844939756
 10
79.67431148549532
 20
-105.0076106038165
 10
79.5
 20
-105.0
  0
LINE
  5
17E
330
163
100
AcDbEntity
  8
hidden
100
AcDbLine
 10
75.50000000000001
 20
-119.0
 30
0.0
 11
75.50000000000001
 21
-103.0
 31
0.0
  0
LWPOLYLINE
  5
17F
330
163
100
AcDbEntity
  8
hidden
100
AcDbPolyline
 90
       19
 70
     0
 43
0.0
 10
91.50000000000001
 20
-105.0
 10
91.32568851450469
 20
-105.0076106038165
 10
91.15270364466616
 20
-105.0303844939756
 10
90.98236190979497
 20
-105.0681483474219
 10
90.81595971334868
 20
-105.1206147584282
 10
90.65476347651861
 20
-105.1873844259267
 10
90.50000000000001
 20
-105.2679491924311
 10
90.35284712729792
 20
-105.361695911422
 10
90.21442478062693
 20
-105.4679111137621
 10
90.08578643762691
 20
-105.5857864376269
 10
89.96791111376206
 20
-105.7144247806269
 10
89.86169591142203
 20
-105.8528471272979
 10
89.76794919243113
 20
-106.0
 10
89.68738442592671
 20
-106.1547634765186
 10
89.62061475842819
 20
-106.3159597133487
 10
89.56814834742187
 20
-106.482361909795
 10
89.53038449397559
 20
-106.6527036446661
 10
89.50761060381652
 20
-106.8256885145047
 10
89.50000000000001
 20
-106.9999998187196
  0
LINE
  5
180
330
163
100
AcDbEntity
  8
hidden
100
AcDbLine
 10
95.5
 20
-119.0
 30
0.0
 11
95.5
 21
-103.0
 31
0.0
  0
ARC
  5
181
330
163
100
AcDbEntity
  8
hidden
100
AcDbCircle
 10
81.5
 20
-105.0
 30
0.0
 40
2.0
100
AcDbArc
 50
0.0000000000004071
 51
90.0
  0
LINE
  5
182
330
163
100
AcDbEntity
  8
hidden
100
AcDbLine
 10
81.5
 20
-108.0
 30
0.0
 11
81.5
 21
-103.0
 31
0.0
  0
ARC
  5
183
330
163
100
AcDbEntity
  8
hidden
100
AcDbCircle
 10
81.50000000000001
 20
-105.0
 30
0.0
 40
0.9999999999999858
100
AcDbArc
 50
359.9999999999993
 51
90.00000000000082
  0
LINE
  5
184
330
163
100
AcDbEntity
  8
hidden
100
AcDbLine
 10
82.5
 20
-108.0
 30
0.0
 11
82.5
 21
-105.0
 31
0.0
  0
LINE
  5
185
330
163
100
AcDbEntity
  8
hidden
100
AcDbLine
 10
83.5
 20
-108.0
 30
0.0
 11
81.5
 21
-108.0
 31
0.0
  0
LINE
  5
186
330
163
100
AcDbEntity
  8
hidden
100
AcDbLine
 10
83.5
 20
-108.0
 30
0.0
 11
83.5
 21
-105.0
 31
0.0
  0
LINE
  5
187
330
163
100
AcDbEntity
  8
hidden
100
AcDbLine
 10
89.50000000000001
 20
-103.0
 30
0.0
 11
89.50000000000001
 21
-108.0
 31
0.0
  0
ARC
  5
188
330
163
100
AcDbEntity
  8
hidden
100
AcDbCircle
 10
89.50000000000003
 20
-105.0
 30
0.0
 40
2.000000000000014
100
AcDbArc
 50
90.0000000000004
 51
179.9999999999996
  0
ARC
  5
189
330
163
100
AcDbEntity
  8
hidden
100
AcDbCircle
 10
89.5
 20
-105.0
 30
0.0
 40
0.9999999999999858
100
AcDbArc
 50
89.99999999999919
 51
180.0000000000009
  0
LINE
  5
18A
330
163
100
AcDbEntity
  8
hidden
100
AcDbLine
 10
95.5
 20
-105.0
 30
0.0
 11
75.50000000000001
 21
-105.0
 31
0.0
  0
LINE
  5
18B
330
163
100
AcDbEntity
  8
hidden
100
AcDbLine
 10
87.50000000000001
 20
-108.0
 30
0.0
 11
87.50000000000001
 21
-105.0
 31
0.0
  0
LINE
  5
18C
330
163
100
AcDbEntity
  8
hidden
100
AcDbLine
 10
89.50000000000001
 20
-108.0
 30
0.0
 11
87.50000000000001
 21
-108.0
 31
0.0
  0
LINE
  5
18D
330
163
100
AcDbEntity
  8
hidden
100
AcDbLine
 10
88.50000000000001
 20
-108.0
 30
0.0
 11
88.50000000000001
 21
-105.0
 31
0.0
  0
LINE
  5
190
330
163
100
AcDbEntity
  8
center
100
AcDbLine
 10
81.0375
 20
-127.0
 30
0.0
 11
89.9625
 21
-127.0
 31
0.0
  0
LINE
  5
191
330
163
100
AcDbEntity
  8
center
100
AcDbLine
 10
85.5
 20
-131.4625
 30
0.0
 11
85.5
 21
-122.5375
 31
0.0
  0
LINE
  5
192
330
163
100
AcDbEntity
  8
center
100
AcDbLine
 10
89.35
 20
-122.0
 30
0.0
 11
95.64999999999995
 21
-122.0
 31
0.0
  0
LINE
  5
193
330
163
100
AcDbEntity
  8
center
100
AcDbLine
 10
92.49999999999997
 20
-125.15
 30
0.0
 11
92.49999999999997
 21
-118.85
 31
0.0
  0
LINE
  5
194
330
163
100
AcDbEntity
  8
center
100
AcDbLine
 10
75.35000000000004
 20
-122.0
 30
0.0
 11
81.65000000000002
 21
-122.0
 31
0.0
  0
LINE
  5
195
330
163
100
AcDbEntity
  8
center
100
AcDbLine
 10
78.50000000000003
 20
-125.15
 30
0.0
 11
78.50000000000003
 21
-118.85
 31
0.0
  0
ENDBLK
  5
166
330
163
100
AcDbEntity
  8
0
100
AcDbBlockEnd
  0
BLOCK
  5
198
330
196
100
AcDbEntity
  8
0
100
AcDbBlockBegin
  2
6_30754000_2_0_in_33394_0
 70
     2
 10
0.0
 20
0.0
 30
0.0
  3
6_30754000_2_0_in_33394_0
  1

  0
ATTDEF
  5
19A
330
196
100
AcDbEntity
  8
attrib
100
AcDbText
 10
67.64999999999996
 20
-103.0
 30
0.0
 40
0.5
  1
30754000
100
AcDbAttributeDefinition
  3

  2
NB
 70
     8
280
     0
  0
ATTDEF
  5
19B
330
196
100
AcDbEntity
  8
attrib
100
AcDbText
 10
67.64999999999996
 20
-103.5
 30
0.0
 40
0.5
  1
Size 00, with fuse monitor contact
100
AcDbAttributeDefinition
  3

  2
NN
 70
     8
280
     0
  0
ATTDEF
  5
19C
330
196
100
AcDbEntity
  8
attrib
100
AcDbText
 10
67.64999999999996
 20
-104.0
 30
0.0
 40
0.5
  1

100
AcDbAttributeDefinition
  3

  2
NT
 70
     8
280
     0
  0
ATTDEF
  5
19D
330
196
100
AcDbEntity
  8
attrib
100
AcDbText
 10
67.64999999999996
 20
-104.5
 30
0.0
 40
0.5
  1
$BOM.
100
AcDbAttributeDefinition
  3

  2
NBSYN
 70
     8
280
     0
  0
ATTDEF
  5
19E
330
196
100
AcDbEntity
  8
attrib
100
AcDbText
 10
67.64999999999996
 20
-105.0
 30
0.0
 40
0.5
  1
30754000
100
AcDbAttributeDefinition
  3

  2
LINA
 70
     8
280
     0
  0
ATTDEF
  5
19F
330
196
100
AcDbEntity
  8
attrib
100
AcDbText
 10
67.64999999999996
 20
-105.5
 30
0.0
 40
0.5
  1
Wöhner
100
AcDbAttributeDefinition
  3

  2
CATALOG
 70
     8
280
     0
  0
ATTDEF
  5
1A0
330
196
100
AcDbEntity
  8
attrib
100
AcDbText
 10
67.64999999999996
 20
-106.0
 30
0.0
 40
0.5
  1
30754000
100
AcDbAttributeDefinition
  3

  2
BOM
 70
     8
280
     0
  0
ATTDEF
  5
1A1
330
196
100
AcDbEntity
  8
attrib
100
AcDbText
 10
67.64999999999996
 20
-106.5
 30
0.0
 40
0.5
  1
QUADRON®60Classic
100
AcDbAttributeDefinition
  3

  2
POF
 70
     8
280
     0
  0
ATTDEF
  5
1A2
330
196
100
AcDbEntity
  8
attrib
100
AcDbText
 10
67.64999999999996
 20
-107.0
 30
0.0
 40
0.5
  1
QCB-NH00
100
AcDbAttributeDefinition
  3

  2
TYPE
 70
     8
280
     0
  0
ATTDEF
  5
1A3
330
196
100
AcDbEntity
  8
attrib
100
AcDbText
 10
67.64999999999996
 20
-107.5
 30
0.0
 40
0.5
  1
woehner
100
AcDbAttributeDefinition
  3

  2
COMPANY
 70
     8
280
     0
  0
ATTDEF
  5
1A4
330
196
100
AcDbEntity
  8
attrib
100
AcDbText
 10
67.64999999999996
 20
-108.0
 30
0.0
 40
0.5
  1
{$CADENAS_DATA/23d-libs/woehner/sys_60classic/nh_fuse_switch/parts/size00_fuse_monitor/size00_contact.prj},185 {VTYP=3D},{NB=30754000},{LINA=30754000},{NN=Size 00, with fuse monitor contact},{DATE=26.01.2024 07:00:26},{GEOMDATE=14.09.2023 07:20:00},{VERSI
100
AcDbAttributeDefinition
  3

  2
PSOL_0
 70
     9
280
     0
  0
ATTDEF
  5
1A5
330
196
100
AcDbEntity
  8
attrib
100
AcDbText
 10
67.64999999999996
 20
-108.5
 30
0.0
 40
0.5
  1
ON=},{LINEID=930},{WBVAR=},{WBNUMERIC=}  {NB=30754000},{LINA=30754000},{KT=DUMMY},{BOM=30754000},{POF=QUADRON®60Classic},{TYPE=QCB-NH00}
100
AcDbAttributeDefinition
  3

  2
PSOL_1
 70
     9
280
     0
  0
LINE
  5
1A6
330
196
100
AcDbEntity
  8
hidden
100
AcDbLine
 10
42.49999999999999
 20
-119.0
 30
0.0
 11
42.49999999999999
 21
-114.6461372297524
 31
0.0
  0
CIRCLE
  5
1A7
330
196
100
AcDbEntity
  8
hidden
100
AcDbCircle
 10
52.5
 20
-127.0
 30
0.0
 40
4.25
  0
LINE
  5
1A8
330
196
100
AcDbEntity
  8
hidden
100
AcDbLine
 10
45.5
 20
-119.0
 30
0.0
 11
42.49999999999999
 21
-119.0
 31
0.0
  0
ARC
  5
1A9
330
196
100
AcDbEntity
  8
hidden
100
AcDbCircle
 10
45.5
 20
-122.0
 30
0.0
 40
3.0
100
AcDbArc
 50
270.0
 51
90.0
  0
LINE
  5
1AA
330
196
100
AcDbEntity
  8
hidden
100
AcDbLine
 10
42.49999999999999
 20
-138.0
 30
0.0
 11
42.49999999999999
 21
-125.0
 31
0.0
  0
LINE
  5
1AB
330
196
100
AcDbEntity
  8
hidden
100
AcDbLine
 10
42.49999999999999
 20
-138.0
 30
0.0
 11
62.5
 21
-138.0
 31
0.0
  0
LINE
  5
1AC
330
196
100
AcDbEntity
  8
hidden
100
AcDbLine
 10
62.5
 20
-138.0
 30
0.0
 11
62.5
 21
-125.0
 31
0.0
  0
ARC
  5
1AD
330
196
100
AcDbEntity
  8
hidden
100
AcDbCircle
 10
59.49999999999999
 20
-122.0
 30
0.0
 40
2.999999999999986
100
AcDbArc
 50
89.99999999999987
 51
270.0000000000002
  0
LINE
  5
1AE
330
196
100
AcDbEntity
  8
hidden
100
AcDbLine
 10
62.5
 20
-119.0
 30
0.0
 11
59.5
 21
-119.0
 31
0.0
  0
LINE
  5
1AF
330
196
100
AcDbEntity
  8
hidden
100
AcDbLine
 10
42.49999999999999
 20
-107.0
 30
0.0
 11
62.5
 21
-107.0
 31
0.0
  0
LINE
  5
1B0
330
196
100
AcDbEntity
  8
hidden
100
AcDbLine
 10
42.49999999999999
 20
-103.0
 30
0.0
 11
62.5
 21
-103.0
 31
0.0
  0
LINE
  5
1B1
330
196
100
AcDbEntity
  8
hidden
100
AcDbLine
 10
42.49999999999999
 20
-105.0
 30
0.0
 11
62.5
 21
-105.0
 31
0.0
  0
LWPOLYLINE
  5
1B2
330
196
100
AcDbEntity
  8
hidden
100
AcDbPolyline
 90
       19
 70
     0
 43
0.0
 10
48.5
 20
-107.0
 10
48.49238939618349
 20
-106.8256885145047
 10
48.46961550602442
 20
-106.6527036446662
 10
48.43185165257813
 20
-106.482361909795
 10
48.37938524157182
 20
-106.3159597133487
 10
48.3126155740733
 20
-106.1547634765186
 10
48.23205080756887
 20
-106.0
 10
48.13830408857798
 20
-105.8528471272979
 10
48.03208888623796
 20
-105.7144247806269
 10
47.9142135623731
 20
-105.5857864376269
 10
47.78557521937308
 20
-105.4679111137621
 10
47.64715287270209
 20
-105.361695911422
 10
47.5
 20
-105.2679491924311
 10
47.3452365234814
 20
-105.1873844259267
 10
47.18404028665134
 20
-105.1206147584282
 10
47.01763809020505
 20
-105.0681483474219
 10
46.84729635533386
 20
-105.0303844939756
 10
46.67431148549532
 20
-105.0076106038165
 10
46.50000000000001
 20
-105.0
  0
LINE
  5
1B3
330
196
100
AcDbEntity
  8
hidden
100
AcDbLine
 10
62.5
 20
-119.0
 30
0.0
 11
62.5
 21
-103.0
 31
0.0
  0
LWPOLYLINE
  5
1B4
330
196
100
AcDbEntity
  8
hidden
100
AcDbPolyline
 90
       19
 70
     0
 43
0.0
 10
58.5
 20
-105.0
 10
58.32568851450468
 20
-105.0076106038165
 10
58.15270364466614
 20
-105.0303844939756
 10
57.98236190979496
 20
-105.0681483474219
 10
57.81595971334866
 20
-105.1206147584282
 10
57.6547634765186
 20
-105.1873844259267
 10
57.49999999999999
 20
-105.2679491924311
 10
57.35284712729791
 20
-105.361695911422
 10
57.21442478062692
 20
-105.4679111137621
 10
57.08578643762691
 20
-105.5857864376269
 10
56.96791111376204
 20
-105.7144247806269
 10
56.86169591142202
 20
-105.8528471272979
 10
56.76794919243113
 20
-106.0
 10
56.68738442592669
 20
-106.1547634765186
 10
56.62061475842818
 20
-106.3159597133487
 10
56.56814834742186
 20
-106.482361909795
 10
56.53038449397558
 20
-106.6527036446661
 10
56.50761060381651
 20
-106.8256885145047
 10
56.49999999999999
 20
-107.0
  0
LINE
  5
1B5
330
196
100
AcDbEntity
  8
hidden
100
AcDbLine
 10
54.5
 20
-108.0
 30
0.0
 11
54.5
 21
-105.0
 31
0.0
  0
LINE
  5
1B6
330
196
100
AcDbEntity
  8
hidden
100
AcDbLine
 10
48.5
 20
-108.0
 30
0.0
 11
48.5
 21
-103.0
 31
0.0
  0
ARC
  5
1B7
330
196
100
AcDbEntity
  8
hidden
100
AcDbCircle
 10
48.50000000000001
 20
-105.0
 30
0.0
 40
1.999999999999979
100
AcDbArc
 50
359.9999999999996
 51
90.0000000000004
  0
ARC
  5
1B8
330
196
100
AcDbEntity
  8
hidden
100
AcDbCircle
 10
48.50000000000003
 20
-105.0
 30
0.0
 40
0.9999999999999645
100
AcDbArc
 50
359.9999999999976
 51
90.00000000000162
  0
LINE
  5
1B9
330
196
100
AcDbEntity
  8
hidden
100
AcDbLine
 10
56.49999999999999
 20
-108.0
 30
0.0
 11
56.49999999999999
 21
-103.0
 31
0.0
  0
LINE
  5
1BA
330
196
100
AcDbEntity
  8
hidden
100
AcDbLine
 10
55.5
 20
-108.0
 30
0.0
 11
55.5
 21
-105.0
 31
0.0
  0
LINE
  5
1BB
330
196
100
AcDbEntity
  8
hidden
100
AcDbLine
 10
56.49999999999999
 20
-108.0
 30
0.0
 11
54.5
 21
-108.0
 31
0.0
  0
LINE
  5
1BC
330
196
100
AcDbEntity
  8
hidden
100
AcDbLine
 10
49.49999999999999
 20
-108.0
 30
0.0
 11
49.49999999999999
 21
-105.0
 31
0.0
  0
LINE
  5
1BD
330
196
100
AcDbEntity
  8
hidden
100
AcDbLine
 10
50.49999999999999
 20
-108.0
 30
0.0
 11
48.5
 21
-108.0
 31
0.0
  0
LINE
  5
1BE
330
196
100
AcDbEntity
  8
hidden
100
AcDbLine
 10
50.49999999999999
 20
-108.0
 30
0.0
 11
50.49999999999999
 21
-105.0
 31
0.0
  0
ARC
  5
1BF
330
196
100
AcDbEntity
  8
hidden
100
AcDbCircle
 10
56.49999999999999
 20
-105.0
 30
0.0
 40
0.9999999999999858
100
AcDbArc
 50
89.99999999999957
 51
180.0000000000009
  0
ARC
  5
1C0
330
196
100
AcDbEntity
  8
hidden
100
AcDbCircle
 10
56.49999999999999
 20
-105.0
 30
0.0
 40
2.0
100
AcDbArc
 50
90.0
 51
180.0
  0
LINE
  5
1C1
330
196
100
AcDbEntity
  8
center
100
AcDbLine
 10
48.0375
 20
-127.0
 30
0.0
 11
56.9625
 21
-127.0
 31
0.0
  0
LINE
  5
1C2
330
196
100
AcDbEntity
  8
center
100
AcDbLine
 10
52.5
 20
-131.4625
 30
0.0
 11
52.5
 21
-122.5375
 31
0.0
  0
LINE
  5
1C3
330
196
100
AcDbEntity
  8
center
100
AcDbLine
 10
56.34999999999999
 20
-122.0
 30
0.0
 11
62.64999999999996
 21
-122.0
 31
0.0
  0
LINE
  5
1C4
330
196
100
AcDbEntity
  8
center
100
AcDbLine
 10
59.49999999999998
 20
-125.15
 30
0.0
 11
59.49999999999998
 21
-118.85
 31
0.0
  0
LINE
  5
1C5
330
196
100
AcDbEntity
  8
center
100
AcDbLine
 10
42.35000000000004
 20
-122.0
 30
0.0
 11
48.65
 21
-122.0
 31
0.0
  0
LINE
  5
1C6
330
196
100
AcDbEntity
  8
center
100
AcDbLine
 10
45.50000000000002
 20
-125.15
 30
0.0
 11
45.50000000000002
 21
-118.85
 31
0.0
  0
ENDBLK
  5
199
330
196
100
AcDbEntity
  8
0
100
AcDbBlockEnd
  0
BLOCK
  5
1C9
330
1C7
100
AcDbEntity
  8
0
100
AcDbBlockBegin
  2
7_30754000_3_0_in_33394_0
 70
     2
 10
0.0
 20
0.0
 30
0.0
  3
7_30754000_3_0_in_33394_0
  1

  0
ATTDEF
  5
1CB
330
1C7
100
AcDbEntity
  8
attrib
100
AcDbText
 10
34.64999999999996
 20
-103.0
 30
0.0
 40
0.5
  1
30754000
100
AcDbAttributeDefinition
  3

  2
NB
 70
     8
280
     0
  0
ATTDEF
  5
1CC
330
1C7
100
AcDbEntity
  8
attrib
100
AcDbText
 10
34.64999999999996
 20
-103.5
 30
0.0
 40
0.5
  1
Size 00, with fuse monitor contact
100
AcDbAttributeDefinition
  3

  2
NN
 70
     8
280
     0
  0
ATTDEF
  5
1CD
330
1C7
100
AcDbEntity
  8
attrib
100
AcDbText
 10
34.64999999999996
 20
-104.0
 30
0.0
 40
0.5
  1

100
AcDbAttributeDefinition
  3

  2
NT
 70
     8
280
     0
  0
ATTDEF
  5
1CE
330
1C7
100
AcDbEntity
  8
attrib
100
AcDbText
 10
34.64999999999996
 20
-104.5
 30
0.0
 40
0.5
  1
$BOM.
100
AcDbAttributeDefinition
  3

  2
NBSYN
 70
     8
280
     0
  0
ATTDEF
  5
1CF
330
1C7
100
AcDbEntity
  8
attrib
100
AcDbText
 10
34.64999999999996
 20
-105.0
 30
0.0
 40
0.5
  1
30754000
100
AcDbAttributeDefinition
  3

  2
LINA
 70
     8
280
     0
  0
ATTDEF
  5
1D0
330
1C7
100
AcDbEntity
  8
attrib
100
AcDbText
 10
34.64999999999996
 20
-105.5
 30
0.0
 40
0.5
  1
Wöhner
100
AcDbAttributeDefinition
  3

  2
CATALOG
 70
     8
280
     0
  0
ATTDEF
  5
1D1
330
1C7
100
AcDbEntity
  8
attrib
100
AcDbText
 10
34.64999999999996
 20
-106.0
 30
0.0
 40
0.5
  1
30754000
100
AcDbAttributeDefinition
  3

  2
BOM
 70
     8
280
     0
  0
ATTDEF
  5
1D2
330
1C7
100
AcDbEntity
  8
attrib
100
AcDbText
 10
34.64999999999996
 20
-106.5
 30
0.0
 40
0.5
  1
QUADRON®60Classic
100
AcDbAttributeDefinition
  3

  2
POF
 70
     8
280
     0
  0
ATTDEF
  5
1D3
330
1C7
100
AcDbEntity
  8
attrib
100
AcDbText
 10
34.64999999999996
 20
-107.0
 30
0.0
 40
0.5
  1
QCB-NH00
100
AcDbAttributeDefinition
  3

  2
TYPE
 70
     8
280
     0
  0
ATTDEF
  5
1D4
330
1C7
100
AcDbEntity
  8
attrib
100
AcDbText
 10
34.64999999999996
 20
-107.5
 30
0.0
 40
0.5
  1
woehner
100
AcDbAttributeDefinition
  3

  2
COMPANY
 70
     8
280
     0
  0
ATTDEF
  5
1D5
330
1C7
100
AcDbEntity
  8
attrib
100
AcDbText
 10
34.64999999999996
 20
-108.0
 30
0.0
 40
0.5
  1
{$CADENAS_DATA/23d-libs/woehner/sys_60classic/nh_fuse_switch/parts/size00_fuse_monitor/size00_contact.prj},185 {VTYP=3D},{NB=30754000},{LINA=30754000},{NN=Size 00, with fuse monitor contact},{DATE=26.01.2024 07:00:26},{GEOMDATE=14.09.2023 07:20:00},{VERSI
100
AcDbAttributeDefinition
  3

  2
PSOL_0
 70
     9
280
     0
  0
ATTDEF
  5
1D6
330
1C7
100
AcDbEntity
  8
attrib
100
AcDbText
 10
34.64999999999996
 20
-108.5
 30
0.0
 40
0.5
  1
ON=},{LINEID=930},{WBVAR=},{WBNUMERIC=}  {NB=30754000},{LINA=30754000},{KT=DUMMY},{BOM=30754000},{POF=QUADRON®60Classic},{TYPE=QCB-NH00}
100
AcDbAttributeDefinition
  3

  2
PSOL_1
 70
     9
280
     0
  0
ARC
  5
1D7
330
1C7
100
AcDbEntity
  8
hidden
100
AcDbCircle
 10
26.5
 20
-122.0
 30
0.0
 40
2.999999999999986
100
AcDbArc
 50
89.99999999999991
 51
270.0000000000001
  0
LINE
  5
1D8
330
1C7
100
AcDbEntity
  8
hidden
100
AcDbLine
 10
9.5
 20
-138.0
 30
0.0
 11
29.5
 21
-138.0
 31
0.0
  0
LINE
  5
1D9
330
1C7
100
AcDbEntity
  8
hidden
100
AcDbLine
 10
29.5
 20
-119.0
 30
0.0
 11
26.5
 21
-119.0
 31
0.0
  0
CIRCLE
  5
1DA
330
1C7
100
AcDbEntity
  8
hidden
100
AcDbCircle
 10
19.5
 20
-127.0
 30
0.0
 40
4.25
  0
LINE
  5
1DB
330
1C7
100
AcDbEntity
  8
hidden
100
AcDbLine
 10
12.5
 20
-119.0
 30
0.0
 11
9.5
 21
-119.0
 31
0.0
  0
ARC
  5
1DC
330
1C7
100
AcDbEntity
  8
hidden
100
AcDbCircle
 10
12.5
 20
-122.0
 30
0.0
 40
3.0
100
AcDbArc
 50
269.9999999999999
 51
90.00000000000009
  0
LINE
  5
1DD
330
1C7
100
AcDbEntity
  8
hidden
100
AcDbLine
 10
9.5
 20
-138.0
 30
0.0
 11
9.5
 21
-125.0
 31
0.0
  0
LINE
  5
1DE
330
1C7
100
AcDbEntity
  8
hidden
100
AcDbLine
 10
29.5
 20
-138.0
 30
0.0
 11
29.5
 21
-125.0
 31
0.0
  0
LINE
  5
1DF
330
1C7
100
AcDbEntity
  8
hidden
100
AcDbLine
 10
9.5
 20
-107.0
 30
0.0
 11
29.5
 21
-107.0
 31
0.0
  0
LINE
  5
1E0
330
1C7
100
AcDbEntity
  8
hidden
100
AcDbLine
 10
9.5
 20
-103.0
 30
0.0
 11
29.5
 21
-103.0
 31
0.0
  0
LINE
  5
1E1
330
1C7
100
AcDbEntity
  8
hidden
100
AcDbLine
 10
9.5
 20
-105.0
 30
0.0
 11
27.5
 21
-105.0
 31
0.0
  0
LWPOLYLINE
  5
1E2
330
1C7
100
AcDbEntity
  8
hidden
100
AcDbPolyline
 90
       19
 70
     0
 43
0.0
 10
15.5
 20
-107.0
 10
15.49238939618349
 20
-106.8256885145047
 10
15.46961550602442
 20
-106.6527036446662
 10
15.43185165257814
 20
-106.482361909795
 10
15.37938524157182
 20
-106.3159597133487
 10
15.3126155740733
 20
-106.1547634765186
 10
15.23205080756888
 20
-106.0
 10
15.13830408857799
 20
-105.8528471272979
 10
15.03208888623796
 20
-105.7144247806269
 10
14.9142135623731
 20
-105.5857864376269
 10
14.78557521937308
 20
-105.4679111137621
 10
14.64715287270209
 20
-105.361695911422
 10
14.5
 20
-105.2679491924311
 10
14.3452365234814
 20
-105.1873844259267
 10
14.18404028665134
 20
-105.1206147584282
 10
14.01763809020505
 20
-105.0681483474219
 10
13.84729635533387
 20
-105.0303844939756
 10
13.67431148549532
 20
-105.0076106038165
 10
13.50000000000001
 20
-105.0
  0
LINE
  5
1E3
330
1C7
100
AcDbEntity
  8
hidden
100
AcDbLine
 10
9.5
 20
-119.0
 30
0.0
 11
9.5
 21
-103.0
 31
0.0
  0
LWPOLYLINE
  5
1E4
330
1C7
100
AcDbEntity
  8
hidden
100
AcDbPolyline
 90
       19
 70
     0
 43
0.0
 10
25.5
 20
-105.0
 10
25.32568851450468
 20
-105.0076106038165
 10
25.15270364466614
 20
-105.0303844939756
 10
24.98236190979496
 20
-105.0681483474219
 10
24.81595971334866
 20
-105.1206147584282
 10
24.6547634765186
 20
-105.1873844259267
 10
24.5
 20
-105.2679491924311
 10
24.35284712729791
 20
-105.361695911422
 10
24.21442478062692
 20
-105.4679111137621
 10
24.08578643762691
 20
-105.5857864376269
 10
23.96791111376205
 20
-105.7144247806269
 10
23.86169591142202
 20
-105.8528471272979
 10
23.76794919243112
 20
-106.0
 10
23.6873844259267
 20
-106.1547634765186
 10
23.62061475842819
 20
-106.3159597133487
 10
23.56814834742186
 20
-106.482361909795
 10
23.53038449397559
 20
-106.6527036446661
 10
23.50761060381651
 20
-106.8256885145047
 10
23.5
 20
-107.0
  0
LINE
  5
1E5
330
1C7
100
AcDbEntity
  8
hidden
100
AcDbLine
 10
29.5
 20
-119.0
 30
0.0
 11
29.5
 21
-103.0
 31
0.0
  0
LINE
  5
1E6
330
1C7
100
AcDbEntity
  8
hidden
100
AcDbLine
 10
23.5
 20
-103.0
 30
0.0
 11
23.5
 21
-108.0
 31
0.0
  0
ARC
  5
1E7
330
1C7
100
AcDbEntity
  8
hidden
100
AcDbCircle
 10
23.50000000000001
 20
-105.0
 30
0.0
 40
2.000000000000014
100
AcDbArc
 50
90.0000000000003
 51
179.9999999999996
  0
LINE
  5
1E8
330
1C7
100
AcDbEntity
  8
hidden
100
AcDbLine
 10
15.5
 20
-108.0
 30
0.0
 11
15.5
 21
-103.0
 31
0.0
  0
LINE
  5
1E9
330
1C7
100
AcDbEntity
  8
hidden
100
AcDbLine
 10
21.5
 20
-108.0
 30
0.0
 11
21.5
 21
-105.0
 31
0.0
  0
ARC
  5
1EA
330
1C7
100
AcDbEntity
  8
hidden
100
AcDbCircle
 10
15.49999999999999
 20
-105.0
 30
0.0
 40
2.000000000000009
100
AcDbArc
 50
0.0000000000004071
 51
89.99999999999974
  0
ARC
  5
1EB
330
1C7
100
AcDbEntity
  8
hidden
100
AcDbCircle
 10
15.50000000000002
 20
-105.0
 30
0.0
 40
0.9999999999999805
100
AcDbArc
 50
359.9999999999993
 51
90.00000000000112
  0
LINE
  5
1EC
330
1C7
100
AcDbEntity
  8
hidden
100
AcDbLine
 10
16.5
 20
-108.0
 30
0.0
 11
16.5
 21
-105.0
 31
0.0
  0
LINE
  5
1ED
330
1C7
100
AcDbEntity
  8
hidden
100
AcDbLine
 10
17.5
 20
-108.0
 30
0.0
 11
15.5
 21
-108.0
 31
0.0
  0
LINE
  5
1EE
330
1C7
100
AcDbEntity
  8
hidden
100
AcDbLine
 10
17.5
 20
-108.0
 30
0.0
 11
17.5
 21
-105.0
 31
0.0
  0
ARC
  5
1EF
330
1C7
100
AcDbEntity
  8
hidden
100
AcDbCircle
 10
23.49999999999998
 20
-105.0
 30
0.0
 40
0.9999999999999858
100
AcDbArc
 50
89.99999999999876
 51
180.0000000000009
  0
LINE
  5
1F0
330
1C7
100
AcDbEntity
  8
hidden
100
AcDbLine
 10
22.5
 20
-108.0
 30
0.0
 11
22.5
 21
-105.0
 31
0.0
  0
LINE
  5
1F1
330
1C7
100
AcDbEntity
  8
hidden
100
AcDbLine
 10
23.5
 20
-108.0
 30
0.0
 11
21.5
 21
-108.0
 31
0.0
  0
LINE
  5
1F2
330
1C7
100
AcDbEntity
  8
center
100
AcDbLine
 10
15.0375
 20
-127.0
 30
0.0
 11
23.9625
 21
-127.0
 31
0.0
  0
LINE
  5
1F3
330
1C7
100
AcDbEntity
  8
center
100
AcDbLine
 10
19.5
 20
-131.4625
 30
0.0
 11
19.5
 21
-122.5375
 31
0.0
  0
LINE
  5
1F4
330
1C7
100
AcDbEntity
  8
center
100
AcDbLine
 10
23.35
 20
-122.0
 30
0.0
 11
29.64999999999996
 21
-122.0
 31
0.0
  0
LINE
  5
1F5
330
1C7
100
AcDbEntity
  8
center
100
AcDbLine
 10
26.49999999999998
 20
-125.15
 30
0.0
 11
26.49999999999998
 21
-118.85
 31
0.0
  0
LINE
  5
1F6
330
1C7
100
AcDbEntity
  8
center
100
AcDbLine
 10
9.350000000000042
 20
-122.0
 30
0.0
 11
15.65
 21
-122.0
 31
0.0
  0
LINE
  5
1F7
330
1C7
100
AcDbEntity
  8
center
100
AcDbLine
 10
12.50000000000002
 20
-125.15
 30
0.0
 11
12.50000000000002
 21
-118.85
 31
0.0
  0
ENDBLK
  5
1CA
330
1C7
100
AcDbEntity
  8
0
100
AcDbBlockEnd
  0
BLOCK
  5
1FA
330
1F8
100
AcDbEntity
  8
0
100
AcDbBlockBegin
  2
8_30754000_4_0_in_33394_0
 70
     2
 10
0.0
 20
0.0
 30
0.0
  3
8_30754000_4_0_in_33394_0
  1

  0
ATTDEF
  5
1FC
330
1F8
100
AcDbEntity
  8
attrib
100
AcDbText
 10
100.65
 20
-3.999999999999996
 30
0.0
 40
0.5
  1
30754000
100
AcDbAttributeDefinition
  3

  2
NB
 70
     8
280
     0
  0
ATTDEF
  5
1FD
330
1F8
100
AcDbEntity
  8
attrib
100
AcDbText
 10
100.65
 20
-4.499999999999996
 30
0.0
 40
0.5
  1
Size 00, with fuse monitor contact
100
AcDbAttributeDefinition
  3

  2
NN
 70
     8
280
     0
  0
ATTDEF
  5
1FE
330
1F8
100
AcDbEntity
  8
attrib
100
AcDbText
 10
100.65
 20
-4.999999999999996
 30
0.0
 40
0.5
  1

100
AcDbAttributeDefinition
  3

  2
NT
 70
     8
280
     0
  0
ATTDEF
  5
1FF
330
1F8
100
AcDbEntity
  8
attrib
100
AcDbText
 10
100.65
 20
-5.499999999999996
 30
0.0
 40
0.5
  1
$BOM.
100
AcDbAttributeDefinition
  3

  2
NBSYN
 70
     8
280
     0
  0
ATTDEF
  5
200
330
1F8
100
AcDbEntity
  8
attrib
100
AcDbText
 10
100.65
 20
-5.999999999999996
 30
0.0
 40
0.5
  1
30754000
100
AcDbAttributeDefinition
  3

  2
LINA
 70
     8
280
     0
  0
ATTDEF
  5
201
330
1F8
100
AcDbEntity
  8
attrib
100
AcDbText
 10
100.65
 20
-6.499999999999996
 30
0.0
 40
0.5
  1
Wöhner
100
AcDbAttributeDefinition
  3

  2
CATALOG
 70
     8
280
     0
  0
ATTDEF
  5
202
330
1F8
100
AcDbEntity
  8
attrib
100
AcDbText
 10
100.65
 20
-6.999999999999996
 30
0.0
 40
0.5
  1
30754000
100
AcDbAttributeDefinition
  3

  2
BOM
 70
     8
280
     0
  0
ATTDEF
  5
203
330
1F8
100
AcDbEntity
  8
attrib
100
AcDbText
 10
100.65
 20
-7.499999999999996
 30
0.0
 40
0.5
  1
QUADRON®60Classic
100
AcDbAttributeDefinition
  3

  2
POF
 70
     8
280
     0
  0
ATTDEF
  5
204
330
1F8
100
AcDbEntity
  8
attrib
100
AcDbText
 10
100.65
 20
-7.999999999999996
 30
0.0
 40
0.5
  1
QCB-NH00
100
AcDbAttributeDefinition
  3

  2
TYPE
 70
     8
280
     0
  0
ATTDEF
  5
205
330
1F8
100
AcDbEntity
  8
attrib
100
AcDbText
 10
100.65
 20
-8.499999999999996
 30
0.0
 40
0.5
  1
woehner
100
AcDbAttributeDefinition
  3

  2
COMPANY
 70
     8
280
     0
  0
ATTDEF
  5
206
330
1F8
100
AcDbEntity
  8
attrib
100
AcDbText
 10
100.65
 20
-8.999999999999996
 30
0.0
 40
0.5
  1
{$CADENAS_DATA/23d-libs/woehner/sys_60classic/nh_fuse_switch/parts/size00_fuse_monitor/size00_contact.prj},185 {VTYP=3D},{NB=30754000},{LINA=30754000},{NN=Size 00, with fuse monitor contact},{DATE=26.01.2024 07:00:26},{GEOMDATE=14.09.2023 07:20:00},{VERSI
100
AcDbAttributeDefinition
  3

  2
PSOL_0
 70
     9
280
     0
  0
ATTDEF
  5
207
330
1F8
100
AcDbEntity
  8
attrib
100
AcDbText
 10
100.65
 20
-9.499999999999996
 30
0.0
 40
0.5
  1
ON=},{LINEID=930},{WBVAR=},{WBNUMERIC=}  {NB=30754000},{LINA=30754000},{KT=DUMMY},{BOM=30754000},{POF=QUADRON®60Classic},{TYPE=QCB-NH00}
100
AcDbAttributeDefinition
  3

  2
PSOL_1
 70
     9
280
     0
  0
CIRCLE
  5
208
330
1F8
100
AcDbEntity
  8
hidden
100
AcDbCircle
 10
85.5
 20
-15.0
 30
0.0
 40
4.25
  0
LINE
  5
209
330
1F8
100
AcDbEntity
  8
hidden
100
AcDbLine
 10
75.50000000000001
 20
-23.0
 30
0.0
 11
78.5
 21
-23.0
 31
0.0
  0
LINE
  5
20A
330
1F8
100
AcDbEntity
  8
hidden
100
AcDbLine
 10
75.50000000000001
 20
-3.999999999999996
 30
0.0
 11
75.50000000000001
 21
-17.0
 31
0.0
  0
ARC
  5
20B
330
1F8
100
AcDbEntity
  8
hidden
100
AcDbCircle
 10
78.5
 20
-20.0
 30
0.0
 40
3.0
100
AcDbArc
 50
270.0
 51
90.0
  0
ARC
  5
20C
330
1F8
100
AcDbEntity
  8
hidden
100
AcDbCircle
 10
92.5
 20
-20.0
 30
0.0
 40
3.0
100
AcDbArc
 50
89.99999999999973
 51
270.0000000000002
  0
LINE
  5
20D
330
1F8
100
AcDbEntity
  8
hidden
100
AcDbLine
 10
95.5
 20
-9.976099197920028
 30
0.0
 11
95.5
 21
-17.0
 31
0.0
  0
LINE
  5
20E
330
1F8
100
AcDbEntity
  8
hidden
100
AcDbLine
 10
92.50000000000001
 20
-23.0
 30
0.0
 11
95.5
 21
-23.0
 31
0.0
  0
LINE
  5
20F
330
1F8
100
AcDbEntity
  8
hidden
100
AcDbLine
 10
78.5
 20
-17.0
 30
0.0
 11
75.50000000000001
 21
-17.0
 31
0.0
  0
LINE
  5
210
330
1F8
100
AcDbEntity
  8
hidden
100
AcDbLine
 10
95.5
 20
-17.0
 30
0.0
 11
92.50000000000001
 21
-17.0
 31
0.0
  0
LINE
  5
211
330
1F8
100
AcDbEntity
  8
hidden
100
AcDbLine
 10
95.5
 20
-35.0
 30
0.0
 11
75.50000000000001
 21
-35.0
 31
0.0
  0
LINE
  5
212
330
1F8
100
AcDbEntity
  8
hidden
100
AcDbLine
 10
95.5
 20
-39.0
 30
0.0
 11
75.50000000000001
 21
-39.0
 31
0.0
  0
LINE
  5
213
330
1F8
100
AcDbEntity
  8
hidden
100
AcDbLine
 10
95.5
 20
-37.0
 30
0.0
 11
75.50000000000001
 21
-37.0
 31
0.0
  0
LWPOLYLINE
  5
214
330
1F8
100
AcDbEntity
  8
hidden
100
AcDbPolyline
 90
       19
 70
     0
 43
0.0
 10
89.50000000000001
 20
-35.0
 10
89.50761060381653
 20
-35.17431148549532
 10
89.5303844939756
 20
-35.34729635533386
 10
89.56814834742187
 20
-35.51763809020504
 10
89.62061475842819
 20
-35.68404028665134
 10
89.68738442592671
 20
-35.8452365234814
 10
89.76794919243115
 20
-36.00000000000001
 10
89.86169591142203
 20
-36.14715287270209
 10
89.96791111376206
 20
-36.28557521937308
 10
90.08578643762692
 20
-36.41421356237309
 10
90.21442478062693
 20
-36.53208888623796
 10
90.35284712729792
 20
-36.63830408857798
 10
90.50000000000001
 20
-36.73205080756887
 10
90.65476347651861
 20
-36.81261557407331
 10
90.81595971334868
 20
-36.87938524157182
 10
90.98236190979497
 20
-36.93185165257814
 10
91.15270364466615
 20
-36.96961550602442
 10
91.32568851450469
 20
-36.9923893961835
 10
91.50000000000001
 20
-37.00000000000001
  0
LINE
  5
215
330
1F8
100
AcDbEntity
  8
hidden
100
AcDbLine
 10
95.5
 20
-23.0
 30
0.0
 11
95.5
 21
-39.0
 31
0.0
  0
LWPOLYLINE
  5
216
330
1F8
100
AcDbEntity
  8
hidden
100
AcDbPolyline
 90
       19
 70
     0
 43
0.0
 10
79.5
 20
-37.00000000000001
 10
79.67431148549532
 20
-36.9923893961835
 10
79.84729635533385
 20
-36.96961550602442
 10
80.01763809020504
 20
-36.93185165257814
 10
80.18404028665134
 20
-36.87938524157182
 10
80.3452365234814
 20
-36.81261557407331
 10
80.5
 20
-36.73205080756889
 10
80.6471528727021
 20
-36.638304088578
 10
80.78557521937309
 20
-36.53208888623797
 10
80.9142135623731
 20
-36.41421356237311
 10
81.03208888623796
 20
-36.28557521937309
 10
81.13830408857798
 20
-36.14715287270211
 10
81.23205080756888
 20
-36.00000000000002
 10
81.3126155740733
 20
-35.84523652348141
 10
81.37938524157182
 20
-35.68404028665135
 10
81.43185165257815
 20
-35.51763809020506
 10
81.46961550602443
 20
-35.34729635533388
 10
81.4923893961835
 20
-35.17431148549534
 10
81.5
 20
-35.00000018128046
  0
LINE
  5
217
330
1F8
100
AcDbEntity
  8
hidden
100
AcDbLine
 10
75.50000000000001
 20
-23.0
 30
0.0
 11
75.50000000000001
 21
-39.0
 31
0.0
  0
LINE
  5
218
330
1F8
100
AcDbEntity
  8
hidden
100
AcDbLine
 10
81.5
 20
-39.0
 30
0.0
 11
81.5
 21
-34.0
 31
0.0
  0
ARC
  5
219
330
1F8
100
AcDbEntity
  8
hidden
100
AcDbCircle
 10
81.5
 20
-36.99999999999999
 30
0.0
 40
2.000000000000007
100
AcDbArc
 50
270.0
 51
359.9999999999998
  0
LINE
  5
21A
330
1F8
100
AcDbEntity
  8
hidden
100
AcDbLine
 10
83.5
 20
-34.0
 30
0.0
 11
83.5
 21
-37.0
 31
0.0
  0
LINE
  5
21B
330
1F8
100
AcDbEntity
  8
hidden
100
AcDbLine
 10
81.5
 20
-34.0
 30
0.0
 11
83.5
 21
-34.0
 31
0.0
  0
ARC
  5
21C
330
1F8
100
AcDbEntity
  8
hidden
100
AcDbCircle
 10
81.50000000000001
 20
-37.00000000000002
 30
0.0
 40
0.9999999999999787
100
AcDbArc
 50
269.9999999999992
 51
0.0000000000012213
  0
LINE
  5
21D
330
1F8
100
AcDbEntity
  8
hidden
100
AcDbLine
 10
82.5
 20
-34.0
 30
0.0
 11
82.5
 21
-37.0
 31
0.0
  0
LINE
  5
21E
330
1F8
100
AcDbEntity
  8
hidden
100
AcDbLine
 10
89.50000000000001
 20
-34.0
 30
0.0
 11
89.50000000000001
 21
-39.0
 31
0.0
  0
LINE
  5
21F
330
1F8
100
AcDbEntity
  8
hidden
100
AcDbLine
 10
87.50000000000001
 20
-34.0
 30
0.0
 11
89.50000000000001
 21
-34.0
 31
0.0
  0
ARC
  5
220
330
1F8
100
AcDbEntity
  8
hidden
100
AcDbCircle
 10
89.50000000000003
 20
-36.99999999999999
 30
0.0
 40
2.000000000000014
100
AcDbArc
 50
180.0000000000002
 51
269.9999999999996
  0
ARC
  5
221
330
1F8
100
AcDbEntity
  8
hidden
100
AcDbCircle
 10
89.50000000000001
 20
-37.0
 30
0.0
 40
1.0
100
AcDbArc
 50
180.0
 51
270.0
  0
LINE
  5
222
330
1F8
100
AcDbEntity
  8
hidden
100
AcDbLine
 10
88.50000000000001
 20
-34.0
 30
0.0
 11
88.50000000000001
 21
-37.0
 31
0.0
  0
LINE
  5
223
330
1F8
100
AcDbEntity
  8
hidden
100
AcDbLine
 10
87.50000000000001
 20
-34.0
 30
0.0
 11
87.50000000000001
 21
-37.0
 31
0.0
  0
LINE
  5
224
330
1F8
100
AcDbEntity
  8
center
100
AcDbLine
 10
81.0375
 20
-15.0
 30
0.0
 11
89.9625
 21
-15.0
 31
0.0
  0
LINE
  5
225
330
1F8
100
AcDbEntity
  8
center
100
AcDbLine
 10
85.5
 20
-19.4625
 30
0.0
 11
85.5
 21
-10.5375
 31
0.0
  0
LINE
  5
226
330
1F8
100
AcDbEntity
  8
center
100
AcDbLine
 10
75.34999999999998
 20
-19.99999999999999
 30
0.0
 11
81.65000000000002
 21
-19.99999999999999
 31
0.0
  0
LINE
  5
227
330
1F8
100
AcDbEntity
  8
center
100
AcDbLine
 10
78.5
 20
-23.15000000000001
 30
0.0
 11
78.5
 21
-16.84999999999997
 31
0.0
  0
LINE
  5
228
330
1F8
100
AcDbEntity
  8
center
100
AcDbLine
 10
89.35
 20
-20.00000000000001
 30
0.0
 11
95.65
 21
-20.00000000000001
 31
0.0
  0
LINE
  5
229
330
1F8
100
AcDbEntity
  8
center
100
AcDbLine
 10
92.5
 20
-23.15000000000001
 30
0.0
 11
92.5
 21
-16.85000000000001
 31
0.0
  0
ENDBLK
  5
1FB
330
1F8
100
AcDbEntity
  8
0
100
AcDbBlockEnd
  0
BLOCK
  5
22C
330
22A
100
AcDbEntity
  8
0
100
AcDbBlockBegin
  2
9_30754000_5_0_in_33394_0
 70
     2
 10
0.0
 20
0.0
 30
0.0
  3
9_30754000_5_0_in_33394_0
  1

  0
ATTDEF
  5
22E
330
22A
100
AcDbEntity
  8
attrib
100
AcDbText
 10
67.64999999999999
 20
-3.999999999999996
 30
0.0
 40
0.5
  1
30754000
100
AcDbAttributeDefinition
  3

  2
NB
 70
     8
280
     0
  0
ATTDEF
  5
22F
330
22A
100
AcDbEntity
  8
attrib
100
AcDbText
 10
67.64999999999999
 20
-4.499999999999996
 30
0.0
 40
0.5
  1
Size 00, with fuse monitor contact
100
AcDbAttributeDefinition
  3

  2
NN
 70
     8
280
     0
  0
ATTDEF
  5
230
330
22A
100
AcDbEntity
  8
attrib
100
AcDbText
 10
67.64999999999999
 20
-4.999999999999996
 30
0.0
 40
0.5
  1

100
AcDbAttributeDefinition
  3

  2
NT
 70
     8
280
     0
  0
ATTDEF
  5
231
330
22A
100
AcDbEntity
  8
attrib
100
AcDbText
 10
67.64999999999999
 20
-5.499999999999996
 30
0.0
 40
0.5
  1
$BOM.
100
AcDbAttributeDefinition
  3

  2
NBSYN
 70
     8
280
     0
  0
ATTDEF
  5
232
330
22A
100
AcDbEntity
  8
attrib
100
AcDbText
 10
67.64999999999999
 20
-5.999999999999996
 30
0.0
 40
0.5
  1
30754000
100
AcDbAttributeDefinition
  3

  2
LINA
 70
     8
280
     0
  0
ATTDEF
  5
233
330
22A
100
AcDbEntity
  8
attrib
100
AcDbText
 10
67.64999999999999
 20
-6.499999999999996
 30
0.0
 40
0.5
  1
Wöhner
100
AcDbAttributeDefinition
  3

  2
CATALOG
 70
     8
280
     0
  0
ATTDEF
  5
234
330
22A
100
AcDbEntity
  8
attrib
100
AcDbText
 10
67.64999999999999
 20
-6.999999999999996
 30
0.0
 40
0.5
  1
30754000
100
AcDbAttributeDefinition
  3

  2
BOM
 70
     8
280
     0
  0
ATTDEF
  5
235
330
22A
100
AcDbEntity
  8
attrib
100
AcDbText
 10
67.64999999999999
 20
-7.499999999999996
 30
0.0
 40
0.5
  1
QUADRON®60Classic
100
AcDbAttributeDefinition
  3

  2
POF
 70
     8
280
     0
  0
ATTDEF
  5
236
330
22A
100
AcDbEntity
  8
attrib
100
AcDbText
 10
67.64999999999999
 20
-7.999999999999996
 30
0.0
 40
0.5
  1
QCB-NH00
100
AcDbAttributeDefinition
  3

  2
TYPE
 70
     8
280
     0
  0
ATTDEF
  5
237
330
22A
100
AcDbEntity
  8
attrib
100
AcDbText
 10
67.64999999999999
 20
-8.499999999999996
 30
0.0
 40
0.5
  1
woehner
100
AcDbAttributeDefinition
  3

  2
COMPANY
 70
     8
280
     0
  0
ATTDEF
  5
238
330
22A
100
AcDbEntity
  8
attrib
100
AcDbText
 10
67.64999999999999
 20
-8.999999999999996
 30
0.0
 40
0.5
  1
{$CADENAS_DATA/23d-libs/woehner/sys_60classic/nh_fuse_switch/parts/size00_fuse_monitor/size00_contact.prj},185 {VTYP=3D},{NB=30754000},{LINA=30754000},{NN=Size 00, with fuse monitor contact},{DATE=26.01.2024 07:00:26},{GEOMDATE=14.09.2023 07:20:00},{VERSI
100
AcDbAttributeDefinition
  3

  2
PSOL_0
 70
     9
280
     0
  0
ATTDEF
  5
239
330
22A
100
AcDbEntity
  8
attrib
100
AcDbText
 10
67.64999999999999
 20
-9.499999999999996
 30
0.0
 40
0.5
  1
ON=},{LINEID=930},{WBVAR=},{WBNUMERIC=}  {NB=30754000},{LINA=30754000},{KT=DUMMY},{BOM=30754000},{POF=QUADRON®60Classic},{TYPE=QCB-NH00}
100
AcDbAttributeDefinition
  3

  2
PSOL_1
 70
     9
280
     0
  0
LINE
  5
23A
330
22A
100
AcDbEntity
  8
hidden
100
AcDbLine
 10
62.5
 20
-17.0
 30
0.0
 11
59.5
 21
-17.0
 31
0.0
  0
LINE
  5
23B
330
22A
100
AcDbEntity
  8
hidden
100
AcDbLine
 10
42.49999999999999
 20
-3.999999999999996
 30
0.0
 11
42.49999999999999
 21
-17.0
 31
0.0
  0
CIRCLE
  5
23C
330
22A
100
AcDbEntity
  8
hidden
100
AcDbCircle
 10
52.5
 20
-15.0
 30
0.0
 40
4.25
  0
LINE
  5
23D
330
22A
100
AcDbEntity
  8
hidden
100
AcDbLine
 10
59.5
 20
-23.0
 30
0.0
 11
62.5
 21
-23.0
 31
0.0
  0
ARC
  5
23E
330
22A
100
AcDbEntity
  8
hidden
100
AcDbCircle
 10
59.5
 20
-20.0
 30
0.0
 40
3.0
100
AcDbArc
 50
90.0
 51
270.0
  0
LINE
  5
23F
330
22A
100
AcDbEntity
  8
hidden
100
AcDbLine
 10
62.5
 20
-3.999999999999996
 30
0.0
 11
62.5
 21
-17.0
 31
0.0
  0
LINE
  5
240
330
22A
100
AcDbEntity
  8
hidden
100
AcDbLine
 10
45.49999999999999
 20
-17.0
 30
0.0
 11
42.49999999999999
 21
-17.0
 31
0.0
  0
ARC
  5
241
330
22A
100
AcDbEntity
  8
hidden
100
AcDbCircle
 10
45.5
 20
-20.0
 30
0.0
 40
3.0
100
AcDbArc
 50
270.0
 51
90.00000000000016
  0
LINE
  5
242
330
22A
100
AcDbEntity
  8
hidden
100
AcDbLine
 10
42.49999999999999
 20
-23.0
 30
0.0
 11
45.5
 21
-23.0
 31
0.0
  0
LINE
  5
243
330
22A
100
AcDbEntity
  8
hidden
100
AcDbLine
 10
62.5
 20
-35.0
 30
0.0
 11
42.49999999999999
 21
-35.0
 31
0.0
  0
LINE
  5
244
330
22A
100
AcDbEntity
  8
hidden
100
AcDbLine
 10
62.5
 20
-39.0
 30
0.0
 11
42.49999999999999
 21
-39.0
 31
0.0
  0
LWPOLYLINE
  5
245
330
22A
100
AcDbEntity
  8
hidden
100
AcDbPolyline
 90
       19
 70
     0
 43
0.0
 10
56.49999999999999
 20
-35.0
 10
56.5076106038165
 20
-35.17431148549532
 10
56.53038449397558
 20
-35.34729635533386
 10
56.56814834742186
 20
-35.51763809020504
 10
56.62061475842818
 20
-35.68404028665134
 10
56.68738442592669
 20
-35.8452365234814
 10
56.76794919243112
 20
-36.00000000000001
 10
56.86169591142201
 20
-36.14715287270209
 10
56.96791111376204
 20
-36.28557521937308
 10
57.0857864376269
 20
-36.41421356237309
 10
57.21442478062692
 20
-36.53208888623796
 10
57.3528471272979
 20
-36.63830408857798
 10
57.49999999999999
 20
-36.73205080756887
 10
57.6547634765186
 20
-36.81261557407331
 10
57.81595971334866
 20
-36.87938524157182
 10
57.98236190979495
 20
-36.93185165257814
 10
58.15270364466613
 20
-36.96961550602442
 10
58.32568851450468
 20
-36.9923893961835
 10
58.49999999999999
 20
-37.00000000000001
  0
LINE
  5
246
330
22A
100
AcDbEntity
  8
hidden
100
AcDbLine
 10
62.5
 20
-23.0
 30
0.0
 11
62.5
 21
-39.0
 31
0.0
  0
LINE
  5
247
330
22A
100
AcDbEntity
  8
hidden
100
AcDbLine
 10
42.49999999999999
 20
-23.0
 30
0.0
 11
42.49999999999999
 21
-39.0
 31
0.0
  0
LWPOLYLINE
  5
248
330
22A
100
AcDbEntity
  8
hidden
100
AcDbPolyline
 90
       19
 70
     0
 43
0.0
 10
46.5
 20
-37.00000000000001
 10
46.67431148549532
 20
-36.9923893961835
 10
46.84729635533385
 20
-36.96961550602442
 10
47.01763809020504
 20
-36.93185165257814
 10
47.18404028665134
 20
-36.87938524157182
 10
47.3452365234814
 20
-36.81261557407331
 10
47.5
 20
-36.73205080756888
 10
47.64715287270209
 20
-36.63830408857799
 10
47.78557521937308
 20
-36.53208888623796
 10
47.91421356237309
 20
-36.4142135623731
 10
48.03208888623795
 20
-36.28557521937308
 10
48.13830408857797
 20
-36.1471528727021
 10
48.23205080756887
 20
-36.00000000000001
 10
48.3126155740733
 20
-35.8452365234814
 10
48.37938524157182
 20
-35.68404028665134
 10
48.43185165257813
 20
-35.51763809020505
 10
48.46961550602442
 20
-35.34729635533387
 10
48.49238939618348
 20
-35.17431148549532
 10
48.5
 20
-35.00000000000001
  0
LINE
  5
249
330
22A
100
AcDbEntity
  8
hidden
100
AcDbLine
 10
54.5
 20
-34.0
 30
0.0
 11
56.49999999999999
 21
-34.0
 31
0.0
  0
LINE
  5
24A
330
22A
100
AcDbEntity
  8
hidden
100
AcDbLine
 10
54.5
 20
-34.0
 30
0.0
 11
54.5
 21
-37.0
 31
0.0
  0
LINE
  5
24B
330
22A
100
AcDbEntity
  8
hidden
100
AcDbLine
 10
48.5
 20
-39.0
 30
0.0
 11
48.5
 21
-34.0
 31
0.0
  0
ARC
  5
24C
330
22A
100
AcDbEntity
  8
hidden
100
AcDbCircle
 10
48.50000000000001
 20
-37.00000000000002
 30
0.0
 40
1.999999999999979
100
AcDbArc
 50
269.9999999999998
 51
0.0000000000006107
  0
LINE
  5
24D
330
22A
100
AcDbEntity
  8
hidden
100
AcDbLine
 10
56.49999999999999
 20
-34.0
 30
0.0
 11
56.49999999999999
 21
-39.0
 31
0.0
  0
ARC
  5
24E
330
22A
100
AcDbEntity
  8
hidden
100
AcDbCircle
 10
56.5
 20
-37.0
 30
0.0
 40
2.0
100
AcDbArc
 50
180.0
 51
269.9999999999998
  0
ARC
  5
24F
330
22A
100
AcDbEntity
  8
hidden
100
AcDbCircle
 10
48.50000000000001
 20
-37.00000000000001
 30
0.0
 40
0.9999999999999858
100
AcDbArc
 50
269.9999999999996
 51
0.0000000000008142
  0
LINE
  5
250
330
22A
100
AcDbEntity
  8
hidden
100
AcDbLine
 10
55.5
 20
-34.0
 30
0.0
 11
55.5
 21
-37.0
 31
0.0
  0
ARC
  5
251
330
22A
100
AcDbEntity
  8
hidden
100
AcDbCircle
 10
56.5
 20
-37.00000000000001
 30
0.0
 40
1.0
100
AcDbArc
 50
179.9999999999996
 51
269.9999999999996
  0
LINE
  5
252
330
22A
100
AcDbEntity
  8
hidden
100
AcDbLine
 10
48.5
 20
-34.0
 30
0.0
 11
50.49999999999999
 21
-34.0
 31
0.0
  0
LINE
  5
253
330
22A
100
AcDbEntity
  8
hidden
100
AcDbLine
 10
42.49999999999999
 20
-37.0
 30
0.0
 11
62.5
 21
-37.0
 31
0.0
  0
LINE
  5
254
330
22A
100
AcDbEntity
  8
hidden
100
AcDbLine
 10
50.49999999999999
 20
-34.0
 30
0.0
 11
50.49999999999999
 21
-37.0
 31
0.0
  0
LINE
  5
255
330
22A
100
AcDbEntity
  8
hidden
100
AcDbLine
 10
49.49999999999999
 20
-34.0
 30
0.0
 11
49.49999999999999
 21
-37.0
 31
0.0
  0
LINE
  5
256
330
22A
100
AcDbEntity
  8
center
100
AcDbLine
 10
48.0375
 20
-15.0
 30
0.0
 11
56.9625
 21
-15.0
 31
0.0
  0
LINE
  5
257
330
22A
100
AcDbEntity
  8
center
100
AcDbLine
 10
52.5
 20
-19.4625
 30
0.0
 11
52.5
 21
-10.5375
 31
0.0
  0
LINE
  5
258
330
22A
100
AcDbEntity
  8
center
100
AcDbLine
 10
56.34999999999999
 20
-20.0
 30
0.0
 11
62.64999999999999
 21
-20.0
 31
0.0
  0
LINE
  5
259
330
22A
100
AcDbEntity
  8
center
100
AcDbLine
 10
59.49999999999999
 20
-23.15
 30
0.0
 11
59.49999999999999
 21
-16.85
 31
0.0
  0
LINE
  5
25A
330
22A
100
AcDbEntity
  8
center
100
AcDbLine
 10
42.35000000000002
 20
-20.0
 30
0.0
 11
48.65
 21
-20.0
 31
0.0
  0
LINE
  5
25B
330
22A
100
AcDbEntity
  8
center
100
AcDbLine
 10
45.50000000000001
 20
-23.15
 30
0.0
 11
45.50000000000001
 21
-16.85000000000001
 31
0.0
  0
ENDBLK
  5
22D
330
22A
100
AcDbEntity
  8
0
100
AcDbBlockEnd
  0
BLOCK
  5
25E
330
25C
100
AcDbEntity
  8
0
100
AcDbBlockBegin
  2
10_30754000_6_0_in_33394_0
 70
     2
 10
0.0
 20
0.0
 30
0.0
  3
10_30754000_6_0_in_33394_0
  1

  0
ATTDEF
  5
260
330
25C
100
AcDbEntity
  8
attrib
100
AcDbText
 10
34.65
 20
-3.999999999999996
 30
0.0
 40
0.5
  1
30754000
100
AcDbAttributeDefinition
  3

  2
NB
 70
     8
280
     0
  0
ATTDEF
  5
261
330
25C
100
AcDbEntity
  8
attrib
100
AcDbText
 10
34.65
 20
-4.499999999999996
 30
0.0
 40
0.5
  1
Size 00, with fuse monitor contact
100
AcDbAttributeDefinition
  3

  2
NN
 70
     8
280
     0
  0
ATTDEF
  5
262
330
25C
100
AcDbEntity
  8
attrib
100
AcDbText
 10
34.65
 20
-4.999999999999996
 30
0.0
 40
0.5
  1

100
AcDbAttributeDefinition
  3

  2
NT
 70
     8
280
     0
  0
ATTDEF
  5
263
330
25C
100
AcDbEntity
  8
attrib
100
AcDbText
 10
34.65
 20
-5.499999999999996
 30
0.0
 40
0.5
  1
$BOM.
100
AcDbAttributeDefinition
  3

  2
NBSYN
 70
     8
280
     0
  0
ATTDEF
  5
264
330
25C
100
AcDbEntity
  8
attrib
100
AcDbText
 10
34.65
 20
-5.999999999999996
 30
0.0
 40
0.5
  1
30754000
100
AcDbAttributeDefinition
  3

  2
LINA
 70
     8
280
     0
  0
ATTDEF
  5
265
330
25C
100
AcDbEntity
  8
attrib
100
AcDbText
 10
34.65
 20
-6.499999999999996
 30
0.0
 40
0.5
  1
Wöhner
100
AcDbAttributeDefinition
  3

  2
CATALOG
 70
     8
280
     0
  0
ATTDEF
  5
266
330
25C
100
AcDbEntity
  8
attrib
100
AcDbText
 10
34.65
 20
-6.999999999999996
 30
0.0
 40
0.5
  1
30754000
100
AcDbAttributeDefinition
  3

  2
BOM
 70
     8
280
     0
  0
ATTDEF
  5
267
330
25C
100
AcDbEntity
  8
attrib
100
AcDbText
 10
34.65
 20
-7.499999999999996
 30
0.0
 40
0.5
  1
QUADRON®60Classic
100
AcDbAttributeDefinition
  3

  2
POF
 70
     8
280
     0
  0
ATTDEF
  5
268
330
25C
100
AcDbEntity
  8
attrib
100
AcDbText
 10
34.65
 20
-7.999999999999996
 30
0.0
 40
0.5
  1
QCB-NH00
100
AcDbAttributeDefinition
  3

  2
TYPE
 70
     8
280
     0
  0
ATTDEF
  5
269
330
25C
100
AcDbEntity
  8
attrib
100
AcDbText
 10
34.65
 20
-8.499999999999996
 30
0.0
 40
0.5
  1
woehner
100
AcDbAttributeDefinition
  3

  2
COMPANY
 70
     8
280
     0
  0
ATTDEF
  5
26A
330
25C
100
AcDbEntity
  8
attrib
100
AcDbText
 10
34.65
 20
-8.999999999999996
 30
0.0
 40
0.5
  1
{$CADENAS_DATA/23d-libs/woehner/sys_60classic/nh_fuse_switch/parts/size00_fuse_monitor/size00_contact.prj},185 {VTYP=3D},{NB=30754000},{LINA=30754000},{NN=Size 00, with fuse monitor contact},{DATE=26.01.2024 07:00:26},{GEOMDATE=14.09.2023 07:20:00},{VERSI
100
AcDbAttributeDefinition
  3

  2
PSOL_0
 70
     9
280
     0
  0
ATTDEF
  5
26B
330
25C
100
AcDbEntity
  8
attrib
100
AcDbText
 10
34.65
 20
-9.499999999999996
 30
0.0
 40
0.5
  1
ON=},{LINEID=930},{WBVAR=},{WBNUMERIC=}  {NB=30754000},{LINA=30754000},{KT=DUMMY},{BOM=30754000},{POF=QUADRON®60Classic},{TYPE=QCB-NH00}
100
AcDbAttributeDefinition
  3

  2
PSOL_1
 70
     9
280
     0
  0
LINE
  5
26C
330
25C
100
AcDbEntity
  8
hidden
100
AcDbLine
 10
9.5
 20
-23.0
 30
0.0
 11
12.5
 21
-23.0
 31
0.0
  0
LINE
  5
26D
330
25C
100
AcDbEntity
  8
hidden
100
AcDbLine
 10
9.5
 20
-9.976099197920028
 30
0.0
 11
9.5
 21
-17.0
 31
0.0
  0
CIRCLE
  5
26E
330
25C
100
AcDbEntity
  8
hidden
100
AcDbCircle
 10
19.5
 20
-15.0
 30
0.0
 40
4.25
  0
LINE
  5
26F
330
25C
100
AcDbEntity
  8
hidden
100
AcDbLine
 10
26.5
 20
-23.0
 30
0.0
 11
29.5
 21
-23.0
 31
0.0
  0
ARC
  5
270
330
25C
100
AcDbEntity
  8
hidden
100
AcDbCircle
 10
26.5
 20
-20.0
 30
0.0
 40
3.0
100
AcDbArc
 50
90.0
 51
270.0
  0
LINE
  5
271
330
25C
100
AcDbEntity
  8
hidden
100
AcDbLine
 10
29.5
 20
-17.0
 30
0.0
 11
26.5
 21
-17.0
 31
0.0
  0
LINE
  5
272
330
25C
100
AcDbEntity
  8
hidden
100
AcDbLine
 10
29.5
 20
-3.999999999999996
 30
0.0
 11
29.5
 21
-17.0
 31
0.0
  0
LINE
  5
273
330
25C
100
AcDbEntity
  8
hidden
100
AcDbLine
 10
12.49999999999999
 20
-17.0
 30
0.0
 11
9.5
 21
-17.0
 31
0.0
  0
ARC
  5
274
330
25C
100
AcDbEntity
  8
hidden
100
AcDbCircle
 10
12.5
 20
-20.0
 30
0.0
 40
3.0
100
AcDbArc
 50
269.9999999999999
 51
90.00000000000016
  0
LINE
  5
275
330
25C
100
AcDbEntity
  8
hidden
100
AcDbLine
 10
29.5
 20
-35.0
 30
0.0
 11
9.5
 21
-35.0
 31
0.0
  0
LINE
  5
276
330
25C
100
AcDbEntity
  8
hidden
100
AcDbLine
 10
29.5
 20
-39.0
 30
0.0
 11
9.5
 21
-39.0
 31
0.0
  0
LWPOLYLINE
  5
277
330
25C
100
AcDbEntity
  8
hidden
100
AcDbPolyline
 90
       19
 70
     0
 43
0.0
 10
23.5
 20
-35.0
 10
23.50761060381651
 20
-35.17431148549532
 10
23.53038449397559
 20
-35.34729635533386
 10
23.56814834742186
 20
-35.51763809020504
 10
23.62061475842818
 20
-35.68404028665134
 10
23.6873844259267
 20
-35.8452365234814
 10
23.76794919243112
 20
-36.00000000000001
 10
23.86169591142201
 20
-36.14715287270209
 10
23.96791111376204
 20
-36.28557521937308
 10
24.0857864376269
 20
-36.41421356237309
 10
24.21442478062692
 20
-36.53208888623796
 10
24.35284712729791
 20
-36.63830408857798
 10
24.5
 20
-36.73205080756887
 10
24.6547634765186
 20
-36.81261557407331
 10
24.81595971334866
 20
-36.87938524157182
 10
24.98236190979495
 20
-36.93185165257814
 10
25.15270364466614
 20
-36.96961550602442
 10
25.32568851450468
 20
-36.9923893961835
 10
25.5
 20
-37.00000000000001
  0
LINE
  5
278
330
25C
100
AcDbEntity
  8
hidden
100
AcDbLine
 10
29.5
 20
-37.0
 30
0.0
 11
9.5
 21
-37.0
 31
0.0
  0
LINE
  5
279
330
25C
100
AcDbEntity
  8
hidden
100
AcDbLine
 10
29.5
 20
-23.0
 30
0.0
 11
29.5
 21
-39.0
 31
0.0
  0
LINE
  5
27A
330
25C
100
AcDbEntity
  8
hidden
100
AcDbLine
 10
9.5
 20
-23.0
 30
0.0
 11
9.5
 21
-39.0
 31
0.0
  0
LWPOLYLINE
  5
27B
330
25C
100
AcDbEntity
  8
hidden
100
AcDbPolyline
 90
       19
 70
     0
 43
0.0
 10
13.5
 20
-37.00000000000001
 10
13.67431148549532
 20
-36.9923893961835
 10
13.84729635533386
 20
-36.96961550602442
 10
14.01763809020504
 20
-36.93185165257814
 10
14.18404028665134
 20
-36.87938524157182
 10
14.3452365234814
 20
-36.81261557407331
 10
14.5
 20
-36.73205080756888
 10
14.64715287270209
 20
-36.63830408857799
 10
14.78557521937308
 20
-36.53208888623796
 10
14.91421356237309
 20
-36.4142135623731
 10
15.03208888623796
 20
-36.28557521937308
 10
15.13830408857798
 20
-36.1471528727021
 10
15.23205080756888
 20
-36.00000000000001
 10
15.3126155740733
 20
-35.8452365234814
 10
15.37938524157182
 20
-35.68404028665134
 10
15.43185165257814
 20
-35.51763809020505
 10
15.46961550602442
 20
-35.34729635533387
 10
15.49238939618349
 20
-35.17431148549532
 10
15.5
 20
-35.00000000000001
  0
LINE
  5
27C
330
25C
100
AcDbEntity
  8
hidden
100
AcDbLine
 10
21.5
 20
-34.0
 30
0.0
 11
23.5
 21
-34.0
 31
0.0
  0
LINE
  5
27D
330
25C
100
AcDbEntity
  8
hidden
100
AcDbLine
 10
23.5
 20
-34.0
 30
0.0
 11
23.5
 21
-39.0
 31
0.0
  0
LINE
  5
27E
330
25C
100
AcDbEntity
  8
hidden
100
AcDbLine
 10
15.5
 20
-39.0
 30
0.0
 11
15.5
 21
-34.0
 31
0.0
  0
ARC
  5
27F
330
25C
100
AcDbEntity
  8
hidden
100
AcDbCircle
 10
15.49999999999999
 20
-36.99999999999999
 30
0.0
 40
2.000000000000007
100
AcDbArc
 50
270.0000000000002
 51
359.9999999999998
  0
ARC
  5
280
330
25C
100
AcDbEntity
  8
hidden
100
AcDbCircle
 10
15.49999999999999
 20
-37.0
 30
0.0
 40
1.0
100
AcDbArc
 50
270.0000000000002
 51
0.0
  0
LINE
  5
281
330
25C
100
AcDbEntity
  8
hidden
100
AcDbLine
 10
15.5
 20
-34.0
 30
0.0
 11
17.5
 21
-34.0
 31
0.0
  0
LINE
  5
282
330
25C
100
AcDbEntity
  8
hidden
100
AcDbLine
 10
17.5
 20
-34.0
 30
0.0
 11
17.5
 21
-37.0
 31
0.0
  0
LINE
  5
283
330
25C
100
AcDbEntity
  8
hidden
100
AcDbLine
 10
16.5
 20
-34.0
 30
0.0
 11
16.5
 21
-37.0
 31
0.0
  0
ARC
  5
284
330
25C
100
AcDbEntity
  8
hidden
100
AcDbCircle
 10
23.5
 20
-37.0
 30
0.0
 40
2.0
100
AcDbArc
 50
180.0
 51
270.0
  0
ARC
  5
285
330
25C
100
AcDbEntity
  8
hidden
100
AcDbCircle
 10
23.49999999999999
 20
-37.00000000000001
 30
0.0
 40
0.9999999999999929
100
AcDbArc
 50
179.9999999999991
 51
270.0000000000004
  0
LINE
  5
286
330
25C
100
AcDbEntity
  8
hidden
100
AcDbLine
 10
22.5
 20
-34.0
 30
0.0
 11
22.5
 21
-37.0
 31
0.0
  0
LINE
  5
287
330
25C
100
AcDbEntity
  8
hidden
100
AcDbLine
 10
21.5
 20
-34.0
 30
0.0
 11
21.5
 21
-37.0
 31
0.0
  0
LINE
  5
288
330
25C
100
AcDbEntity
  8
center
100
AcDbLine
 10
15.0375
 20
-15.0
 30
0.0
 11
23.9625
 21
-15.0
 31
0.0
  0
LINE
  5
289
330
25C
100
AcDbEntity
  8
center
100
AcDbLine
 10
19.5
 20
-19.4625
 30
0.0
 11
19.5
 21
-10.5375
 31
0.0
  0
LINE
  5
28A
330
25C
100
AcDbEntity
  8
center
100
AcDbLine
 10
23.34999999999999
 20
-20.0
 30
0.0
 11
29.65
 21
-20.0
 31
0.0
  0
LINE
  5
28B
330
25C
100
AcDbEntity
  8
center
100
AcDbLine
 10
26.5
 20
-23.15000000000001
 30
0.0
 11
26.5
 21
-16.85
 31
0.0
  0
LINE
  5
28C
330
25C
100
AcDbEntity
  8
center
100
AcDbLine
 10
9.350000000000001
 20
-19.99999999999999
 30
0.0
 11
15.65
 21
-19.99999999999999
 31
0.0
  0
LINE
  5
28D
330
25C
100
AcDbEntity
  8
center
100
AcDbLine
 10
12.5
 20
-23.14999999999999
 30
0.0
 11
12.5
 21
-16.84999999999999
 31
0.0
  0
ENDBLK
  5
25F
330
25C
100
AcDbEntity
  8
0
100
AcDbBlockEnd
  0
BLOCK
  5
290
330
28E
100
AcDbEntity
  8
0
100
AcDbBlockBegin
  2
11_30142000_0_in_33394_0
 70
     2
 10
0.0
 20
0.0
 30
0.0
  3
11_30142000_0_in_33394_0
  1

  0
ATTDEF
  5
292
330
28E
100
AcDbEntity
  8
attrib
100
AcDbText
 10
110.0
 20
1.0
 30
0.0
 40
0.5
  1
30142000
100
AcDbAttributeDefinition
  3

  2
NB
 70
     8
280
     0
  0
ATTDEF
  5
293
330
28E
100
AcDbEntity
  8
attrib
100
AcDbText
 10
110.0
 20
0.5
 30
0.0
 40
0.5
  1
Size 00, with fuse monitor middle
100
AcDbAttributeDefinition
  3

  2
NN
 70
     8
280
     0
  0
ATTDEF
  5
294
330
28E
100
AcDbEntity
  8
attrib
100
AcDbText
 10
110.0
 20
0.0
 30
0.0
 40
0.5
  1

100
AcDbAttributeDefinition
  3

  2
NT
 70
     8
280
     0
  0
ATTDEF
  5
295
330
28E
100
AcDbEntity
  8
attrib
100
AcDbText
 10
110.0
 20
-0.5
 30
0.0
 40
0.5
  1
$BOM.
100
AcDbAttributeDefinition
  3

  2
NBSYN
 70
     8
280
     0
  0
ATTDEF
  5
296
330
28E
100
AcDbEntity
  8
attrib
100
AcDbText
 10
110.0
 20
-1.0
 30
0.0
 40
0.5
  1
30142000
100
AcDbAttributeDefinition
  3

  2
LINA
 70
     8
280
     0
  0
ATTDEF
  5
297
330
28E
100
AcDbEntity
  8
attrib
100
AcDbText
 10
110.0
 20
-1.5
 30
0.0
 40
0.5
  1
Wöhner
100
AcDbAttributeDefinition
  3

  2
CATALOG
 70
     8
280
     0
  0
ATTDEF
  5
298
330
28E
100
AcDbEntity
  8
attrib
100
AcDbText
 10
110.0
 20
-2.0
 30
0.0
 40
0.5
  1
30142000
100
AcDbAttributeDefinition
  3

  2
BOM
 70
     8
280
     0
  0
ATTDEF
  5
299
330
28E
100
AcDbEntity
  8
attrib
100
AcDbText
 10
110.0
 20
-2.5
 30
0.0
 40
0.5
  1
QUADRON®60Classic
100
AcDbAttributeDefinition
  3

  2
POF
 70
     8
280
     0
  0
ATTDEF
  5
29A
330
28E
100
AcDbEntity
  8
attrib
100
AcDbText
 10
110.0
 20
-3.0
 30
0.0
 40
0.5
  1
QCB-NH00
100
AcDbAttributeDefinition
  3

  2
TYPE
 70
     8
280
     0
  0
ATTDEF
  5
29B
330
28E
100
AcDbEntity
  8
attrib
100
AcDbText
 10
110.0
 20
-3.5
 30
0.0
 40
0.5
  1
1
100
AcDbAttributeDefinition
  3

  2
VER
 70
     8
280
     0
  0
ATTDEF
  5
29C
330
28E
100
AcDbEntity
  8
attrib
100
AcDbText
 10
110.0
 20
-4.0
 30
0.0
 40
0.5
  1
157
100
AcDbAttributeDefinition
  3

  2
D
 70
     8
280
     0
  0
ATTDEF
  5
29D
330
28E
100
AcDbEntity
  8
attrib
100
AcDbText
 10
110.0
 20
-4.5
 30
0.0
 40
0.5
  1
woehner
100
AcDbAttributeDefinition
  3

  2
COMPANY
 70
     8
280
     0
  0
ATTDEF
  5
29E
330
28E
100
AcDbEntity
  8
attrib
100
AcDbText
 10
110.0
 20
-5.0
 30
0.0
 40
0.5
  1
{$CADENAS_DATA/23d-libs/woehner/sys_60classic/nh_fuse_switch/parts/size00_fuse_monitor/size00_middle1.prj},197 {VTYP=3D},{NB=30142000},{LINA=30142000},{NN=Size 00, with fuse monitor middle},{DATE=26.01.2024 07:04:31},{GEOMDATE=28.09.2023 11:09:00},{VERSIO
100
AcDbAttributeDefinition
  3

  2
PSOL_0
 70
     9
280
     0
  0
ATTDEF
  5
29F
330
28E
100
AcDbEntity
  8
attrib
100
AcDbText
 10
110.0
 20
-5.5
 30
0.0
 40
0.5
  1
N=v231003085622},{LINEID=970},{WBVAR=},{WBNUMERIC=}  {NB=30142000},{LINA=30142000},{KT=DUMMY},{BOM=30142000},{POF=QUADRON®60Classic},{TYPE=QCB-NH00},{VER=1},{D=157}
100
AcDbAttributeDefinition
  3

  2
PSOL_1
 70
     9
280
     0
  0
LINE
  5
2A0
330
28E
100
AcDbEntity
  8
hidden
100
AcDbLine
 10
96.0
 20
-149.0
 30
0.0
 11
96.0
 21
-139.0
 31
0.0
  0
LINE
  5
2A1
330
28E
100
AcDbEntity
  8
hidden
100
AcDbLine
 10
8.999999999999995
 20
-139.0
 30
0.0
 11
8.999999999999995
 21
-149.0
 31
0.0
  0
LINE
  5
2A2
330
28E
100
AcDbEntity
  8
hidden
100
AcDbLine
 10
96.0
 20
-139.0
 30
0.0
 11
8.999999999999995
 21
-139.0
 31
0.0
  0
ARC
  5
2A3
330
28E
100
AcDbEntity
  8
hidden
100
AcDbCircle
 10
14.99999999999999
 20
-58.5
 30
0.0
 40
3.5
100
AcDbArc
 50
90.00000000000004
 51
269.9999999999999
  0
LINE
  5
2A4
330
28E
100
AcDbEntity
  8
hidden
100
AcDbLine
 10
19.49999999999999
 20
-54.99999999999999
 30
0.0
 11
14.99999999999999
 21
-55.0
 31
0.0
  0
ARC
  5
2A5
330
28E
100
AcDbEntity
  8
hidden
100
AcDbCircle
 10
19.5
 20
-58.5
 30
0.0
 40
3.5
100
AcDbArc
 50
269.9999999999998
 51
90.00000000000018
  0
LINE
  5
2A6
330
28E
100
AcDbEntity
  8
hidden
100
AcDbLine
 10
14.99999999999999
 20
-62.0
 30
0.0
 11
19.49999999999999
 21
-62.0
 31
0.0
  0
ARC
  5
2A7
330
28E
100
AcDbEntity
  8
hidden
100
AcDbCircle
 10
85.49999999999999
 20
-83.5
 30
0.0
 40
3.5
100
AcDbArc
 50
90.0
 51
270.0
  0
LINE
  5
2A8
330
28E
100
AcDbEntity
  8
hidden
100
AcDbLine
 10
90.0
 20
-79.99999999999999
 30
0.0
 11
85.49999999999999
 21
-80.0
 31
0.0
  0
ARC
  5
2A9
330
28E
100
AcDbEntity
  8
hidden
100
AcDbCircle
 10
90.0
 20
-83.5
 30
0.0
 40
3.5
100
AcDbArc
 50
270.0
 51
90.0
  0
LINE
  5
2AA
330
28E
100
AcDbEntity
  8
hidden
100
AcDbLine
 10
85.49999999999999
 20
-87.0
 30
0.0
 11
90.0
 21
-87.0
 31
0.0
  0
ARC
  5
2AB
330
28E
100
AcDbEntity
  8
hidden
100
AcDbCircle
 10
14.99999999999999
 20
-83.5
 30
0.0
 40
3.5
100
AcDbArc
 50
90.00000000000004
 51
269.9999999999999
  0
LINE
  5
2AC
330
28E
100
AcDbEntity
  8
hidden
100
AcDbLine
 10
19.49999999999999
 20
-79.99999999999999
 30
0.0
 11
14.99999999999999
 21
-80.0
 31
0.0
  0
ARC
  5
2AD
330
28E
100
AcDbEntity
  8
hidden
100
AcDbCircle
 10
19.5
 20
-83.5
 30
0.0
 40
3.5
100
AcDbArc
 50
269.9999999999999
 51
90.00000000000011
  0
LINE
  5
2AE
330
28E
100
AcDbEntity
  8
hidden
100
AcDbLine
 10
14.99999999999999
 20
-87.0
 30
0.0
 11
19.49999999999999
 21
-87.0
 31
0.0
  0
ARC
  5
2AF
330
28E
100
AcDbEntity
  8
hidden
100
AcDbCircle
 10
85.49999999999999
 20
-58.5
 30
0.0
 40
3.5
100
AcDbArc
 50
90.0
 51
270.0
  0
LINE
  5
2B0
330
28E
100
AcDbEntity
  8
hidden
100
AcDbLine
 10
90.0
 20
-54.99999999999999
 30
0.0
 11
85.49999999999999
 21
-55.0
 31
0.0
  0
ARC
  5
2B1
330
28E
100
AcDbEntity
  8
hidden
100
AcDbCircle
 10
90.0
 20
-58.5
 30
0.0
 40
3.5
100
AcDbArc
 50
270.0
 51
90.0
  0
LINE
  5
2B2
330
28E
100
AcDbEntity
  8
hidden
100
AcDbLine
 10
85.49999999999999
 20
-62.0
 30
0.0
 11
90.0
 21
-62.0
 31
0.0
  0
CIRCLE
  5
2B3
330
28E
100
AcDbEntity
  8
hidden
100
AcDbCircle
 10
19.5
 20
-71.00000000000001
 30
0.0
 40
3.5
  0
CIRCLE
  5
2B4
330
28E
100
AcDbEntity
  8
hidden
100
AcDbCircle
 10
85.49999999999999
 20
-71.00000000000001
 30
0.0
 40
3.5
  0
LINE
  5
2B5
330
28E
100
AcDbEntity
  8
hidden
100
AcDbLine
 10
100.0
 20
1.0
 30
0.0
 11
100.0
 21
-4.0
 31
0.0
  0
LINE
  5
2B6
330
28E
100
AcDbEntity
  8
hidden
100
AcDbLine
 10
4.999999999999997
 20
-4.0
 30
0.0
 11
4.999999999999997
 21
1.0
 31
0.0
  0
LINE
  5
2B7
330
28E
100
AcDbEntity
  8
hidden
100
AcDbLine
 10
95.5
 20
-37.00000000000001
 30
0.0
 11
104.0
 21
-37.00000000000001
 31
0.0
  0
LINE
  5
2B8
330
28E
100
AcDbEntity
  8
hidden
100
AcDbLine
 10
62.5
 20
-37.00000000000001
 30
0.0
 11
75.5
 21
-37.00000000000001
 31
0.0
  0
LINE
  5
2B9
330
28E
100
AcDbEntity
  8
hidden
100
AcDbLine
 10
29.5
 20
-37.0
 30
0.0
 11
42.5
 21
-37.0
 31
0.0
  0
LINE
  5
2BA
330
28E
100
AcDbEntity
  8
hidden
100
AcDbLine
 10
0.999999999999994
 20
-37.0
 30
0.0
 11
9.5
 21
-37.0
 31
0.0
  0
LINE
  5
2BB
330
28E
100
AcDbEntity
  8
hidden
100
AcDbLine
 10
9.49999999999998
 20
-4.0
 30
0.0
 11
4.999999999999997
 21
-4.0
 31
0.0
  0
LINE
  5
2BC
330
28E
100
AcDbEntity
  8
hidden
100
AcDbLine
 10
100.0
 20
-4.0
 30
0.0
 11
95.5
 21
-4.0
 31
0.0
  0
LINE
  5
2BD
330
28E
100
AcDbEntity
  8
hidden
100
AcDbLine
 10
95.5
 20
-138.0
 30
0.0
 11
104.0
 21
-138.0
 31
0.0
  0
LINE
  5
2BE
330
28E
100
AcDbEntity
  8
hidden
100
AcDbLine
 10
62.5
 20
-138.0
 30
0.0
 11
75.5
 21
-138.0
 31
0.0
  0
LINE
  5
2BF
330
28E
100
AcDbEntity
  8
hidden
100
AcDbLine
 10
29.5
 20
-138.0
 30
0.0
 11
42.5
 21
-138.0
 31
0.0
  0
LINE
  5
2C0
330
28E
100
AcDbEntity
  8
hidden
100
AcDbLine
 10
0.999999999999994
 20
-138.0
 30
0.0
 11
9.5
 21
-138.0
 31
0.0
  0
LINE
  5
2C1
330
28E
100
AcDbEntity
  8
hidden
100
AcDbLine
 10
104.0
 20
-105.25
 30
0.0
 11
0.999999999999994
 21
-105.25
 31
0.0
  0
LINE
  5
2C2
330
28E
100
AcDbEntity
  8
hidden
100
AcDbLine
 10
104.0
 20
-0.0000000000000009
 30
0.0
 11
100.0
 21
0.0
 31
0.0
  0
LINE
  5
2C3
330
28E
100
AcDbEntity
  8
hidden
100
AcDbLine
 10
104.0
 20
-17.021
 30
0.0
 11
104.0
 21
-0.0000000000000009
 31
0.0
  0
LINE
  5
2C4
330
28E
100
AcDbEntity
  8
hidden
100
AcDbLine
 10
104.0
 20
-126.0
 30
0.0
 11
104.0
 21
-45.02100000000002
 31
0.0
  0
LINE
  5
2C5
330
28E
100
AcDbEntity
  8
hidden
100
AcDbLine
 10
0.4999999999999935
 20
1.0
 30
0.0
 11
104.5
 21
1.0
 31
0.0
  0
LINE
  5
2C6
330
28E
100
AcDbEntity
  8
hidden
100
AcDbLine
 10
4.999999999999997
 20
0.0
 30
0.0
 11
0.999999999999994
 21
0.0
 31
0.0
  0
LINE
  5
2C7
330
28E
100
AcDbEntity
  8
hidden
100
AcDbLine
 10
0.999999999999994
 20
-45.02100000000001
 30
0.0
 11
0.999999999999994
 21
-126.0
 31
0.0
  0
LINE
  5
2C8
330
28E
100
AcDbEntity
  8
hidden
100
AcDbLine
 10
0.999999999999994
 20
0.0
 30
0.0
 11
0.999999999999994
 21
-17.021
 31
0.0
  0
LINE
  5
2C9
330
28E
100
AcDbEntity
  8
center
100
AcDbLine
 10
15.825
 20
-71.00000000000001
 30
0.0
 11
23.175
 21
-71.00000000000001
 31
0.0
  0
LINE
  5
2CA
330
28E
100
AcDbEntity
  8
center
100
AcDbLine
 10
19.5
 20
-74.67500000000001
 30
0.0
 11
19.5
 21
-67.32500000000002
 31
0.0
  0
LINE
  5
2CB
330
28E
100
AcDbEntity
  8
center
100
AcDbLine
 10
81.82499999999999
 20
-71.00000000000001
 30
0.0
 11
89.17499999999998
 21
-71.00000000000001
 31
0.0
  0
LINE
  5
2CC
330
28E
100
AcDbEntity
  8
center
100
AcDbLine
 10
85.49999999999999
 20
-74.67500000000001
 30
0.0
 11
85.49999999999999
 21
-67.32500000000002
 31
0.0
  0
LINE
  5
2CD
330
28E
100
AcDbEntity
  8
center
100
AcDbLine
 10
11.325
 20
-58.5
 30
0.0
 11
23.175
 21
-58.5
 31
0.0
  0
LINE
  5
2CE
330
28E
100
AcDbEntity
  8
center
100
AcDbLine
 10
19.49999999999999
 20
-62.17500000000001
 30
0.0
 11
19.49999999999999
 21
-54.82499999999999
 31
0.0
  0
LINE
  5
2CF
330
28E
100
AcDbEntity
  8
center
100
AcDbLine
 10
11.325
 20
-83.50000000000003
 30
0.0
 11
23.175
 21
-83.5
 31
0.0
  0
LINE
  5
2D0
330
28E
100
AcDbEntity
  8
center
100
AcDbLine
 10
15.0
 20
-87.17500000000003
 30
0.0
 11
15.0
 21
-79.82500000000003
 31
0.0
  0
LINE
  5
2D1
330
28E
100
AcDbEntity
  8
center
100
AcDbLine
 10
19.5
 20
-87.175
 30
0.0
 11
19.5
 21
-79.825
 31
0.0
  0
LINE
  5
2D2
330
28E
100
AcDbEntity
  8
center
100
AcDbLine
 10
15.0
 20
-62.175
 30
0.0
 11
15.0
 21
-54.825
 31
0.0
  0
LINE
  5
2D3
330
28E
100
AcDbEntity
  8
center
100
AcDbLine
 10
81.82499999999999
 20
-83.50000000000001
 30
0.0
 11
93.675
 21
-83.5
 31
0.0
  0
LINE
  5
2D4
330
28E
100
AcDbEntity
  8
center
100
AcDbLine
 10
89.99999999999999
 20
-87.17500000000001
 30
0.0
 11
89.99999999999999
 21
-79.82499999999999
 31
0.0
  0
LINE
  5
2D5
330
28E
100
AcDbEntity
  8
center
100
AcDbLine
 10
81.82499999999999
 20
-58.5
 30
0.0
 11
93.675
 21
-58.5
 31
0.0
  0
LINE
  5
2D6
330
28E
100
AcDbEntity
  8
center
100
AcDbLine
 10
89.99999999999999
 20
-62.17500000000001
 30
0.0
 11
89.99999999999999
 21
-54.82499999999999
 31
0.0
  0
LINE
  5
2D7
330
28E
100
AcDbEntity
  8
center
100
AcDbLine
 10
85.5
 20
-62.17500000000001
 30
0.0
 11
85.5
 21
-54.82499999999999
 31
0.0
  0
LINE
  5
2D8
330
28E
100
AcDbEntity
  8
center
100
AcDbLine
 10
85.49999999999997
 20
-87.175
 30
0.0
 11
85.49999999999997
 21
-79.82500000000003
 31
0.0
  0
LINE
  5
2D9
330
28E
100
AcDbEntity
  8
bold
100
AcDbLine
 10
96.0
 20
-149.0
 30
0.0
 11
104.0
 21
-149.0
 31
0.0
  0
LINE
  5
2DA
330
28E
100
AcDbEntity
  8
bold
100
AcDbLine
 10
104.0
 20
-149.0
 30
0.0
 11
104.0
 21
-126.0
 31
0.0
  0
LINE
  5
2DB
330
28E
100
AcDbEntity
  8
bold
100
AcDbLine
 10
104.5
 20
1.0
 30
0.0
 11
105.0
 21
1.0
 31
0.0
  0
LINE
  5
2DC
330
28E
100
AcDbEntity
  8
bold
100
AcDbLine
 10
96.0
 20
-149.0
 30
0.0
 11
96.0
 21
-150.0
 31
0.0
  0
LINE
  5
2DD
330
28E
100
AcDbEntity
  8
bold
100
AcDbLine
 10
105.0
 20
-150.0
 30
0.0
 11
105.0
 21
1.0
 31
0.0
  0
LINE
  5
2DE
330
28E
100
AcDbEntity
  8
bold
100
AcDbLine
 10
96.0
 20
-150.0
 30
0.0
 11
105.0
 21
-150.0
 31
0.0
  0
LINE
  5
2DF
330
28E
100
AcDbEntity
  8
bold
100
AcDbLine
 10
0.0
 20
1.0
 30
0.0
 11
0.4999999999999935
 21
1.0
 31
0.0
  0
LINE
  5
2E0
330
28E
100
AcDbEntity
  8
bold
100
AcDbLine
 10
0.999999999999994
 20
-149.0
 30
0.0
 11
8.999999999999995
 21
-149.0
 31
0.0
  0
LINE
  5
2E1
330
28E
100
AcDbEntity
  8
bold
100
AcDbLine
 10
0.999999999999994
 20
-126.0
 30
0.0
 11
0.999999999999994
 21
-149.0
 31
0.0
  0
LINE
  5
2E2
330
28E
100
AcDbEntity
  8
bold
100
AcDbLine
 10
8.999999999999995
 20
-149.0
 30
0.0
 11
8.999999999999995
 21
-150.0
 31
0.0
  0
LINE
  5
2E3
330
28E
100
AcDbEntity
  8
bold
100
AcDbLine
 10
0.0
 20
-150.0
 30
0.0
 11
0.0
 21
1.0
 31
0.0
  0
LINE
  5
2E4
330
28E
100
AcDbEntity
  8
bold
100
AcDbLine
 10
0.0
 20
-150.0
 30
0.0
 11
8.999999999999995
 21
-150.0
 31
0.0
  0
ENDBLK
  5
291
330
28E
100
AcDbEntity
  8
0
100
AcDbBlockEnd
  0
BLOCK
  5
2E7
330
2E5
100
AcDbEntity
  8
0
100
AcDbBlockBegin
  2
12_79427000_0_in_33394_0
 70
     2
 10
0.0
 20
0.0
 30
0.0
  3
12_79427000_0_in_33394_0
  1

  0
ATTDEF
  5
2E9
330
2E5
100
AcDbEntity
  8
attrib
100
AcDbText
 10
110.0
 20
32.0
 30
0.0
 40
0.5
  1
79427000
100
AcDbAttributeDefinition
  3

  2
NB
 70
     8
280
     0
  0
ATTDEF
  5
2EA
330
2E5
100
AcDbEntity
  8
attrib
100
AcDbText
 10
110.0
 20
31.5
 30
0.0
 40
0.5
  1
Size 00, with fuse monitor adapter
100
AcDbAttributeDefinition
  3

  2
NN
 70
     8
280
     0
  0
ATTDEF
  5
2EB
330
2E5
100
AcDbEntity
  8
attrib
100
AcDbText
 10
110.0
 20
31.0
 30
0.0
 40
0.5
  1

100
AcDbAttributeDefinition
  3

  2
NT
 70
     8
280
     0
  0
ATTDEF
  5
2EC
330
2E5
100
AcDbEntity
  8
attrib
100
AcDbText
 10
110.0
 20
30.5
 30
0.0
 40
0.5
  1
$ARTNR.
100
AcDbAttributeDefinition
  3

  2
NBSYN
 70
     8
280
     0
  0
ATTDEF
  5
2ED
330
2E5
100
AcDbEntity
  8
attrib
100
AcDbText
 10
110.0
 20
30.0
 30
0.0
 40
0.5
  1
79427000
100
AcDbAttributeDefinition
  3

  2
LINA
 70
     8
280
     0
  0
ATTDEF
  5
2EE
330
2E5
100
AcDbEntity
  8
attrib
100
AcDbText
 10
110.0
 20
29.5
 30
0.0
 40
0.5
  1
Wöhner
100
AcDbAttributeDefinition
  3

  2
CATALOG
 70
     8
280
     0
  0
ATTDEF
  5
2EF
330
2E5
100
AcDbEntity
  8
attrib
100
AcDbText
 10
110.0
 20
29.0
 30
0.0
 40
0.5
  1
79427000
100
AcDbAttributeDefinition
  3

  2
ARTNR
 70
     8
280
     0
  0
ATTDEF
  5
2F0
330
2E5
100
AcDbEntity
  8
attrib
100
AcDbText
 10
110.0
 20
28.5
 30
0.0
 40
0.5
  1
QUADRON®60Classic
100
AcDbAttributeDefinition
  3

  2
POF
 70
     8
280
     0
  0
ATTDEF
  5
2F1
330
2E5
100
AcDbEntity
  8
attrib
100
AcDbText
 10
110.0
 20
28.0
 30
0.0
 40
0.5
  1
QCB-NH00
100
AcDbAttributeDefinition
  3

  2
TYPE
 70
     8
280
     0
  0
ATTDEF
  5
2F2
330
2E5
100
AcDbEntity
  8
attrib
100
AcDbText
 10
110.0
 20
27.5
 30
0.0
 40
0.5
  1
1
100
AcDbAttributeDefinition
  3

  2
VER
 70
     8
280
     0
  0
ATTDEF
  5
2F3
330
2E5
100
AcDbEntity
  8
attrib
100
AcDbText
 10
110.0
 20
27.0
 30
0.0
 40
0.5
  1
woehner
100
AcDbAttributeDefinition
  3

  2
COMPANY
 70
     8
280
     0
  0
ATTDEF
  5
2F4
330
2E5
100
AcDbEntity
  8
attrib
100
AcDbText
 10
110.0
 20
26.5
 30
0.0
 40
0.5
  1
{$CADENAS_DATA/23d-libs/woehner/sys_60classic/nh_fuse_switch/parts/size00_fuse_monitor/size00_adapter.prj},185 {VTYP=3D},{NB=79427000},{LINA=79427000},{NN=Size 00, with fuse monitor adapter},{DATE=26.01.2024 06:39:58},{GEOMDATE=11.01.2023 11:51:00},{VERSI
100
AcDbAttributeDefinition
  3

  2
PSOL_0
 70
     9
280
     0
  0
ATTDEF
  5
2F5
330
2E5
100
AcDbEntity
  8
attrib
100
AcDbText
 10
110.0
 20
26.0
 30
0.0
 40
0.5
  1
ON=},{LINEID=380},{WBVAR=},{WBNUMERIC=}  {NB=79427000},{LINA=79427000},{KT=DUMMY},{ARTNR=79427000},{POF=QUADRON®60Classic},{TYPE=QCB-NH00},{VER=1}
100
AcDbAttributeDefinition
  3

  2
PSOL_1
 70
     9
280
     0
  0
LINE
  5
2F6
330
2E5
100
AcDbEntity
  8
hidden
100
AcDbLine
 10
20.0
 20
-11.0
 30
0.0
 11
34.99999999999999
 21
-11.0
 31
0.0
  0
LINE
  5
2F7
330
2E5
100
AcDbEntity
  8
hidden
100
AcDbLine
 10
45.0
 20
-71.00000000000001
 30
0.0
 11
60.0
 21
-71.00000000000001
 31
0.0
  0
LINE
  5
2F8
330
2E5
100
AcDbEntity
  8
hidden
100
AcDbLine
 10
70.0
 20
-131.0
 30
0.0
 11
84.99999999999999
 21
-131.0
 31
0.0
  0
LINE
  5
2F9
330
2E5
100
AcDbEntity
  8
hidden
100
AcDbLine
 10
60.0
 20
-71.00000000000001
 30
0.0
 11
60.0
 21
-45.0
 31
0.0
  0
LINE
  5
2FA
330
2E5
100
AcDbEntity
  8
hidden
100
AcDbLine
 10
45.0
 20
-60.0
 30
0.0
 11
60.0
 21
-60.0
 31
0.0
  0
LINE
  5
2FB
330
2E5
100
AcDbEntity
  8
hidden
100
AcDbLine
 10
70.0
 20
-131.0
 30
0.0
 11
70.0
 21
-105.0
 31
0.0
  0
LINE
  5
2FC
330
2E5
100
AcDbEntity
  8
hidden
100
AcDbLine
 10
34.99999999999999
 20
-11.0
 30
0.0
 11
34.99999999999999
 21
15.0
 31
0.0
  0
LINE
  5
2FD
330
2E5
100
AcDbEntity
  8
hidden
100
AcDbLine
 10
20.0
 20
-11.0
 30
0.0
 11
20.0
 21
15.0
 31
0.0
  0
LINE
  5
2FE
330
2E5
100
AcDbEntity
  8
hidden
100
AcDbLine
 10
45.0
 20
-71.00000000000001
 30
0.0
 11
45.0
 21
-45.0
 31
0.0
  0
LINE
  5
2FF
330
2E5
100
AcDbEntity
  8
hidden
100
AcDbLine
 10
45.0
 20
-45.0
 30
0.0
 11
60.0
 21
-45.0
 31
0.0
  0
LINE
  5
300
330
2E5
100
AcDbEntity
  8
hidden
100
AcDbLine
 10
70.0
 20
-105.0
 30
0.0
 11
75.50000000000001
 21
-105.0
 31
0.0
  0
LINE
  5
301
330
2E5
100
AcDbEntity
  8
hidden
100
AcDbLine
 10
77.5
 20
-120.0
 30
0.0
 11
84.99999999999999
 21
-120.0
 31
0.0
  0
LINE
  5
302
330
2E5
100
AcDbEntity
  8
hidden
100
AcDbLine
 10
84.99999999999999
 20
-131.0
 30
0.0
 11
84.99999999999999
 21
-105.0
 31
0.0
  0
LINE
  5
303
330
2E5
100
AcDbEntity
  8
hidden
100
AcDbLine
 10
20.0
 20
0.0
 30
0.0
 11
34.99999999999999
 21
0.0
 31
0.0
  0
LINE
  5
304
330
2E5
100
AcDbEntity
  8
hidden
100
AcDbLine
 10
20.0
 20
15.0
 30
0.0
 11
34.99999999999999
 21
15.0
 31
0.0
  0
LINE
  5
305
330
2E5
100
AcDbEntity
  8
hidden
100
AcDbLine
 10
0.0
 20
-164.0
 30
0.0
 11
105.0
 21
-164.0
 31
0.0
  0
LINE
  5
306
330
2E5
100
AcDbEntity
  8
hidden
100
AcDbLine
 10
0.0
 20
28.0
 30
0.0
 11
105.0
 21
28.0
 31
0.0
  0
LINE
  5
307
330
2E5
100
AcDbEntity
  8
hidden
100
AcDbLine
 10
95.0
 20
-148.0
 30
0.0
 11
105.0
 21
-148.0
 31
0.0
  0
LINE
  5
308
330
2E5
100
AcDbEntity
  8
hidden
100
AcDbLine
 10
95.0
 20
-148.0
 30
0.0
 11
95.0
 21
13.99999999999998
 31
0.0
  0
LINE
  5
309
330
2E5
100
AcDbEntity
  8
hidden
100
AcDbLine
 10
95.0
 20
13.99999999999998
 30
0.0
 11
104.5
 21
13.99999999999998
 31
0.0
  0
LINE
  5
30A
330
2E5
100
AcDbEntity
  8
hidden
100
AcDbLine
 10
10.0
 20
13.99999999999998
 30
0.0
 11
0.4999999999999927
 21
13.99999999999998
 31
0.0
  0
LINE
  5
30B
330
2E5
100
AcDbEntity
  8
hidden
100
AcDbLine
 10
10.0
 20
-148.0
 30
0.0
 11
10.0
 21
13.99999999999998
 31
0.0
  0
LINE
  5
30C
330
2E5
100
AcDbEntity
  8
hidden
100
AcDbLine
 10
10.0
 20
-148.0
 30
0.0
 11
0.0
 21
-148.0
 31
0.0
  0
LINE
  5
30D
330
2E5
100
AcDbEntity
  8
hidden
100
AcDbLine
 10
0.999999999999994
 20
-168.0
 30
0.0
 11
104.0
 21
-168.0
 31
0.0
  0
LINE
  5
30E
330
2E5
100
AcDbEntity
  8
bold
100
AcDbLine
 10
104.5
 20
13.99999999999998
 30
0.0
 11
105.0
 21
13.99999999999998
 31
0.0
  0
LINE
  5
30F
330
2E5
100
AcDbEntity
  8
bold
100
AcDbLine
 10
105.0
 20
13.99999999999998
 30
0.0
 11
105.0
 21
32.0
 31
0.0
  0
LINE
  5
310
330
2E5
100
AcDbEntity
  8
bold
100
AcDbLine
 10
0.0
 20
32.0
 30
0.0
 11
105.0
 21
32.0
 31
0.0
  0
LINE
  5
311
330
2E5
100
AcDbEntity
  8
bold
100
AcDbLine
 10
0.0
 20
13.99999999999998
 30
0.0
 11
0.0
 21
32.0
 31
0.0
  0
LINE
  5
312
330
2E5
100
AcDbEntity
  8
bold
100
AcDbLine
 10
0.4999999999999927
 20
13.99999999999998
 30
0.0
 11
0.0
 21
13.99999999999998
 31
0.0
  0
LINE
  5
313
330
2E5
100
AcDbEntity
  8
bold
100
AcDbLine
 10
0.0
 20
-168.0
 30
0.0
 11
0.0
 21
-150.0
 31
0.0
  0
LINE
  5
314
330
2E5
100
AcDbEntity
  8
bold
100
AcDbLine
 10
104.0
 20
-168.0
 30
0.0
 11
105.0
 21
-168.0
 31
0.0
  0
LINE
  5
315
330
2E5
100
AcDbEntity
  8
bold
100
AcDbLine
 10
0.0
 20
-168.0
 30
0.0
 11
0.999999999999994
 21
-168.0
 31
0.0
  0
LINE
  5
316
330
2E5
100
AcDbEntity
  8
bold
100
AcDbLine
 10
105.0
 20
-168.0
 30
0.0
 11
105.0
 21
-150.0
 31
0.0
  0
ENDBLK
  5
2E8
330
2E5
100
AcDbEntity
  8
0
100
AcDbBlockEnd
  0
BLOCK
  5
31B
330
31A
100
AcDbEntity
  8
0
100
AcDbBlockBegin
  2
*D13
 70
     1
 10
0.0
 20
0.0
 30
0.0
  3
*D13
  1

  0
LINE
  5
31D
330
31A
100
AcDbEntity
  8
dimension
 62
     0
370
    -2
100
AcDbLine
 10
19.5
 20
-138.0
 30
0.0
 11
19.5
 21
-195.7386664683024
 31
0.0
  0
LINE
  5
31E
330
31A
100
AcDbEntity
  8
dimension
 62
     0
370
    -2
100
AcDbLine
 10
52.5
 20
-138.0
 30
0.0
 11
52.5
 21
-195.7386664683024
 31
0.0
  0
LINE
  5
31F
330
31A
100
AcDbEntity
  8
dimension
 62
     0
370
    -2
100
AcDbLine
 10
24.83333333333333
 20
-195.7386664683024
 30
0.0
 11
47.16666666666666
 21
-195.7386664683024
 31
0.0
  0
SOLID
  5
320
330
31A
100
AcDbEntity
  8
dimension
 62
     0
100
AcDbTrace
 10
24.83333333333333
 20
-194.8497775794135
 30
0.0
 11
24.83333333333333
 21
-196.6275553571913
 31
0.0
 12
19.5
 22
-195.7386664683024
 32
0.0
 13
19.5
 23
-195.7386664683024
 33
0.0
  0
SOLID
  5
321
330
31A
100
AcDbEntity
  8
dimension
 62
     0
100
AcDbTrace
 10
47.16666666666666
 20
-196.6275553571913
 30
0.0
 11
47.16666666666666
 21
-194.8497775794135
 31
0.0
 12
52.5
 22
-195.7386664683024
 32
0.0
 13
52.5
 23
-195.7386664683024
 33
0.0
  0
MTEXT
  5
322
330
31A
100
AcDbEntity
  8
dimension
 62
     0
100
AcDbMText
 10
36.0
 20
-191.4719998016357
 30
0.0
 40
5.333333333333333
 41
0.0
 46
0.0
 71
     5
 72
     1
  1
33
 73
     1
 44
1.0
  0
POINT
  5
323
330
31A
100
AcDbEntity
  8
Defpoints
 62
     0
100
AcDbPoint
 10
19.5
 20
-138.0
 30
0.0
  0
POINT
  5
324
330
31A
100
AcDbEntity
  8
Defpoints
 62
     0
100
AcDbPoint
 10
52.5
 20
-138.0
 30
0.0
  0
POINT
  5
325
330
31A
100
AcDbEntity
  8
Defpoints
 62
     0
100
AcDbPoint
 10
52.5
 20
-195.7386664683024
 30
0.0
  0
ENDBLK
  5
31C
330
31A
100
AcDbEntity
  8
0
100
AcDbBlockEnd
  0
BLOCK
  5
328
330
327
100
AcDbEntity
  8
0
100
AcDbBlockBegin
  2
*D14
 70
     1
 10
0.0
 20
0.0
 30
0.0
  3
*D14
  1

  0
LINE
  5
32A
330
327
100
AcDbEntity
  8
dimension
 62
     0
370
    -2
100
AcDbLine
 10
85.5
 20
-138.0
 30
0.0
 11
85.5
 21
-195.7386664683024
 31
0.0
  0
LINE
  5
32B
330
327
100
AcDbEntity
  8
dimension
 62
     0
370
    -2
100
AcDbLine
 10
52.5
 20
-138.0
 30
0.0
 11
52.5
 21
-195.7386664683024
 31
0.0
  0
LINE
  5
32C
330
327
100
AcDbEntity
  8
dimension
 62
     0
370
    -2
100
AcDbLine
 10
80.16666666666667
 20
-195.7386664683024
 30
0.0
 11
57.83333333333334
 21
-195.7386664683024
 31
0.0
  0
SOLID
  5
32D
330
327
100
AcDbEntity
  8
dimension
 62
     0
100
AcDbTrace
 10
80.16666666666667
 20
-196.6275553571913
 30
0.0
 11
80.16666666666667
 21
-194.8497775794135
 31
0.0
 12
85.5
 22
-195.7386664683024
 32
0.0
 13
85.5
 23
-195.7386664683024
 33
0.0
  0
SOLID
  5
32E
330
327
100
AcDbEntity
  8
dimension
 62
     0
100
AcDbTrace
 10
57.83333333333334
 20
-194.8497775794135
 30
0.0
 11
57.83333333333334
 21
-196.6275553571913
 31
0.0
 12
52.5
 22
-195.7386664683024
 32
0.0
 13
52.5
 23
-195.7386664683024
 33
0.0
  0
MTEXT
  5
32F
330
327
100
AcDbEntity
  8
dimension
 62
     0
100
AcDbMText
 10
69.0
 20
-191.4719998016357
 30
0.0
 40
5.333333333333333
 41
0.0
 46
0.0
 71
     5
 72
     1
  1
33
 73
     1
 44
1.0
  0
POINT
  5
330
330
327
100
AcDbEntity
  8
Defpoints
 62
     0
100
AcDbPoint
 10
85.5
 20
-138.0
 30
0.0
  0
POINT
  5
331
330
327
100
AcDbEntity
  8
Defpoints
 62
     0
100
AcDbPoint
 10
52.5
 20
-138.0
 30
0.0
  0
POINT
  5
332
330
327
100
AcDbEntity
  8
Defpoints
 62
     0
100
AcDbPoint
 10
52.5
 20
-195.7386664683024
 30
0.0
  0
ENDBLK
  5
329
330
327
100
AcDbEntity
  8
0
100
AcDbBlockEnd
  0
BLOCK
  5
335
330
334
100
AcDbEntity
  8
0
100
AcDbBlockBegin
  2
*D15
 70
     1
 10
0.0
 20
0.0
 30
0.0
  3
*D15
  1

  0
LINE
  5
337
330
334
100
AcDbEntity
  8
dimension
 62
     0
370
    -2
100
AcDbLine
 10
0.0
 20
-168.0
 30
0.0
 11
0.0
 21
-219.7386664683024
 31
0.0
  0
LINE
  5
338
330
334
100
AcDbEntity
  8
dimension
 62
     0
370
    -2
100
AcDbLine
 10
105.0
 20
-168.0
 30
0.0
 11
105.0
 21
-219.7386664683024
 31
0.0
  0
LINE
  5
339
330
334
100
AcDbEntity
  8
dimension
 62
     0
370
    -2
100
AcDbLine
 10
5.333333333333333
 20
-219.7386664683024
 30
0.0
 11
99.66666666666667
 21
-219.7386664683024
 31
0.0
  0
SOLID
  5
33A
330
334
100
AcDbEntity
  8
dimension
 62
     0
100
AcDbTrace
 10
5.333333333333333
 20
-218.8497775794135
 30
0.0
 11
5.333333333333333
 21
-220.6275553571913
 31
0.0
 12
0.0
 22
-219.7386664683024
 32
0.0
 13
0.0
 23
-219.7386664683024
 33
0.0
  0
SOLID
  5
33B
330
334
100
AcDbEntity
  8
dimension
 62
     0
100
AcDbTrace
 10
99.66666666666667
 20
-220.6275553571913
 30
0.0
 11
99.66666666666667
 21
-218.8497775794135
 31
0.0
 12
105.0
 22
-219.7386664683024
 32
0.0
 13
105.0
 23
-219.7386664683024
 33
0.0
  0
MTEXT
  5
33C
330
334
100
AcDbEntity
  8
dimension
 62
     0
100
AcDbMText
 10
52.5
 20
-215.4719998016357
 30
0.0
 40
5.333333333333333
 41
0.0
 46
0.0
 71
     5
 72
     1
  1
106
 73
     1
 44
1.0
  0
POINT
  5
33D
330
334
100
AcDbEntity
  8
Defpoints
 62
     0
100
AcDbPoint
 10
0.0
 20
-168.0
 30
0.0
  0
POINT
  5
33E
330
334
100
AcDbEntity
  8
Defpoints
 62
     0
100
AcDbPoint
 10
105.0
 20
-168.0
 30
0.0
  0
POINT
  5
33F
330
334
100
AcDbEntity
  8
Defpoints
 62
     0
100
AcDbPoint
 10
105.0
 20
-219.7386664683024
 30
0.0
  0
ENDBLK
  5
336
330
334
100
AcDbEntity
  8
0
100
AcDbBlockEnd
  0
ENDSEC
  0
SECTION
  2
ENTITIES
  0
ATTDEF
  5
5F
330
1F
100
AcDbEntity
  8
attrib
100
AcDbText
 10
110.0
 20
32.0
 30
0.0
 40
0.5
  1
33394
100
AcDbAttributeDefinition
  3

  2
NB
 70
     8
280
     0
  0
ATTDEF
  5
60
330
1F
100
AcDbEntity
  8
attrib
100
AcDbText
 10
110.0
 20
31.5
 30
0.0
 40
0.5
  1
Size 00, with fuse monitor
100
AcDbAttributeDefinition
  3

  2
NN
 70
     8
280
     0
  0
ATTDEF
  5
61
330
1F
100
AcDbEntity
  8
attrib
100
AcDbText
 10
110.0
 20
31.0
 30
0.0
 40
0.5
  1

100
AcDbAttributeDefinition
  3

  2
NT
 70
     8
280
     0
  0
ATTDEF
  5
62
330
1F
100
AcDbEntity
  8
attrib
100
AcDbText
 10
110.0
 20
30.5
 30
0.0
 40
0.5
  1
$ARTNR.
100
AcDbAttributeDefinition
  3

  2
NBSYN
 70
     8
280
     0
  0
ATTDEF
  5
63
330
1F
100
AcDbEntity
  8
attrib
100
AcDbText
 10
110.0
 20
30.0
 30
0.0
 40
0.5
  1
33394000
100
AcDbAttributeDefinition
  3

  2
LINA
 70
     8
280
     0
  0
ATTDEF
  5
64
330
1F
100
AcDbEntity
  8
attrib
100
AcDbText
 10
110.0
 20
29.5
 30
0.0
 40
0.5
  1
Wöhner
100
AcDbAttributeDefinition
  3

  2
CATALOG
 70
     8
280
     0
  0
ATTDEF
  5
65
330
1F
100
AcDbEntity
  8
attrib
100
AcDbText
 10
110.0
 20
29.0
 30
0.0
 40
0.5
  1
33394
100
AcDbAttributeDefinition
  3

  2
ARTNR
 70
     8
280
     0
  0
ATTDEF
  5
66
330
1F
100
AcDbEntity
  8
attrib
100
AcDbText
 10
110.0
 20
28.5
 30
0.0
 40
0.5
  1
12, 15, 20, 25, 30 x 5, 10 and section busbars
100
AcDbAttributeDefinition
  3

  2
BUSB
 70
     8
280
     0
  0
ATTDEF
  5
67
330
1F
100
AcDbEntity
  8
attrib
100
AcDbText
 10
110.0
 20
28.0
 30
0.0
 40
0.5
  1
QUADRON®60Classic
100
AcDbAttributeDefinition
  3

  2
POF
 70
     8
280
     0
  0
ATTDEF
  5
68
330
1F
100
AcDbEntity
  8
attrib
100
AcDbText
 10
110.0
 20
27.5
 30
0.0
 40
0.5
  1
QCB-NH00
100
AcDbAttributeDefinition
  3

  2
TYPE
 70
     8
280
     0
  0
ATTDEF
  5
69
330
1F
100
AcDbEntity
  8
attrib
100
AcDbText
 10
110.0
 20
27.0
 30
0.0
 40
0.5
  1
1
100
AcDbAttributeDefinition
  3

  2
QNT
 70
     8
280
     0
  0
ATTDEF
  5
6A
330
1F
100
AcDbEntity
  8
attrib
100
AcDbText
 10
110.0
 20
26.5
 30
0.0
 40
0.5
  1
106
100
AcDbAttributeDefinition
  3

  2
W
 70
     8
280
     0
  0
ATTDEF
  5
6B
330
1F
100
AcDbEntity
  8
attrib
100
AcDbText
 10
110.0
 20
26.0
 30
0.0
 40
0.5
  1
200
100
AcDbAttributeDefinition
  3

  2
H
 70
     8
280
     0
  0
ATTDEF
  5
6C
330
1F
100
AcDbEntity
  8
attrib
100
AcDbText
 10
110.0
 20
25.5
 30
0.0
 40
0.5
  1
137
100
AcDbAttributeDefinition
  3

  2
D
 70
     8
280
     0
  0
ATTDEF
  5
6D
330
1F
100
AcDbEntity
  8
attrib
100
AcDbText
 10
110.0
 20
25.0
 30
0.0
 40
0.5
  1
IP30
100
AcDbAttributeDefinition
  3

  2
IPRF
 70
     8
280
     0
  0
ATTDEF
  5
6E
330
1F
100
AcDbEntity
  8
attrib
100
AcDbText
 10
110.0
 20
24.5
 30
0.0
 40
0.5
  1
Product link
100
AcDbAttributeDefinition
  3

  2
LINK
 70
     8
280
     0
  0
ATTDEF
  5
6F
330
1F
100
AcDbEntity
  8
attrib
100
AcDbText
 10
110.0
 20
24.0
 30
0.0
 40
0.5
  1
woehner
100
AcDbAttributeDefinition
  3

  2
COMPANY
 70
     8
280
     0
  0
ATTDEF
  5
70
330
1F
100
AcDbEntity
  8
attrib
100
AcDbText
 10
110.0
 20
23.5
 30
0.0
 40
0.5
  1
{$CADENAS_DATA/23d-libs/woehner/sys_60classic/nh_fuse_switch/size00_fuse_monitor_asmtab.prj},208 {VTYP=3D},{STYP=ASSTAB},{NB=33394},{LINA=33394000},{NN=Gr.00, mit Sicherungsüberwachung},{DATE=26.01.2024 06:39:58},{GEOMDATE=02.10.2023 12:55:07},{VERSION=v2
100
AcDbAttributeDefinition
  3

  2
PSOL_0
 70
     9
280
     0
  0
ATTDEF
  5
71
330
1F
100
AcDbEntity
  8
attrib
100
AcDbText
 10
110.0
 20
23.0
 30
0.0
 40
0.5
  1
31002115156},{LINEID=1130},{WBVAR=},{WBNUMERIC=}  {NB=33394},{LINA=33394000},{KT=DUMMY},{BOM=33394000},{ARTNR=33394},{BUSB=12, 15, 20, 25, 30 x 5, 10 and section busbars},{BE=NH fuse switch-disconnector size 00, 160 A},{POF=QUADRON®60Classic},{TYPE=QCB-NH
100
AcDbAttributeDefinition
  3

  2
PSOL_1
 70
     9
280
     0
  0
ATTDEF
  5
72
330
1F
100
AcDbEntity
  8
attrib
100
AcDbText
 10
110.0
 20
22.5
 30
0.0
 40
0.5
  1
00},{QNT=1},{W=106},{H=200},{D=137},{CONCA=Screw connection},{BUSIN=},{IPR=},{IPRF=IP30},{SEARCH=},{EDZ=},{IODD=},{DIST=8.0},{LINK=Product link},{LINKX=https://www.woehner.de/de/produkte/33394.html},{VER=2},{PPATH=parts/size00_fuse_monitor/size00_asmtpl.p
100
AcDbAttributeDefinition
  3

  2
PSOL_2
 70
     9
280
     0
  0
ATTDEF
  5
73
330
1F
100
AcDbEntity
  8
attrib
100
AcDbText
 10
110.0
 20
22.0
 30
0.0
 40
0.5
  1
rj},{AAO677=Wöhner},{MANUFACTURER_URL=www.woehner.de},{AAQ326=www.woehner.de/de/produkte/33394.html },{AAO676=33394},{TC=QCB-NH00},{EAN=4021267333980},{CTN=85361090},{AAU731=QUADRON®60Classic},{DESCRIPTION_LONG=NH fuse switch-disconnector size 00, 160 A, 
100
AcDbAttributeDefinition
  3

  2
PSOL_3
 70
     9
280
     0
  0
ATTDEF
  5
74
330
1F
100
AcDbEntity
  8
attrib
100
AcDbText
 10
110.0
 20
21.5
 30
0.0
 40
0.5
  1
screw M8, with electronic fuse monitoring, connection top or bottom},{DESCRIPTION_SHORT=NH fuse switch-disconnector size 00, 160 A},{AAT080=3},{BAH005=690}
100
AcDbAttributeDefinition
  3

  2
PSOL_4
 70
     9
280
     0
  0
INSERT
  5
76
330
1F
100
AcDbEntity
  8
0
100
AcDbBlockReference
  2
1_79638000_0_in_33394_0
 10
0.0
 20
0.0
 30
0.0
  0
INSERT
  5
9C
330
1F
100
AcDbEntity
  8
0
100
AcDbBlockReference
  2
2_30775000_0_in_33394_0
 10
0.0
 20
0.0
 30
0.0
  0
INSERT
  5
DB
330
1F
100
AcDbEntity
  8
0
100
AcDbBlockReference
  2
3_79458000_0_in_33394_0
 10
0.0
 20
0.0
 30
0.0
  0
INSERT
  5
110
330
1F
100
AcDbEntity
  8
0
100
AcDbBlockReference
  2
4_79461000_0_in_33394_0
 10
0.0
 20
0.0
 30
0.0
  0
INSERT
  5
164
330
1F
100
AcDbEntity
  8
0
100
AcDbBlockReference
  2
5_30754000_1_0_in_33394_0
 10
0.0
 20
0.0
 30
0.0
  0
INSERT
  5
197
330
1F
100
AcDbEntity
  8
0
100
AcDbBlockReference
  2
6_30754000_2_0_in_33394_0
 10
0.0
 20
0.0
 30
0.0
  0
INSERT
  5
1C8
330
1F
100
AcDbEntity
  8
0
100
AcDbBlockReference
  2
7_30754000_3_0_in_33394_0
 10
0.0
 20
0.0
 30
0.0
  0
INSERT
  5
1F9
330
1F
100
AcDbEntity
  8
0
100
AcDbBlockReference
  2
8_30754000_4_0_in_33394_0
 10
0.0
 20
0.0
 30
0.0
  0
INSERT
  5
22B
330
1F
100
AcDbEntity
  8
0
100
AcDbBlockReference
  2
9_30754000_5_0_in_33394_0
 10
0.0
 20
0.0
 30
0.0
  0
INSERT
  5
25D
330
1F
100
AcDbEntity
  8
0
100
AcDbBlockReference
  2
10_30754000_6_0_in_33394_0
 10
0.0
 20
0.0
 30
0.0
  0
INSERT
  5
28F
330
1F
100
AcDbEntity
  8
0
100
AcDbBlockReference
  2
11_30142000_0_in_33394_0
 10
0.0
 20
0.0
 30
0.0
  0
INSERT
  5
2E6
330
1F
100
AcDbEntity
  8
0
100
AcDbBlockReference
  2
12_79427000_0_in_33394_0
 10
0.0
 20
0.0
 30
0.0
  0
DIMENSION
  5
318
330
1F
100
AcDbEntity
  8
dimension
100
AcDbDimension
280
     0
  2
*D13
 10
52.5
 20
-195.7386664683024
 30
0.0
 11
36.0
 21
-195.7386664683024
 31
0.0
 70
   160
  1
33
 71
     5
 42
33.0
 73
     0
 74
     0
 75
     0
  3
ISO-25
100
AcDbAlignedDimension
 13
19.5
 23
-138.0
 33
0.0
 14
52.5
 24
-138.0
 34
0.0
100
AcDbRotatedDimension
1001
ACAD
1000
DSTYLE
1002
{
1070
   147
1040
1.6
1070
    42
1040
0.0
1070
    44
1040
0.0
1070
    41
1040
5.333333333333333
1070
   140
1040
5.333333333333333
1002
}
  0
DIMENSION
  5
326
330
1F
100
AcDbEntity
  8
dimension
100
AcDbDimension
280
     0
  2
*D14
 10
52.5
 20
-195.7386664683024
 30
0.0
 11
69.0
 21
-195.7386664683024
 31
0.0
 70
   160
  1
33
 71
     5
 42
33.0
 73
     0
 74
     0
 75
     0
  3
ISO-25
100
AcDbAlignedDimension
 13
85.5
 23
-138.0
 33
0.0
 14
52.5
 24
-138.0
 34
0.0
100
AcDbRotatedDimension
1001
ACAD
1000
DSTYLE
1002
{
1070
   147
1040
1.6
1070
    42
1040
0.0
1070
    44
1040
0.0
1070
    41
1040
5.333333333333333
1070
   140
1040
5.333333333333333
1002
}
  0
DIMENSION
  5
333
330
1F
100
AcDbEntity
  8
dimension
100
AcDbDimension
280
     0
  2
*D15
 10
105.0
 20
-219.7386664683024
 30
0.0
 11
52.5
 21
-219.7386664683024
 31
0.0
 70
   160
  1
106
 71
     5
 42
105.0
 73
     0
 74
     0
 75
     0
  3
ISO-25
100
AcDbAlignedDimension
 13
0.0
 23
-168.0
 33
0.0
 14
105.0
 24
-168.0
 34
0.0
100
AcDbRotatedDimension
1001
ACAD
1000
DSTYLE
1002
{
1070
   147
1040
1.6
1070
    42
1040
0.0
1070
    44
1040
0.0
1070
    41
1040
5.333333333333333
1070
   140
1040
5.333333333333333
1002
}
  0
POINT
  5
341
330
1F
100
AcDbEntity
  8
connection
100
AcDbPoint
 10
52.5
 20
-126.0
 30
0.0
  0
POINT
  5
342
330
1F
100
AcDbEntity
  8
connection
100
AcDbPoint
 10
52.5
 20
-35.0
 30
0.0
  0
POINT
  5
343
330
1F
100
AcDbEntity
  8
connection
100
AcDbPoint
 10
52.5
 20
-28.0
 30
0.0
  0
POINT
  5
344
330
1F
100
AcDbEntity
  8
connection
100
AcDbPoint
 10
85.5
 20
-67.0
 30
0.0
  0
POINT
  5
345
330
1F
100
AcDbEntity
  8
connection
100
AcDbPoint
 10
52.5
 20
-67.0
 30
0.0
  0
POINT
  5
346
330
1F
100
AcDbEntity
  8
connection
100
AcDbPoint
 10
19.5
 20
-67.0
 30
0.0
  0
POINT
  5
347
330
1F
100
AcDbEntity
  8
connection
100
AcDbPoint
 10
52.5
 20
-126.0
 30
0.0
  0
POINT
  5
348
330
1F
100
AcDbEntity
  8
connection
100
AcDbPoint
 10
52.5
 20
-129.072
 30
0.0
  0
POINT
  5
349
330
1F
100
AcDbEntity
  8
connection
100
AcDbPoint
 10
52.5
 20
-163.964
 30
0.0
  0
POINT
  5
34A
330
1F
100
AcDbEntity
  8
connection
100
AcDbPoint
 10
52.5
 20
24.979
 30
0.0
  0
POINT
  5
34B
330
1F
100
AcDbEntity
  8
connection
100
AcDbPoint
 10
85.5
 20
-103.0
 30
0.0
  0
POINT
  5
34C
330
1F
100
AcDbEntity
  8
connection
100
AcDbPoint
 10
52.5
 20
-103.0
 30
0.0
  0
POINT
  5
34D
330
1F
100
AcDbEntity
  8
connection
100
AcDbPoint
 10
19.5
 20
-103.0
 30
0.0
  0
POINT
  5
34E
330
1F
100
AcDbEntity
  8
connection
100
AcDbPoint
 10
85.5
 20
-39.0
 30
0.0
  0
POINT
  5
34F
330
1F
100
AcDbEntity
  8
connection
100
AcDbPoint
 10
52.5
 20
-39.0
 30
0.0
  0
POINT
  5
350
330
1F
100
AcDbEntity
  8
connection
100
AcDbPoint
 10
19.5
 20
-39.0
 30
0.0
  0
POINT
  5
351
330
1F
100
AcDbEntity
  8
connection
100
AcDbPoint
 10
19.5
 20
-58.5
 30
0.0
  0
POINT
  5
352
330
1F
100
AcDbEntity
  8
connection
100
AcDbPoint
 10
85.5
 20
-58.5
 30
0.0
  0
POINT
  5
353
330
1F
100
AcDbEntity
  8
connection
100
AcDbPoint
 10
19.5
 20
-83.5
 30
0.0
  0
POINT
  5
354
330
1F
100
AcDbEntity
  8
connection
100
AcDbPoint
 10
85.5
 20
-83.5
 30
0.0
  0
POINT
  5
355
330
1F
100
AcDbEntity
  8
connection
100
AcDbPoint
 10
19.5
 20
-15.0
 30
0.0
  0
POINT
  5
356
330
1F
100
AcDbEntity
  8
connection
100
AcDbPoint
 10
72.5
 20
-123.57
 30
0.0
  0
POINT
  5
357
330
1F
100
AcDbEntity
  8
connection
100
AcDbPoint
 10
52.5
 20
-15.0
 30
0.0
  0
POINT
  5
358
330
1F
100
AcDbEntity
  8
connection
100
AcDbPoint
 10
85.5
 20
-15.0
 30
0.0
  0
POINT
  5
359
330
1F
100
AcDbEntity
  8
connection
100
AcDbPoint
 10
19.5
 20
-127.0
 30
0.0
  0
POINT
  5
35A
330
1F
100
AcDbEntity
  8
connection
100
AcDbPoint
 10
52.5
 20
-127.0
 30
0.0
  0
POINT
  5
35B
330
1F
100
AcDbEntity
  8
connection
100
AcDbPoint
 10
85.5
 20
-127.0
 30
0.0
  0
POINT
  5
35C
330
1F
100
AcDbEntity
  8
connection
100
AcDbPoint
 10
62.0
 20
-123.57
 30
0.0
  0
POINT
  5
35D
330
1F
100
AcDbEntity
  8
connection
100
AcDbPoint
 10
65.5
 20
-123.57
 30
0.0
  0
POINT
  5
35E
330
1F
100
AcDbEntity
  8
connection
100
AcDbPoint
 10
69.0
 20
-123.57
 30
0.0
  0
POINT
  5
35F
330
1F
100
AcDbEntity
  8
connection
100
AcDbPoint
 10
19.5
 20
-39.0
 30
0.0
  0
POINT
  5
360
330
1F
100
AcDbEntity
  8
connection
100
AcDbPoint
 10
52.5
 20
-39.0
 30
0.0
  0
POINT
  5
361
330
1F
100
AcDbEntity
  8
connection
100
AcDbPoint
 10
85.5
 20
-39.0
 30
0.0
  0
POINT
  5
362
330
1F
100
AcDbEntity
  8
connection
100
AcDbPoint
 10
19.5
 20
-103.0
 30
0.0
  0
POINT
  5
363
330
1F
100
AcDbEntity
  8
connection
100
AcDbPoint
 10
52.5
 20
-103.0
 30
0.0
  0
POINT
  5
364
330
1F
100
AcDbEntity
  8
connection
100
AcDbPoint
 10
85.5
 20
-103.0
 30
0.0
  0
POINT
  5
365
330
1F
100
AcDbEntity
  8
connection
100
AcDbPoint
 10
52.5
 20
24.979
 30
0.0
  0
POINT
  5
366
330
1F
100
AcDbEntity
  8
connection
100
AcDbPoint
 10
52.5
 20
23.531
 30
0.0
  0
POINT
  5
367
330
1F
100
AcDbEntity
  8
connection
100
AcDbPoint
 10
52.5
 20
-163.964
 30
0.0
  0
POINT
  5
368
330
1F
100
AcDbEntity
  8
connection
100
AcDbPoint
 10
52.5
 20
-166.458
 30
0.0
  0
POINT
  5
369
330
1F
100
AcDbEntity
  8
connection
100
AcDbPoint
 10
33.5
 20
-62.0
 30
0.0
  0
POINT
  5
36A
330
1F
100
AcDbEntity
  8
connection
100
AcDbPoint
 10
71.5
 20
-100.0
 30
0.0
  0
POINT
  5
36B
330
1F
100
AcDbEntity
  8
connection
100
AcDbPoint
 10
105.0
 20
1.0
 30
0.0
  0
POINT
  5
36C
330
1F
100
AcDbEntity
  8
connection
100
AcDbPoint
 10
52.5
 20
1.0
 30
0.0
  0
POINT
  5
36D
330
1F
100
AcDbEntity
  8
connection
100
AcDbPoint
 10
52.5
 20
-71.0
 30
0.0
  0
POINT
  5
36E
330
1F
100
AcDbEntity
  8
connection
100
AcDbPoint
 10
0.0
 20
-171.57
 30
0.0
  0
POINT
  5
36F
330
1F
100
AcDbEntity
  8
connection
100
AcDbPoint
 10
0.0
 20
0.0
 30
0.0
  0
POINT
  5
370
330
1F
100
AcDbEntity
  8
connection
100
AcDbPoint
 10
52.5
 20
1.0
 30
0.0
  0
POINT
  5
371
330
1F
100
AcDbEntity
  8
connection
100
AcDbPoint
 10
52.5
 20
32.0
 30
0.0
  0
ENDSEC
  0
SECTION
  2
OBJECTS
  0
DICTIONARY
  5
C
330
0
100
AcDbDictionary
281
     1
  3
ACAD_DETAILVIEWSTYLE
350
379
  3
ACAD_GROUP
350
D
  3
ACAD_LAYOUT
350
1A
  3
ACAD_MATERIAL
350
43
  3
ACAD_MLEADERSTYLE
350
5B
  3
ACAD_MLINESTYLE
350
17
  3
ACAD_PLOTSETTINGS
350
19
  3
ACAD_PLOTSTYLENAME
350
E
  3
ACAD_SCALELIST
350
47
  3
ACAD_SECTIONVIEWSTYLE
350
37A
  3
ACAD_TABLESTYLE
350
59
  3
ACAD_VISUALSTYLE
350
2A
  3
ACDB_RECOMPOSE_DATA
350
376
  3
AcDbVariableDictionary
350
372
  0
SUN
  5
5D
330
29
100
AcDbSun
 90
        1
290
     0
 63
     7
421
 16777215
 40
1.0
291
     1
 91
  2455826
 92
 54000000
292
     0
 70
     2
 71
   256
280
     1
  0
DICTIONARY
  5
379
102
{ACAD_REACTORS
330
C
102
}
330
C
100
AcDbDictionary
281
     1
  0
DICTIONARY
  5
D
102
{ACAD_REACTORS
330
C
102
}
330
C
100
AcDbDictionary
281
     1
  0
DICTIONARY
  5
1A
102
{ACAD_REACTORS
330
C
102
}
330
C
100
AcDbDictionary
281
     1
  3
Layout1
350
1E
  3
Layout2
350
26
  3
Model
350
22
  0
DICTIONARY
  5
43
102
{ACAD_REACTORS
330
C
102
}
330
C
100
AcDbDictionary
281
     1
  3
ByBlock
350
45
  3
ByLayer
350
44
  3
Global
350
46
  0
DICTIONARY
  5
5B
102
{ACAD_REACTORS
330
C
102
}
330
C
100
AcDbDictionary
281
     1
  3
Standard
350
5C
  0
DICTIONARY
  5
17
102
{ACAD_REACTORS
330
C
102
}
330
C
100
AcDbDictionary
281
     1
  3
Standard
350
18
  0
DICTIONARY
  5
19
102
{ACAD_REACTORS
330
C
102
}
330
C
100
AcDbDictionary
281
     1
  0
ACDBDICTIONARYWDFLT
  5
E
102
{ACAD_REACTORS
330
C
102
}
330
C
100
AcDbDictionary
281
     1
  3
Normal
350
F
100
AcDbDictionaryWithDefault
340
F
  0
DICTIONARY
  5
47
102
{ACAD_REACTORS
330
C
102
}
330
C
100
AcDbDictionary
281
     1
  3
A0
350
48
  3
A1
350
49
  3
A2
350
4A
  3
A3
350
4B
  3
A4
350
4C
  3
A5
350
4D
  3
A6
350
4E
  3
A7
350
4F
  3
A8
350
50
  3
A9
350
51
  3
B0
350
52
  3
B1
350
53
  3
B2
350
54
  3
B3
350
55
  3
B4
350
56
  3
B5
350
57
  3
B6
350
58
  0
DICTIONARY
  5
37A
102
{ACAD_REACTORS
330
C
102
}
330
C
100
AcDbDictionary
281
     1
  0
DICTIONARY
  5
59
102
{ACAD_REACTORS
330
C
102
}
330
C
100
AcDbDictionary
281
     1
  3
Standard
350
5A
  0
DICTIONARY
  5
2A
102
{ACAD_REACTORS
330
C
102
}
330
C
100
AcDbDictionary
281
     1
  3
2dWireframe
350
2F
  3
Basic
350
32
  3
Brighten
350
36
  3
ColorChange
350
3A
  3
Conceptual
350
34
  3
Dim
350
35
  3
EdgeColorOff
350
3D
  3
Facepattern
350
39
  3
Flat
350
2B
  3
FlatWithEdges
350
2C
  3
Gouraud
350
2D
  3
GouraudWithEdges
350
2E
  3
Hidden
350
31
  3
JitterOff
350
3B
  3
Linepattern
350
38
  3
OverhangOff
350
3C
  3
Realistic
350
33
  3
Shaded
350
42
  3
Shaded with edges
350
41
  3
Shades of Gray
350
3E
  3
Sketchy
350
3F
  3
Thicken
350
37
  3
Wireframe
350
30
  3
X-Ray
350
40
  0
XRECORD
  5
376
102
{ACAD_REACTORS
330
C
102
}
330
C
100
AcDbXrecord
280
     1
 90
        1
330
5A
  0
DICTIONARY
  5
372
102
{ACAD_REACTORS
330
C
102
}
330
C
100
AcDbDictionary
281
     1
  3
CANNOSCALE
350
373
  3
CENTEREXE
350
37B
  3
CENTERLTYPEFILE
350
37C
  3
CMLEADERSTYLE
350
378
  3
CTABLESTYLE
350
377
  0
LAYOUT
  5
1E
102
{ACAD_REACTORS
330
1A
102
}
330
1A
100
AcDbPlotSettings
  1

  2
none_device
  4

  6

 40
0.0
 41
0.0
 42
0.0
 43
0.0
 44
0.0
 45
0.0
 46
0.0
 47
0.0
 48
0.0
 49
0.0
140
0.0
141
0.0
142
1.0
143
1.0
 70
   688
 72
     1
 73
     0
 74
     5
  7

 75
    16
 76
     0
 77
     2
 78
   300
147
1.0
148
0.0
149
0.0
100
AcDbLayout
  1
Layout1
 70
     1
 71
     1
 10
0.0
 20
0.0
 11
420.0
 21
297.0
 12
0.0
 22
0.0
 32
0.0
 14
1.000000000000000E+20
 24
1.000000000000000E+20
 34
1.000000000000000E+20
 15
-1.000000000000000E+20
 25
-1.000000000000000E+20
 35
-1.000000000000000E+20
146
0.0
 13
0.0
 23
0.0
 33
0.0
 16
1.0
 26
0.0
 36
0.0
 17
0.0
 27
1.0
 37
0.0
 76
     0
330
1B
  0
LAYOUT
  5
26
102
{ACAD_REACTORS
330
1A
102
}
330
1A
100
AcDbPlotSettings
  1

  2
none_device
  4

  6

 40
0.0
 41
0.0
 42
0.0
 43
0.0
 44
0.0
 45
0.0
 46
0.0
 47
0.0
 48
0.0
 49
0.0
140
0.0
141
0.0
142
1.0
143
1.0
 70
   688
 72
     1
 73
     0
 74
     5
  7

 75
    16
 76
     0
 77
     2
 78
   300
147
1.0
148
0.0
149
0.0
100
AcDbLayout
  1
Layout2
 70
     1
 71
     2
 10
0.0
 20
0.0
 11
0.0
 21
0.0
 12
0.0
 22
0.0
 32
0.0
 14
0.0
 24
0.0
 34
0.0
 15
0.0
 25
0.0
 35
0.0
146
0.0
 13
0.0
 23
0.0
 33
0.0
 16
1.0
 26
0.0
 36
0.0
 17
0.0
 27
1.0
 37
0.0
 76
     0
330
23
  0
LAYOUT
  5
22
102
{ACAD_REACTORS
330
1A
102
}
330
1A
100
AcDbPlotSettings
  1

  2
none_device
  4
Letter_(8.50_x_11.00_Inches)
  6

 40
6.35
 41
6.35
 42
6.35000508
 43
6.35000508
 44
215.9
 45
279.4
 46
0.0
 47
0.0
 48
0.0
 49
0.0
140
0.0
141
0.0
142
1.0
143
1.0
 70
  1712
 72
     1
 73
     0
 74
     0
  7

 75
     0
 76
     0
 77
     2
 78
   300
147
1.0
148
0.0
149
0.0
100
AcDbLayout
  1
Model
 70
     1
 71
     0
 10
0.0
 20
0.0
 11
420.0
 21
297.0
 12
0.0
 22
0.0
 32
0.0
 14
0.0
 24
-220.6275553571913
 34
0.0
 15
113.4523809523809
 25
32.5
 35
0.0
146
0.0
 13
0.0
 23
0.0
 33
0.0
 16
1.0
 26
0.0
 36
0.0
 17
0.0
 27
1.0
 37
0.0
 76
     0
330
1F
331
29
  0
MATERIAL
  5
45
102
{ACAD_REACTORS
330
43
102
}
330
43
100
AcDbMaterial
  1
ByBlock
 72
     1
 94
      127
  0
MATERIAL
  5
44
102
{ACAD_REACTORS
330
43
102
}
330
43
100
AcDbMaterial
  1
ByLayer
 72
     1
 94
      127
  0
MATERIAL
  5
46
102
{ACAD_REACTORS
330
43
102
}
330
43
100
AcDbMaterial
  1
Global
 72
     1
 94
      127
  0
MLEADERSTYLE
  5
5C
102
{ACAD_REACTORS
330
5B
102
}
330
5B
100
AcDbMLeaderStyle
179
     2
170
     2
171
     1
172
     0
 90
        2
 40
0.0
 41
0.0
173
     1
 91
-1056964608
340
14
 92
       -2
290
     1
 42
2.0
291
     1
 43
8.0
  3
Standard
341
0
 44
4.0
300

342
11
174
     1
178
     6
175
     1
176
     0
 93
-1056964608
 45
4.0
292
     0
297
     0
 46
4.0
343
0
 94
-1056964608
 47
1.0
 49
1.0
140
1.0
293
     1
141
0.0
294
     1
177
     0
142
1.0
295
     0
296
     0
143
3.75
271
     0
272
     9
273
     9
298
     0
  0
MLINESTYLE
  5
18
102
{ACAD_REACTORS
330
17
102
}
330
17
100
AcDbMlineStyle
  2
Standard
 70
     0
  3

 62
   256
 51
90.0
 52
90.0
 71
     2
 49
0.5
 62
   256
  6
BYLAYER
 49
-0.5
 62
   256
  6
BYLAYER
  0
ACDBPLACEHOLDER
  5
F
102
{ACAD_REACTORS
330
E
102
}
330
E
  0
SCALE
  5
48
102
{ACAD_REACTORS
330
47
102
}
330
47
100
AcDbScale
 70
     0
300
1:1
140
1.0
141
1.0
290
     1
  0
SCALE
  5
49
102
{ACAD_REACTORS
330
47
102
}
330
47
100
AcDbScale
 70
     0
300
1:2
140
1.0
141
2.0
290
     0
  0
SCALE
  5
4A
102
{ACAD_REACTORS
330
47
102
}
330
47
100
AcDbScale
 70
     0
300
1:4
140
1.0
141
4.0
290
     0
  0
SCALE
  5
4B
102
{ACAD_REACTORS
330
47
102
}
330
47
100
AcDbScale
 70
     0
300
1:5
140
1.0
141
5.0
290
     0
  0
SCALE
  5
4C
102
{ACAD_REACTORS
330
47
102
}
330
47
100
AcDbScale
 70
     0
300
1:8
140
1.0
141
8.0
290
     0
  0
SCALE
  5
4D
102
{ACAD_REACTORS
330
47
102
}
330
47
100
AcDbScale
 70
     0
300
1:10
140
1.0
141
10.0
290
     0
  0
SCALE
  5
4E
102
{ACAD_REACTORS
330
47
102
}
330
47
100
AcDbScale
 70
     0
300
1:16
140
1.0
141
16.0
290
     0
  0
SCALE
  5
4F
102
{ACAD_REACTORS
330
47
102
}
330
47
100
AcDbScale
 70
     0
300
1:20
140
1.0
141
20.0
290
     0
  0
SCALE
  5
50
102
{ACAD_REACTORS
330
47
102
}
330
47
100
AcDbScale
 70
     0
300
1:30
140
1.0
141
30.0
290
     0
  0
SCALE
  5
51
102
{ACAD_REACTORS
330
47
102
}
330
47
100
AcDbScale
 70
     0
300
1:40
140
1.0
141
40.0
290
     0
  0
SCALE
  5
52
102
{ACAD_REACTORS
330
47
102
}
330
47
100
AcDbScale
 70
     0
300
1:50
140
1.0
141
50.0
290
     0
  0
SCALE
  5
53
102
{ACAD_REACTORS
330
47
102
}
330
47
100
AcDbScale
 70
     0
300
1:100
140
1.0
141
100.0
290
     0
  0
SCALE
  5
54
102
{ACAD_REACTORS
330
47
102
}
330
47
100
AcDbScale
 70
     0
300
2:1
140
2.0
141
1.0
290
     0
  0
SCALE
  5
55
102
{ACAD_REACTORS
330
47
102
}
330
47
100
AcDbScale
 70
     0
300
4:1
140
4.0
141
1.0
290
     0
  0
SCALE
  5
56
102
{ACAD_REACTORS
330
47
102
}
330
47
100
AcDbScale
 70
     0
300
8:1
140
8.0
141
1.0
290
     0
  0
SCALE
  5
57
102
{ACAD_REACTORS
330
47
102
}
330
47
100
AcDbScale
 70
     0
300
10:1
140
10.0
141
1.0
290
     0
  0
SCALE
  5
58
102
{ACAD_REACTORS
330
47
102
}
330
47
100
AcDbScale
 70
     0
300
100:1
140
100.0
141
1.0
290
     0
  0
TABLESTYLE
  5
5A
102
{ACAD_REACTORS
330
59
102
}
102
{ACAD_XDICTIONARY
360
374
102
}
330
59
100
AcDbTableStyle
  3
Standard
 70
     0
 71
     0
 40
0.06
 41
0.06
280
     0
281
     0
  7
Standard
140
4.5
170
     2
 62
     0
 63
   257
283
     0
 90
        4
 91
        0
  1

274
    -2
284
     1
 64
     0
275
    -2
285
     1
 65
     0
276
    -2
286
     1
 66
     0
277
    -2
287
     1
 67
     0
278
    -2
288
     1
 68
     0
279
    -2
289
     1
 69
     0
  7
Standard
140
6.0
170
     5
 62
     0
 63
   257
283
     0
 90
        4
 91
        0
  1

274
    -2
284
     1
 64
     0
275
    -2
285
     1
 65
     0
276
    -2
286
     1
 66
     0
277
    -2
287
     1
 67
     0
278
    -2
288
     1
 68
     0
279
    -2
289
     1
 69
     0
  7
Standard
140
4.5
170
     5
 62
     0
 63
   257
283
     0
 90
        4
 91
        0
  1

274
    -2
284
     1
 64
     0
275
    -2
285
     1
 65
     0
276
    -2
286
     1
 66
     0
277
    -2
287
     1
 67
     0
278
    -2
288
     1
 68
     0
279
    -2
289
     1
 69
     0
  0
VISUALSTYLE
  5
2F
102
{ACAD_REACTORS
330
2A
102
}
330
2A
100
AcDbVisualStyle
  2
2dWireframe
 70
     4
177
     3
291
     0
 70
    58
 90
        0
176
     1
 90
        2
176
     1
 90
        0
176
     1
 90
        0
176
     1
 40
0.6
176
     1
 40
30.0
176
     1
 62
     7
420
 16777215
176
     1
 90
        1
176
     1
 90
        4
176
     1
 62
     7
176
     1
 62
   257
176
     1
 90
        1
176
     1
 90
        1
176
     1
 40
1.0
176
     1
 90
        0
176
     1
 62
   257
176
     1
 40
1.0
176
     1
 90
        1
176
     1
 90
        6
176
     1
 90
        2
176
     1
 62
     7
176
     1
 90
        5
176
     1
 90
        0
176
     1
 90
        0
176
     1
290
     0
176
     1
 90
        1
176
     1
 40
0.0
176
     1
 90
        0
176
     1
290
     1
176
     1
290
     1
176
     1
290
     0
176
     1
290
     0
176
     1
290
     0
176
     1
290
     0
176
     1
290
     0
176
     1
290
     0
176
     1
290
     0
176
     1
 90
       50
176
     1
 40
0.0
176
     1
 40
1.0
176
     1
 90
        0
176
     1
 62
    18
420
        0
176
     1
 90
       50
176
     1
 90
        3
176
     1
 62
     5
420
      255
176
     1
290
     0
176
     1
 90
       50
176
     1
 90
       50
176
     1
 90
       50
176
     1
290
     0
176
     1
 90
       50
176
     1
 62
   256
176
     0
 40
1.0
176
     0
 90
        2
176
     1
  1
strokes_ogs.tif
176
     1
290
     0
176
     1
 40
1.0
176
     1
 40
1.0
176
     1
  0
VISUALSTYLE
  5
32
102
{ACAD_REACTORS
330
2A
102
}
330
2A
100
AcDbVisualStyle
  2
Basic
 70
     7
177
     3
291
     1
 70
    58
 90
        1
176
     1
 90
        0
176
     1
 90
        1
176
     1
 90
        0
176
     1
 40
0.6
176
     1
 40
30.0
176
     1
 62
     7
420
 16777215
176
     1
 90
        0
176
     1
 90
        4
176
     1
 62
     7
176
     1
 62
   257
176
     1
 90
        1
176
     1
 90
        1
176
     1
 40
1.0
176
     1
 90
        8
176
     1
 62
     7
176
     1
 40
1.0
176
     1
 90
        1
176
     1
 90
        6
176
     1
 90
        2
176
     1
 62
     7
176
     1
 90
        5
176
     1
 90
        0
176
     1
 90
        0
176
     1
290
     0
176
     1
 90
        1
176
     1
 40
0.0
176
     1
 90
        0
176
     1
290
     0
176
     1
290
     1
176
     1
290
     1
176
     1
290
     0
176
     1
290
     0
176
     1
290
     0
176
     1
290
     0
176
     1
290
     0
176
     1
290
     0
176
     1
 90
       50
176
     1
 40
0.0
176
     1
 40
1.0
176
     1
 90
        0
176
     1
 62
    18
420
        0
176
     1
 90
       50
176
     1
 90
        3
176
     1
 62
     5
420
      255
176
     1
290
     0
176
     1
 90
       50
176
     1
 90
       50
176
     1
 90
       50
176
     1
290
     0
176
     1
 90
       50
176
     1
 62
   256
176
     0
 40
1.0
176
     0
 90
        2
176
     1
  1
strokes_ogs.tif
176
     1
290
     0
176
     1
 40
1.0
176
     1
 40
1.0
176
     1
  0
VISUALSTYLE
  5
36
102
{ACAD_REACTORS
330
2A
102
}
330
2A
100
AcDbVisualStyle
  2
Brighten
 70
    12
177
     3
291
     1
 70
    58
 90
        2
176
     1
 90
        2
176
     1
 90
        0
176
     1
 90
        0
176
     1
 40
0.6
176
     1
 40
30.0
176
     1
 62
     7
420
 16777215
176
     1
 90
        1
176
     1
 90
        4
176
     1
 62
     7
176
     1
 62
   257
176
     1
 90
        1
176
     1
 90
        1
176
     1
 40
1.0
176
     1
 90
        8
176
     1
 62
     7
176
     1
 40
1.0
176
     1
 90
        1
176
     1
 90
        6
176
     1
 90
        2
176
     1
 62
     7
176
     1
 90
        5
176
     1
 90
        0
176
     1
 90
        0
176
     1
290
     0
176
     1
 90
        1
176
     1
 40
50.0
176
     1
 90
        0
176
     1
290
     0
176
     1
290
     1
176
     1
290
     1
176
     1
290
     0
176
     1
290
     0
176
     1
290
     0
176
     1
290
     0
176
     1
290
     0
176
     1
290
     0
176
     1
 90
       50
176
     1
 40
0.0
176
     1
 40
1.0
176
     1
 90
        0
176
     1
 62
    18
420
        0
176
     1
 90
       50
176
     1
 90
        3
176
     1
 62
     5
420
      255
176
     1
290
     0
176
     1
 90
       50
176
     1
 90
       50
176
     1
 90
       50
176
     1
290
     0
176
     1
 90
       50
176
     1
 62
   256
176
     0
 40
1.0
176
     0
 90
        2
176
     1
  1
strokes_ogs.tif
176
     1
290
     0
176
     1
 40
1.0
176
     1
 40
1.0
176
     1
  0
VISUALSTYLE
  5
3A
102
{ACAD_REACTORS
330
2A
102
}
330
2A
100
AcDbVisualStyle
  2
ColorChange
 70
    16
177
     3
291
     1
 70
    58
 90
        2
176
     1
 90
        2
176
     1
 90
        3
176
     1
 90
        0
176
     1
 40
0.6
176
     1
 40
30.0
176
     1
 62
     8
420
  8421504
176
     1
 90
        1
176
     1
 90
        4
176
     1
 62
     7
176
     1
 62
   257
176
     1
 90
        1
176
     1
 90
        1
176
     1
 40
1.0
176
     1
 90
        8
176
     1
 62
     8
420
  8421504
176
     1
 40
1.0
176
     1
 90
        1
176
     1
 90
        6
176
     1
 90
        2
176
     1
 62
     7
176
     1
 90
        5
176
     1
 90
        0
176
     1
 90
        0
176
     1
290
     0
176
     1
 90
        1
176
     1
 40
0.0
176
     1
 90
        0
176
     1
290
     0
176
     1
290
     1
176
     1
290
     1
176
     1
290
     0
176
     1
290
     0
176
     1
290
     0
176
     1
290
     0
176
     1
290
     0
176
     1
290
     0
176
     1
 90
       50
176
     1
 40
0.0
176
     1
 40
1.0
176
     1
 90
        0
176
     1
 62
    18
420
        0
176
     1
 90
       50
176
     1
 90
        3
176
     1
 62
     5
420
      255
176
     1
290
     0
176
     1
 90
       50
176
     1
 90
       50
176
     1
 90
       50
176
     1
290
     0
176
     1
 90
       50
176
     1
 62
   256
176
     0
 40
1.0
176
     0
 90
        2
176
     1
  1
strokes_ogs.tif
176
     1
290
     0
176
     1
 40
1.0
176
     1
 40
1.0
176
     1
  0
VISUALSTYLE
  5
34
102
{ACAD_REACTORS
330
2A
102
}
330
2A
100
AcDbVisualStyle
  2
Conceptual
 70
     9
177
     3
291
     0
 70
    58
 90
        3
176
     1
 90
        2
176
     1
 90
        0
176
     1
 90
        0
176
     1
 40
0.6
176
     1
 40
30.0
176
     1
 62
     7
420
 16777215
176
     1
 90
        2
176
     1
 90
        2
176
     1
 62
     7
176
     1
 62
   257
176
     1
 90
        1
176
     1
 90
        1
176
     1
 40
179.0
176
     1
 90
        8
176
     1
 62
     7
176
     1
 40
1.0
176
     1
 90
        1
176
     1
 90
        6
176
     1
 90
        2
176
     1
 62
     7
176
     1
 90
        3
176
     1
 90
        0
176
     1
 90
        0
176
     1
290
     0
176
     1
 90
        1
176
     1
 40
0.0
176
     1
 90
        0
176
     1
290
     0
176
     1
290
     1
176
     1
290
     1
176
     1
290
     0
176
     1
290
     0
176
     1
290
     0
176
     1
290
     0
176
     1
290
     0
176
     1
290
     0
176
     1
 90
       50
176
     1
 40
0.0
176
     1
 40
1.0
176
     1
 90
        0
176
     1
 62
    18
420
        0
176
     1
 90
       50
176
     1
 90
        3
176
     1
 62
     5
420
      255
176
     1
290
     0
176
     1
 90
       50
176
     1
 90
       50
176
     1
 90
       50
176
     1
290
     0
176
     1
 90
       50
176
     1
 62
   256
176
     0
 40
1.0
176
     0
 90
        2
176
     1
  1
strokes_ogs.tif
176
     1
290
     0
176
     1
 40
1.0
176
     1
 40
1.0
176
     1
  0
VISUALSTYLE
  5
35
102
{ACAD_REACTORS
330
2A
102
}
330
2A
100
AcDbVisualStyle
  2
Dim
 70
    11
177
     3
291
     1
 70
    58
 90
        2
176
     1
 90
        2
176
     1
 90
        0
176
     1
 90
        0
176
     1
 40
0.6
176
     1
 40
30.0
176
     1
 62
     7
420
 16777215
176
     1
 90
        1
176
     1
 90
        4
176
     1
 62
     7
176
     1
 62
   257
176
     1
 90
        1
176
     1
 90
        1
176
     1
 40
1.0
176
     1
 90
        8
176
     1
 62
     7
176
     1
 40
1.0
176
     1
 90
        1
176
     1
 90
        6
176
     1
 90
        2
176
     1
 62
     7
176
     1
 90
        5
176
     1
 90
        0
176
     1
 90
        0
176
     1
290
     0
176
     1
 90
        1
176
     1
 40
-50.0
176
     1
 90
        0
176
     1
290
     0
176
     1
290
     1
176
     1
290
     1
176
     1
290
     0
176
     1
290
     0
176
     1
290
     0
176
     1
290
     0
176
     1
290
     0
176
     1
290
     0
176
     1
 90
       50
176
     1
 40
0.0
176
     1
 40
1.0
176
     1
 90
        0
176
     1
 62
    18
420
        0
176
     1
 90
       50
176
     1
 90
        3
176
     1
 62
     5
420
      255
176
     1
290
     0
176
     1
 90
       50
176
     1
 90
       50
176
     1
 90
       50
176
     1
290
     0
176
     1
 90
       50
176
     1
 62
   256
176
     0
 40
1.0
176
     0
 90
        2
176
     1
  1
strokes_ogs.tif
176
     1
290
     0
176
     1
 40
1.0
176
     1
 40
1.0
176
     1
  0
VISUALSTYLE
  5
3D
102
{ACAD_REACTORS
330
2A
102
}
330
2A
100
AcDbVisualStyle
  2
EdgeColorOff
 70
    22
177
     3
291
     1
 70
    58
 90
        2
176
     0
 90
        2
176
     0
 90
        0
176
     0
 90
        0
176
     0
 40
0.6
176
     0
 40
30.0
176
     0
 62
     7
420
 16777215
176
     0
 90
        1
176
     0
 90
        4
176
     0
 62
     7
176
     0
 62
   257
176
     0
 90
        1
176
     0
 90
        1
176
     0
 40
1.0
176
     0
 90
        8
176
     2
 62
     7
176
     0
 40
1.0
176
     0
 90
        1
176
     0
 90
        6
176
     0
 90
        2
176
     0
 62
     7
176
     0
 90
        5
176
     0
 90
        0
176
     0
 90
        0
176
     0
290
     0
176
     0
 90
        1
176
     0
 40
0.0
176
     0
 90
        0
176
     0
290
     0
176
     0
290
     1
176
     0
290
     1
176
     0
290
     0
176
     0
290
     0
176
     0
290
     0
176
     0
290
     0
176
     0
290
     0
176
     0
290
     0
176
     0
 90
       50
176
     0
 40
0.0
176
     0
 40
1.0
176
     0
 90
        0
176
     0
 62
    18
420
        0
176
     0
 90
       50
176
     0
 90
        3
176
     0
 62
     5
420
      255
176
     0
290
     0
176
     0
 90
       50
176
     0
 90
       50
176
     0
 90
       50
176
     0
290
     0
176
     0
 90
       50
176
     0
 62
   256
176
     0
 40
1.0
176
     0
 90
        2
176
     0
  1
strokes_ogs.tif
176
     0
290
     0
176
     0
 40
1.0
176
     0
 40
1.0
176
     0
  0
VISUALSTYLE
  5
39
102
{ACAD_REACTORS
330
2A
102
}
330
2A
100
AcDbVisualStyle
  2
Facepattern
 70
    15
177
     3
291
     1
 70
    58
 90
        2
176
     1
 90
        2
176
     1
 90
        0
176
     1
 90
        0
176
     1
 40
0.6
176
     1
 40
30.0
176
     1
 62
     7
420
 16777215
176
     1
 90
        1
176
     1
 90
        4
176
     1
 62
     7
176
     1
 62
   257
176
     1
 90
        1
176
     1
 90
        1
176
     1
 40
1.0
176
     1
 90
        8
176
     1
 62
     7
176
     1
 40
1.0
176
     1
 90
        1
176
     1
 90
        6
176
     1
 90
        2
176
     1
 62
     7
176
     1
 90
        5
176
     1
 90
        0
176
     1
 90
        0
176
     1
290
     0
176
     1
 90
        1
176
     1
 40
0.0
176
     1
 90
        0
176
     1
290
     0
176
     1
290
     1
176
     1
290
     1
176
     1
290
     0
176
     1
290
     0
176
     1
290
     0
176
     1
290
     0
176
     1
290
     0
176
     1
290
     0
176
     1
 90
       50
176
     1
 40
0.0
176
     1
 40
1.0
176
     1
 90
        0
176
     1
 62
    18
420
        0
176
     1
 90
       50
176
     1
 90
        3
176
     1
 62
     5
420
      255
176
     1
290
     0
176
     1
 90
       50
176
     1
 90
       50
176
     1
 90
       50
176
     1
290
     0
176
     1
 90
       50
176
     1
 62
   256
176
     0
 40
1.0
176
     0
 90
        2
176
     1
  1
strokes_ogs.tif
176
     1
290
     0
176
     1
 40
1.0
176
     1
 40
1.0
176
     1
  0
VISUALSTYLE
  5
2B
102
{ACAD_REACTORS
330
2A
102
}
330
2A
100
AcDbVisualStyle
  2
Flat
 70
     0
177
     3
291
     1
 70
    58
 90
        2
176
     1
 90
        1
176
     1
 90
        1
176
     1
 90
        2
176
     1
 40
0.6
176
     1
 40
30.0
176
     1
 62
     7
420
 16777215
176
     1
 90
        0
176
     1
 90
        0
176
     1
 62
     7
176
     1
 62
   257
176
     1
 90
        1
176
     1
 90
        1
176
     1
 40
1.0
176
     1
 90
        8
176
     1
 62
     7
176
     1
 40
1.0
176
     1
 90
        1
176
     1
 90
        6
176
     1
 90
        2
176
     1
 62
     7
176
     1
 90
        5
176
     1
 90
        0
176
     1
 90
        0
176
     1
290
     0
176
     1
 90
       13
176
     1
 40
0.0
176
     1
 90
        0
176
     1
290
     0
176
     1
290
     1
176
     1
290
     1
176
     1
290
     0
176
     1
290
     0
176
     1
290
     0
176
     1
290
     0
176
     1
290
     0
176
     1
290
     0
176
     1
 90
       50
176
     1
 40
0.0
176
     1
 40
1.0
176
     1
 90
        0
176
     1
 62
    18
420
        0
176
     1
 90
       50
176
     1
 90
        3
176
     1
 62
     5
420
      255
176
     1
290
     0
176
     1
 90
       50
176
     1
 90
       50
176
     1
 90
       50
176
     1
290
     0
176
     1
 90
       50
176
     1
 62
   256
176
     0
 40
1.0
176
     0
 90
        2
176
     1
  1
strokes_ogs.tif
176
     1
290
     0
176
     1
 40
1.0
176
     1
 40
1.0
176
     1
  0
VISUALSTYLE
  5
2C
102
{ACAD_REACTORS
330
2A
102
}
330
2A
100
AcDbVisualStyle
  2
FlatWithEdges
 70
     1
177
     3
291
     1
 70
    58
 90
        2
176
     1
 90
        1
176
     1
 90
        1
176
     1
 90
        2
176
     1
 40
0.6
176
     1
 40
30.0
176
     1
 62
     7
420
 16777215
176
     1
 90
        1
176
     1
 90
        0
176
     1
 62
     7
176
     1
 62
   257
176
     1
 90
        1
176
     1
 90
        1
176
     1
 40
1.0
176
     1
 90
        0
176
     1
 62
   257
176
     1
 40
1.0
176
     1
 90
        1
176
     1
 90
        6
176
     1
 90
        2
176
     1
 62
     7
176
     1
 90
        5
176
     1
 90
        0
176
     1
 90
        0
176
     1
290
     0
176
     1
 90
       13
176
     1
 40
0.0
176
     1
 90
        0
176
     1
290
     0
176
     1
290
     1
176
     1
290
     1
176
     1
290
     0
176
     1
290
     0
176
     1
290
     0
176
     1
290
     0
176
     1
290
     0
176
     1
290
     0
176
     1
 90
       50
176
     1
 40
0.0
176
     1
 40
1.0
176
     1
 90
        0
176
     1
 62
    18
420
        0
176
     1
 90
       50
176
     1
 90
        3
176
     1
 62
     5
420
      255
176
     1
290
     0
176
     1
 90
       50
176
     1
 90
       50
176
     1
 90
       50
176
     1
290
     0
176
     1
 90
       50
176
     1
 62
   256
176
     0
 40
1.0
176
     0
 90
        2
176
     1
  1
strokes_ogs.tif
176
     1
290
     0
176
     1
 40
1.0
176
     1
 40
1.0
176
     1
  0
VISUALSTYLE
  5
2D
102
{ACAD_REACTORS
330
2A
102
}
330
2A
100
AcDbVisualStyle
  2
Gouraud
 70
     2
177
     3
291
     1
 70
    58
 90
        2
176
     1
 90
        2
176
     1
 90
        1
176
     1
 90
        2
176
     1
 40
0.6
176
     1
 40
30.0
176
     1
 62
     7
420
 16777215
176
     1
 90
        0
176
     1
 90
        0
176
     1
 62
     7
176
     1
 62
   257
176
     1
 90
        1
176
     1
 90
        1
176
     1
 40
1.0
176
     1
 90
        0
176
     1
 62
     7
176
     1
 40
1.0
176
     1
 90
        1
176
     1
 90
        6
176
     1
 90
        2
176
     1
 62
     7
176
     1
 90
        5
176
     1
 90
        0
176
     1
 90
        0
176
     1
290
     0
176
     1
 90
       13
176
     1
 40
0.0
176
     1
 90
        0
176
     1
290
     0
176
     1
290
     1
176
     1
290
     1
176
     1
290
     0
176
     1
290
     0
176
     1
290
     0
176
     1
290
     0
176
     1
290
     0
176
     1
290
     0
176
     1
 90
       50
176
     1
 40
0.0
176
     1
 40
1.0
176
     1
 90
        0
176
     1
 62
    18
420
        0
176
     1
 90
       50
176
     1
 90
        3
176
     1
 62
     5
420
      255
176
     1
290
     0
176
     1
 90
       50
176
     1
 90
       50
176
     1
 90
       50
176
     1
290
     0
176
     1
 90
       50
176
     1
 62
   256
176
     0
 40
1.0
176
     0
 90
        2
176
     1
  1
strokes_ogs.tif
176
     1
290
     0
176
     1
 40
1.0
176
     1
 40
1.0
176
     1
  0
VISUALSTYLE
  5
2E
102
{ACAD_REACTORS
330
2A
102
}
330
2A
100
AcDbVisualStyle
  2
GouraudWithEdges
 70
     3
177
     3
291
     1
 70
    58
 90
        2
176
     1
 90
        2
176
     1
 90
        1
176
     1
 90
        2
176
     1
 40
0.6
176
     1
 40
30.0
176
     1
 62
     7
420
 16777215
176
     1
 90
        1
176
     1
 90
        0
176
     1
 62
     7
176
     1
 62
   257
176
     1
 90
        1
176
     1
 90
        1
176
     1
 40
1.0
176
     1
 90
        0
176
     1
 62
   257
176
     1
 40
1.0
176
     1
 90
        1
176
     1
 90
        6
176
     1
 90
        2
176
     1
 62
     7
176
     1
 90
        5
176
     1
 90
        0
176
     1
 90
        0
176
     1
290
     0
176
     1
 90
       13
176
     1
 40
0.0
176
     1
 90
        0
176
     1
290
     0
176
     1
290
     1
176
     1
290
     1
176
     1
290
     0
176
     1
290
     0
176
     1
290
     0
176
     1
290
     0
176
     1
290
     0
176
     1
290
     0
176
     1
 90
       50
176
     1
 40
0.0
176
     1
 40
1.0
176
     1
 90
        0
176
     1
 62
    18
420
        0
176
     1
 90
       50
176
     1
 90
        3
176
     1
 62
     5
420
      255
176
     1
290
     0
176
     1
 90
       50
176
     1
 90
       50
176
     1
 90
       50
176
     1
290
     0
176
     1
 90
       50
176
     1
 62
   256
176
     0
 40
1.0
176
     0
 90
        2
176
     1
  1
strokes_ogs.tif
176
     1
290
     0
176
     1
 40
1.0
176
     1
 40
1.0
176
     1
  0
VISUALSTYLE
  5
31
102
{ACAD_REACTORS
330
2A
102
}
330
2A
100
AcDbVisualStyle
  2
Hidden
 70
     6
177
     3
291
     0
 70
    58
 90
        1
176
     1
 90
        2
176
     1
 90
        2
176
     1
 90
        0
176
     1
 40
0.6
176
     1
 40
30.0
176
     1
 62
     7
420
 16777215
176
     1
 90
        2
176
     1
 90
        2
176
     1
 62
     7
176
     1
 62
   257
176
     1
 90
        2
176
     1
 90
        1
176
     1
 40
40.0
176
     1
 90
        0
176
     1
 62
   257
176
     1
 40
1.0
176
     1
 90
        1
176
     1
 90
        6
176
     1
 90
        2
176
     1
 62
     7
176
     1
 90
        3
176
     1
 90
        0
176
     1
 90
        0
176
     1
290
     0
176
     1
 90
        1
176
     1
 40
0.0
176
     1
 90
        0
176
     1
290
     0
176
     1
290
     1
176
     1
290
     1
176
     1
290
     0
176
     1
290
     0
176
     1
290
     0
176
     1
290
     0
176
     1
290
     0
176
     1
290
     0
176
     1
 90
       50
176
     1
 40
0.0
176
     1
 40
1.0
176
     1
 90
        0
176
     1
 62
    18
420
        0
176
     1
 90
       50
176
     1
 90
        3
176
     1
 62
     5
420
      255
176
     1
290
     0
176
     1
 90
       50
176
     1
 90
       50
176
     1
 90
       50
176
     1
290
     0
176
     1
 90
       50
176
     1
 62
   256
176
     0
 40
1.0
176
     0
 90
        2
176
     1
  1
strokes_ogs.tif
176
     1
290
     0
176
     1
 40
1.0
176
     1
 40
1.0
176
     1
  0
VISUALSTYLE
  5
3B
102
{ACAD_REACTORS
330
2A
102
}
330
2A
100
AcDbVisualStyle
  2
JitterOff
 70
    20
177
     3
291
     1
 70
    58
 90
        2
176
     0
 90
        2
176
     0
 90
        0
176
     0
 90
        0
176
     0
 40
0.6
176
     0
 40
30.0
176
     0
 62
     7
420
 16777215
176
     0
 90
        1
176
     0
 90
        4
176
     0
 62
     7
176
     0
 62
   257
176
     0
 90
        1
176
     0
 90
        1
176
     0
 40
1.0
176
     0
 90
       10
176
     2
 62
     7
176
     0
 40
1.0
176
     0
 90
        1
176
     0
 90
        6
176
     0
 90
        2
176
     0
 62
     7
176
     0
 90
        5
176
     0
 90
        0
176
     0
 90
        0
176
     0
290
     0
176
     0
 90
        1
176
     0
 40
0.0
176
     0
 90
        0
176
     0
290
     0
176
     0
290
     1
176
     0
290
     1
176
     0
290
     0
176
     0
290
     0
176
     0
290
     0
176
     0
290
     0
176
     0
290
     0
176
     0
290
     0
176
     0
 90
       50
176
     0
 40
0.0
176
     0
 40
1.0
176
     0
 90
        0
176
     0
 62
    18
420
        0
176
     0
 90
       50
176
     0
 90
        3
176
     0
 62
     5
420
      255
176
     0
290
     0
176
     0
 90
       50
176
     0
 90
       50
176
     0
 90
       50
176
     0
290
     0
176
     0
 90
       50
176
     0
 62
   256
176
     0
 40
1.0
176
     0
 90
        2
176
     0
  1
strokes_ogs.tif
176
     0
290
     0
176
     0
 40
1.0
176
     0
 40
1.0
176
     0
  0
VISUALSTYLE
  5
38
102
{ACAD_REACTORS
330
2A
102
}
330
2A
100
AcDbVisualStyle
  2
Linepattern
 70
    14
177
     3
291
     1
 70
    58
 90
        2
176
     1
 90
        2
176
     1
 90
        0
176
     1
 90
        0
176
     1
 40
0.6
176
     1
 40
30.0
176
     1
 62
     7
420
 16777215
176
     1
 90
        1
176
     1
 90
        4
176
     1
 62
     7
176
     1
 62
   257
176
     1
 90
        7
176
     1
 90
        7
176
     1
 40
1.0
176
     1
 90
        8
176
     1
 62
     7
176
     1
 40
1.0
176
     1
 90
        1
176
     1
 90
        6
176
     1
 90
        2
176
     1
 62
     7
176
     1
 90
        5
176
     1
 90
        0
176
     1
 90
        0
176
     1
290
     0
176
     1
 90
        1
176
     1
 40
0.0
176
     1
 90
        0
176
     1
290
     0
176
     1
290
     1
176
     1
290
     1
176
     1
290
     0
176
     1
290
     0
176
     1
290
     0
176
     1
290
     0
176
     1
290
     0
176
     1
290
     0
176
     1
 90
       50
176
     1
 40
0.0
176
     1
 40
1.0
176
     1
 90
        0
176
     1
 62
    18
420
        0
176
     1
 90
       50
176
     1
 90
        3
176
     1
 62
     5
420
      255
176
     1
290
     0
176
     1
 90
       50
176
     1
 90
       50
176
     1
 90
       50
176
     1
290
     0
176
     1
 90
       50
176
     1
 62
   256
176
     0
 40
1.0
176
     0
 90
        2
176
     1
  1
strokes_ogs.tif
176
     1
290
     0
176
     1
 40
1.0
176
     1
 40
1.0
176
     1
  0
VISUALSTYLE
  5
3C
102
{ACAD_REACTORS
330
2A
102
}
330
2A
100
AcDbVisualStyle
  2
OverhangOff
 70
    21
177
     3
291
     1
 70
    58
 90
        2
176
     0
 90
        2
176
     0
 90
        0
176
     0
 90
        0
176
     0
 40
0.6
176
     0
 40
30.0
176
     0
 62
     7
420
 16777215
176
     0
 90
        1
176
     0
 90
        4
176
     0
 62
     7
176
     0
 62
   257
176
     0
 90
        1
176
     0
 90
        1
176
     0
 40
1.0
176
     0
 90
        9
176
     2
 62
     7
176
     0
 40
1.0
176
     0
 90
        1
176
     0
 90
        6
176
     0
 90
        2
176
     0
 62
     7
176
     0
 90
        5
176
     0
 90
        0
176
     0
 90
        0
176
     0
290
     0
176
     0
 90
        1
176
     0
 40
0.0
176
     0
 90
        0
176
     0
290
     0
176
     0
290
     1
176
     0
290
     1
176
     0
290
     0
176
     0
290
     0
176
     0
290
     0
176
     0
290
     0
176
     0
290
     0
176
     0
290
     0
176
     0
 90
       50
176
     0
 40
0.0
176
     0
 40
1.0
176
     0
 90
        0
176
     0
 62
    18
420
        0
176
     0
 90
       50
176
     0
 90
        3
176
     0
 62
     5
420
      255
176
     0
290
     0
176
     0
 90
       50
176
     0
 90
       50
176
     0
 90
       50
176
     0
290
     0
176
     0
 90
       50
176
     0
 62
   256
176
     0
 40
1.0
176
     0
 90
        2
176
     0
  1
strokes_ogs.tif
176
     0
290
     0
176
     0
 40
1.0
176
     0
 40
1.0
176
     0
  0
VISUALSTYLE
  5
33
102
{ACAD_REACTORS
330
2A
102
}
330
2A
100
AcDbVisualStyle
  2
Realistic
 70
     8
177
     3
291
     0
 70
    58
 90
        2
176
     1
 90
        3
176
     1
 90
        0
176
     1
 90
        2
176
     1
 40
0.6
176
     1
 40
30.0
176
     1
 62
     7
420
 16777215
176
     1
 90
        0
176
     1
 90
        0
176
     1
 62
     7
176
     1
 62
   257
176
     1
 90
        1
176
     1
 90
        1
176
     1
 40
1.0
176
     1
 90
        8
176
     1
 62
   257
176
     1
 40
1.0
176
     1
 90
        1
176
     1
 90
        6
176
     1
 90
        2
176
     1
 62
     7
176
     1
 90
        3
176
     1
 90
        0
176
     1
 90
        0
176
     1
290
     0
176
     1
 90
       13
176
     1
 40
0.0
176
     1
 90
        0
176
     1
290
     0
176
     1
290
     1
176
     1
290
     1
176
     1
290
     0
176
     1
290
     0
176
     1
290
     0
176
     1
290
     0
176
     1
290
     0
176
     1
290
     0
176
     1
 90
       50
176
     1
 40
0.0
176
     1
 40
1.0
176
     1
 90
        0
176
     1
 62
    18
420
        0
176
     1
 90
       50
176
     1
 90
        3
176
     1
 62
     5
420
      255
176
     1
290
     0
176
     1
 90
       50
176
     1
 90
       50
176
     1
 90
       50
176
     1
290
     0
176
     1
 90
       50
176
     1
 62
   256
176
     0
 40
1.0
176
     0
 90
        2
176
     1
  1
strokes_ogs.tif
176
     1
290
     0
176
     1
 40
1.0
176
     1
 40
1.0
176
     1
  0
VISUALSTYLE
  5
42
102
{ACAD_REACTORS
330
2A
102
}
330
2A
100
AcDbVisualStyle
  2
Shaded
 70
    27
177
     3
291
     0
 70
    58
 90
        2
176
     1
 90
        2
176
     1
 90
        1
176
     1
 90
        2
176
     1
 40
0.6
176
     1
 40
30.0
176
     1
 62
     7
420
 16777215
176
     1
 90
        0
176
     1
 90
        4
176
     1
 62
     7
176
     1
 62
   257
176
     1
 90
        1
176
     1
 90
        1
176
     1
 40
1.0
176
     1
 90
        8
176
     1
 62
   257
176
     1
 40
1.0
176
     1
 90
        1
176
     1
 90
        6
176
     1
 90
        2
176
     1
 62
     8
420
  7895160
176
     1
 90
        3
176
     1
 90
        0
176
     1
 90
        0
176
     1
290
     0
176
     1
 90
        5
176
     1
 40
0.0
176
     1
 90
        0
176
     1
290
     0
176
     1
290
     1
176
     1
290
     1
176
     1
290
     0
176
     1
290
     0
176
     1
290
     0
176
     1
290
     0
176
     1
290
     0
176
     1
290
     0
176
     1
 90
       50
176
     1
 40
0.0
176
     1
 40
1.0
176
     1
 90
        0
176
     1
 62
    18
420
        0
176
     1
 90
       50
176
     1
 90
        3
176
     1
 62
     5
420
      255
176
     1
290
     0
176
     1
 90
       50
176
     1
 90
       50
176
     1
 90
       50
176
     1
290
     0
176
     1
 90
       50
176
     1
 62
   256
176
     0
 40
1.0
176
     0
 90
        2
176
     1
  1
strokes_ogs.tif
176
     1
290
     0
176
     1
 40
1.0
176
     1
 40
1.0
176
     1
  0
VISUALSTYLE
  5
41
102
{ACAD_REACTORS
330
2A
102
}
330
2A
100
AcDbVisualStyle
  2
Shaded with edges
 70
    26
177
     3
291
     0
 70
    58
 90
        2
176
     1
 90
        2
176
     1
 90
        1
176
     1
 90
        2
176
     1
 40
0.6
176
     1
 40
30.0
176
     1
 62
     7
420
 16777215
176
     1
 90
        1
176
     1
 90
       10
176
     1
 62
     7
176
     1
 62
   257
176
     1
 90
        2
176
     1
 90
        1
176
     1
 40
1.0
176
     1
 90
        8
176
     1
 62
   257
176
     1
 40
1.0
176
     1
 90
        1
176
     1
 90
        6
176
     1
 90
        2
176
     1
 62
     7
176
     1
 90
        3
176
     1
 90
        0
176
     1
 90
        0
176
     1
290
     0
176
     1
 90
        5
176
     1
 40
0.0
176
     1
 90
        0
176
     1
290
     0
176
     1
290
     1
176
     1
290
     1
176
     1
290
     0
176
     1
290
     0
176
     1
290
     0
176
     1
290
     0
176
     1
290
     0
176
     1
290
     0
176
     1
 90
       50
176
     1
 40
0.0
176
     1
 40
1.0
176
     1
 90
        0
176
     1
 62
    18
420
        0
176
     1
 90
       50
176
     1
 90
        3
176
     1
 62
     5
420
      255
176
     1
290
     0
176
     1
 90
       50
176
     1
 90
       50
176
     1
 90
       50
176
     1
290
     0
176
     1
 90
       50
176
     1
 62
   256
176
     0
 40
1.0
176
     0
 90
        2
176
     1
  1
strokes_ogs.tif
176
     1
290
     0
176
     1
 40
1.0
176
     1
 40
1.0
176
     1
  0
VISUALSTYLE
  5
3E
102
{ACAD_REACTORS
330
2A
102
}
330
2A
100
AcDbVisualStyle
  2
Shades of Gray
 70
    23
177
     3
291
     0
 70
    58
 90
        2
176
     1
 90
        2
176
     1
 90
        3
176
     1
 90
        0
176
     1
 40
0.6
176
     1
 40
30.0
176
     1
 62
     7
420
 16777215
176
     1
 90
        2
176
     1
 90
        2
176
     1
 62
     7
176
     1
 62
     7
176
     1
 90
        1
176
     1
 90
        1
176
     1
 40
40.0
176
     1
 90
        8
176
     1
 62
     7
176
     1
 40
1.0
176
     1
 90
        1
176
     1
 90
        6
176
     1
 90
        2
176
     1
 62
     7
176
     1
 90
        3
176
     1
 90
        0
176
     1
 90
        0
176
     1
290
     0
176
     1
 90
        1
176
     1
 40
0.0
176
     1
 90
        0
176
     1
290
     0
176
     1
290
     1
176
     1
290
     1
176
     1
290
     0
176
     1
290
     0
176
     1
290
     0
176
     1
290
     0
176
     1
290
     0
176
     1
290
     0
176
     1
 90
       50
176
     1
 40
0.0
176
     1
 40
1.0
176
     1
 90
        0
176
     1
 62
    18
420
        0
176
     1
 90
       50
176
     1
 90
        3
176
     1
 62
     5
420
      255
176
     1
290
     0
176
     1
 90
       50
176
     1
 90
       50
176
     1
 90
       50
176
     1
290
     0
176
     1
 90
       50
176
     1
 62
   256
176
     0
 40
1.0
176
     0
 90
        2
176
     1
  1
strokes_ogs.tif
176
     1
290
     0
176
     1
 40
1.0
176
     1
 40
1.0
176
     1
  0
VISUALSTYLE
  5
3F
102
{ACAD_REACTORS
330
2A
102
}
330
2A
100
AcDbVisualStyle
  2
Sketchy
 70
    24
177
     3
291
     0
 70
    58
 90
        1
176
     1
 90
        2
176
     1
 90
        2
176
     1
 90
        0
176
     1
 40
0.6
176
     1
 40
30.0
176
     1
 62
     7
420
 16777215
176
     1
 90
        2
176
     1
 90
        2
176
     1
 62
     7
176
     1
 62
     7
176
     1
 90
        1
176
     1
 90
        1
176
     1
 40
40.0
176
     1
 90
       11
176
     1
 62
     7
176
     1
 40
1.0
176
     1
 90
        1
176
     1
 90
        6
176
     1
 90
        2
176
     1
 62
     7
176
     1
 90
        6
176
     1
 90
        0
176
     1
 90
        0
176
     1
290
     0
176
     1
 90
        1
176
     1
 40
0.0
176
     1
 90
        0
176
     1
290
     0
176
     1
290
     1
176
     1
290
     1
176
     1
290
     0
176
     1
290
     0
176
     1
290
     0
176
     1
290
     0
176
     1
290
     0
176
     1
290
     0
176
     1
 90
       50
176
     1
 40
0.0
176
     1
 40
1.0
176
     1
 90
        0
176
     1
 62
    18
420
        0
176
     1
 90
       50
176
     1
 90
        3
176
     1
 62
     5
420
      255
176
     1
290
     0
176
     1
 90
       50
176
     1
 90
       50
176
     1
 90
       50
176
     1
290
     0
176
     1
 90
       50
176
     1
 62
   256
176
     0
 40
1.0
176
     0
 90
        2
176
     1
  1
strokes_ogs.tif
176
     1
290
     0
176
     1
 40
1.0
176
     1
 40
1.0
176
     1
  0
VISUALSTYLE
  5
37
102
{ACAD_REACTORS
330
2A
102
}
330
2A
100
AcDbVisualStyle
  2
Thicken
 70
    13
177
     3
291
     1
 70
    58
 90
        2
176
     1
 90
        2
176
     1
 90
        0
176
     1
 90
        0
176
     1
 40
0.6
176
     1
 40
30.0
176
     1
 62
     7
420
 16777215
176
     1
 90
        1
176
     1
 90
        4
176
     1
 62
     7
176
     1
 62
   257
176
     1
 90
        1
176
     1
 90
        1
176
     1
 40
1.0
176
     1
 90
       12
176
     1
 62
     7
176
     1
 40
1.0
176
     1
 90
        1
176
     1
 90
        6
176
     1
 90
        2
176
     1
 62
     7
176
     1
 90
        5
176
     1
 90
        0
176
     1
 90
        0
176
     1
290
     0
176
     1
 90
        1
176
     1
 40
0.0
176
     1
 90
        0
176
     1
290
     0
176
     1
290
     1
176
     1
290
     1
176
     1
290
     0
176
     1
290
     0
176
     1
290
     0
176
     1
290
     0
176
     1
290
     0
176
     1
290
     0
176
     1
 90
       50
176
     1
 40
0.0
176
     1
 40
1.0
176
     1
 90
        0
176
     1
 62
    18
420
        0
176
     1
 90
       50
176
     1
 90
        3
176
     1
 62
     5
420
      255
176
     1
290
     0
176
     1
 90
       50
176
     1
 90
       50
176
     1
 90
       50
176
     1
290
     0
176
     1
 90
       50
176
     1
 62
   256
176
     0
 40
1.0
176
     0
 90
        2
176
     1
  1
strokes_ogs.tif
176
     1
290
     0
176
     1
 40
1.0
176
     1
 40
1.0
176
     1
  0
VISUALSTYLE
  5
30
102
{ACAD_REACTORS
330
2A
102
}
330
2A
100
AcDbVisualStyle
  2
Wireframe
 70
     5
177
     3
291
     0
 70
    58
 90
        0
176
     1
 90
        2
176
     1
 90
        0
176
     1
 90
        0
176
     1
 40
0.6
176
     1
 40
30.0
176
     1
 62
     7
420
 16777215
176
     1
 90
        1
176
     1
 90
        4
176
     1
 62
     7
176
     1
 62
   257
176
     1
 90
        1
176
     1
 90
        1
176
     1
 40
1.0
176
     1
 90
        0
176
     1
 62
   257
176
     1
 40
1.0
176
     1
 90
        1
176
     1
 90
        6
176
     1
 90
        2
176
     1
 62
     7
176
     1
 90
        3
176
     1
 90
        0
176
     1
 90
        0
176
     1
290
     0
176
     1
 90
        1
176
     1
 40
0.0
176
     1
 90
        0
176
     1
290
     0
176
     1
290
     1
176
     1
290
     1
176
     1
290
     0
176
     1
290
     0
176
     1
290
     0
176
     1
290
     0
176
     1
290
     0
176
     1
290
     0
176
     1
 90
       50
176
     1
 40
0.0
176
     1
 40
1.0
176
     1
 90
        0
176
     1
 62
    18
420
        0
176
     1
 90
       50
176
     1
 90
        3
176
     1
 62
     5
420
      255
176
     1
290
     0
176
     1
 90
       50
176
     1
 90
       50
176
     1
 90
       50
176
     1
290
     0
176
     1
 90
       50
176
     1
 62
   256
176
     0
 40
1.0
176
     0
 90
        2
176
     1
  1
strokes_ogs.tif
176
     1
290
     0
176
     1
 40
1.0
176
     1
 40
1.0
176
     1
  0
VISUALSTYLE
  5
40
102
{ACAD_REACTORS
330
2A
102
}
330
2A
100
AcDbVisualStyle
  2
X-Ray
 70
    25
177
     3
291
     0
 70
    58
 90
        2
176
     1
 90
        2
176
     1
 90
        1
176
     1
 90
        1
176
     1
 40
0.5
176
     1
 40
30.0
176
     1
 62
     7
420
 16777215
176
     1
 90
        1
176
     1
 90
        0
176
     1
 62
     7
176
     1
 62
   257
176
     1
 90
        1
176
     1
 90
        1
176
     1
 40
1.0
176
     1
 90
        8
176
     1
 62
     7
176
     1
 40
1.0
176
     1
 90
        1
176
     1
 90
        6
176
     1
 90
        2
176
     1
 62
     7
176
     1
 90
        3
176
     1
 90
        0
176
     1
 90
        0
176
     1
290
     0
176
     1
 90
       13
176
     1
 40
0.0
176
     1
 90
        0
176
     1
290
     0
176
     1
290
     1
176
     1
290
     1
176
     1
290
     0
176
     1
290
     0
176
     1
290
     0
176
     1
290
     0
176
     1
290
     0
176
     1
290
     0
176
     1
 90
       50
176
     1
 40
0.0
176
     1
 40
1.0
176
     1
 90
        0
176
     1
 62
    18
420
        0
176
     1
 90
       50
176
     1
 90
        3
176
     1
 62
     5
420
      255
176
     1
290
     0
176
     1
 90
       50
176
     1
 90
       50
176
     1
 90
       50
176
     1
290
     0
176
     1
 90
       50
176
     1
 62
   256
176
     0
 40
1.0
176
     0
 90
        2
176
     1
  1
strokes_ogs.tif
176
     1
290
     0
176
     1
 40
1.0
176
     1
 40
1.0
176
     1
  0
DICTIONARYVAR
  5
373
102
{ACAD_REACTORS
330
372
102
}
330
372
100
DictionaryVariables
280
     0
  1
1:1
  0
DICTIONARYVAR
  5
37B
102
{ACAD_REACTORS
330
372
102
}
330
372
100
DictionaryVariables
280
     0
  1
3.500000
  0
DICTIONARYVAR
  5
37C
102
{ACAD_REACTORS
330
372
102
}
330
372
100
DictionaryVariables
280
     0
  1
acadiso.lin
  0
DICTIONARYVAR
  5
378
102
{ACAD_REACTORS
330
372
102
}
330
372
100
DictionaryVariables
280
     0
  1
Standard
  0
DICTIONARYVAR
  5
377
102
{ACAD_REACTORS
330
372
102
}
330
372
100
DictionaryVariables
280
     0
  1
Standard
  0
DICTIONARY
  5
374
330
5A
100
AcDbDictionary
280
     1
281
     1
  3
ACAD_ROUNDTRIP_2008_TABLESTYLE_CELLSTYLEMAP
360
375
  0
CELLSTYLEMAP
  5
375
102
{ACAD_REACTORS
330
374
102
}
330
374
100
AcDbCellStyleMap
 90
        3
300
CELLSTYLE
  1
TABLEFORMAT_BEGIN
 90
        5
170
     1
 91
        0
 92
    32768
 62
   257
 93
        1
300
CONTENTFORMAT
  1
CONTENTFORMAT_BEGIN
 90
        0
 91
        0
 92
        4
 93
        0
300

 40
0.0
140
1.0
 94
        5
 62
     0
340
11
144
6.0
309
CONTENTFORMAT_END
171
     1
301
MARGIN
  1
CELLMARGIN_BEGIN
 40
1.5
 40
1.5
 40
1.5
 40
1.5
 40
1.5
 40
1.5
309
CELLMARGIN_END
 94
        6
 95
        1
302
GRIDFORMAT
  1
GRIDFORMAT_BEGIN
 90
        0
 91
        1
 62
     0
 92
       -2
340
14
 93
        0
 40
0.045
309
GRIDFORMAT_END
 95
        2
302
GRIDFORMAT
  1
GRIDFORMAT_BEGIN
 90
        0
 91
        1
 62
     0
 92
       -2
340
14
 93
        0
 40
0.045
309
GRIDFORMAT_END
 95
        4
302
GRIDFORMAT
  1
GRIDFORMAT_BEGIN
 90
        0
 91
        1
 62
     0
 92
       -2
340
14
 93
        0
 40
0.045
309
GRIDFORMAT_END
 95
        8
302
GRIDFORMAT
  1
GRIDFORMAT_BEGIN
 90
        0
 91
        1
 62
     0
 92
       -2
340
14
 93
        0
 40
0.045
309
GRIDFORMAT_END
 95
       16
302
GRIDFORMAT
  1
GRIDFORMAT_BEGIN
 90
        0
 91
        1
 62
     0
 92
       -2
340
14
 93
        0
 40
0.045
309
GRIDFORMAT_END
 95
       32
302
GRIDFORMAT
  1
GRIDFORMAT_BEGIN
 90
        0
 91
        1
 62
     0
 92
       -2
340
14
 93
        0
 40
0.045
309
GRIDFORMAT_END
309
TABLEFORMAT_END
  1
CELLSTYLE_BEGIN
 90
        1
 91
        1
300
_TITLE
309
CELLSTYLE_END
300
CELLSTYLE
  1
TABLEFORMAT_BEGIN
 90
        5
170
     1
 91
        0
 92
        0
 62
   257
 93
        1
300
CONTENTFORMAT
  1
CONTENTFORMAT_BEGIN
 90
        0
 91
        0
 92
        4
 93
        0
300

 40
0.0
140
1.0
 94
        5
 62
     0
340
11
144
4.5
309
CONTENTFORMAT_END
171
     1
301
MARGIN
  1
CELLMARGIN_BEGIN
 40
1.5
 40
1.5
 40
1.5
 40
1.5
 40
1.5
 40
1.5
309
CELLMARGIN_END
 94
        6
 95
        1
302
GRIDFORMAT
  1
GRIDFORMAT_BEGIN
 90
        0
 91
        1
 62
     0
 92
       -2
340
14
 93
        0
 40
0.045
309
GRIDFORMAT_END
 95
        2
302
GRIDFORMAT
  1
GRIDFORMAT_BEGIN
 90
        0
 91
        1
 62
     0
 92
       -2
340
14
 93
        0
 40
0.045
309
GRIDFORMAT_END
 95
        4
302
GRIDFORMAT
  1
GRIDFORMAT_BEGIN
 90
        0
 91
        1
 62
     0
 92
       -2
340
14
 93
        0
 40
0.045
309
GRIDFORMAT_END
 95
        8
302
GRIDFORMAT
  1
GRIDFORMAT_BEGIN
 90
        0
 91
        1
 62
     0
 92
       -2
340
14
 93
        0
 40
0.045
309
GRIDFORMAT_END
 95
       16
302
GRIDFORMAT
  1
GRIDFORMAT_BEGIN
 90
        0
 91
        1
 62
     0
 92
       -2
340
14
 93
        0
 40
0.045
309
GRIDFORMAT_END
 95
       32
302
GRIDFORMAT
  1
GRIDFORMAT_BEGIN
 90
        0
 91
        1
 62
     0
 92
       -2
340
14
 93
        0
 40
0.045
309
GRIDFORMAT_END
309
TABLEFORMAT_END
  1
CELLSTYLE_BEGIN
 90
        2
 91
        1
300
_HEADER
309
CELLSTYLE_END
300
CELLSTYLE
  1
TABLEFORMAT_BEGIN
 90
        5
170
     1
 91
        0
 92
        0
 62
   257
 93
        1
300
CONTENTFORMAT
  1
CONTENTFORMAT_BEGIN
 90
        0
 91
        0
 92
        4
 93
        0
300

 40
0.0
140
1.0
 94
        2
 62
     0
340
11
144
4.5
309
CONTENTFORMAT_END
171
     1
301
MARGIN
  1
CELLMARGIN_BEGIN
 40
1.5
 40
1.5
 40
1.5
 40
1.5
 40
1.5
 40
1.5
309
CELLMARGIN_END
 94
        6
 95
        1
302
GRIDFORMAT
  1
GRIDFORMAT_BEGIN
 90
        0
 91
        1
 62
     0
 92
       -2
340
14
 93
        0
 40
0.045
309
GRIDFORMAT_END
 95
        2
302
GRIDFORMAT
  1
GRIDFORMAT_BEGIN
 90
        0
 91
        1
 62
     0
 92
       -2
340
14
 93
        0
 40
0.045
309
GRIDFORMAT_END
 95
        4
302
GRIDFORMAT
  1
GRIDFORMAT_BEGIN
 90
        0
 91
        1
 62
     0
 92
       -2
340
14
 93
        0
 40
0.045
309
GRIDFORMAT_END
 95
        8
302
GRIDFORMAT
  1
GRIDFORMAT_BEGIN
 90
        0
 91
        1
 62
     0
 92
       -2
340
14
 93
        0
 40
0.045
309
GRIDFORMAT_END
 95
       16
302
GRIDFORMAT
  1
GRIDFORMAT_BEGIN
 90
        0
 91
        1
 62
     0
 92
       -2
340
14
 93
        0
 40
0.045
309
GRIDFORMAT_END
 95
       32
302
GRIDFORMAT
  1
GRIDFORMAT_BEGIN
 90
        0
 91
        1
 62
     0
 92
       -2
340
14
 93
        0
 40
0.045
309
GRIDFORMAT_END
309
TABLEFORMAT_END
  1
CELLSTYLE_BEGIN
 90
        3
 91
        2
300
_DATA
309
CELLSTYLE_END
  0
ENDSEC
  0
EOF
