  0
SECTION
  2
HEADER
  9
$ACADVER
  1
AC1027
  9
$ACADMAINTVER
 70
   105
  9
$DWGCODEPAGE
  3
ANSI_1252
  9
$COMMENTS
  1
File was created by Cadenas
  9
$LASTSAVEDBY
  1
psAdmin
  9
$CUSTOMPROPERTYTAG
  1
NB
  9
$CUSTOMPROPERTY
  1
33416
  9
$CUSTOMPROPERTYTAG
  1
NN
  9
$CUSTOMPROPERTY
  1
Size 000
  9
$CUSTOMPROPERTYTAG
  1
NT
  9
$CUSTOMPROPERTY
  1

  9
$CUSTOMPROPERTYTAG
  1
NBSYN
  9
$CUSTOMPROPERTY
  1
$ARTNR.
  9
$CUSTOMPROPERTYTAG
  1
LINA
  9
$CUSTOMPROPERTY
  1
33416000
  9
$CUSTOMPROPERTYTAG
  1
CATALOG
  9
$CUSTOMPROPERTY
  1
Wöhner
  9
$CUSTOMPROPERTYTAG
  1
ARTNR
  9
$CUSTOMPROPERTY
  1
33416
  9
$CUSTOMPROPERTYTAG
  1
BUSB
  9
$CUSTOMPROPERTY
  1
12 x 5, 10
  9
$CUSTOMPROPERTYTAG
  1
POF
  9
$CUSTOMPROPERTY
  1
QUADRON®30Compact
  9
$CUSTOMPROPERTYTAG
  1
TYPE
  9
$CUSTOMPROPERTY
  1
QCB-NH000
  9
$CUSTOMPROPERTYTAG
  1
QNT
  9
$CUSTOMPROPERTY
  1
1
  9
$CUSTOMPROPERTYTAG
  1
W
  9
$CUSTOMPROPERTY
  1
90
  9
$CUSTOMPROPERTYTAG
  1
H
  9
$CUSTOMPROPERTY
  1
160
  9
$CUSTOMPROPERTYTAG
  1
D
  9
$CUSTOMPROPERTY
  1
98
  9
$CUSTOMPROPERTYTAG
  1
CONCA
  9
$CUSTOMPROPERTY
  1
Box terminal
  9
$CUSTOMPROPERTYTAG
  1
IPRF
  9
$CUSTOMPROPERTY
  1
IP30
  9
$CUSTOMPROPERTYTAG
  1
LINK
  9
$CUSTOMPROPERTY
  1
Product link
  9
$CUSTOMPROPERTYTAG
  1
COMPANY
  9
$CUSTOMPROPERTY
  1
woehner
  9
$REQUIREDVERSIONS
160
                 0
  9
$INSBASE
 10
0.0
 20
0.0
 30
0.0
  9
$EXTMIN
 10
0.0
 20
-171.6666666666667
 30
0.0
  9
$EXTMAX
 10
98.45238095238095
 20
15.50000000000001
 30
0.0
  9
$LIMMIN
 10
0.0
 20
0.0
  9
$LIMMAX
 10
420.0
 20
297.0
  9
$ORTHOMODE
 70
     0
  9
$REGENMODE
 70
     1
  9
$FILLMODE
 70
     1
  9
$QTEXTMODE
 70
     0
  9
$MIRRTEXT
 70
     1
  9
$LTSCALE
 40
1.0
  9
$ATTMODE
 70
     1
  9
$TEXTSIZE
 40
2.5
  9
$TRACEWID
 40
1.0
  9
$TEXTSTYLE
  7
Standard
  9
$CLAYER
  8
0
  9
$CELTYPE
  6
ByLayer
  9
$CECOLOR
 62
   256
  9
$CELTSCALE
 40
1.0
  9
$DISPSILH
 70
     0
  9
$DIMSCALE
 40
1.0
  9
$DIMASZ
 40
2.5
  9
$DIMEXO
 40
0.625
  9
$DIMDLI
 40
3.75
  9
$DIMRND
 40
0.0
  9
$DIMDLE
 40
0.0
  9
$DIMEXE
 40
1.25
  9
$DIMTP
 40
0.0
  9
$DIMTM
 40
0.0
  9
$DIMTXT
 40
2.5
  9
$DIMCEN
 40
2.5
  9
$DIMTSZ
 40
0.0
  9
$DIMTOL
 70
     0
  9
$DIMLIM
 70
     0
  9
$DIMTIH
 70
     0
  9
$DIMTOH
 70
     0
  9
$DIMSE1
 70
     0
  9
$DIMSE2
 70
     0
  9
$DIMTAD
 70
     1
  9
$DIMZIN
 70
     8
  9
$DIMBLK
  1

  9
$DIMASO
 70
     1
  9
$DIMSHO
 70
     1
  9
$DIMPOST
  1

  9
$DIMAPOST
  1

  9
$DIMALT
 70
     0
  9
$DIMALTD
 70
     3
  9
$DIMALTF
 40
0.03937007874016
  9
$DIMLFAC
 40
1.0
  9
$DIMTOFL
 70
     1
  9
$DIMTVP
 40
0.0
  9
$DIMTIX
 70
     0
  9
$DIMSOXD
 70
     0
  9
$DIMSAH
 70
     0
  9
$DIMBLK1
  1

  9
$DIMBLK2
  1

  9
$DIMSTYLE
  2
ISO-25
  9
$DIMCLRD
 70
     0
  9
$DIMCLRE
 70
     0
  9
$DIMCLRT
 70
     0
  9
$DIMTFAC
 40
1.0
  9
$DIMGAP
 40
0.625
  9
$DIMJUST
 70
     0
  9
$DIMSD1
 70
     0
  9
$DIMSD2
 70
     0
  9
$DIMTOLJ
 70
     0
  9
$DIMTZIN
 70
     8
  9
$DIMALTZ
 70
     0
  9
$DIMALTTZ
 70
     0
  9
$DIMUPT
 70
     0
  9
$DIMDEC
 70
     2
  9
$DIMTDEC
 70
     2
  9
$DIMALTU
 70
     2
  9
$DIMALTTD
 70
     3
  9
$DIMTXSTY
  7
Standard
  9
$DIMAUNIT
 70
     0
  9
$DIMADEC
 70
     0
  9
$DIMALTRND
 40
0.0
  9
$DIMAZIN
 70
     0
  9
$DIMDSEP
 70
    44
  9
$DIMATFIT
 70
     3
  9
$DIMFRAC
 70
     0
  9
$DIMLDRBLK
  1

  9
$DIMLUNIT
 70
     2
  9
$DIMLWD
 70
    -2
  9
$DIMLWE
 70
    -2
  9
$DIMTMOVE
 70
     0
  9
$DIMFXL
 40
1.0
  9
$DIMFXLON
 70
     0
  9
$DIMJOGANG
 40
0.7853981633974483
  9
$DIMTFILL
 70
     0
  9
$DIMTFILLCLR
 70
     0
  9
$DIMARCSYM
 70
     0
  9
$DIMLTYPE
  6

  9
$DIMLTEX1
  6

  9
$DIMLTEX2
  6

  9
$DIMTXTDIRECTION
 70
     0
  9
$LUNITS
 70
     2
  9
$LUPREC
 70
     4
  9
$SKETCHINC
 40
1.0
  9
$FILLETRAD
 40
10.0
  9
$AUNITS
 70
     0
  9
$AUPREC
 70
     0
  9
$MENU
  1
.
  9
$ELEVATION
 40
0.0
  9
$PELEVATION
 40
0.0
  9
$THICKNESS
 40
0.0
  9
$LIMCHECK
 70
     0
  9
$CHAMFERA
 40
0.0
  9
$CHAMFERB
 40
0.0
  9
$CHAMFERC
 40
0.0
  9
$CHAMFERD
 40
0.0
  9
$SKPOLY
 70
     0
  9
$TDCREATE
 40
2460299.563391563
  9
$TDUCREATE
 40
2460299.521724896
  9
$TDUPDATE
 40
2460299.563391736
  9
$TDUUPDATE
 40
2460299.521725069
  9
$TDINDWG
 40
0.0000000116
  9
$TDUSRTIMER
 40
0.0000000116
  9
$USRTIMER
 70
     1
  9
$ANGBASE
 50
0.0
  9
$ANGDIR
 70
     0
  9
$PDMODE
 70
     0
  9
$PDSIZE
 40
0.0
  9
$PLINEWID
 40
0.0
  9
$SPLFRAME
 70
     0
  9
$SPLINETYPE
 70
     6
  9
$SPLINESEGS
 70
     8
  9
$HANDSEED
  5
1BD
  9
$SURFTAB1
 70
     6
  9
$SURFTAB2
 70
     6
  9
$SURFTYPE
 70
     6
  9
$SURFU
 70
     6
  9
$SURFV
 70
     6
  9
$UCSBASE
  2

  9
$UCSNAME
  2

  9
$UCSORG
 10
0.0
 20
0.0
 30
0.0
  9
$UCSXDIR
 10
1.0
 20
0.0
 30
0.0
  9
$UCSYDIR
 10
0.0
 20
1.0
 30
0.0
  9
$UCSORTHOREF
  2

  9
$UCSORTHOVIEW
 70
     0
  9
$UCSORGTOP
 10
0.0
 20
0.0
 30
0.0
  9
$UCSORGBOTTOM
 10
0.0
 20
0.0
 30
0.0
  9
$UCSORGLEFT
 10
0.0
 20
0.0
 30
0.0
  9
$UCSORGRIGHT
 10
0.0
 20
0.0
 30
0.0
  9
$UCSORGFRONT
 10
0.0
 20
0.0
 30
0.0
  9
$UCSORGBACK
 10
0.0
 20
0.0
 30
0.0
  9
$PUCSBASE
  2

  9
$PUCSNAME
  2

  9
$PUCSORG
 10
0.0
 20
0.0
 30
0.0
  9
$PUCSXDIR
 10
1.0
 20
0.0
 30
0.0
  9
$PUCSYDIR
 10
0.0
 20
1.0
 30
0.0
  9
$PUCSORTHOREF
  2

  9
$PUCSORTHOVIEW
 70
     0
  9
$PUCSORGTOP
 10
0.0
 20
0.0
 30
0.0
  9
$PUCSORGBOTTOM
 10
0.0
 20
0.0
 30
0.0
  9
$PUCSORGLEFT
 10
0.0
 20
0.0
 30
0.0
  9
$PUCSORGRIGHT
 10
0.0
 20
0.0
 30
0.0
  9
$PUCSORGFRONT
 10
0.0
 20
0.0
 30
0.0
  9
$PUCSORGBACK
 10
0.0
 20
0.0
 30
0.0
  9
$USERI1
 70
     0
  9
$USERI2
 70
     0
  9
$USERI3
 70
     0
  9
$USERI4
 70
     0
  9
$USERI5
 70
     0
  9
$USERR1
 40
0.0
  9
$USERR2
 40
0.0
  9
$USERR3
 40
0.0
  9
$USERR4
 40
0.0
  9
$USERR5
 40
0.0
  9
$WORLDVIEW
 70
     1
  9
$SHADEDGE
 70
     3
  9
$SHADEDIF
 70
    70
  9
$TILEMODE
 70
     1
  9
$MAXACTVP
 70
    64
  9
$PINSBASE
 10
0.0
 20
0.0
 30
0.0
  9
$PLIMCHECK
 70
     0
  9
$PEXTMIN
 10
1.000000000000000E+20
 20
1.000000000000000E+20
 30
1.000000000000000E+20
  9
$PEXTMAX
 10
-1.000000000000000E+20
 20
-1.000000000000000E+20
 30
-1.000000000000000E+20
  9
$PLIMMIN
 10
0.0
 20
0.0
  9
$PLIMMAX
 10
420.0
 20
297.0
  9
$UNITMODE
 70
     0
  9
$VISRETAIN
 70
     1
  9
$PLINEGEN
 70
     0
  9
$PSLTSCALE
 70
     1
  9
$TREEDEPTH
 70
  3020
  9
$CMLSTYLE
  2
Standard
  9
$CMLJUST
 70
     0
  9
$CMLSCALE
 40
20.0
  9
$PROXYGRAPHICS
 70
     1
  9
$MEASUREMENT
 70
     1
  9
$CELWEIGHT
370
    -1
  9
$ENDCAPS
280
     0
  9
$JOINSTYLE
280
     0
  9
$LWDISPLAY
290
     0
  9
$INSUNITS
 70
     4
  9
$HYPERLINKBASE
  1

  9
$STYLESHEET
  1

  9
$XEDIT
290
     1
  9
$CEPSNTYPE
380
     0
  9
$PSTYLEMODE
290
     1
  9
$FINGERPRINTGUID
  2
{f26f5953-bb61-4288-a9d7-58db135674d0}
  9
$VERSIONGUID
  2
{FAEB1C32-E019-11D5-929B-00C0DF256EC4}
  9
$EXTNAMES
290
     1
  9
$PSVPSCALE
 40
0.0
  9
$OLESTARTUP
290
     0
  9
$SORTENTS
280
   127
  9
$INDEXCTL
280
     0
  9
$HIDETEXT
280
     1
  9
$XCLIPFRAME
280
     2
  9
$HALOGAP
280
     0
  9
$OBSCOLOR
 70
   257
  9
$OBSLTYPE
280
     0
  9
$INTERSECTIONDISPLAY
280
     0
  9
$INTERSECTIONCOLOR
 70
   257
  9
$DIMASSOC
280
     2
  9
$PROJECTNAME
  1

  9
$CAMERADISPLAY
290
     0
  9
$LENSLENGTH
 40
50.0
  9
$CAMERAHEIGHT
 40
0.0
  9
$STEPSPERSEC
 40
2.0
  9
$STEPSIZE
 40
6.0
  9
$3DDWFPREC
 40
2.0
  9
$PSOLWIDTH
 40
5.0
  9
$PSOLHEIGHT
 40
80.0
  9
$LOFTANG1
 40
1.570796326794897
  9
$LOFTANG2
 40
1.570796326794897
  9
$LOFTMAG1
 40
0.0
  9
$LOFTMAG2
 40
0.0
  9
$LOFTPARAM
 70
     7
  9
$LOFTNORMALS
280
     1
  9
$LATITUDE
 40
37.795
  9
$LONGITUDE
 40
-122.394
  9
$NORTHDIRECTION
 40
0.0
  9
$TIMEZONE
 70
 -8000
  9
$LIGHTGLYPHDISPLAY
280
     1
  9
$TILEMODELIGHTSYNCH
280
     1
  9
$CMATERIAL
347
44
  9
$SOLIDHIST
280
     0
  9
$SHOWHIST
280
     1
  9
$DWFFRAME
280
     2
  9
$DGNFRAME
280
     2
  9
$REALWORLDSCALE
290
     1
  9
$INTERFERECOLOR
 62
   256
  9
$CSHADOW
280
     0
  9
$SHADOWPLANELOCATION
 40
0.0
  0
ENDSEC
  0
SECTION
  2
CLASSES
  0
CLASS
  1
ACDBDICTIONARYWDFLT
  2
AcDbDictionaryWithDefault
  3
ObjectDBX Classes
 90
        0
 91
        3
280
     0
281
     0
  0
CLASS
  1
VISUALSTYLE
  2
AcDbVisualStyle
  3
ObjectDBX Classes
 90
     4095
 91
        3
280
     0
281
     0
  0
CLASS
  1
MATERIAL
  2
AcDbMaterial
  3
ObjectDBX Classes
 90
     1153
 91
        3
280
     0
281
     0
  0
CLASS
  1
SCALE
  2
AcDbScale
  3
ObjectDBX Classes
 90
     1153
 91
        3
280
     0
281
     0
  0
CLASS
  1
TABLESTYLE
  2
AcDbTableStyle
  3
ObjectDBX Classes
 90
     4095
 91
        3
280
     0
281
     0
  0
CLASS
  1
MLEADERSTYLE
  2
AcDbMLeaderStyle
  3
ACDB_MLEADERSTYLE_CLASS
 90
     4095
 91
        3
280
     0
281
     0
  0
CLASS
  1
SUN
  2
AcDbSun
  3
SCENEOE
 90
     1153
 91
        3
280
     0
281
     0
  0
CLASS
  1
DICTIONARYVAR
  2
AcDbDictionaryVar
  3
ObjectDBX Classes
 90
        0
 91
        3
280
     0
281
     0
  0
CLASS
  1
CELLSTYLEMAP
  2
AcDbCellStyleMap
  3
ObjectDBX Classes
 90
     1152
 91
        3
280
     0
281
     0
  0
ENDSEC
  0
SECTION
  2
TABLES
  0
TABLE
  2
VPORT
  5
8
330
0
100
AcDbSymbolTable
 70
     1
  0
VPORT
  5
29
330
8
100
AcDbSymbolTableRecord
100
AcDbViewportTableRecord
  2
*Active
 70
     0
 10
0.0
 20
0.0
 11
1.0
 21
1.0
 12
49.22619047619048
 22
-78.08333333333331
 13
0.0
 23
0.0
 14
10.0
 24
10.0
 15
10.0
 25
10.0
 16
0.0
 26
0.0
 36
1.0
 17
0.0
 27
0.0
 37
0.0
 40
190.91
 41
0.5260145019717594
 42
50.0
 43
0.0
 44
0.0
 50
0.0
 51
0.0
 71
     0
 72
   100
 73
     1
 74
     3
 75
     0
 76
     0
 77
     0
 78
     0
281
     0
 65
     1
110
0.0
120
0.0
130
0.0
111
1.0
121
0.0
131
0.0
112
0.0
122
1.0
132
0.0
 79
     0
146
0.0
348
2F
 60
     3
 61
     5
292
     1
282
     1
141
0.0
142
0.0
 63
   250
361
5D
  0
ENDTAB
  0
TABLE
  2
LTYPE
  5
5
330
0
100
AcDbSymbolTable
 70
     2
  0
LTYPE
  5
14
330
5
100
AcDbSymbolTableRecord
100
AcDbLinetypeTableRecord
  2
ByBlock
 70
     0
  3

 72
    65
 73
     0
 40
0.0
  0
LTYPE
  5
15
330
5
100
AcDbSymbolTableRecord
100
AcDbLinetypeTableRecord
  2
ByLayer
 70
     0
  3

 72
    65
 73
     0
 40
0.0
  0
LTYPE
  5
16
330
5
100
AcDbSymbolTableRecord
100
AcDbLinetypeTableRecord
  2
Continuous
 70
     0
  3
Solid line
 72
    65
 73
     0
 40
0.0
  0
LTYPE
  5
AC
330
5
100
AcDbSymbolTableRecord
100
AcDbLinetypeTableRecord
  2
Dashed
 70
     0
  3

 72
    65
 73
     2
 40
2.0
 49
1.0
 74
     0
 49
-1.0
 74
     0
  0
ENDTAB
  0
TABLE
  2
LAYER
  5
2
330
0
100
AcDbSymbolTable
 70
     8
  0
LAYER
  5
10
330
2
100
AcDbSymbolTableRecord
100
AcDbLayerTableRecord
  2
0
 70
     0
 62
     7
  6
Continuous
370
    -3
390
F
347
46
348
0
  0
LAYER
  5
5E
330
2
100
AcDbSymbolTableRecord
100
AcDbLayerTableRecord
  2
attrib
 70
     0
 62
    -2
  6
Continuous
370
    35
390
F
347
46
348
0
  0
LAYER
  5
89
330
2
100
AcDbSymbolTableRecord
100
AcDbLayerTableRecord
  2
bold
 70
     0
 62
     7
  6
Continuous
370
    50
390
F
347
46
348
0
  0
LAYER
  5
8F
330
2
100
AcDbSymbolTableRecord
100
AcDbLayerTableRecord
  2
light
 70
     0
 62
    -3
  6
Continuous
370
    25
390
F
347
46
348
0
  0
LAYER
  5
AD
330
2
100
AcDbSymbolTableRecord
100
AcDbLayerTableRecord
  2
hidden
 70
     0
 62
    -6
  6
Dashed
370
    25
390
F
347
46
348
0
  0
LAYER
  5
19C
330
2
100
AcDbSymbolTableRecord
100
AcDbLayerTableRecord
  2
dimension
 70
     0
 62
    -5
  6
Continuous
370
    25
390
F
347
46
348
0
  0
LAYER
  5
19E
330
2
100
AcDbSymbolTableRecord
100
AcDbLayerTableRecord
  2
Defpoints
 70
     0
 62
     7
  6
Continuous
290
     0
370
    -3
390
F
347
46
348
0
  0
LAYER
  5
1AB
330
2
100
AcDbSymbolTableRecord
100
AcDbLayerTableRecord
  2
connection
 70
     0
 62
    -7
  6
Continuous
370
    50
390
F
347
46
348
0
  0
ENDTAB
  0
TABLE
  2
STYLE
  5
3
330
0
100
AcDbSymbolTable
 70
     1
  0
STYLE
  5
11
330
3
100
AcDbSymbolTableRecord
100
AcDbTextStyleTableRecord
  2
Standard
 70
     0
 40
0.0
 41
1.0
 50
0.0
 71
     0
 42
2.5
  3
txt
  4

  0
ENDTAB
  0
TABLE
  2
VIEW
  5
6
330
0
100
AcDbSymbolTable
 70
     0
  0
ENDTAB
  0
TABLE
  2
UCS
  5
7
330
0
100
AcDbSymbolTable
 70
     0
  0
ENDTAB
  0
TABLE
  2
APPID
  5
9
330
0
100
AcDbSymbolTable
 70
     1
  0
APPID
  5
12
330
9
100
AcDbSymbolTableRecord
100
AcDbRegAppTableRecord
  2
ACAD
 70
     0
  0
ENDTAB
  0
TABLE
  2
DIMSTYLE
  5
A
330
0
100
AcDbSymbolTable
 70
     1
100
AcDbDimStyleTable
  0
DIMSTYLE
105
27
102
{ACAD_REACTORS
330
19D
102
}
330
A
100
AcDbSymbolTableRecord
100
AcDbDimStyleTableRecord
  2
ISO-25
 70
     0
 41
2.5
 42
0.625
 43
3.75
 44
1.25
 73
     0
 74
     0
 77
     1
 78
     8
140
2.5
141
2.5
143
0.03937007874016
147
0.625
171
     3
172
     1
178
     0
271
     2
272
     2
274
     3
278
    44
283
     0
284
     8
340
11
  0
ENDTAB
  0
TABLE
  2
BLOCK_RECORD
  5
1
330
0
100
AcDbSymbolTable
 70
     6
  0
BLOCK_RECORD
  5
1F
330
1
100
AcDbSymbolTableRecord
100
AcDbBlockTableRecord
  2
*Model_Space
340
22
 70
     0
280
     1
281
     0
  0
BLOCK_RECORD
  5
1B
330
1
100
AcDbSymbolTableRecord
100
AcDbBlockTableRecord
  2
*Paper_Space
340
1E
 70
     0
280
     1
281
     0
  0
BLOCK_RECORD
  5
23
330
1
100
AcDbSymbolTableRecord
100
AcDbBlockTableRecord
  2
*Paper_Space0
340
26
 70
     0
280
     1
281
     0
  0
BLOCK_RECORD
  5
74
330
1
100
AcDbSymbolTableRecord
100
AcDbBlockTableRecord
  2
1_77079000_0_in_33416_0
340
0
102
{BLKREFS
331
75
102
}
 70
     0
280
     1
281
     0
  0
BLOCK_RECORD
  5
97
330
1
100
AcDbSymbolTableRecord
100
AcDbBlockTableRecord
  2
2_30022100_0_in_33416_0
340
0
102
{BLKREFS
331
98
102
}
 70
     0
280
     1
281
     0
  0
BLOCK_RECORD
  5
EC
330
1
100
AcDbSymbolTableRecord
100
AcDbBlockTableRecord
  2
3_30780000_0_in_33416_0
340
0
102
{BLKREFS
331
ED
102
}
 70
     0
280
     1
281
     0
  0
BLOCK_RECORD
  5
13D
330
1
100
AcDbSymbolTableRecord
100
AcDbBlockTableRecord
  2
4_30781000_0_in_33416_0
340
0
102
{BLKREFS
331
13E
102
}
 70
     0
280
     1
281
     0
  0
BLOCK_RECORD
  5
19F
330
1
100
AcDbSymbolTableRecord
100
AcDbBlockTableRecord
  2
*D5
340
0
 70
     0
280
     1
281
     0
  0
ENDTAB
  0
ENDSEC
  0
SECTION
  2
BLOCKS
  0
BLOCK
  5
20
330
1F
100
AcDbEntity
  8
0
100
AcDbBlockBegin
  2
*Model_Space
 70
     2
 10
0.0
 20
0.0
 30
0.0
  3
*Model_Space
  1

  0
ENDBLK
  5
21
330
1F
100
AcDbEntity
  8
0
100
AcDbBlockEnd
  0
BLOCK
  5
1C
330
1B
100
AcDbEntity
 67
     1
  8
0
100
AcDbBlockBegin
  2
*Paper_Space
 70
     0
 10
0.0
 20
0.0
 30
0.0
  3
*Paper_Space
  1

  0
ENDBLK
  5
1D
330
1B
100
AcDbEntity
 67
     1
  8
0
100
AcDbBlockEnd
  0
BLOCK
  5
24
330
23
100
AcDbEntity
  8
0
100
AcDbBlockBegin
  2
*Paper_Space0
 70
     0
 10
0.0
 20
0.0
 30
0.0
  3
*Paper_Space0
  1

  0
ENDBLK
  5
25
330
23
100
AcDbEntity
  8
0
100
AcDbBlockEnd
  0
BLOCK
  5
76
330
74
100
AcDbEntity
  8
0
100
AcDbBlockBegin
  2
1_77079000_0_in_33416_0
 70
     2
 10
0.0
 20
0.0
 30
0.0
  3
1_77079000_0_in_33416_0
  1

  0
ATTDEF
  5
78
330
74
100
AcDbEntity
  8
attrib
100
AcDbText
 10
86.0
 20
-122.0
 30
0.0
 40
0.5
  1
77079000
100
AcDbAttributeDefinition
  3

  2
NB
 70
     8
280
     0
  0
ATTDEF
  5
79
330
74
100
AcDbEntity
  8
attrib
100
AcDbText
 10
86.0
 20
-122.5
 30
0.0
 40
0.5
  1
Size 000 plate
100
AcDbAttributeDefinition
  3

  2
NN
 70
     8
280
     0
  0
ATTDEF
  5
7A
330
74
100
AcDbEntity
  8
attrib
100
AcDbText
 10
86.0
 20
-123.0
 30
0.0
 40
0.5
  1

100
AcDbAttributeDefinition
  3

  2
NT
 70
     8
280
     0
  0
ATTDEF
  5
7B
330
74
100
AcDbEntity
  8
attrib
100
AcDbText
 10
86.0
 20
-123.5
 30
0.0
 40
0.5
  1
$BOM.
100
AcDbAttributeDefinition
  3

  2
NBSYN
 70
     8
280
     0
  0
ATTDEF
  5
7C
330
74
100
AcDbEntity
  8
attrib
100
AcDbText
 10
86.0
 20
-124.0
 30
0.0
 40
0.5
  1
77079000
100
AcDbAttributeDefinition
  3

  2
LINA
 70
     8
280
     0
  0
ATTDEF
  5
7D
330
74
100
AcDbEntity
  8
attrib
100
AcDbText
 10
86.0
 20
-124.5
 30
0.0
 40
0.5
  1
Wöhner
100
AcDbAttributeDefinition
  3

  2
CATALOG
 70
     8
280
     0
  0
ATTDEF
  5
7E
330
74
100
AcDbEntity
  8
attrib
100
AcDbText
 10
86.0
 20
-125.0
 30
0.0
 40
0.5
  1
33416
100
AcDbAttributeDefinition
  3

  2
ARTNR
 70
     8
280
     0
  0
ATTDEF
  5
7F
330
74
100
AcDbEntity
  8
attrib
100
AcDbText
 10
86.0
 20
-125.5
 30
0.0
 40
0.5
  1
1
100
AcDbAttributeDefinition
  3

  2
QNT
 70
     8
280
     0
  0
ATTDEF
  5
80
330
74
100
AcDbEntity
  8
attrib
100
AcDbText
 10
86.0
 20
-126.0
 30
0.0
 40
0.5
  1
90
100
AcDbAttributeDefinition
  3

  2
W
 70
     8
280
     0
  0
ATTDEF
  5
81
330
74
100
AcDbEntity
  8
attrib
100
AcDbText
 10
86.0
 20
-126.5
 30
0.0
 40
0.5
  1
160
100
AcDbAttributeDefinition
  3

  2
H
 70
     8
280
     0
  0
ATTDEF
  5
82
330
74
100
AcDbEntity
  8
attrib
100
AcDbText
 10
86.0
 20
-127.0
 30
0.0
 40
0.5
  1
98
100
AcDbAttributeDefinition
  3

  2
D
 70
     8
280
     0
  0
ATTDEF
  5
83
330
74
100
AcDbEntity
  8
attrib
100
AcDbText
 10
86.0
 20
-127.5
 30
0.0
 40
0.5
  1
IP30
100
AcDbAttributeDefinition
  3

  2
IPRF
 70
     8
280
     0
  0
ATTDEF
  5
84
330
74
100
AcDbEntity
  8
attrib
100
AcDbText
 10
86.0
 20
-128.0
 30
0.0
 40
0.5
  1
Product link
100
AcDbAttributeDefinition
  3

  2
LINK
 70
     8
280
     0
  0
ATTDEF
  5
85
330
74
100
AcDbEntity
  8
attrib
100
AcDbText
 10
86.0
 20
-128.5
 30
0.0
 40
0.5
  1
woehner
100
AcDbAttributeDefinition
  3

  2
COMPANY
 70
     8
280
     0
  0
ATTDEF
  5
86
330
74
100
AcDbEntity
  8
attrib
100
AcDbText
 10
86.0
 20
-129.0
 30
0.0
 40
0.5
  1
{$CADENAS_DATA/23d-libs/woehner/sys_30_c_3pole/nh_inline_fuse_switch/parts/size000_plate.prj},164 {VTYP=3D},{NB=77079000},{LINA=77079000},{NN=Size 000 plate},{DATE=04.11.2022 07:06:05},{GEOMDATE=19.09.2022 10:41:23},{VERSION=},{LINEID=10},{WBVAR=},{WBNUME
100
AcDbAttributeDefinition
  3

  2
PSOL_0
 70
     9
280
     0
  0
ATTDEF
  5
87
330
74
100
AcDbEntity
  8
attrib
100
AcDbText
 10
86.0
 20
-129.5
 30
0.0
 40
0.5
  1
RIC=}  {NB=77079000},{LINA=77079000},{KT=DUMMY},{BOM=77079000},{ARTNR=33416},{BUSB=12 x 5, 10},{POF=QUADRON®30Compact},{TYPE=QCB-NH000},{QNT=1},{W=90},{H=160},{D=98},{CONCA=Rahmenklemme},{SCR=},{IPR=},{IPRF=IP30},{SEARCH=},{EDZ=},{IODD=},{DIST=4},{LINK=Pr
100
AcDbAttributeDefinition
  3

  2
PSOL_1
 70
     9
280
     0
  0
ATTDEF
  5
88
330
74
100
AcDbEntity
  8
attrib
100
AcDbText
 10
86.0
 20
-130.0
 30
0.0
 40
0.5
  1
oduct link},{LINKX=https://www.woehner.de/de/produkte/33416.html}
100
AcDbAttributeDefinition
  3

  2
PSOL_2
 70
     9
280
     0
  0
LINE
  5
8A
330
74
100
AcDbEntity
  8
bold
100
AcDbLine
 10
8.999999999999995
 20
-144.0
 30
0.0
 11
8.999999999999995
 21
-122.0
 31
0.0
  0
LINE
  5
8B
330
74
100
AcDbEntity
  8
bold
100
AcDbLine
 10
9.999999999999995
 20
-143.0
 30
0.0
 11
8.999999999999996
 21
-144.0
 31
0.0
  0
LINE
  5
8C
330
74
100
AcDbEntity
  8
bold
100
AcDbLine
 10
81.0
 20
-144.0
 30
0.0
 11
8.999999999999995
 21
-144.0
 31
0.0
  0
LINE
  5
8D
330
74
100
AcDbEntity
  8
bold
100
AcDbLine
 10
8.999999999999996
 20
-122.0
 30
0.0
 11
9.999999999999993
 21
-123.0
 31
0.0
  0
LINE
  5
8E
330
74
100
AcDbEntity
  8
bold
100
AcDbLine
 10
8.999999999999995
 20
-122.0
 30
0.0
 11
81.0
 21
-122.0
 31
0.0
  0
LINE
  5
90
330
74
100
AcDbEntity
  8
light
100
AcDbLine
 10
9.999999999999995
 20
-143.0
 30
0.0
 11
80.0
 21
-143.0
 31
0.0
  0
LINE
  5
91
330
74
100
AcDbEntity
  8
light
100
AcDbLine
 10
80.0
 20
-123.0
 30
0.0
 11
9.999999999999995
 21
-123.0
 31
0.0
  0
LINE
  5
92
330
74
100
AcDbEntity
  8
light
100
AcDbLine
 10
9.999999999999995
 20
-123.0
 30
0.0
 11
9.999999999999995
 21
-143.0
 31
0.0
  0
LINE
  5
93
330
74
100
AcDbEntity
  8
bold
100
AcDbLine
 10
80.0
 20
-143.0
 30
0.0
 11
81.0
 21
-144.0
 31
0.0
  0
LINE
  5
94
330
74
100
AcDbEntity
  8
bold
100
AcDbLine
 10
81.0
 20
-122.0
 30
0.0
 11
81.0
 21
-144.0
 31
0.0
  0
LINE
  5
95
330
74
100
AcDbEntity
  8
bold
100
AcDbLine
 10
81.0
 20
-122.0
 30
0.0
 11
80.0
 21
-123.0
 31
0.0
  0
LINE
  5
96
330
74
100
AcDbEntity
  8
light
100
AcDbLine
 10
80.0
 20
-143.0
 30
0.0
 11
80.0
 21
-123.0
 31
0.0
  0
ENDBLK
  5
77
330
74
100
AcDbEntity
  8
0
100
AcDbBlockEnd
  0
BLOCK
  5
99
330
97
100
AcDbEntity
  8
0
100
AcDbBlockBegin
  2
2_30022100_0_in_33416_0
 70
     2
 10
0.0
 20
0.0
 30
0.0
  3
2_30022100_0_in_33416_0
  1

  0
ATTDEF
  5
9B
330
97
100
AcDbEntity
  8
attrib
100
AcDbText
 10
94.0
 20
10.23400000000002
 30
0.0
 40
0.5
  1
30022100
100
AcDbAttributeDefinition
  3

  2
NB
 70
     8
280
     0
  0
ATTDEF
  5
9C
330
97
100
AcDbEntity
  8
attrib
100
AcDbText
 10
94.0
 20
9.734000000000021
 30
0.0
 40
0.5
  1
Size 000 lid
100
AcDbAttributeDefinition
  3

  2
NN
 70
     8
280
     0
  0
ATTDEF
  5
9D
330
97
100
AcDbEntity
  8
attrib
100
AcDbText
 10
94.0
 20
9.234000000000021
 30
0.0
 40
0.5
  1

100
AcDbAttributeDefinition
  3

  2
NT
 70
     8
280
     0
  0
ATTDEF
  5
9E
330
97
100
AcDbEntity
  8
attrib
100
AcDbText
 10
94.0
 20
8.734000000000021
 30
0.0
 40
0.5
  1
$BOM.
100
AcDbAttributeDefinition
  3

  2
NBSYN
 70
     8
280
     0
  0
ATTDEF
  5
9F
330
97
100
AcDbEntity
  8
attrib
100
AcDbText
 10
94.0
 20
8.234000000000021
 30
0.0
 40
0.5
  1
30022100
100
AcDbAttributeDefinition
  3

  2
LINA
 70
     8
280
     0
  0
ATTDEF
  5
A0
330
97
100
AcDbEntity
  8
attrib
100
AcDbText
 10
94.0
 20
7.734000000000021
 30
0.0
 40
0.5
  1
Wöhner
100
AcDbAttributeDefinition
  3

  2
CATALOG
 70
     8
280
     0
  0
ATTDEF
  5
A1
330
97
100
AcDbEntity
  8
attrib
100
AcDbText
 10
94.0
 20
7.234000000000021
 30
0.0
 40
0.5
  1
33416
100
AcDbAttributeDefinition
  3

  2
ARTNR
 70
     8
280
     0
  0
ATTDEF
  5
A2
330
97
100
AcDbEntity
  8
attrib
100
AcDbText
 10
94.0
 20
6.734000000000021
 30
0.0
 40
0.5
  1
1
100
AcDbAttributeDefinition
  3

  2
QNT
 70
     8
280
     0
  0
ATTDEF
  5
A3
330
97
100
AcDbEntity
  8
attrib
100
AcDbText
 10
94.0
 20
6.234000000000021
 30
0.0
 40
0.5
  1
90
100
AcDbAttributeDefinition
  3

  2
W
 70
     8
280
     0
  0
ATTDEF
  5
A4
330
97
100
AcDbEntity
  8
attrib
100
AcDbText
 10
94.0
 20
5.734000000000021
 30
0.0
 40
0.5
  1
160
100
AcDbAttributeDefinition
  3

  2
H
 70
     8
280
     0
  0
ATTDEF
  5
A5
330
97
100
AcDbEntity
  8
attrib
100
AcDbText
 10
94.0
 20
5.234000000000021
 30
0.0
 40
0.5
  1
98
100
AcDbAttributeDefinition
  3

  2
D
 70
     8
280
     0
  0
ATTDEF
  5
A6
330
97
100
AcDbEntity
  8
attrib
100
AcDbText
 10
94.0
 20
4.734000000000021
 30
0.0
 40
0.5
  1
IP30
100
AcDbAttributeDefinition
  3

  2
IPRF
 70
     8
280
     0
  0
ATTDEF
  5
A7
330
97
100
AcDbEntity
  8
attrib
100
AcDbText
 10
94.0
 20
4.234000000000021
 30
0.0
 40
0.5
  1
Product link
100
AcDbAttributeDefinition
  3

  2
LINK
 70
     8
280
     0
  0
ATTDEF
  5
A8
330
97
100
AcDbEntity
  8
attrib
100
AcDbText
 10
94.0
 20
3.734000000000021
 30
0.0
 40
0.5
  1
woehner
100
AcDbAttributeDefinition
  3

  2
COMPANY
 70
     8
280
     0
  0
ATTDEF
  5
A9
330
97
100
AcDbEntity
  8
attrib
100
AcDbText
 10
94.0
 20
3.234000000000021
 30
0.0
 40
0.5
  1
{$CADENAS_DATA/23d-libs/woehner/sys_30_c_3pole/nh_inline_fuse_switch/parts/size000_lid.prj},162 {VTYP=3D},{NB=30022100},{LINA=30022100},{NN=Size 000 lid},{DATE=04.11.2022 07:06:05},{GEOMDATE=19.09.2022 11:35:00},{VERSION=},{LINEID=10},{WBVAR=},{WBNUMERIC=
100
AcDbAttributeDefinition
  3

  2
PSOL_0
 70
     9
280
     0
  0
ATTDEF
  5
AA
330
97
100
AcDbEntity
  8
attrib
100
AcDbText
 10
94.0
 20
2.734000000000021
 30
0.0
 40
0.5
  1
}  {NB=30022100},{LINA=30022100},{KT=DUMMY},{BOM=30022100},{ARTNR=33416},{BUSB=12 x 5, 10},{POF=QUADRON®30Compact},{TYPE=QCB-NH000},{QNT=1},{W=90},{H=160},{D=98},{CONCA=Rahmenklemme},{SCR=},{IPR=},{IPRF=IP30},{SEARCH=},{EDZ=},{IODD=},{DIST=4},{LINK=Produc
100
AcDbAttributeDefinition
  3

  2
PSOL_1
 70
     9
280
     0
  0
ATTDEF
  5
AB
330
97
100
AcDbEntity
  8
attrib
100
AcDbText
 10
94.0
 20
2.234000000000021
 30
0.0
 40
0.5
  1
t link},{LINKX=https://www.woehner.de/de/produkte/33416.html}
100
AcDbAttributeDefinition
  3

  2
PSOL_2
 70
     9
280
     0
  0
LINE
  5
AE
330
97
100
AcDbEntity
  8
hidden
100
AcDbLine
 10
5.999999999999998
 20
-108.0259830514235
 30
0.0
 11
2.999999999999996
 21
-108.0259830514235
 31
0.0
  0
LINE
  5
AF
330
97
100
AcDbEntity
  8
hidden
100
AcDbLine
 10
5.999999999999998
 20
-127.0959717310203
 30
0.0
 11
2.999999999999996
 21
-127.0959717310203
 31
0.0
  0
LINE
  5
B0
330
97
100
AcDbEntity
  8
hidden
100
AcDbLine
 10
83.99999999999999
 20
-108.0259830514235
 30
0.0
 11
87.0
 21
-108.0259830514235
 31
0.0
  0
LINE
  5
B1
330
97
100
AcDbEntity
  8
hidden
100
AcDbLine
 10
83.99999999999999
 20
-127.0959717310203
 30
0.0
 11
87.0
 21
-127.0959717310203
 31
0.0
  0
LINE
  5
B2
330
97
100
AcDbEntity
  8
hidden
100
AcDbLine
 10
87.0
 20
-124.9789355901563
 30
0.0
 11
83.99999999999999
 21
-124.9789355901563
 31
0.0
  0
LINE
  5
B3
330
97
100
AcDbEntity
  8
hidden
100
AcDbLine
 10
5.999999999999998
 20
-124.9789355901563
 30
0.0
 11
2.999999999999996
 21
-124.9789355901563
 31
0.0
  0
LINE
  5
B4
330
97
100
AcDbEntity
  8
hidden
100
AcDbLine
 10
83.99999999999999
 20
-129.0574477435476
 30
0.0
 11
87.0
 21
-129.0574477435476
 31
0.0
  0
LINE
  5
B5
330
97
100
AcDbEntity
  8
hidden
100
AcDbLine
 10
83.99999999999999
 20
-131.2891279139824
 30
0.0
 11
87.0
 21
-131.2891279139824
 31
0.0
  0
LINE
  5
B6
330
97
100
AcDbEntity
  8
hidden
100
AcDbLine
 10
83.99999999999999
 20
-131.323287828765
 30
0.0
 11
87.0
 21
-131.323287828765
 31
0.0
  0
LINE
  5
B7
330
97
100
AcDbEntity
  8
hidden
100
AcDbLine
 10
5.999999999999998
 20
-131.2891279139824
 30
0.0
 11
2.999999999999996
 21
-131.2891279139824
 31
0.0
  0
LINE
  5
B8
330
97
100
AcDbEntity
  8
hidden
100
AcDbLine
 10
5.999999999999998
 20
-129.0574477435476
 30
0.0
 11
2.999999999999996
 21
-129.0574477435476
 31
0.0
  0
LINE
  5
B9
330
97
100
AcDbEntity
  8
hidden
100
AcDbLine
 10
2.999999999999996
 20
-131.323287828765
 30
0.0
 11
5.999999999999998
 21
-131.323287828765
 31
0.0
  0
LINE
  5
BA
330
97
100
AcDbEntity
  8
hidden
100
AcDbLine
 10
83.99999999999999
 20
-118.5762371575761
 30
0.0
 11
87.0
 21
-118.5762371575761
 31
0.0
  0
LINE
  5
BB
330
97
100
AcDbEntity
  8
hidden
100
AcDbLine
 10
5.999999999999998
 20
-118.5762371575761
 30
0.0
 11
2.999999999999996
 21
-118.5762371575761
 31
0.0
  0
LINE
  5
BC
330
97
100
AcDbEntity
  8
hidden
100
AcDbLine
 10
5.999999999999998
 20
-124.9973126818317
 30
0.0
 11
2.999999999999996
 21
-124.9973126818317
 31
0.0
  0
LINE
  5
BD
330
97
100
AcDbEntity
  8
hidden
100
AcDbLine
 10
5.999999999999998
 20
-122.6828395548632
 30
0.0
 11
2.999999999999996
 21
-122.6828395548632
 31
0.0
  0
LINE
  5
BE
330
97
100
AcDbEntity
  8
hidden
100
AcDbLine
 10
2.999999999999996
 20
-125.0077885118689
 30
0.0
 11
5.999999999999998
 21
-125.0077885118689
 31
0.0
  0
LINE
  5
BF
330
97
100
AcDbEntity
  8
hidden
100
AcDbLine
 10
83.99999999999999
 20
-122.6828395548632
 30
0.0
 11
87.0
 21
-122.6828395548632
 31
0.0
  0
LINE
  5
C0
330
97
100
AcDbEntity
  8
hidden
100
AcDbLine
 10
83.99999999999999
 20
-124.9973126818317
 30
0.0
 11
87.0
 21
-124.9973126818317
 31
0.0
  0
LINE
  5
C1
330
97
100
AcDbEntity
  8
hidden
100
AcDbLine
 10
83.99999999999999
 20
-125.0077885118689
 30
0.0
 11
87.0
 21
-125.0077885118689
 31
0.0
  0
LINE
  5
C2
330
97
100
AcDbEntity
  8
hidden
100
AcDbLine
 10
83.99999999999999
 20
-86.02799999999999
 30
0.0
 11
83.99999999999999
 21
-131.323287828765
 31
0.0
  0
LINE
  5
C3
330
97
100
AcDbEntity
  8
hidden
100
AcDbLine
 10
83.99999999999999
 20
-83.918
 30
0.0
 11
87.0
 21
-83.918
 31
0.0
  0
LINE
  5
C4
330
97
100
AcDbEntity
  8
hidden
100
AcDbLine
 10
87.0
 20
-83.918
 30
0.0
 11
87.0
 21
-131.323287828765
 31
0.0
  0
LINE
  5
C5
330
97
100
AcDbEntity
  8
hidden
100
AcDbLine
 10
5.999999999999998
 20
-83.918
 30
0.0
 11
2.999999999999996
 21
-83.918
 31
0.0
  0
LINE
  5
C6
330
97
100
AcDbEntity
  8
hidden
100
AcDbLine
 10
2.999999999999996
 20
-83.918
 30
0.0
 11
2.999999999999996
 21
-131.323287828765
 31
0.0
  0
LINE
  5
C7
330
97
100
AcDbEntity
  8
hidden
100
AcDbLine
 10
6.000000000000002
 20
-86.02799999999999
 30
0.0
 11
5.999999999999998
 21
-131.323287828765
 31
0.0
  0
LINE
  5
C8
330
97
100
AcDbEntity
  8
hidden
100
AcDbLine
 10
5.999999999999998
 20
-110.3634186771636
 30
0.0
 11
2.999999999999996
 21
-110.3634186771636
 31
0.0
  0
LINE
  5
C9
330
97
100
AcDbEntity
  8
hidden
100
AcDbLine
 10
5.999999999999998
 20
-104.712
 30
0.0
 11
2.999999999999996
 21
-104.712
 31
0.0
  0
LINE
  5
CA
330
97
100
AcDbEntity
  8
hidden
100
AcDbLine
 10
5.999999999999998
 20
-104.7115542353327
 30
0.0
 11
2.999999999999996
 21
-104.7115542353327
 31
0.0
  0
LINE
  5
CB
330
97
100
AcDbEntity
  8
hidden
100
AcDbLine
 10
83.99999999999999
 20
-104.712
 30
0.0
 11
87.0
 21
-104.712
 31
0.0
  0
LINE
  5
CC
330
97
100
AcDbEntity
  8
hidden
100
AcDbLine
 10
83.99999999999999
 20
-110.3634186771636
 30
0.0
 11
87.0
 21
-110.3634186771636
 31
0.0
  0
LINE
  5
CD
330
97
100
AcDbEntity
  8
hidden
100
AcDbLine
 10
87.0
 20
-104.7115542353327
 30
0.0
 11
83.99999999999999
 21
-104.7115542353327
 31
0.0
  0
LINE
  5
CE
330
97
100
AcDbEntity
  8
hidden
100
AcDbLine
 10
3.999999999999996
 20
10.23400000000002
 30
0.0
 11
3.999999999999996
 21
-0.0279999999999864
 31
0.0
  0
LINE
  5
CF
330
97
100
AcDbEntity
  8
hidden
100
AcDbLine
 10
86.0
 20
10.23400000000002
 30
0.0
 11
86.0
 21
-0.0279999999999864
 31
0.0
  0
LINE
  5
D0
330
97
100
AcDbEntity
  8
hidden
100
AcDbLine
 10
86.0
 20
-20.76799999999998
 30
0.0
 11
3.999999999999996
 21
-20.76799999999998
 31
0.0
  0
LINE
  5
D1
330
97
100
AcDbEntity
  8
hidden
100
AcDbLine
 10
86.0
 20
-114.768
 30
0.0
 11
3.999999999999996
 21
-114.768
 31
0.0
  0
LINE
  5
D2
330
97
100
AcDbEntity
  8
hidden
100
AcDbLine
 10
3.999999999999996
 20
-20.76799999999998
 30
0.0
 11
3.999999999999996
 21
-114.768
 31
0.0
  0
LINE
  5
D3
330
97
100
AcDbEntity
  8
hidden
100
AcDbLine
 10
86.0
 20
-20.76799999999998
 30
0.0
 11
86.0
 21
-114.768
 31
0.0
  0
LINE
  5
D4
330
97
100
AcDbEntity
  8
bold
100
AcDbLine
 10
1.000000000000001
 20
10.23400000000002
 30
0.0
 11
1.000000000000001
 21
-117.028
 31
0.0
  0
LINE
  5
D5
330
97
100
AcDbEntity
  8
bold
100
AcDbLine
 10
89.0
 20
-117.028
 30
0.0
 11
89.0
 21
10.23400000000002
 31
0.0
  0
LINE
  5
D6
330
97
100
AcDbEntity
  8
bold
100
AcDbLine
 10
3.999999999999996
 20
-19.02799999999999
 30
0.0
 11
4.000000000000004
 21
-0.0279999999999864
 31
0.0
  0
LINE
  5
D7
330
97
100
AcDbEntity
  8
bold
100
AcDbLine
 10
86.0
 20
-19.02799999999999
 30
0.0
 11
86.0
 21
-0.0279999999999864
 31
0.0
  0
LINE
  5
D8
330
97
100
AcDbEntity
  8
bold
100
AcDbLine
 10
89.0
 20
10.23400000000002
 30
0.0
 11
1.000000000000001
 21
10.23400000000002
 31
0.0
  0
LINE
  5
D9
330
97
100
AcDbEntity
  8
bold
100
AcDbLine
 10
4.000000000000004
 20
-0.0279999999999864
 30
0.0
 11
86.0
 21
-0.0279999999999864
 31
0.0
  0
LINE
  5
DA
330
97
100
AcDbEntity
  8
bold
100
AcDbLine
 10
83.99999999999999
 20
-40.02799999999999
 30
0.0
 11
83.99999999999999
 21
-86.02799999999999
 31
0.0
  0
LWPOLYLINE
  5
DB
330
97
100
AcDbEntity
  8
bold
100
AcDbPolyline
 90
        7
 70
     0
 43
0.0
 10
71.00000000000001
 20
-99.02799999999999
 10
69.60666250590612
 20
-98.9135688607685
 10
68.2133250118122
 20
-98.5605486997731
 10
66.93749781193762
 20
-97.99983572583879
 10
65.74125927273552
 20
-97.21683689528953
 10
65.09333280768625
 20
-96.65589126681434
 10
64.5
 20
-96.0270973993964
  0
LWPOLYLINE
  5
DC
330
97
100
AcDbEntity
  8
bold
100
AcDbPolyline
 90
       12
 70
     0
 43
0.0
 10
51.5
 20
-96.02709739939641
 10
52.51133950817685
 20
-95.02467117331798
 10
53.67783066802527
 20
-94.20070416572992
 10
54.96990660619355
 20
-93.58277865616252
 10
56.34885910749838
 20
-93.18733248024925
 10
57.76541157755769
 20
-93.03029077155072
 10
59.1886232417412
 20
-93.10931743245997
 10
60.57238726659901
 20
-93.42372306592323
 10
61.88392544089657
 20
-93.96049146711096
 10
63.08791692576235
 20
-94.70832316854218
 10
64.15006923386835
 20
-95.64097341739058
 10
64.5
 20
-96.0270973993964
  0
LWPOLYLINE
  5
DD
330
97
100
AcDbEntity
  8
bold
100
AcDbPolyline
 90
       12
 70
     0
 43
0.0
 10
51.5
 20
-96.02709739939641
 10
50.48416805555489
 20
-97.0333278726724
 10
49.31269397335928
 20
-97.85904271403649
 10
48.01437657141798
 20
-98.47734969337405
 10
46.62830461710987
 20
-98.87133013031806
 10
45.21274681036093
 20
-99.02445618168575
 10
43.79108448517646
 20
-98.94200043044822
 10
42.41794052399506
 20
-98.62743201233474
 10
41.11681721446327
 20
-98.09408253006178
 10
39.917306783229
 20
-97.34980275764012
 10
38.85813688184851
 20
-96.42172711184888
 10
38.50000010934684
 20
-96.02709752771233
  0
LWPOLYLINE
  5
DE
330
97
100
AcDbEntity
  8
bold
100
AcDbPolyline
 90
       12
 70
     0
 43
0.0
 10
25.49999989065316
 20
-96.02709752771233
 10
26.51133937937916
 20
-95.02467128138555
 10
27.67783052347097
 20
-94.20070425055633
 10
28.96990645015607
 20
-93.58277871538786
 10
30.34885894452918
 20
-93.187332512364
 10
31.76541141203982
 20
-93.03029077610094
 10
33.18862307837837
 20
-93.10931740949913
 10
34.57238710952629
 20
-93.42372301630147
 10
35.88392529448703
 20
-93.9604913923455
 10
37.08791679371708
 20
-94.70832307057783
 10
38.15006911982464
 20
-95.6409732990192
 10
38.50000010934684
 20
-96.02709752771233
  0
LWPOLYLINE
  5
DF
330
97
100
AcDbEntity
  8
bold
100
AcDbPolyline
 90
        7
 70
     0
 43
0.0
 10
25.49999989065316
 20
-96.02709752771233
 10
24.5002704396363
 20
-97.02088795946042
 10
23.31269382977318
 20
-97.8590427980467
 10
22.03456498027533
 20
-98.47066969005272
 10
20.62830445613326
 20
-98.87133016158474
 10
19.82197996697555
 20
-98.98834993008468
 10
18.99999999999999
 20
-99.02799999999999
  0
LWPOLYLINE
  5
E0
330
97
100
AcDbEntity
  8
bold
100
AcDbPolyline
 90
       15
 70
     0
 43
0.0
 10
18.99999999999999
 20
-99.02799999999999
 10
17.56249417103823
 20
-98.94722409664273
 10
16.13872169421399
 20
-98.70813578015814
 10
14.75558835315745
 20
-98.31559414092715
 10
13.42746401614708
 20
-97.77200125740423
 10
12.16483203867146
 20
-97.08490578102659
 10
10.99040373326587
 20
-96.2674515304248
 10
9.904431671558273
 20
-95.31487876376566
 10
8.928384198714486
 20
-94.2461512505052
 10
8.079467089485377
 20
-93.08079809369069
 10
7.355978397549492
 20
-91.80648533846606
 10
6.77801613456673
 20
-90.45487788888063
 10
6.356339967848387
 20
-89.05088951028183
 10
6.089778827291295
 20
-87.5506337968982
 10
6.000000000000005
 20
-86.02799999999999
  0
LINE
  5
E1
330
97
100
AcDbEntity
  8
bold
100
AcDbLine
 10
6.000000000000005
 20
-86.02799999999999
 30
0.0
 11
6.000000000000005
 21
-40.02799999999998
 31
0.0
  0
LWPOLYLINE
  5
E2
330
97
100
AcDbEntity
  8
bold
100
AcDbPolyline
 90
       15
 70
     0
 43
0.0
 10
6.000000000000005
 20
-40.02799999999998
 10
6.086237974348776
 20
-38.54202394608546
 10
6.341400920723974
 20
-37.07279930970367
 10
6.760162374118847
 20
-35.6477745615021
 10
7.340394247525306
 20
-34.28103710125527
 10
8.074854365233142
 20
-32.98419346250357
 10
8.950351451907256
 20
-31.7815120166329
 10
9.961948529928259
 20
-30.68534942920433
 10
11.09869783844668
 20
-29.70612998997139
 10
12.33950081456057
 20
-28.86387215225654
 10
13.64563920492524
 20
-28.18315227037016
 10
15.0285986913845
 20
-27.65069671729739
 10
16.46117520174139
 20
-27.27831888070344
 10
17.72399744726518
 20
-27.09094815098209
 10
19.00000060785049
 20
-27.02800000000001
  0
LWPOLYLINE
  5
E3
330
97
100
AcDbEntity
  8
bold
100
AcDbPolyline
 90
        7
 70
     0
 43
0.0
 10
19.00000060785049
 20
-27.02800000000001
 10
20.37745585765159
 20
-27.1398201632724
 10
21.75491108962387
 20
-27.48455612450562
 10
23.01577001270947
 20
-28.03107813460802
 10
24.19834910585596
 20
-28.79239917249793
 10
24.87908769458519
 20
-29.37381499474082
 10
25.50000017289253
 20
-30.0289028034889
  0
LWPOLYLINE
  5
E4
330
97
100
AcDbEntity
  8
bold
100
AcDbPolyline
 90
       12
 70
     0
 43
0.0
 10
38.50000017289253
 20
-30.02890239771828
 10
37.49715467009809
 20
-31.02420531237071
 10
36.33834225521829
 20
-31.84578144345998
 10
35.05127638343225
 20
-32.46511791985099
 10
33.67507373771198
 20
-32.86391577924635
 10
32.27068316059407
 20
-33.02462549462616
 10
30.85854042425418
 20
-32.95317746271963
 10
29.49125640189703
 20
-32.65212172577109
 10
28.19410050561137
 20
-32.13485124675931
 10
26.99842159005215
 20
-31.41093544131358
 10
25.94061370810087
 20
-30.50773156878141
 10
25.50000017289253
 20
-30.0289028034889
  0
LWPOLYLINE
  5
E5
330
97
100
AcDbEntity
  8
bold
100
AcDbPolyline
 90
       12
 70
     0
 43
0.0
 10
38.50000017289253
 20
-30.02890239771828
 10
39.50920908286422
 20
-29.02820071138014
 10
40.67510238572004
 20
-28.20411103926766
 10
41.97104595493282
 20
-27.58420290043109
 10
43.35739401933508
 20
-27.18746030423554
 10
44.76054721456798
 20
-27.03227456627008
 10
46.17066318481887
 20
-27.10861777032686
 10
47.52329700381396
 20
-27.41014082246503
 10
48.80602296511578
 20
-27.92301542257858
 10
49.99515680944558
 20
-28.64215770902946
 10
51.04841423713387
 20
-29.53904609272583
 10
51.50000017289253
 20
-30.0289028034889
  0
LWPOLYLINE
  5
E6
330
97
100
AcDbEntity
  8
bold
100
AcDbPolyline
 90
       12
 70
     0
 43
0.0
 10
64.49999982710747
 20
-30.0289028034889
 10
63.49715426465424
 20
-31.02420565345526
 10
62.33834180200066
 20
-31.84578171075463
 10
61.05127589628466
 20
-32.46511810623769
 10
59.67507323135779
 20
-32.8639158805324
 10
58.27068264801002
 20
-33.02462551089219
 10
56.85853992016135
 20
-32.95317739473234
 10
55.49125591711434
 20
-32.65212157677745
 10
54.19410005344574
 20
-32.13485102165969
 10
52.99842118018253
 20
-31.41093514512738
 10
51.94061335161719
 20
-30.50773120984175
 10
51.50000017289253
 20
-30.0289028034889
  0
LWPOLYLINE
  5
E7
330
97
100
AcDbEntity
  8
bold
100
AcDbPolyline
 90
        7
 70
     0
 43
0.0
 10
64.49999982710747
 20
-30.0289028034889
 10
65.49332710434925
 20
-29.04050786133713
 10
66.67510193678919
 20
-28.20411130292998
 10
67.95041462895168
 20
-27.59105640832979
 10
69.35739352185459
 20
-27.18746040174291
 10
70.17040258326313
 20
-27.06839011917937
 10
70.99999939214952
 20
-27.028
  0
LWPOLYLINE
  5
E8
330
97
100
AcDbEntity
  8
bold
100
AcDbPolyline
 90
       15
 70
     0
 43
0.0
 10
70.99999939214952
 20
-27.028
 10
72.42156249030141
 20
-27.1070204312891
 10
73.82943751840791
 20
-27.34073048643383
 10
75.19691806886105
 20
-27.7241031082316
 10
76.50941628671742
 20
-28.25421430459965
 10
77.75744877710643
 20
-28.92338293605405
 10
78.91926117004579
 20
-29.7185236543942
 10
80.00285729502897
 20
-30.65112756690111
 10
80.97863166244183
 20
-31.69709187222276
 10
81.83039219141864
 20
-32.83754765122119
 10
82.57030630899881
 20
-34.10318209571044
 10
83.16511937174734
 20
-35.44702662936766
 10
83.60425887211777
 20
-36.84481632879269
 10
83.90019415598707
 20
-38.4230568112659
 10
83.99999999999999
 20
-40.02799999999999
  0
LWPOLYLINE
  5
E9
330
97
100
AcDbEntity
  8
bold
100
AcDbPolyline
 90
       15
 70
     0
 43
0.0
 10
83.99999999999999
 20
-86.02799999999999
 10
83.91557695023144
 20
-87.49805132032425
 10
83.66571733732499
 20
-88.95251005759432
 10
83.2555354658795
 20
-90.36411005909322
 10
82.68716059664274
 20
-91.71871535776404
 10
81.96797489121057
 20
-93.00492596986429
 10
81.11122115786027
 20
-94.19887551593087
 10
80.11975030793225
 20
-95.29098021937394
 10
79.00651419260085
 20
-96.26852808950976
 10
77.79220498401736
 20
-97.11249148382954
 10
76.49866012696027
 20
-97.80662535124867
 10
75.12885353252902
 20
-98.35374070388303
 10
73.70915273259514
 20
-98.74257791165212
 10
72.36235335789245
 20
-98.95620430034421
 10
71.00000000000001
 20
-99.02799999999999
  0
LINE
  5
EA
330
97
100
AcDbEntity
  8
bold
100
AcDbLine
 10
89.0
 20
-117.028
 30
0.0
 11
1.000000000000001
 21
-117.028
 31
0.0
  0
LINE
  5
EB
330
97
100
AcDbEntity
  8
bold
100
AcDbLine
 10
89.0
 20
-19.02800000000002
 30
0.0
 11
1.000000000000001
 21
-19.02800000000002
 31
0.0
  0
ENDBLK
  5
9A
330
97
100
AcDbEntity
  8
0
100
AcDbBlockEnd
  0
BLOCK
  5
EE
330
EC
100
AcDbEntity
  8
0
100
AcDbBlockBegin
  2
3_30780000_0_in_33416_0
 70
     2
 10
0.0
 20
0.0
 30
0.0
  3
3_30780000_0_in_33416_0
  1

  0
ATTDEF
  5
F0
330
EC
100
AcDbEntity
  8
attrib
100
AcDbText
 10
95.0
 20
14.00000000000001
 30
0.0
 40
0.5
  1
30780000
100
AcDbAttributeDefinition
  3

  2
NB
 70
     8
280
     0
  0
ATTDEF
  5
F1
330
EC
100
AcDbEntity
  8
attrib
100
AcDbText
 10
95.0
 20
13.50000000000001
 30
0.0
 40
0.5
  1
Size 000 middle
100
AcDbAttributeDefinition
  3

  2
NN
 70
     8
280
     0
  0
ATTDEF
  5
F2
330
EC
100
AcDbEntity
  8
attrib
100
AcDbText
 10
95.0
 20
13.00000000000001
 30
0.0
 40
0.5
  1

100
AcDbAttributeDefinition
  3

  2
NT
 70
     8
280
     0
  0
ATTDEF
  5
F3
330
EC
100
AcDbEntity
  8
attrib
100
AcDbText
 10
95.0
 20
12.50000000000001
 30
0.0
 40
0.5
  1
$BOM.
100
AcDbAttributeDefinition
  3

  2
NBSYN
 70
     8
280
     0
  0
ATTDEF
  5
F4
330
EC
100
AcDbEntity
  8
attrib
100
AcDbText
 10
95.0
 20
12.00000000000001
 30
0.0
 40
0.5
  1
30780000
100
AcDbAttributeDefinition
  3

  2
LINA
 70
     8
280
     0
  0
ATTDEF
  5
F5
330
EC
100
AcDbEntity
  8
attrib
100
AcDbText
 10
95.0
 20
11.50000000000001
 30
0.0
 40
0.5
  1
Wöhner
100
AcDbAttributeDefinition
  3

  2
CATALOG
 70
     8
280
     0
  0
ATTDEF
  5
F6
330
EC
100
AcDbEntity
  8
attrib
100
AcDbText
 10
95.0
 20
11.00000000000001
 30
0.0
 40
0.5
  1
33416
100
AcDbAttributeDefinition
  3

  2
ARTNR
 70
     8
280
     0
  0
ATTDEF
  5
F7
330
EC
100
AcDbEntity
  8
attrib
100
AcDbText
 10
95.0
 20
10.50000000000001
 30
0.0
 40
0.5
  1
1
100
AcDbAttributeDefinition
  3

  2
QNT
 70
     8
280
     0
  0
ATTDEF
  5
F8
330
EC
100
AcDbEntity
  8
attrib
100
AcDbText
 10
95.0
 20
10.00000000000001
 30
0.0
 40
0.5
  1
90
100
AcDbAttributeDefinition
  3

  2
W
 70
     8
280
     0
  0
ATTDEF
  5
F9
330
EC
100
AcDbEntity
  8
attrib
100
AcDbText
 10
95.0
 20
9.500000000000012
 30
0.0
 40
0.5
  1
160
100
AcDbAttributeDefinition
  3

  2
H
 70
     8
280
     0
  0
ATTDEF
  5
FA
330
EC
100
AcDbEntity
  8
attrib
100
AcDbText
 10
95.0
 20
9.000000000000012
 30
0.0
 40
0.5
  1
98
100
AcDbAttributeDefinition
  3

  2
D
 70
     8
280
     0
  0
ATTDEF
  5
FB
330
EC
100
AcDbEntity
  8
attrib
100
AcDbText
 10
95.0
 20
8.500000000000012
 30
0.0
 40
0.5
  1
IP30
100
AcDbAttributeDefinition
  3

  2
IPRF
 70
     8
280
     0
  0
ATTDEF
  5
FC
330
EC
100
AcDbEntity
  8
attrib
100
AcDbText
 10
95.0
 20
8.000000000000012
 30
0.0
 40
0.5
  1
Product link
100
AcDbAttributeDefinition
  3

  2
LINK
 70
     8
280
     0
  0
ATTDEF
  5
FD
330
EC
100
AcDbEntity
  8
attrib
100
AcDbText
 10
95.0
 20
7.500000000000012
 30
0.0
 40
0.5
  1
woehner
100
AcDbAttributeDefinition
  3

  2
COMPANY
 70
     8
280
     0
  0
ATTDEF
  5
FE
330
EC
100
AcDbEntity
  8
attrib
100
AcDbText
 10
95.0
 20
7.000000000000012
 30
0.0
 40
0.5
  1
{$CADENAS_DATA/23d-libs/woehner/sys_30_c_3pole/nh_inline_fuse_switch/parts/size000_middle.prj},165 {VTYP=3D},{NB=30780000},{LINA=30780000},{NN=Size 000 middle},{DATE=04.11.2022 07:06:05},{GEOMDATE=19.09.2022 11:29:00},{VERSION=},{LINEID=10},{WBVAR=},{WBNU
100
AcDbAttributeDefinition
  3

  2
PSOL_0
 70
     9
280
     0
  0
ATTDEF
  5
FF
330
EC
100
AcDbEntity
  8
attrib
100
AcDbText
 10
95.0
 20
6.500000000000012
 30
0.0
 40
0.5
  1
MERIC=}  {NB=30780000},{LINA=30780000},{KT=DUMMY},{BOM=30780000},{ARTNR=33416},{BUSB=12 x 5, 10},{POF=QUADRON®30Compact},{TYPE=QCB-NH000},{QNT=1},{W=90},{H=160},{D=98},{CONCA=Rahmenklemme},{SCR=},{IPR=},{IPRF=IP30},{SEARCH=},{EDZ=},{IODD=},{DIST=4},{LINK=
100
AcDbAttributeDefinition
  3

  2
PSOL_1
 70
     9
280
     0
  0
ATTDEF
  5
100
330
EC
100
AcDbEntity
  8
attrib
100
AcDbText
 10
95.0
 20
6.000000000000012
 30
0.0
 40
0.5
  1
Product link},{LINKX=https://www.woehner.de/de/produkte/33416.html}
100
AcDbAttributeDefinition
  3

  2
PSOL_2
 70
     9
280
     0
  0
LINE
  5
101
330
EC
100
AcDbEntity
  8
hidden
100
AcDbLine
 10
38.99999999999999
 20
-107.0
 30
0.0
 11
38.99999999999999
 21
-123.0
 31
0.0
  0
LINE
  5
102
330
EC
100
AcDbEntity
  8
hidden
100
AcDbLine
 10
12.0
 20
-107.0
 30
0.0
 11
12.0
 21
-123.0
 31
0.0
  0
LINE
  5
103
330
EC
100
AcDbEntity
  8
hidden
100
AcDbLine
 10
66.0
 20
-107.0
 30
0.0
 11
66.0
 21
-123.0
 31
0.0
  0
LINE
  5
104
330
EC
100
AcDbEntity
  8
hidden
100
AcDbLine
 10
78.0
 20
-107.0
 30
0.0
 11
66.0
 21
-107.0
 31
0.0
  0
LINE
  5
105
330
EC
100
AcDbEntity
  8
hidden
100
AcDbLine
 10
24.0
 20
-107.0
 30
0.0
 11
12.0
 21
-107.0
 31
0.0
  0
LINE
  5
106
330
EC
100
AcDbEntity
  8
hidden
100
AcDbLine
 10
51.0
 20
-107.0
 30
0.0
 11
38.99999999999999
 21
-107.0
 31
0.0
  0
LINE
  5
107
330
EC
100
AcDbEntity
  8
hidden
100
AcDbLine
 10
78.0
 20
-123.0
 30
0.0
 11
78.0
 21
-107.0
 31
0.0
  0
LINE
  5
108
330
EC
100
AcDbEntity
  8
hidden
100
AcDbLine
 10
24.0
 20
-123.0
 30
0.0
 11
24.0
 21
-107.0
 31
0.0
  0
LINE
  5
109
330
EC
100
AcDbEntity
  8
hidden
100
AcDbLine
 10
51.0
 20
-123.0
 30
0.0
 11
51.0
 21
-107.0
 31
0.0
  0
LINE
  5
10A
330
EC
100
AcDbEntity
  8
hidden
100
AcDbLine
 10
81.0
 20
-5.999999999999978
 30
0.0
 11
8.999999999999995
 21
-5.999999999999978
 31
0.0
  0
LINE
  5
10B
330
EC
100
AcDbEntity
  8
hidden
100
AcDbLine
 10
9.999999999999998
 20
-123.0
 30
0.0
 11
8.999999999999995
 21
-123.0
 31
0.0
  0
LINE
  5
10C
330
EC
100
AcDbEntity
  8
hidden
100
AcDbLine
 10
81.0
 20
-123.0
 30
0.0
 11
80.0
 21
-123.0
 31
0.0
  0
LINE
  5
10D
330
EC
100
AcDbEntity
  8
hidden
100
AcDbLine
 10
8.999999999999995
 20
-144.0
 30
0.0
 11
8.999999999999995
 21
-146.0
 31
0.0
  0
LINE
  5
10E
330
EC
100
AcDbEntity
  8
hidden
100
AcDbLine
 10
81.0
 20
-144.0
 30
0.0
 11
81.0
 21
-146.0
 31
0.0
  0
LINE
  5
10F
330
EC
100
AcDbEntity
  8
hidden
100
AcDbLine
 10
88.0
 20
-112.0
 30
0.0
 11
1.999999999999995
 21
-112.0
 31
0.0
  0
LINE
  5
110
330
EC
100
AcDbEntity
  8
hidden
100
AcDbLine
 10
81.0
 20
3.000000000000003
 30
0.0
 11
8.999999999999995
 21
3.000000000000003
 31
0.0
  0
LINE
  5
111
330
EC
100
AcDbEntity
  8
hidden
100
AcDbLine
 10
81.0
 20
-7.99999999999998
 30
0.0
 11
81.0
 21
14.00000000000001
 31
0.0
  0
LINE
  5
112
330
EC
100
AcDbEntity
  8
hidden
100
AcDbLine
 10
8.999999999999995
 20
-7.99999999999998
 30
0.0
 11
81.0
 21
-7.99999999999998
 31
0.0
  0
LINE
  5
113
330
EC
100
AcDbEntity
  8
hidden
100
AcDbLine
 10
8.999999999999995
 20
14.00000000000001
 30
0.0
 11
8.999999999999995
 21
-7.99999999999998
 31
0.0
  0
LINE
  5
114
330
EC
100
AcDbEntity
  8
hidden
100
AcDbLine
 10
1.999999999999995
 20
-17.99999999999999
 30
0.0
 11
1.999999999999995
 21
-117.028
 31
0.0
  0
LINE
  5
115
330
EC
100
AcDbEntity
  8
hidden
100
AcDbLine
 10
88.0
 20
-17.99999999999999
 30
0.0
 11
1.999999999999995
 21
-17.99999999999999
 31
0.0
  0
LINE
  5
116
330
EC
100
AcDbEntity
  8
hidden
100
AcDbLine
 10
88.0
 20
-117.028
 30
0.0
 11
88.0
 21
-17.99999999999999
 31
0.0
  0
LINE
  5
117
330
EC
100
AcDbEntity
  8
hidden
100
AcDbLine
 10
57.99999999999999
 20
-20.99999999999999
 30
0.0
 11
57.99999999999999
 21
-112.0
 31
0.0
  0
LINE
  5
118
330
EC
100
AcDbEntity
  8
hidden
100
AcDbLine
 10
60.0
 20
-20.99999999999999
 30
0.0
 11
57.99999999999999
 21
-20.99999999999999
 31
0.0
  0
LINE
  5
119
330
EC
100
AcDbEntity
  8
hidden
100
AcDbLine
 10
60.0
 20
-20.99999999999999
 30
0.0
 11
60.0
 21
-112.0
 31
0.0
  0
LINE
  5
11A
330
EC
100
AcDbEntity
  8
hidden
100
AcDbLine
 10
60.0
 20
-107.0
 30
0.0
 11
57.99999999999999
 21
-107.0
 31
0.0
  0
LINE
  5
11B
330
EC
100
AcDbEntity
  8
hidden
100
AcDbLine
 10
79.5
 20
-35.99999999999999
 30
0.0
 11
60.5
 21
-35.99999999999999
 31
0.0
  0
LINE
  5
11C
330
EC
100
AcDbEntity
  8
hidden
100
AcDbLine
 10
79.5
 20
-20.99999999999999
 30
0.0
 11
60.5
 21
-20.99999999999999
 31
0.0
  0
LINE
  5
11D
330
EC
100
AcDbEntity
  8
hidden
100
AcDbLine
 10
67.0
 20
-20.99999999999999
 30
0.0
 11
67.0
 21
-35.99999999999999
 31
0.0
  0
LINE
  5
11E
330
EC
100
AcDbEntity
  8
hidden
100
AcDbLine
 10
60.5
 20
-20.99999999999999
 30
0.0
 11
60.5
 21
-35.99999999999999
 31
0.0
  0
LINE
  5
11F
330
EC
100
AcDbEntity
  8
hidden
100
AcDbLine
 10
67.0
 20
-29.99999999999999
 30
0.0
 11
60.5
 21
-29.99999999999999
 31
0.0
  0
LINE
  5
120
330
EC
100
AcDbEntity
  8
hidden
100
AcDbLine
 10
29.5
 20
-35.99999999999999
 30
0.0
 11
10.49999999999999
 21
-35.99999999999999
 31
0.0
  0
LINE
  5
121
330
EC
100
AcDbEntity
  8
hidden
100
AcDbLine
 10
17.0
 20
-20.99999999999999
 30
0.0
 11
17.0
 21
-35.99999999999999
 31
0.0
  0
LINE
  5
122
330
EC
100
AcDbEntity
  8
hidden
100
AcDbLine
 10
29.5
 20
-20.99999999999999
 30
0.0
 11
10.49999999999999
 21
-20.99999999999999
 31
0.0
  0
LINE
  5
123
330
EC
100
AcDbEntity
  8
hidden
100
AcDbLine
 10
10.49999999999999
 20
-20.99999999999999
 30
0.0
 11
10.49999999999999
 21
-35.99999999999999
 31
0.0
  0
LINE
  5
124
330
EC
100
AcDbEntity
  8
hidden
100
AcDbLine
 10
17.0
 20
-29.99999999999999
 30
0.0
 11
10.49999999999999
 21
-29.99999999999999
 31
0.0
  0
LINE
  5
125
330
EC
100
AcDbEntity
  8
hidden
100
AcDbLine
 10
23.0
 20
-20.99999999999999
 30
0.0
 11
23.0
 21
-35.99999999999999
 31
0.0
  0
LINE
  5
126
330
EC
100
AcDbEntity
  8
hidden
100
AcDbLine
 10
29.5
 20
-20.99999999999999
 30
0.0
 11
29.5
 21
-35.99999999999999
 31
0.0
  0
LINE
  5
127
330
EC
100
AcDbEntity
  8
hidden
100
AcDbLine
 10
29.5
 20
-29.99999999999999
 30
0.0
 11
23.0
 21
-29.99999999999999
 31
0.0
  0
LINE
  5
128
330
EC
100
AcDbEntity
  8
hidden
100
AcDbLine
 10
48.0
 20
-20.99999999999999
 30
0.0
 11
48.0
 21
-35.99999999999999
 31
0.0
  0
LINE
  5
129
330
EC
100
AcDbEntity
  8
hidden
100
AcDbLine
 10
54.5
 20
-29.99999999999999
 30
0.0
 11
48.0
 21
-29.99999999999999
 31
0.0
  0
LINE
  5
12A
330
EC
100
AcDbEntity
  8
hidden
100
AcDbLine
 10
54.5
 20
-20.99999999999999
 30
0.0
 11
54.5
 21
-35.99999999999999
 31
0.0
  0
LINE
  5
12B
330
EC
100
AcDbEntity
  8
hidden
100
AcDbLine
 10
54.5
 20
-20.99999999999999
 30
0.0
 11
35.5
 21
-20.99999999999999
 31
0.0
  0
LINE
  5
12C
330
EC
100
AcDbEntity
  8
hidden
100
AcDbLine
 10
30.0
 20
-20.99999999999999
 30
0.0
 11
30.0
 21
-112.0
 31
0.0
  0
LINE
  5
12D
330
EC
100
AcDbEntity
  8
hidden
100
AcDbLine
 10
32.0
 20
-107.0
 30
0.0
 11
30.0
 21
-107.0
 31
0.0
  0
LINE
  5
12E
330
EC
100
AcDbEntity
  8
hidden
100
AcDbLine
 10
32.0
 20
-20.99999999999999
 30
0.0
 11
32.0
 21
-112.0
 31
0.0
  0
LINE
  5
12F
330
EC
100
AcDbEntity
  8
hidden
100
AcDbLine
 10
32.0
 20
-20.99999999999999
 30
0.0
 11
30.0
 21
-20.99999999999999
 31
0.0
  0
LINE
  5
130
330
EC
100
AcDbEntity
  8
hidden
100
AcDbLine
 10
73.00000000000001
 20
-20.99999999999999
 30
0.0
 11
73.00000000000001
 21
-35.99999999999999
 31
0.0
  0
LINE
  5
131
330
EC
100
AcDbEntity
  8
hidden
100
AcDbLine
 10
79.5
 20
-29.99999999999999
 30
0.0
 11
73.00000000000001
 21
-29.99999999999999
 31
0.0
  0
LINE
  5
132
330
EC
100
AcDbEntity
  8
hidden
100
AcDbLine
 10
79.5
 20
-20.99999999999999
 30
0.0
 11
79.5
 21
-35.99999999999999
 31
0.0
  0
LINE
  5
133
330
EC
100
AcDbEntity
  8
hidden
100
AcDbLine
 10
41.99999999999999
 20
-20.99999999999999
 30
0.0
 11
41.99999999999999
 21
-35.99999999999999
 31
0.0
  0
LINE
  5
134
330
EC
100
AcDbEntity
  8
hidden
100
AcDbLine
 10
41.99999999999999
 20
-29.99999999999999
 30
0.0
 11
35.5
 21
-29.99999999999999
 31
0.0
  0
LINE
  5
135
330
EC
100
AcDbEntity
  8
hidden
100
AcDbLine
 10
35.5
 20
-20.99999999999999
 30
0.0
 11
35.5
 21
-35.99999999999999
 31
0.0
  0
LINE
  5
136
330
EC
100
AcDbEntity
  8
hidden
100
AcDbLine
 10
54.5
 20
-35.99999999999999
 30
0.0
 11
35.5
 21
-35.99999999999999
 31
0.0
  0
LINE
  5
137
330
EC
100
AcDbEntity
  8
bold
100
AcDbLine
 10
1.999999999999995
 20
-117.028
 30
0.0
 11
1.999999999999995
 21
-146.0
 31
0.0
  0
LINE
  5
138
330
EC
100
AcDbEntity
  8
bold
100
AcDbLine
 10
88.0
 20
-146.0
 30
0.0
 11
88.0
 21
-117.028
 31
0.0
  0
LINE
  5
139
330
EC
100
AcDbEntity
  8
bold
100
AcDbLine
 10
0.0
 20
-146.0
 30
0.0
 11
89.99999999999999
 21
-146.0
 31
0.0
  0
LINE
  5
13A
330
EC
100
AcDbEntity
  8
bold
100
AcDbLine
 10
89.99999999999999
 20
-146.0
 30
0.0
 11
90.0
 21
14.00000000000001
 31
0.0
  0
LINE
  5
13B
330
EC
100
AcDbEntity
  8
bold
100
AcDbLine
 10
90.0
 20
14.00000000000001
 30
0.0
 11
0.0
 21
14.00000000000001
 31
0.0
  0
LINE
  5
13C
330
EC
100
AcDbEntity
  8
bold
100
AcDbLine
 10
0.0
 20
14.00000000000001
 30
0.0
 11
0.0
 21
-146.0
 31
0.0
  0
ENDBLK
  5
EF
330
EC
100
AcDbEntity
  8
0
100
AcDbBlockEnd
  0
BLOCK
  5
13F
330
13D
100
AcDbEntity
  8
0
100
AcDbBlockBegin
  2
4_30781000_0_in_33416_0
 70
     2
 10
0.0
 20
0.0
 30
0.0
  3
4_30781000_0_in_33416_0
  1

  0
ATTDEF
  5
141
330
13D
100
AcDbEntity
  8
attrib
100
AcDbText
 10
95.0
 20
15.00000000000001
 30
0.0
 40
0.5
  1
30781000
100
AcDbAttributeDefinition
  3

  2
NB
 70
     8
280
     0
  0
ATTDEF
  5
142
330
13D
100
AcDbEntity
  8
attrib
100
AcDbText
 10
95.0
 20
14.50000000000001
 30
0.0
 40
0.5
  1
Size 000 dummy
100
AcDbAttributeDefinition
  3

  2
NN
 70
     8
280
     0
  0
ATTDEF
  5
143
330
13D
100
AcDbEntity
  8
attrib
100
AcDbText
 10
95.0
 20
14.00000000000001
 30
0.0
 40
0.5
  1

100
AcDbAttributeDefinition
  3

  2
NT
 70
     8
280
     0
  0
ATTDEF
  5
144
330
13D
100
AcDbEntity
  8
attrib
100
AcDbText
 10
95.0
 20
13.50000000000001
 30
0.0
 40
0.5
  1
$BOM.
100
AcDbAttributeDefinition
  3

  2
NBSYN
 70
     8
280
     0
  0
ATTDEF
  5
145
330
13D
100
AcDbEntity
  8
attrib
100
AcDbText
 10
95.0
 20
13.00000000000001
 30
0.0
 40
0.5
  1
30781000
100
AcDbAttributeDefinition
  3

  2
LINA
 70
     8
280
     0
  0
ATTDEF
  5
146
330
13D
100
AcDbEntity
  8
attrib
100
AcDbText
 10
95.0
 20
12.50000000000001
 30
0.0
 40
0.5
  1
Wöhner
100
AcDbAttributeDefinition
  3

  2
CATALOG
 70
     8
280
     0
  0
ATTDEF
  5
147
330
13D
100
AcDbEntity
  8
attrib
100
AcDbText
 10
95.0
 20
12.00000000000001
 30
0.0
 40
0.5
  1
33416
100
AcDbAttributeDefinition
  3

  2
ARTNR
 70
     8
280
     0
  0
ATTDEF
  5
148
330
13D
100
AcDbEntity
  8
attrib
100
AcDbText
 10
95.0
 20
11.50000000000001
 30
0.0
 40
0.5
  1
1
100
AcDbAttributeDefinition
  3

  2
QNT
 70
     8
280
     0
  0
ATTDEF
  5
149
330
13D
100
AcDbEntity
  8
attrib
100
AcDbText
 10
95.0
 20
11.00000000000001
 30
0.0
 40
0.5
  1
90
100
AcDbAttributeDefinition
  3

  2
W
 70
     8
280
     0
  0
ATTDEF
  5
14A
330
13D
100
AcDbEntity
  8
attrib
100
AcDbText
 10
95.0
 20
10.50000000000001
 30
0.0
 40
0.5
  1
160
100
AcDbAttributeDefinition
  3

  2
H
 70
     8
280
     0
  0
ATTDEF
  5
14B
330
13D
100
AcDbEntity
  8
attrib
100
AcDbText
 10
95.0
 20
10.00000000000001
 30
0.0
 40
0.5
  1
98
100
AcDbAttributeDefinition
  3

  2
D
 70
     8
280
     0
  0
ATTDEF
  5
14C
330
13D
100
AcDbEntity
  8
attrib
100
AcDbText
 10
95.0
 20
9.500000000000014
 30
0.0
 40
0.5
  1
IP30
100
AcDbAttributeDefinition
  3

  2
IPRF
 70
     8
280
     0
  0
ATTDEF
  5
14D
330
13D
100
AcDbEntity
  8
attrib
100
AcDbText
 10
95.0
 20
9.000000000000014
 30
0.0
 40
0.5
  1
Product link
100
AcDbAttributeDefinition
  3

  2
LINK
 70
     8
280
     0
  0
ATTDEF
  5
14E
330
13D
100
AcDbEntity
  8
attrib
100
AcDbText
 10
95.0
 20
8.500000000000014
 30
0.0
 40
0.5
  1
woehner
100
AcDbAttributeDefinition
  3

  2
COMPANY
 70
     8
280
     0
  0
ATTDEF
  5
14F
330
13D
100
AcDbEntity
  8
attrib
100
AcDbText
 10
95.0
 20
8.000000000000014
 30
0.0
 40
0.5
  1
{$CADENAS_DATA/23d-libs/woehner/sys_30_c_3pole/nh_inline_fuse_switch/parts/size000_lower.prj},164 {VTYP=3D},{NB=30781000},{LINA=30781000},{NN=Size 000 dummy},{DATE=04.11.2022 07:06:05},{GEOMDATE=19.09.2022 11:28:00},{VERSION=},{LINEID=10},{WBVAR=},{WBNUME
100
AcDbAttributeDefinition
  3

  2
PSOL_0
 70
     9
280
     0
  0
ATTDEF
  5
150
330
13D
100
AcDbEntity
  8
attrib
100
AcDbText
 10
95.0
 20
7.500000000000014
 30
0.0
 40
0.5
  1
RIC=}  {NB=30781000},{LINA=30781000},{KT=DUMMY},{BOM=30781000},{ARTNR=33416},{BUSB=12 x 5, 10},{POF=QUADRON®30Compact},{TYPE=QCB-NH000},{QNT=1},{W=90},{H=160},{D=98},{CONCA=Rahmenklemme},{SCR=},{IPR=},{IPRF=IP30},{SEARCH=},{EDZ=},{IODD=},{DIST=4},{LINK=Pr
100
AcDbAttributeDefinition
  3

  2
PSOL_1
 70
     9
280
     0
  0
ATTDEF
  5
151
330
13D
100
AcDbEntity
  8
attrib
100
AcDbText
 10
95.0
 20
7.000000000000014
 30
0.0
 40
0.5
  1
oduct link},{LINKX=https://www.woehner.de/de/produkte/33416.html}
100
AcDbAttributeDefinition
  3

  2
PSOL_2
 70
     9
280
     0
  0
LINE
  5
152
330
13D
100
AcDbEntity
  8
hidden
100
AcDbLine
 10
56.0
 20
-67.99999999999997
 30
0.0
 11
34.0
 21
-67.99999999999997
 31
0.0
  0
LINE
  5
153
330
13D
100
AcDbEntity
  8
hidden
100
AcDbLine
 10
8.999999999999995
 20
-7.99999999999998
 30
0.0
 11
7.999999999999993
 21
-7.99999999999998
 31
0.0
  0
LINE
  5
154
330
13D
100
AcDbEntity
  8
hidden
100
AcDbLine
 10
82.0
 20
-128.0
 30
0.0
 11
60.0
 21
-128.0
 31
0.0
  0
LINE
  5
155
330
13D
100
AcDbEntity
  8
hidden
100
AcDbLine
 10
29.0
 20
-8.99999999999998
 30
0.0
 11
27.0
 21
-8.99999999999998
 31
0.0
  0
LINE
  5
156
330
13D
100
AcDbEntity
  8
hidden
100
AcDbLine
 10
27.0
 20
0.0
 30
0.0
 11
27.0
 21
-8.99999999999998
 31
0.0
  0
LINE
  5
157
330
13D
100
AcDbEntity
  8
hidden
100
AcDbLine
 10
29.0
 20
0.0
 30
0.0
 11
29.0
 21
-8.99999999999998
 31
0.0
  0
LINE
  5
158
330
13D
100
AcDbEntity
  8
hidden
100
AcDbLine
 10
34.99999999999999
 20
-59.99999999999999
 30
0.0
 11
34.99999999999999
 21
-68.99999999999997
 31
0.0
  0
LINE
  5
159
330
13D
100
AcDbEntity
  8
hidden
100
AcDbLine
 10
37.0
 20
-68.99999999999997
 30
0.0
 11
34.99999999999999
 21
-68.99999999999997
 31
0.0
  0
LINE
  5
15A
330
13D
100
AcDbEntity
  8
hidden
100
AcDbLine
 10
37.0
 20
-59.99999999999999
 30
0.0
 11
37.0
 21
-68.99999999999997
 31
0.0
  0
LINE
  5
15B
330
13D
100
AcDbEntity
  8
hidden
100
AcDbLine
 10
81.0
 20
-129.0
 30
0.0
 11
79.0
 21
-129.0
 31
0.0
  0
LINE
  5
15C
330
13D
100
AcDbEntity
  8
hidden
100
AcDbLine
 10
79.0
 20
-120.0
 30
0.0
 11
79.0
 21
-129.0
 31
0.0
  0
LINE
  5
15D
330
13D
100
AcDbEntity
  8
hidden
100
AcDbLine
 10
81.0
 20
-120.0
 30
0.0
 11
81.0
 21
-122.0
 31
0.0
  0
LINE
  5
15E
330
13D
100
AcDbEntity
  8
hidden
100
AcDbLine
 10
63.0
 20
-129.0
 30
0.0
 11
61.0
 21
-129.0
 31
0.0
  0
LINE
  5
15F
330
13D
100
AcDbEntity
  8
hidden
100
AcDbLine
 10
61.0
 20
-120.0
 30
0.0
 11
61.0
 21
-129.0
 31
0.0
  0
LINE
  5
160
330
13D
100
AcDbEntity
  8
hidden
100
AcDbLine
 10
63.0
 20
-120.0
 30
0.0
 11
63.0
 21
-129.0
 31
0.0
  0
LINE
  5
161
330
13D
100
AcDbEntity
  8
hidden
100
AcDbLine
 10
55.0
 20
-68.99999999999997
 30
0.0
 11
53.0
 21
-68.99999999999997
 31
0.0
  0
LINE
  5
162
330
13D
100
AcDbEntity
  8
hidden
100
AcDbLine
 10
53.0
 20
-59.99999999999999
 30
0.0
 11
53.0
 21
-68.99999999999997
 31
0.0
  0
LINE
  5
163
330
13D
100
AcDbEntity
  8
hidden
100
AcDbLine
 10
55.0
 20
-59.99999999999999
 30
0.0
 11
55.0
 21
-68.99999999999997
 31
0.0
  0
LINE
  5
164
330
13D
100
AcDbEntity
  8
hidden
100
AcDbLine
 10
8.999999999999995
 20
-7.99999999999998
 30
0.0
 11
8.999999999999995
 21
-8.99999999999998
 31
0.0
  0
LINE
  5
165
330
13D
100
AcDbEntity
  8
hidden
100
AcDbLine
 10
11.0
 20
-8.99999999999998
 30
0.0
 11
8.999999999999995
 21
-8.99999999999998
 31
0.0
  0
LINE
  5
166
330
13D
100
AcDbEntity
  8
hidden
100
AcDbLine
 10
11.0
 20
0.0
 30
0.0
 11
11.0
 21
-8.99999999999998
 31
0.0
  0
LINE
  5
167
330
13D
100
AcDbEntity
  8
hidden
100
AcDbLine
 10
34.0
 20
-67.99999999999997
 30
0.0
 11
34.0
 21
-43.99999999999999
 31
0.0
  0
LINE
  5
168
330
13D
100
AcDbEntity
  8
hidden
100
AcDbLine
 10
82.0
 20
-128.0
 30
0.0
 11
81.99999999999997
 21
-104.0
 31
0.0
  0
LINE
  5
169
330
13D
100
AcDbEntity
  8
hidden
100
AcDbLine
 10
56.0
 20
-67.99999999999997
 30
0.0
 11
56.0
 21
-43.99999999999999
 31
0.0
  0
LINE
  5
16A
330
13D
100
AcDbEntity
  8
hidden
100
AcDbLine
 10
52.5
 20
-60.79999999999999
 30
0.0
 11
52.5
 21
-69.79999999999998
 31
0.0
  0
LINE
  5
16B
330
13D
100
AcDbEntity
  8
hidden
100
AcDbLine
 10
37.5
 20
-60.79999999999999
 30
0.0
 11
37.5
 21
-69.79999999999998
 31
0.0
  0
LINE
  5
16C
330
13D
100
AcDbEntity
  8
hidden
100
AcDbLine
 10
52.5
 20
-69.79999999999998
 30
0.0
 11
37.5
 21
-69.79999999999998
 31
0.0
  0
LINE
  5
16D
330
13D
100
AcDbEntity
  8
hidden
100
AcDbLine
 10
78.5
 20
-120.8
 30
0.0
 11
63.5
 21
-120.8
 31
0.0
  0
LINE
  5
16E
330
13D
100
AcDbEntity
  8
hidden
100
AcDbLine
 10
26.5
 20
-0.7999999999999952
 30
0.0
 11
26.5
 21
-9.800000000000002
 31
0.0
  0
LINE
  5
16F
330
13D
100
AcDbEntity
  8
hidden
100
AcDbLine
 10
26.5
 20
-0.7999999999999952
 30
0.0
 11
11.5
 21
-0.7999999999999952
 31
0.0
  0
LINE
  5
170
330
13D
100
AcDbEntity
  8
hidden
100
AcDbLine
 10
11.5
 20
-0.7999999999999952
 30
0.0
 11
11.5
 21
-9.800000000000002
 31
0.0
  0
LINE
  5
171
330
13D
100
AcDbEntity
  8
hidden
100
AcDbLine
 10
78.5
 20
-120.8
 30
0.0
 11
78.5
 21
-129.8
 31
0.0
  0
LINE
  5
172
330
13D
100
AcDbEntity
  8
hidden
100
AcDbLine
 10
63.5
 20
-120.8
 30
0.0
 11
63.5
 21
-129.8
 31
0.0
  0
LINE
  5
173
330
13D
100
AcDbEntity
  8
hidden
100
AcDbLine
 10
78.5
 20
-129.8
 30
0.0
 11
63.5
 21
-129.8
 31
0.0
  0
LINE
  5
174
330
13D
100
AcDbEntity
  8
hidden
100
AcDbLine
 10
78.5
 20
-125.8
 30
0.0
 11
63.5
 21
-125.8
 31
0.0
  0
LINE
  5
175
330
13D
100
AcDbEntity
  8
hidden
100
AcDbLine
 10
52.5
 20
-65.79999999999998
 30
0.0
 11
37.5
 21
-65.79999999999998
 31
0.0
  0
LINE
  5
176
330
13D
100
AcDbEntity
  8
hidden
100
AcDbLine
 10
52.5
 20
-60.79999999999999
 30
0.0
 11
37.5
 21
-60.79999999999999
 31
0.0
  0
LINE
  5
177
330
13D
100
AcDbEntity
  8
hidden
100
AcDbLine
 10
26.5
 20
-9.800000000000002
 30
0.0
 11
11.5
 21
-9.800000000000002
 31
0.0
  0
LINE
  5
178
330
13D
100
AcDbEntity
  8
hidden
100
AcDbLine
 10
26.5
 20
-5.8
 30
0.0
 11
11.5
 21
-5.8
 31
0.0
  0
LINE
  5
179
330
13D
100
AcDbEntity
  8
hidden
100
AcDbLine
 10
10.00000000000004
 20
-143.0
 30
0.0
 11
0.0
 21
-143.0
 31
0.0
  0
LINE
  5
17A
330
13D
100
AcDbEntity
  8
hidden
100
AcDbLine
 10
90.0
 20
-143.0
 30
0.0
 11
80.0
 21
-143.0
 31
0.0
  0
LINE
  5
17B
330
13D
100
AcDbEntity
  8
hidden
100
AcDbLine
 10
90.0
 20
-104.0
 30
0.0
 11
0.0
 21
-104.0
 31
0.0
  0
LINE
  5
17C
330
13D
100
AcDbEntity
  8
hidden
100
AcDbLine
 10
56.0
 20
-59.99999999999999
 30
0.0
 11
34.0
 21
-59.99999999999999
 31
0.0
  0
LINE
  5
17D
330
13D
100
AcDbEntity
  8
hidden
100
AcDbLine
 10
74.00000000000001
 20
-59.99999999999999
 30
0.0
 11
74.00000000000001
 21
-45.99999999999999
 31
0.0
  0
LINE
  5
17E
330
13D
100
AcDbEntity
  8
hidden
100
AcDbLine
 10
90.0
 20
-59.99999999999999
 30
0.0
 11
74.00000000000001
 21
-59.99999999999999
 31
0.0
  0
LINE
  5
17F
330
13D
100
AcDbEntity
  8
hidden
100
AcDbLine
 10
34.0
 20
-45.99999999999999
 30
0.0
 11
0.0
 21
-45.99999999999999
 31
0.0
  0
LINE
  5
180
330
13D
100
AcDbEntity
  8
hidden
100
AcDbLine
 10
38.0
 20
-60.99999999999997
 30
0.0
 11
52.0
 21
-60.99999999999997
 31
0.0
  0
LINE
  5
181
330
13D
100
AcDbEntity
  8
hidden
100
AcDbLine
 10
52.0
 20
-72.99999999999999
 30
0.0
 11
38.0
 21
-72.99999999999999
 31
0.0
  0
LINE
  5
182
330
13D
100
AcDbEntity
  8
hidden
100
AcDbLine
 10
52.0
 20
-72.99999999999999
 30
0.0
 11
52.0
 21
-60.99999999999997
 31
0.0
  0
LINE
  5
183
330
13D
100
AcDbEntity
  8
hidden
100
AcDbLine
 10
38.0
 20
-72.99999999999999
 30
0.0
 11
38.0
 21
-60.99999999999997
 31
0.0
  0
LINE
  5
184
330
13D
100
AcDbEntity
  8
hidden
100
AcDbLine
 10
74.00000000000001
 20
-45.99999999999999
 30
0.0
 11
56.0
 21
-45.99999999999999
 31
0.0
  0
LINE
  5
185
330
13D
100
AcDbEntity
  8
hidden
100
AcDbLine
 10
76.0
 20
-43.99999999999999
 30
0.0
 11
76.0
 21
-57.99999999999999
 31
0.0
  0
LINE
  5
186
330
13D
100
AcDbEntity
  8
hidden
100
AcDbLine
 10
26.0
 20
-12.99999999999998
 30
0.0
 11
12.0
 21
-12.99999999999998
 31
0.0
  0
LINE
  5
187
330
13D
100
AcDbEntity
  8
hidden
100
AcDbLine
 10
12.0
 20
-0.9999999999999731
 30
0.0
 11
26.0
 21
-0.9999999999999731
 31
0.0
  0
LINE
  5
188
330
13D
100
AcDbEntity
  8
hidden
100
AcDbLine
 10
76.0
 20
-43.99999999999999
 30
0.0
 11
0.0
 21
-43.99999999999999
 31
0.0
  0
LINE
  5
189
330
13D
100
AcDbEntity
  8
hidden
100
AcDbLine
 10
76.0
 20
-57.99999999999999
 30
0.0
 11
90.0
 21
-57.99999999999999
 31
0.0
  0
LINE
  5
18A
330
13D
100
AcDbEntity
  8
hidden
100
AcDbLine
 10
64.0
 20
-133.0
 30
0.0
 11
64.0
 21
-121.0
 31
0.0
  0
LINE
  5
18B
330
13D
100
AcDbEntity
  8
hidden
100
AcDbLine
 10
78.0
 20
-133.0
 30
0.0
 11
78.0
 21
-123.0
 31
0.0
  0
LINE
  5
18C
330
13D
100
AcDbEntity
  8
hidden
100
AcDbLine
 10
78.0
 20
-133.0
 30
0.0
 11
64.0
 21
-133.0
 31
0.0
  0
LINE
  5
18D
330
13D
100
AcDbEntity
  8
hidden
100
AcDbLine
 10
64.0
 20
-121.0
 30
0.0
 11
78.0
 21
-121.0
 31
0.0
  0
LINE
  5
18E
330
13D
100
AcDbEntity
  8
hidden
100
AcDbLine
 10
26.0
 20
-12.99999999999998
 30
0.0
 11
26.0
 21
-0.9999999999999731
 31
0.0
  0
LINE
  5
18F
330
13D
100
AcDbEntity
  8
hidden
100
AcDbLine
 10
82.0
 20
-120.0
 30
0.0
 11
60.0
 21
-120.0
 31
0.0
  0
LINE
  5
190
330
13D
100
AcDbEntity
  8
hidden
100
AcDbLine
 10
90.0
 20
11.00000000000001
 30
0.0
 11
30.00000000000001
 21
11.00000000000001
 31
0.0
  0
LINE
  5
191
330
13D
100
AcDbEntity
  8
hidden
100
AcDbLine
 10
8.000000000000021
 20
11.00000000000001
 30
0.0
 11
7.999999999999993
 21
-7.99999999999998
 31
0.0
  0
LINE
  5
192
330
13D
100
AcDbEntity
  8
hidden
100
AcDbLine
 10
12.0
 20
-12.99999999999998
 30
0.0
 11
12.0
 21
-0.9999999999999731
 31
0.0
  0
LINE
  5
193
330
13D
100
AcDbEntity
  8
hidden
100
AcDbLine
 10
60.0
 20
-112.0
 30
0.0
 11
60.0
 21
-128.0
 31
0.0
  0
LINE
  5
194
330
13D
100
AcDbEntity
  8
hidden
100
AcDbLine
 10
8.000000000000021
 20
11.00000000000001
 30
0.0
 11
0.0
 21
11.00000000000001
 31
0.0
  0
LINE
  5
195
330
13D
100
AcDbEntity
  8
hidden
100
AcDbLine
 10
90.0
 20
-106.0
 30
0.0
 11
82.0
 21
-106.0
 31
0.0
  0
LINE
  5
196
330
13D
100
AcDbEntity
  8
hidden
100
AcDbLine
 10
60.0
 20
-106.0
 30
0.0
 11
0.0000000000000139
 21
-106.0
 31
0.0
  0
LINE
  5
197
330
13D
100
AcDbEntity
  8
hidden
100
AcDbLine
 10
30.00000000000001
 20
11.00000000000001
 30
0.0
 11
30.0
 21
-7.99999999999998
 31
0.0
  0
LINE
  5
198
330
13D
100
AcDbEntity
  8
hidden
100
AcDbLine
 10
30.0
 20
0.0
 30
0.0
 11
7.999999999999993
 21
0.0
 31
0.0
  0
LINE
  5
199
330
13D
100
AcDbEntity
  8
bold
100
AcDbLine
 10
30.0
 20
15.00000000000001
 30
0.0
 11
30.0
 21
14.00000000000001
 31
0.0
  0
LINE
  5
19A
330
13D
100
AcDbEntity
  8
bold
100
AcDbLine
 10
30.0
 20
15.00000000000001
 30
0.0
 11
7.999999999999993
 21
15.00000000000001
 31
0.0
  0
LINE
  5
19B
330
13D
100
AcDbEntity
  8
bold
100
AcDbLine
 10
7.999999999999993
 20
15.00000000000001
 30
0.0
 11
7.999999999999993
 21
14.00000000000001
 31
0.0
  0
ENDBLK
  5
140
330
13D
100
AcDbEntity
  8
0
100
AcDbBlockEnd
  0
BLOCK
  5
1A0
330
19F
100
AcDbEntity
  8
0
100
AcDbBlockBegin
  2
*D5
 70
     1
 10
0.0
 20
0.0
 30
0.0
  3
*D5
  1

  0
LINE
  5
1A2
330
19F
100
AcDbEntity
  8
dimension
 62
     0
370
    -2
100
AcDbLine
 10
0.0
 20
-146.0
 30
0.0
 11
0.0
 21
-170.5
 31
0.0
  0
LINE
  5
1A3
330
19F
100
AcDbEntity
  8
dimension
 62
     0
370
    -2
100
AcDbLine
 10
90.0
 20
-146.0
 30
0.0
 11
90.0
 21
-170.5
 31
0.0
  0
LINE
  5
1A4
330
19F
100
AcDbEntity
  8
dimension
 62
     0
370
    -2
100
AcDbLine
 10
7.0
 20
-170.5
 30
0.0
 11
83.0
 21
-170.5
 31
0.0
  0
SOLID
  5
1A5
330
19F
100
AcDbEntity
  8
dimension
 62
     0
100
AcDbTrace
 10
7.0
 20
-169.3333333333333
 30
0.0
 11
7.0
 21
-171.6666666666667
 31
0.0
 12
0.0
 22
-170.5
 32
0.0
 13
0.0
 23
-170.5
 33
0.0
  0
SOLID
  5
1A6
330
19F
100
AcDbEntity
  8
dimension
 62
     0
100
AcDbTrace
 10
83.0
 20
-171.6666666666667
 30
0.0
 11
83.0
 21
-169.3333333333333
 31
0.0
 12
90.0
 22
-170.5
 32
0.0
 13
90.0
 23
-170.5
 33
0.0
  0
MTEXT
  5
1A7
330
19F
100
AcDbEntity
  8
dimension
 62
     0
100
AcDbMText
 10
45.0
 20
-164.9
 30
0.0
 40
7.0
 41
0.0
 46
0.0
 71
     5
 72
     1
  1
90
 73
     1
 44
1.0
  0
POINT
  5
1A8
330
19F
100
AcDbEntity
  8
Defpoints
 62
     0
100
AcDbPoint
 10
0.0
 20
-146.0
 30
0.0
  0
POINT
  5
1A9
330
19F
100
AcDbEntity
  8
Defpoints
 62
     0
100
AcDbPoint
 10
90.0
 20
-146.0
 30
0.0
  0
POINT
  5
1AA
330
19F
100
AcDbEntity
  8
Defpoints
 62
     0
100
AcDbPoint
 10
90.0
 20
-167.0
 30
0.0
  0
ENDBLK
  5
1A1
330
19F
100
AcDbEntity
  8
0
100
AcDbBlockEnd
  0
ENDSEC
  0
SECTION
  2
ENTITIES
  0
ATTDEF
  5
5F
330
1F
100
AcDbEntity
  8
attrib
100
AcDbText
 10
95.0
 20
15.00000000000001
 30
0.0
 40
0.5
  1
33416
100
AcDbAttributeDefinition
  3

  2
NB
 70
     8
280
     0
  0
ATTDEF
  5
60
330
1F
100
AcDbEntity
  8
attrib
100
AcDbText
 10
95.0
 20
14.50000000000001
 30
0.0
 40
0.5
  1
Size 000
100
AcDbAttributeDefinition
  3

  2
NN
 70
     8
280
     0
  0
ATTDEF
  5
61
330
1F
100
AcDbEntity
  8
attrib
100
AcDbText
 10
95.0
 20
14.00000000000001
 30
0.0
 40
0.5
  1

100
AcDbAttributeDefinition
  3

  2
NT
 70
     8
280
     0
  0
ATTDEF
  5
62
330
1F
100
AcDbEntity
  8
attrib
100
AcDbText
 10
95.0
 20
13.50000000000001
 30
0.0
 40
0.5
  1
$ARTNR.
100
AcDbAttributeDefinition
  3

  2
NBSYN
 70
     8
280
     0
  0
ATTDEF
  5
63
330
1F
100
AcDbEntity
  8
attrib
100
AcDbText
 10
95.0
 20
13.00000000000001
 30
0.0
 40
0.5
  1
33416000
100
AcDbAttributeDefinition
  3

  2
LINA
 70
     8
280
     0
  0
ATTDEF
  5
64
330
1F
100
AcDbEntity
  8
attrib
100
AcDbText
 10
95.0
 20
12.50000000000001
 30
0.0
 40
0.5
  1
Wöhner
100
AcDbAttributeDefinition
  3

  2
CATALOG
 70
     8
280
     0
  0
ATTDEF
  5
65
330
1F
100
AcDbEntity
  8
attrib
100
AcDbText
 10
95.0
 20
12.00000000000001
 30
0.0
 40
0.5
  1
33416
100
AcDbAttributeDefinition
  3

  2
ARTNR
 70
     8
280
     0
  0
ATTDEF
  5
66
330
1F
100
AcDbEntity
  8
attrib
100
AcDbText
 10
95.0
 20
11.50000000000001
 30
0.0
 40
0.5
  1
12 x 5, 10
100
AcDbAttributeDefinition
  3

  2
BUSB
 70
     8
280
     0
  0
ATTDEF
  5
67
330
1F
100
AcDbEntity
  8
attrib
100
AcDbText
 10
95.0
 20
11.00000000000001
 30
0.0
 40
0.5
  1
QUADRON®30Compact
100
AcDbAttributeDefinition
  3

  2
POF
 70
     8
280
     0
  0
ATTDEF
  5
68
330
1F
100
AcDbEntity
  8
attrib
100
AcDbText
 10
95.0
 20
10.50000000000001
 30
0.0
 40
0.5
  1
QCB-NH000
100
AcDbAttributeDefinition
  3

  2
TYPE
 70
     8
280
     0
  0
ATTDEF
  5
69
330
1F
100
AcDbEntity
  8
attrib
100
AcDbText
 10
95.0
 20
10.00000000000001
 30
0.0
 40
0.5
  1
1
100
AcDbAttributeDefinition
  3

  2
QNT
 70
     8
280
     0
  0
ATTDEF
  5
6A
330
1F
100
AcDbEntity
  8
attrib
100
AcDbText
 10
95.0
 20
9.500000000000014
 30
0.0
 40
0.5
  1
90
100
AcDbAttributeDefinition
  3

  2
W
 70
     8
280
     0
  0
ATTDEF
  5
6B
330
1F
100
AcDbEntity
  8
attrib
100
AcDbText
 10
95.0
 20
9.000000000000014
 30
0.0
 40
0.5
  1
160
100
AcDbAttributeDefinition
  3

  2
H
 70
     8
280
     0
  0
ATTDEF
  5
6C
330
1F
100
AcDbEntity
  8
attrib
100
AcDbText
 10
95.0
 20
8.500000000000014
 30
0.0
 40
0.5
  1
98
100
AcDbAttributeDefinition
  3

  2
D
 70
     8
280
     0
  0
ATTDEF
  5
6D
330
1F
100
AcDbEntity
  8
attrib
100
AcDbText
 10
95.0
 20
8.000000000000014
 30
0.0
 40
0.5
  1
Box terminal
100
AcDbAttributeDefinition
  3

  2
CONCA
 70
     8
280
     0
  0
ATTDEF
  5
6E
330
1F
100
AcDbEntity
  8
attrib
100
AcDbText
 10
95.0
 20
7.500000000000014
 30
0.0
 40
0.5
  1
IP30
100
AcDbAttributeDefinition
  3

  2
IPRF
 70
     8
280
     0
  0
ATTDEF
  5
6F
330
1F
100
AcDbEntity
  8
attrib
100
AcDbText
 10
95.0
 20
7.000000000000014
 30
0.0
 40
0.5
  1
Product link
100
AcDbAttributeDefinition
  3

  2
LINK
 70
     8
280
     0
  0
ATTDEF
  5
70
330
1F
100
AcDbEntity
  8
attrib
100
AcDbText
 10
95.0
 20
6.500000000000014
 30
0.0
 40
0.5
  1
woehner
100
AcDbAttributeDefinition
  3

  2
COMPANY
 70
     8
280
     0
  0
ATTDEF
  5
71
330
1F
100
AcDbEntity
  8
attrib
100
AcDbText
 10
95.0
 20
6.000000000000014
 30
0.0
 40
0.5
  1
{$CADENAS_DATA/23d-libs/woehner/sys_30_c_3pole/nh_inline_fuse_switch/size000_asmtab.prj},167 {VTYP=3D},{STYP=ASSTAB},{NB=33416},{LINA=33416000},{NN=Gr.000},{DATE=09.12.2022 12:44:30},{GEOMDATE=19.09.2022 12:30:02},{VERSION=},{LINEID=10},{WBVAR=},{WBNUMERI
100
AcDbAttributeDefinition
  3

  2
PSOL_0
 70
     9
280
     0
  0
ATTDEF
  5
72
330
1F
100
AcDbEntity
  8
attrib
100
AcDbText
 10
95.0
 20
5.500000000000014
 30
0.0
 40
0.5
  1
C=}  {NB=33416},{LINA=33416000},{KT=DUMMY},{BOM=33416000},{ARTNR=33416},{BUSB=12 x 5, 10},{POF=QUADRON®30Compact},{TYPE=QCB-NH000},{QNT=1},{W=90},{H=160},{D=98},{CONCA=Frame clamp},{SCR=},{IPR=},{IPRF=IP30},{SEARCH=},{EDZ=},{IODD=},{DIST=7},{LINK=Product 
100
AcDbAttributeDefinition
  3

  2
PSOL_1
 70
     9
280
     0
  0
ATTDEF
  5
73
330
1F
100
AcDbEntity
  8
attrib
100
AcDbText
 10
95.0
 20
5.000000000000014
 30
0.0
 40
0.5
  1
link},{LINKX=https://www.woehner.de/de/produkte/33416.html},{PPATH=parts/size000_asmtpl.prj}
100
AcDbAttributeDefinition
  3

  2
PSOL_2
 70
     9
280
     0
  0
INSERT
  5
75
330
1F
100
AcDbEntity
  8
0
100
AcDbBlockReference
  2
1_77079000_0_in_33416_0
 10
0.0
 20
0.0
 30
0.0
  0
INSERT
  5
98
330
1F
100
AcDbEntity
  8
0
100
AcDbBlockReference
  2
2_30022100_0_in_33416_0
 10
0.0
 20
0.0
 30
0.0
  0
INSERT
  5
ED
330
1F
100
AcDbEntity
  8
0
100
AcDbBlockReference
  2
3_30780000_0_in_33416_0
 10
0.0
 20
0.0
 30
0.0
  0
INSERT
  5
13E
330
1F
100
AcDbEntity
  8
0
100
AcDbBlockReference
  2
4_30781000_0_in_33416_0
 10
0.0
 20
0.0
 30
0.0
  0
DIMENSION
  5
19D
330
1F
100
AcDbEntity
  8
dimension
100
AcDbDimension
280
     0
  2
*D5
 10
90.0
 20
-170.5
 30
0.0
 11
45.0
 21
-170.5
 31
0.0
 70
   160
  1
90
 71
     5
 42
90.0
 73
     0
 74
     0
 75
     0
  3
ISO-25
100
AcDbAlignedDimension
 13
0.0
 23
-146.0
 33
0.0
 14
90.0
 24
-146.0
 34
0.0
100
AcDbRotatedDimension
1001
ACAD
1000
DSTYLE
1002
{
1070
   147
1040
2.1
1070
    42
1040
0.0
1070
    44
1040
0.0
1070
    41
1040
7.0
1070
   140
1040
7.0
1002
}
  0
POINT
  5
1AC
330
1F
100
AcDbEntity
  8
connection
100
AcDbPoint
 10
45.0
 20
-117.028
 30
0.0
  0
POINT
  5
1AD
330
1F
100
AcDbEntity
  8
connection
100
AcDbPoint
 10
45.0
 20
-117.028
 30
0.0
  0
POINT
  5
1AE
330
1F
100
AcDbEntity
  8
connection
100
AcDbPoint
 10
45.0
 20
-133.0
 30
0.0
  0
POINT
  5
1AF
330
1F
100
AcDbEntity
  8
connection
100
AcDbPoint
 10
45.0
 20
-146.0
 30
0.0
  0
POINT
  5
1B0
330
1F
100
AcDbEntity
  8
connection
100
AcDbPoint
 10
0.0
 20
0.0
 30
0.0
  0
POINT
  5
1B1
330
1F
100
AcDbEntity
  8
connection
100
AcDbPoint
 10
45.0
 20
-146.0
 30
0.0
  0
ENDSEC
  0
SECTION
  2
OBJECTS
  0
DICTIONARY
  5
C
330
0
100
AcDbDictionary
281
     1
  3
ACAD_DETAILVIEWSTYLE
350
1B9
  3
ACAD_GROUP
350
D
  3
ACAD_LAYOUT
350
1A
  3
ACAD_MATERIAL
350
43
  3
ACAD_MLEADERSTYLE
350
5B
  3
ACAD_MLINESTYLE
350
17
  3
ACAD_PLOTSETTINGS
350
19
  3
ACAD_PLOTSTYLENAME
350
E
  3
ACAD_SCALELIST
350
47
  3
ACAD_SECTIONVIEWSTYLE
350
1BA
  3
ACAD_TABLESTYLE
350
59
  3
ACAD_VISUALSTYLE
350
2A
  3
ACDB_RECOMPOSE_DATA
350
1B6
  3
AcDbVariableDictionary
350
1B2
  0
SUN
  5
5D
330
29
100
AcDbSun
 90
        1
290
     0
 63
     7
421
 16777215
 40
1.0
291
     1
 91
  2455826
 92
 54000000
292
     0
 70
     2
 71
   256
280
     1
  0
DICTIONARY
  5
1B9
102
{ACAD_REACTORS
330
C
102
}
330
C
100
AcDbDictionary
281
     1
  0
DICTIONARY
  5
D
102
{ACAD_REACTORS
330
C
102
}
330
C
100
AcDbDictionary
281
     1
  0
DICTIONARY
  5
1A
102
{ACAD_REACTORS
330
C
102
}
330
C
100
AcDbDictionary
281
     1
  3
Layout1
350
1E
  3
Layout2
350
26
  3
Model
350
22
  0
DICTIONARY
  5
43
102
{ACAD_REACTORS
330
C
102
}
330
C
100
AcDbDictionary
281
     1
  3
ByBlock
350
45
  3
ByLayer
350
44
  3
Global
350
46
  0
DICTIONARY
  5
5B
102
{ACAD_REACTORS
330
C
102
}
330
C
100
AcDbDictionary
281
     1
  3
Standard
350
5C
  0
DICTIONARY
  5
17
102
{ACAD_REACTORS
330
C
102
}
330
C
100
AcDbDictionary
281
     1
  3
Standard
350
18
  0
DICTIONARY
  5
19
102
{ACAD_REACTORS
330
C
102
}
330
C
100
AcDbDictionary
281
     1
  0
ACDBDICTIONARYWDFLT
  5
E
102
{ACAD_REACTORS
330
C
102
}
330
C
100
AcDbDictionary
281
     1
  3
Normal
350
F
100
AcDbDictionaryWithDefault
340
F
  0
DICTIONARY
  5
47
102
{ACAD_REACTORS
330
C
102
}
330
C
100
AcDbDictionary
281
     1
  3
A0
350
48
  3
A1
350
49
  3
A2
350
4A
  3
A3
350
4B
  3
A4
350
4C
  3
A5
350
4D
  3
A6
350
4E
  3
A7
350
4F
  3
A8
350
50
  3
A9
350
51
  3
B0
350
52
  3
B1
350
53
  3
B2
350
54
  3
B3
350
55
  3
B4
350
56
  3
B5
350
57
  3
B6
350
58
  0
DICTIONARY
  5
1BA
102
{ACAD_REACTORS
330
C
102
}
330
C
100
AcDbDictionary
281
     1
  0
DICTIONARY
  5
59
102
{ACAD_REACTORS
330
C
102
}
330
C
100
AcDbDictionary
281
     1
  3
Standard
350
5A
  0
DICTIONARY
  5
2A
102
{ACAD_REACTORS
330
C
102
}
330
C
100
AcDbDictionary
281
     1
  3
2dWireframe
350
2F
  3
Basic
350
32
  3
Brighten
350
36
  3
ColorChange
350
3A
  3
Conceptual
350
34
  3
Dim
350
35
  3
EdgeColorOff
350
3D
  3
Facepattern
350
39
  3
Flat
350
2B
  3
FlatWithEdges
350
2C
  3
Gouraud
350
2D
  3
GouraudWithEdges
350
2E
  3
Hidden
350
31
  3
JitterOff
350
3B
  3
Linepattern
350
38
  3
OverhangOff
350
3C
  3
Realistic
350
33
  3
Shaded
350
42
  3
Shaded with edges
350
41
  3
Shades of Gray
350
3E
  3
Sketchy
350
3F
  3
Thicken
350
37
  3
Wireframe
350
30
  3
X-Ray
350
40
  0
XRECORD
  5
1B6
102
{ACAD_REACTORS
330
C
102
}
330
C
100
AcDbXrecord
280
     1
 90
        1
330
5A
  0
DICTIONARY
  5
1B2
102
{ACAD_REACTORS
330
C
102
}
330
C
100
AcDbDictionary
281
     1
  3
CANNOSCALE
350
1B3
  3
CENTEREXE
350
1BB
  3
CENTERLTYPEFILE
350
1BC
  3
CMLEADERSTYLE
350
1B8
  3
CTABLESTYLE
350
1B7
  0
LAYOUT
  5
1E
102
{ACAD_REACTORS
330
1A
102
}
330
1A
100
AcDbPlotSettings
  1

  2
none_device
  4

  6

 40
0.0
 41
0.0
 42
0.0
 43
0.0
 44
0.0
 45
0.0
 46
0.0
 47
0.0
 48
0.0
 49
0.0
140
0.0
141
0.0
142
1.0
143
1.0
 70
   688
 72
     1
 73
     0
 74
     5
  7

 75
    16
 76
     0
 77
     2
 78
   300
147
1.0
148
0.0
149
0.0
100
AcDbLayout
  1
Layout1
 70
     1
 71
     1
 10
0.0
 20
0.0
 11
420.0
 21
297.0
 12
0.0
 22
0.0
 32
0.0
 14
1.000000000000000E+20
 24
1.000000000000000E+20
 34
1.000000000000000E+20
 15
-1.000000000000000E+20
 25
-1.000000000000000E+20
 35
-1.000000000000000E+20
146
0.0
 13
0.0
 23
0.0
 33
0.0
 16
1.0
 26
0.0
 36
0.0
 17
0.0
 27
1.0
 37
0.0
 76
     0
330
1B
  0
LAYOUT
  5
26
102
{ACAD_REACTORS
330
1A
102
}
330
1A
100
AcDbPlotSettings
  1

  2
none_device
  4

  6

 40
0.0
 41
0.0
 42
0.0
 43
0.0
 44
0.0
 45
0.0
 46
0.0
 47
0.0
 48
0.0
 49
0.0
140
0.0
141
0.0
142
1.0
143
1.0
 70
   688
 72
     1
 73
     0
 74
     5
  7

 75
    16
 76
     0
 77
     2
 78
   300
147
1.0
148
0.0
149
0.0
100
AcDbLayout
  1
Layout2
 70
     1
 71
     2
 10
0.0
 20
0.0
 11
0.0
 21
0.0
 12
0.0
 22
0.0
 32
0.0
 14
0.0
 24
0.0
 34
0.0
 15
0.0
 25
0.0
 35
0.0
146
0.0
 13
0.0
 23
0.0
 33
0.0
 16
1.0
 26
0.0
 36
0.0
 17
0.0
 27
1.0
 37
0.0
 76
     0
330
23
  0
LAYOUT
  5
22
102
{ACAD_REACTORS
330
1A
102
}
330
1A
100
AcDbPlotSettings
  1

  2
none_device
  4
Letter_(8.50_x_11.00_Inches)
  6

 40
6.35
 41
6.35
 42
6.35000508
 43
6.35000508
 44
215.9
 45
279.4
 46
0.0
 47
0.0
 48
0.0
 49
0.0
140
0.0
141
0.0
142
1.0
143
1.0
 70
  1712
 72
     1
 73
     0
 74
     0
  7

 75
     0
 76
     0
 77
     2
 78
   300
147
1.0
148
0.0
149
0.0
100
AcDbLayout
  1
Model
 70
     1
 71
     0
 10
0.0
 20
0.0
 11
420.0
 21
297.0
 12
0.0
 22
0.0
 32
0.0
 14
0.0
 24
-171.6666666666667
 34
0.0
 15
98.45238095238095
 25
15.50000000000001
 35
0.0
146
0.0
 13
0.0
 23
0.0
 33
0.0
 16
1.0
 26
0.0
 36
0.0
 17
0.0
 27
1.0
 37
0.0
 76
     0
330
1F
331
29
  0
MATERIAL
  5
45
102
{ACAD_REACTORS
330
43
102
}
330
43
100
AcDbMaterial
  1
ByBlock
 72
     1
 94
      127
  0
MATERIAL
  5
44
102
{ACAD_REACTORS
330
43
102
}
330
43
100
AcDbMaterial
  1
ByLayer
 72
     1
 94
      127
  0
MATERIAL
  5
46
102
{ACAD_REACTORS
330
43
102
}
330
43
100
AcDbMaterial
  1
Global
 72
     1
 94
      127
  0
MLEADERSTYLE
  5
5C
102
{ACAD_REACTORS
330
5B
102
}
330
5B
100
AcDbMLeaderStyle
179
     2
170
     2
171
     1
172
     0
 90
        2
 40
0.0
 41
0.0
173
     1
 91
-1056964608
340
14
 92
       -2
290
     1
 42
2.0
291
     1
 43
8.0
  3
Standard
341
0
 44
4.0
300

342
11
174
     1
178
     6
175
     1
176
     0
 93
-1056964608
 45
4.0
292
     0
297
     0
 46
4.0
343
0
 94
-1056964608
 47
1.0
 49
1.0
140
1.0
293
     1
141
0.0
294
     1
177
     0
142
1.0
295
     0
296
     0
143
3.75
271
     0
272
     9
273
     9
298
     0
  0
MLINESTYLE
  5
18
102
{ACAD_REACTORS
330
17
102
}
330
17
100
AcDbMlineStyle
  2
Standard
 70
     0
  3

 62
   256
 51
90.0
 52
90.0
 71
     2
 49
0.5
 62
   256
  6
BYLAYER
 49
-0.5
 62
   256
  6
BYLAYER
  0
ACDBPLACEHOLDER
  5
F
102
{ACAD_REACTORS
330
E
102
}
330
E
  0
SCALE
  5
48
102
{ACAD_REACTORS
330
47
102
}
330
47
100
AcDbScale
 70
     0
300
1:1
140
1.0
141
1.0
290
     1
  0
SCALE
  5
49
102
{ACAD_REACTORS
330
47
102
}
330
47
100
AcDbScale
 70
     0
300
1:2
140
1.0
141
2.0
290
     0
  0
SCALE
  5
4A
102
{ACAD_REACTORS
330
47
102
}
330
47
100
AcDbScale
 70
     0
300
1:4
140
1.0
141
4.0
290
     0
  0
SCALE
  5
4B
102
{ACAD_REACTORS
330
47
102
}
330
47
100
AcDbScale
 70
     0
300
1:5
140
1.0
141
5.0
290
     0
  0
SCALE
  5
4C
102
{ACAD_REACTORS
330
47
102
}
330
47
100
AcDbScale
 70
     0
300
1:8
140
1.0
141
8.0
290
     0
  0
SCALE
  5
4D
102
{ACAD_REACTORS
330
47
102
}
330
47
100
AcDbScale
 70
     0
300
1:10
140
1.0
141
10.0
290
     0
  0
SCALE
  5
4E
102
{ACAD_REACTORS
330
47
102
}
330
47
100
AcDbScale
 70
     0
300
1:16
140
1.0
141
16.0
290
     0
  0
SCALE
  5
4F
102
{ACAD_REACTORS
330
47
102
}
330
47
100
AcDbScale
 70
     0
300
1:20
140
1.0
141
20.0
290
     0
  0
SCALE
  5
50
102
{ACAD_REACTORS
330
47
102
}
330
47
100
AcDbScale
 70
     0
300
1:30
140
1.0
141
30.0
290
     0
  0
SCALE
  5
51
102
{ACAD_REACTORS
330
47
102
}
330
47
100
AcDbScale
 70
     0
300
1:40
140
1.0
141
40.0
290
     0
  0
SCALE
  5
52
102
{ACAD_REACTORS
330
47
102
}
330
47
100
AcDbScale
 70
     0
300
1:50
140
1.0
141
50.0
290
     0
  0
SCALE
  5
53
102
{ACAD_REACTORS
330
47
102
}
330
47
100
AcDbScale
 70
     0
300
1:100
140
1.0
141
100.0
290
     0
  0
SCALE
  5
54
102
{ACAD_REACTORS
330
47
102
}
330
47
100
AcDbScale
 70
     0
300
2:1
140
2.0
141
1.0
290
     0
  0
SCALE
  5
55
102
{ACAD_REACTORS
330
47
102
}
330
47
100
AcDbScale
 70
     0
300
4:1
140
4.0
141
1.0
290
     0
  0
SCALE
  5
56
102
{ACAD_REACTORS
330
47
102
}
330
47
100
AcDbScale
 70
     0
300
8:1
140
8.0
141
1.0
290
     0
  0
SCALE
  5
57
102
{ACAD_REACTORS
330
47
102
}
330
47
100
AcDbScale
 70
     0
300
10:1
140
10.0
141
1.0
290
     0
  0
SCALE
  5
58
102
{ACAD_REACTORS
330
47
102
}
330
47
100
AcDbScale
 70
     0
300
100:1
140
100.0
141
1.0
290
     0
  0
TABLESTYLE
  5
5A
102
{ACAD_REACTORS
330
59
102
}
102
{ACAD_XDICTIONARY
360
1B4
102
}
330
59
100
AcDbTableStyle
  3
Standard
 70
     0
 71
     0
 40
0.06
 41
0.06
280
     0
281
     0
  7
Standard
140
4.5
170
     2
 62
     0
 63
   257
283
     0
 90
        4
 91
        0
  1

274
    -2
284
     1
 64
     0
275
    -2
285
     1
 65
     0
276
    -2
286
     1
 66
     0
277
    -2
287
     1
 67
     0
278
    -2
288
     1
 68
     0
279
    -2
289
     1
 69
     0
  7
Standard
140
6.0
170
     5
 62
     0
 63
   257
283
     0
 90
        4
 91
        0
  1

274
    -2
284
     1
 64
     0
275
    -2
285
     1
 65
     0
276
    -2
286
     1
 66
     0
277
    -2
287
     1
 67
     0
278
    -2
288
     1
 68
     0
279
    -2
289
     1
 69
     0
  7
Standard
140
4.5
170
     5
 62
     0
 63
   257
283
     0
 90
        4
 91
        0
  1

274
    -2
284
     1
 64
     0
275
    -2
285
     1
 65
     0
276
    -2
286
     1
 66
     0
277
    -2
287
     1
 67
     0
278
    -2
288
     1
 68
     0
279
    -2
289
     1
 69
     0
  0
VISUALSTYLE
  5
2F
102
{ACAD_REACTORS
330
2A
102
}
330
2A
100
AcDbVisualStyle
  2
2dWireframe
 70
     4
177
     3
291
     0
 70
    58
 90
        0
176
     1
 90
        2
176
     1
 90
        0
176
     1
 90
        0
176
     1
 40
0.6
176
     1
 40
30.0
176
     1
 62
     7
420
 16777215
176
     1
 90
        1
176
     1
 90
        4
176
     1
 62
     7
176
     1
 62
   257
176
     1
 90
        1
176
     1
 90
        1
176
     1
 40
1.0
176
     1
 90
        0
176
     1
 62
   257
176
     1
 40
1.0
176
     1
 90
        1
176
     1
 90
        6
176
     1
 90
        2
176
     1
 62
     7
176
     1
 90
        5
176
     1
 90
        0
176
     1
 90
        0
176
     1
290
     0
176
     1
 90
        1
176
     1
 40
0.0
176
     1
 90
        0
176
     1
290
     1
176
     1
290
     1
176
     1
290
     0
176
     1
290
     0
176
     1
290
     0
176
     1
290
     0
176
     1
290
     0
176
     1
290
     0
176
     1
290
     0
176
     1
 90
       50
176
     1
 40
0.0
176
     1
 40
1.0
176
     1
 90
        0
176
     1
 62
    18
420
        0
176
     1
 90
       50
176
     1
 90
        3
176
     1
 62
     5
420
      255
176
     1
290
     0
176
     1
 90
       50
176
     1
 90
       50
176
     1
 90
       50
176
     1
290
     0
176
     1
 90
       50
176
     1
 62
   256
176
     0
 40
1.0
176
     0
 90
        2
176
     1
  1
strokes_ogs.tif
176
     1
290
     0
176
     1
 40
1.0
176
     1
 40
1.0
176
     1
  0
VISUALSTYLE
  5
32
102
{ACAD_REACTORS
330
2A
102
}
330
2A
100
AcDbVisualStyle
  2
Basic
 70
     7
177
     3
291
     1
 70
    58
 90
        1
176
     1
 90
        0
176
     1
 90
        1
176
     1
 90
        0
176
     1
 40
0.6
176
     1
 40
30.0
176
     1
 62
     7
420
 16777215
176
     1
 90
        0
176
     1
 90
        4
176
     1
 62
     7
176
     1
 62
   257
176
     1
 90
        1
176
     1
 90
        1
176
     1
 40
1.0
176
     1
 90
        8
176
     1
 62
     7
176
     1
 40
1.0
176
     1
 90
        1
176
     1
 90
        6
176
     1
 90
        2
176
     1
 62
     7
176
     1
 90
        5
176
     1
 90
        0
176
     1
 90
        0
176
     1
290
     0
176
     1
 90
        1
176
     1
 40
0.0
176
     1
 90
        0
176
     1
290
     0
176
     1
290
     1
176
     1
290
     1
176
     1
290
     0
176
     1
290
     0
176
     1
290
     0
176
     1
290
     0
176
     1
290
     0
176
     1
290
     0
176
     1
 90
       50
176
     1
 40
0.0
176
     1
 40
1.0
176
     1
 90
        0
176
     1
 62
    18
420
        0
176
     1
 90
       50
176
     1
 90
        3
176
     1
 62
     5
420
      255
176
     1
290
     0
176
     1
 90
       50
176
     1
 90
       50
176
     1
 90
       50
176
     1
290
     0
176
     1
 90
       50
176
     1
 62
   256
176
     0
 40
1.0
176
     0
 90
        2
176
     1
  1
strokes_ogs.tif
176
     1
290
     0
176
     1
 40
1.0
176
     1
 40
1.0
176
     1
  0
VISUALSTYLE
  5
36
102
{ACAD_REACTORS
330
2A
102
}
330
2A
100
AcDbVisualStyle
  2
Brighten
 70
    12
177
     3
291
     1
 70
    58
 90
        2
176
     1
 90
        2
176
     1
 90
        0
176
     1
 90
        0
176
     1
 40
0.6
176
     1
 40
30.0
176
     1
 62
     7
420
 16777215
176
     1
 90
        1
176
     1
 90
        4
176
     1
 62
     7
176
     1
 62
   257
176
     1
 90
        1
176
     1
 90
        1
176
     1
 40
1.0
176
     1
 90
        8
176
     1
 62
     7
176
     1
 40
1.0
176
     1
 90
        1
176
     1
 90
        6
176
     1
 90
        2
176
     1
 62
     7
176
     1
 90
        5
176
     1
 90
        0
176
     1
 90
        0
176
     1
290
     0
176
     1
 90
        1
176
     1
 40
50.0
176
     1
 90
        0
176
     1
290
     0
176
     1
290
     1
176
     1
290
     1
176
     1
290
     0
176
     1
290
     0
176
     1
290
     0
176
     1
290
     0
176
     1
290
     0
176
     1
290
     0
176
     1
 90
       50
176
     1
 40
0.0
176
     1
 40
1.0
176
     1
 90
        0
176
     1
 62
    18
420
        0
176
     1
 90
       50
176
     1
 90
        3
176
     1
 62
     5
420
      255
176
     1
290
     0
176
     1
 90
       50
176
     1
 90
       50
176
     1
 90
       50
176
     1
290
     0
176
     1
 90
       50
176
     1
 62
   256
176
     0
 40
1.0
176
     0
 90
        2
176
     1
  1
strokes_ogs.tif
176
     1
290
     0
176
     1
 40
1.0
176
     1
 40
1.0
176
     1
  0
VISUALSTYLE
  5
3A
102
{ACAD_REACTORS
330
2A
102
}
330
2A
100
AcDbVisualStyle
  2
ColorChange
 70
    16
177
     3
291
     1
 70
    58
 90
        2
176
     1
 90
        2
176
     1
 90
        3
176
     1
 90
        0
176
     1
 40
0.6
176
     1
 40
30.0
176
     1
 62
     8
420
  8421504
176
     1
 90
        1
176
     1
 90
        4
176
     1
 62
     7
176
     1
 62
   257
176
     1
 90
        1
176
     1
 90
        1
176
     1
 40
1.0
176
     1
 90
        8
176
     1
 62
     8
420
  8421504
176
     1
 40
1.0
176
     1
 90
        1
176
     1
 90
        6
176
     1
 90
        2
176
     1
 62
     7
176
     1
 90
        5
176
     1
 90
        0
176
     1
 90
        0
176
     1
290
     0
176
     1
 90
        1
176
     1
 40
0.0
176
     1
 90
        0
176
     1
290
     0
176
     1
290
     1
176
     1
290
     1
176
     1
290
     0
176
     1
290
     0
176
     1
290
     0
176
     1
290
     0
176
     1
290
     0
176
     1
290
     0
176
     1
 90
       50
176
     1
 40
0.0
176
     1
 40
1.0
176
     1
 90
        0
176
     1
 62
    18
420
        0
176
     1
 90
       50
176
     1
 90
        3
176
     1
 62
     5
420
      255
176
     1
290
     0
176
     1
 90
       50
176
     1
 90
       50
176
     1
 90
       50
176
     1
290
     0
176
     1
 90
       50
176
     1
 62
   256
176
     0
 40
1.0
176
     0
 90
        2
176
     1
  1
strokes_ogs.tif
176
     1
290
     0
176
     1
 40
1.0
176
     1
 40
1.0
176
     1
  0
VISUALSTYLE
  5
34
102
{ACAD_REACTORS
330
2A
102
}
330
2A
100
AcDbVisualStyle
  2
Conceptual
 70
     9
177
     3
291
     0
 70
    58
 90
        3
176
     1
 90
        2
176
     1
 90
        0
176
     1
 90
        0
176
     1
 40
0.6
176
     1
 40
30.0
176
     1
 62
     7
420
 16777215
176
     1
 90
        2
176
     1
 90
        2
176
     1
 62
     7
176
     1
 62
   257
176
     1
 90
        1
176
     1
 90
        1
176
     1
 40
179.0
176
     1
 90
        8
176
     1
 62
     7
176
     1
 40
1.0
176
     1
 90
        1
176
     1
 90
        6
176
     1
 90
        2
176
     1
 62
     7
176
     1
 90
        3
176
     1
 90
        0
176
     1
 90
        0
176
     1
290
     0
176
     1
 90
        1
176
     1
 40
0.0
176
     1
 90
        0
176
     1
290
     0
176
     1
290
     1
176
     1
290
     1
176
     1
290
     0
176
     1
290
     0
176
     1
290
     0
176
     1
290
     0
176
     1
290
     0
176
     1
290
     0
176
     1
 90
       50
176
     1
 40
0.0
176
     1
 40
1.0
176
     1
 90
        0
176
     1
 62
    18
420
        0
176
     1
 90
       50
176
     1
 90
        3
176
     1
 62
     5
420
      255
176
     1
290
     0
176
     1
 90
       50
176
     1
 90
       50
176
     1
 90
       50
176
     1
290
     0
176
     1
 90
       50
176
     1
 62
   256
176
     0
 40
1.0
176
     0
 90
        2
176
     1
  1
strokes_ogs.tif
176
     1
290
     0
176
     1
 40
1.0
176
     1
 40
1.0
176
     1
  0
VISUALSTYLE
  5
35
102
{ACAD_REACTORS
330
2A
102
}
330
2A
100
AcDbVisualStyle
  2
Dim
 70
    11
177
     3
291
     1
 70
    58
 90
        2
176
     1
 90
        2
176
     1
 90
        0
176
     1
 90
        0
176
     1
 40
0.6
176
     1
 40
30.0
176
     1
 62
     7
420
 16777215
176
     1
 90
        1
176
     1
 90
        4
176
     1
 62
     7
176
     1
 62
   257
176
     1
 90
        1
176
     1
 90
        1
176
     1
 40
1.0
176
     1
 90
        8
176
     1
 62
     7
176
     1
 40
1.0
176
     1
 90
        1
176
     1
 90
        6
176
     1
 90
        2
176
     1
 62
     7
176
     1
 90
        5
176
     1
 90
        0
176
     1
 90
        0
176
     1
290
     0
176
     1
 90
        1
176
     1
 40
-50.0
176
     1
 90
        0
176
     1
290
     0
176
     1
290
     1
176
     1
290
     1
176
     1
290
     0
176
     1
290
     0
176
     1
290
     0
176
     1
290
     0
176
     1
290
     0
176
     1
290
     0
176
     1
 90
       50
176
     1
 40
0.0
176
     1
 40
1.0
176
     1
 90
        0
176
     1
 62
    18
420
        0
176
     1
 90
       50
176
     1
 90
        3
176
     1
 62
     5
420
      255
176
     1
290
     0
176
     1
 90
       50
176
     1
 90
       50
176
     1
 90
       50
176
     1
290
     0
176
     1
 90
       50
176
     1
 62
   256
176
     0
 40
1.0
176
     0
 90
        2
176
     1
  1
strokes_ogs.tif
176
     1
290
     0
176
     1
 40
1.0
176
     1
 40
1.0
176
     1
  0
VISUALSTYLE
  5
3D
102
{ACAD_REACTORS
330
2A
102
}
330
2A
100
AcDbVisualStyle
  2
EdgeColorOff
 70
    22
177
     3
291
     1
 70
    58
 90
        2
176
     0
 90
        2
176
     0
 90
        0
176
     0
 90
        0
176
     0
 40
0.6
176
     0
 40
30.0
176
     0
 62
     7
420
 16777215
176
     0
 90
        1
176
     0
 90
        4
176
     0
 62
     7
176
     0
 62
   257
176
     0
 90
        1
176
     0
 90
        1
176
     0
 40
1.0
176
     0
 90
        8
176
     2
 62
     7
176
     0
 40
1.0
176
     0
 90
        1
176
     0
 90
        6
176
     0
 90
        2
176
     0
 62
     7
176
     0
 90
        5
176
     0
 90
        0
176
     0
 90
        0
176
     0
290
     0
176
     0
 90
        1
176
     0
 40
0.0
176
     0
 90
        0
176
     0
290
     0
176
     0
290
     1
176
     0
290
     1
176
     0
290
     0
176
     0
290
     0
176
     0
290
     0
176
     0
290
     0
176
     0
290
     0
176
     0
290
     0
176
     0
 90
       50
176
     0
 40
0.0
176
     0
 40
1.0
176
     0
 90
        0
176
     0
 62
    18
420
        0
176
     0
 90
       50
176
     0
 90
        3
176
     0
 62
     5
420
      255
176
     0
290
     0
176
     0
 90
       50
176
     0
 90
       50
176
     0
 90
       50
176
     0
290
     0
176
     0
 90
       50
176
     0
 62
   256
176
     0
 40
1.0
176
     0
 90
        2
176
     0
  1
strokes_ogs.tif
176
     0
290
     0
176
     0
 40
1.0
176
     0
 40
1.0
176
     0
  0
VISUALSTYLE
  5
39
102
{ACAD_REACTORS
330
2A
102
}
330
2A
100
AcDbVisualStyle
  2
Facepattern
 70
    15
177
     3
291
     1
 70
    58
 90
        2
176
     1
 90
        2
176
     1
 90
        0
176
     1
 90
        0
176
     1
 40
0.6
176
     1
 40
30.0
176
     1
 62
     7
420
 16777215
176
     1
 90
        1
176
     1
 90
        4
176
     1
 62
     7
176
     1
 62
   257
176
     1
 90
        1
176
     1
 90
        1
176
     1
 40
1.0
176
     1
 90
        8
176
     1
 62
     7
176
     1
 40
1.0
176
     1
 90
        1
176
     1
 90
        6
176
     1
 90
        2
176
     1
 62
     7
176
     1
 90
        5
176
     1
 90
        0
176
     1
 90
        0
176
     1
290
     0
176
     1
 90
        1
176
     1
 40
0.0
176
     1
 90
        0
176
     1
290
     0
176
     1
290
     1
176
     1
290
     1
176
     1
290
     0
176
     1
290
     0
176
     1
290
     0
176
     1
290
     0
176
     1
290
     0
176
     1
290
     0
176
     1
 90
       50
176
     1
 40
0.0
176
     1
 40
1.0
176
     1
 90
        0
176
     1
 62
    18
420
        0
176
     1
 90
       50
176
     1
 90
        3
176
     1
 62
     5
420
      255
176
     1
290
     0
176
     1
 90
       50
176
     1
 90
       50
176
     1
 90
       50
176
     1
290
     0
176
     1
 90
       50
176
     1
 62
   256
176
     0
 40
1.0
176
     0
 90
        2
176
     1
  1
strokes_ogs.tif
176
     1
290
     0
176
     1
 40
1.0
176
     1
 40
1.0
176
     1
  0
VISUALSTYLE
  5
2B
102
{ACAD_REACTORS
330
2A
102
}
330
2A
100
AcDbVisualStyle
  2
Flat
 70
     0
177
     3
291
     1
 70
    58
 90
        2
176
     1
 90
        1
176
     1
 90
        1
176
     1
 90
        2
176
     1
 40
0.6
176
     1
 40
30.0
176
     1
 62
     7
420
 16777215
176
     1
 90
        0
176
     1
 90
        0
176
     1
 62
     7
176
     1
 62
   257
176
     1
 90
        1
176
     1
 90
        1
176
     1
 40
1.0
176
     1
 90
        8
176
     1
 62
     7
176
     1
 40
1.0
176
     1
 90
        1
176
     1
 90
        6
176
     1
 90
        2
176
     1
 62
     7
176
     1
 90
        5
176
     1
 90
        0
176
     1
 90
        0
176
     1
290
     0
176
     1
 90
       13
176
     1
 40
0.0
176
     1
 90
        0
176
     1
290
     0
176
     1
290
     1
176
     1
290
     1
176
     1
290
     0
176
     1
290
     0
176
     1
290
     0
176
     1
290
     0
176
     1
290
     0
176
     1
290
     0
176
     1
 90
       50
176
     1
 40
0.0
176
     1
 40
1.0
176
     1
 90
        0
176
     1
 62
    18
420
        0
176
     1
 90
       50
176
     1
 90
        3
176
     1
 62
     5
420
      255
176
     1
290
     0
176
     1
 90
       50
176
     1
 90
       50
176
     1
 90
       50
176
     1
290
     0
176
     1
 90
       50
176
     1
 62
   256
176
     0
 40
1.0
176
     0
 90
        2
176
     1
  1
strokes_ogs.tif
176
     1
290
     0
176
     1
 40
1.0
176
     1
 40
1.0
176
     1
  0
VISUALSTYLE
  5
2C
102
{ACAD_REACTORS
330
2A
102
}
330
2A
100
AcDbVisualStyle
  2
FlatWithEdges
 70
     1
177
     3
291
     1
 70
    58
 90
        2
176
     1
 90
        1
176
     1
 90
        1
176
     1
 90
        2
176
     1
 40
0.6
176
     1
 40
30.0
176
     1
 62
     7
420
 16777215
176
     1
 90
        1
176
     1
 90
        0
176
     1
 62
     7
176
     1
 62
   257
176
     1
 90
        1
176
     1
 90
        1
176
     1
 40
1.0
176
     1
 90
        0
176
     1
 62
   257
176
     1
 40
1.0
176
     1
 90
        1
176
     1
 90
        6
176
     1
 90
        2
176
     1
 62
     7
176
     1
 90
        5
176
     1
 90
        0
176
     1
 90
        0
176
     1
290
     0
176
     1
 90
       13
176
     1
 40
0.0
176
     1
 90
        0
176
     1
290
     0
176
     1
290
     1
176
     1
290
     1
176
     1
290
     0
176
     1
290
     0
176
     1
290
     0
176
     1
290
     0
176
     1
290
     0
176
     1
290
     0
176
     1
 90
       50
176
     1
 40
0.0
176
     1
 40
1.0
176
     1
 90
        0
176
     1
 62
    18
420
        0
176
     1
 90
       50
176
     1
 90
        3
176
     1
 62
     5
420
      255
176
     1
290
     0
176
     1
 90
       50
176
     1
 90
       50
176
     1
 90
       50
176
     1
290
     0
176
     1
 90
       50
176
     1
 62
   256
176
     0
 40
1.0
176
     0
 90
        2
176
     1
  1
strokes_ogs.tif
176
     1
290
     0
176
     1
 40
1.0
176
     1
 40
1.0
176
     1
  0
VISUALSTYLE
  5
2D
102
{ACAD_REACTORS
330
2A
102
}
330
2A
100
AcDbVisualStyle
  2
Gouraud
 70
     2
177
     3
291
     1
 70
    58
 90
        2
176
     1
 90
        2
176
     1
 90
        1
176
     1
 90
        2
176
     1
 40
0.6
176
     1
 40
30.0
176
     1
 62
     7
420
 16777215
176
     1
 90
        0
176
     1
 90
        0
176
     1
 62
     7
176
     1
 62
   257
176
     1
 90
        1
176
     1
 90
        1
176
     1
 40
1.0
176
     1
 90
        0
176
     1
 62
     7
176
     1
 40
1.0
176
     1
 90
        1
176
     1
 90
        6
176
     1
 90
        2
176
     1
 62
     7
176
     1
 90
        5
176
     1
 90
        0
176
     1
 90
        0
176
     1
290
     0
176
     1
 90
       13
176
     1
 40
0.0
176
     1
 90
        0
176
     1
290
     0
176
     1
290
     1
176
     1
290
     1
176
     1
290
     0
176
     1
290
     0
176
     1
290
     0
176
     1
290
     0
176
     1
290
     0
176
     1
290
     0
176
     1
 90
       50
176
     1
 40
0.0
176
     1
 40
1.0
176
     1
 90
        0
176
     1
 62
    18
420
        0
176
     1
 90
       50
176
     1
 90
        3
176
     1
 62
     5
420
      255
176
     1
290
     0
176
     1
 90
       50
176
     1
 90
       50
176
     1
 90
       50
176
     1
290
     0
176
     1
 90
       50
176
     1
 62
   256
176
     0
 40
1.0
176
     0
 90
        2
176
     1
  1
strokes_ogs.tif
176
     1
290
     0
176
     1
 40
1.0
176
     1
 40
1.0
176
     1
  0
VISUALSTYLE
  5
2E
102
{ACAD_REACTORS
330
2A
102
}
330
2A
100
AcDbVisualStyle
  2
GouraudWithEdges
 70
     3
177
     3
291
     1
 70
    58
 90
        2
176
     1
 90
        2
176
     1
 90
        1
176
     1
 90
        2
176
     1
 40
0.6
176
     1
 40
30.0
176
     1
 62
     7
420
 16777215
176
     1
 90
        1
176
     1
 90
        0
176
     1
 62
     7
176
     1
 62
   257
176
     1
 90
        1
176
     1
 90
        1
176
     1
 40
1.0
176
     1
 90
        0
176
     1
 62
   257
176
     1
 40
1.0
176
     1
 90
        1
176
     1
 90
        6
176
     1
 90
        2
176
     1
 62
     7
176
     1
 90
        5
176
     1
 90
        0
176
     1
 90
        0
176
     1
290
     0
176
     1
 90
       13
176
     1
 40
0.0
176
     1
 90
        0
176
     1
290
     0
176
     1
290
     1
176
     1
290
     1
176
     1
290
     0
176
     1
290
     0
176
     1
290
     0
176
     1
290
     0
176
     1
290
     0
176
     1
290
     0
176
     1
 90
       50
176
     1
 40
0.0
176
     1
 40
1.0
176
     1
 90
        0
176
     1
 62
    18
420
        0
176
     1
 90
       50
176
     1
 90
        3
176
     1
 62
     5
420
      255
176
     1
290
     0
176
     1
 90
       50
176
     1
 90
       50
176
     1
 90
       50
176
     1
290
     0
176
     1
 90
       50
176
     1
 62
   256
176
     0
 40
1.0
176
     0
 90
        2
176
     1
  1
strokes_ogs.tif
176
     1
290
     0
176
     1
 40
1.0
176
     1
 40
1.0
176
     1
  0
VISUALSTYLE
  5
31
102
{ACAD_REACTORS
330
2A
102
}
330
2A
100
AcDbVisualStyle
  2
Hidden
 70
     6
177
     3
291
     0
 70
    58
 90
        1
176
     1
 90
        2
176
     1
 90
        2
176
     1
 90
        0
176
     1
 40
0.6
176
     1
 40
30.0
176
     1
 62
     7
420
 16777215
176
     1
 90
        2
176
     1
 90
        2
176
     1
 62
     7
176
     1
 62
   257
176
     1
 90
        2
176
     1
 90
        1
176
     1
 40
40.0
176
     1
 90
        0
176
     1
 62
   257
176
     1
 40
1.0
176
     1
 90
        1
176
     1
 90
        6
176
     1
 90
        2
176
     1
 62
     7
176
     1
 90
        3
176
     1
 90
        0
176
     1
 90
        0
176
     1
290
     0
176
     1
 90
        1
176
     1
 40
0.0
176
     1
 90
        0
176
     1
290
     0
176
     1
290
     1
176
     1
290
     1
176
     1
290
     0
176
     1
290
     0
176
     1
290
     0
176
     1
290
     0
176
     1
290
     0
176
     1
290
     0
176
     1
 90
       50
176
     1
 40
0.0
176
     1
 40
1.0
176
     1
 90
        0
176
     1
 62
    18
420
        0
176
     1
 90
       50
176
     1
 90
        3
176
     1
 62
     5
420
      255
176
     1
290
     0
176
     1
 90
       50
176
     1
 90
       50
176
     1
 90
       50
176
     1
290
     0
176
     1
 90
       50
176
     1
 62
   256
176
     0
 40
1.0
176
     0
 90
        2
176
     1
  1
strokes_ogs.tif
176
     1
290
     0
176
     1
 40
1.0
176
     1
 40
1.0
176
     1
  0
VISUALSTYLE
  5
3B
102
{ACAD_REACTORS
330
2A
102
}
330
2A
100
AcDbVisualStyle
  2
JitterOff
 70
    20
177
     3
291
     1
 70
    58
 90
        2
176
     0
 90
        2
176
     0
 90
        0
176
     0
 90
        0
176
     0
 40
0.6
176
     0
 40
30.0
176
     0
 62
     7
420
 16777215
176
     0
 90
        1
176
     0
 90
        4
176
     0
 62
     7
176
     0
 62
   257
176
     0
 90
        1
176
     0
 90
        1
176
     0
 40
1.0
176
     0
 90
       10
176
     2
 62
     7
176
     0
 40
1.0
176
     0
 90
        1
176
     0
 90
        6
176
     0
 90
        2
176
     0
 62
     7
176
     0
 90
        5
176
     0
 90
        0
176
     0
 90
        0
176
     0
290
     0
176
     0
 90
        1
176
     0
 40
0.0
176
     0
 90
        0
176
     0
290
     0
176
     0
290
     1
176
     0
290
     1
176
     0
290
     0
176
     0
290
     0
176
     0
290
     0
176
     0
290
     0
176
     0
290
     0
176
     0
290
     0
176
     0
 90
       50
176
     0
 40
0.0
176
     0
 40
1.0
176
     0
 90
        0
176
     0
 62
    18
420
        0
176
     0
 90
       50
176
     0
 90
        3
176
     0
 62
     5
420
      255
176
     0
290
     0
176
     0
 90
       50
176
     0
 90
       50
176
     0
 90
       50
176
     0
290
     0
176
     0
 90
       50
176
     0
 62
   256
176
     0
 40
1.0
176
     0
 90
        2
176
     0
  1
strokes_ogs.tif
176
     0
290
     0
176
     0
 40
1.0
176
     0
 40
1.0
176
     0
  0
VISUALSTYLE
  5
38
102
{ACAD_REACTORS
330
2A
102
}
330
2A
100
AcDbVisualStyle
  2
Linepattern
 70
    14
177
     3
291
     1
 70
    58
 90
        2
176
     1
 90
        2
176
     1
 90
        0
176
     1
 90
        0
176
     1
 40
0.6
176
     1
 40
30.0
176
     1
 62
     7
420
 16777215
176
     1
 90
        1
176
     1
 90
        4
176
     1
 62
     7
176
     1
 62
   257
176
     1
 90
        7
176
     1
 90
        7
176
     1
 40
1.0
176
     1
 90
        8
176
     1
 62
     7
176
     1
 40
1.0
176
     1
 90
        1
176
     1
 90
        6
176
     1
 90
        2
176
     1
 62
     7
176
     1
 90
        5
176
     1
 90
        0
176
     1
 90
        0
176
     1
290
     0
176
     1
 90
        1
176
     1
 40
0.0
176
     1
 90
        0
176
     1
290
     0
176
     1
290
     1
176
     1
290
     1
176
     1
290
     0
176
     1
290
     0
176
     1
290
     0
176
     1
290
     0
176
     1
290
     0
176
     1
290
     0
176
     1
 90
       50
176
     1
 40
0.0
176
     1
 40
1.0
176
     1
 90
        0
176
     1
 62
    18
420
        0
176
     1
 90
       50
176
     1
 90
        3
176
     1
 62
     5
420
      255
176
     1
290
     0
176
     1
 90
       50
176
     1
 90
       50
176
     1
 90
       50
176
     1
290
     0
176
     1
 90
       50
176
     1
 62
   256
176
     0
 40
1.0
176
     0
 90
        2
176
     1
  1
strokes_ogs.tif
176
     1
290
     0
176
     1
 40
1.0
176
     1
 40
1.0
176
     1
  0
VISUALSTYLE
  5
3C
102
{ACAD_REACTORS
330
2A
102
}
330
2A
100
AcDbVisualStyle
  2
OverhangOff
 70
    21
177
     3
291
     1
 70
    58
 90
        2
176
     0
 90
        2
176
     0
 90
        0
176
     0
 90
        0
176
     0
 40
0.6
176
     0
 40
30.0
176
     0
 62
     7
420
 16777215
176
     0
 90
        1
176
     0
 90
        4
176
     0
 62
     7
176
     0
 62
   257
176
     0
 90
        1
176
     0
 90
        1
176
     0
 40
1.0
176
     0
 90
        9
176
     2
 62
     7
176
     0
 40
1.0
176
     0
 90
        1
176
     0
 90
        6
176
     0
 90
        2
176
     0
 62
     7
176
     0
 90
        5
176
     0
 90
        0
176
     0
 90
        0
176
     0
290
     0
176
     0
 90
        1
176
     0
 40
0.0
176
     0
 90
        0
176
     0
290
     0
176
     0
290
     1
176
     0
290
     1
176
     0
290
     0
176
     0
290
     0
176
     0
290
     0
176
     0
290
     0
176
     0
290
     0
176
     0
290
     0
176
     0
 90
       50
176
     0
 40
0.0
176
     0
 40
1.0
176
     0
 90
        0
176
     0
 62
    18
420
        0
176
     0
 90
       50
176
     0
 90
        3
176
     0
 62
     5
420
      255
176
     0
290
     0
176
     0
 90
       50
176
     0
 90
       50
176
     0
 90
       50
176
     0
290
     0
176
     0
 90
       50
176
     0
 62
   256
176
     0
 40
1.0
176
     0
 90
        2
176
     0
  1
strokes_ogs.tif
176
     0
290
     0
176
     0
 40
1.0
176
     0
 40
1.0
176
     0
  0
VISUALSTYLE
  5
33
102
{ACAD_REACTORS
330
2A
102
}
330
2A
100
AcDbVisualStyle
  2
Realistic
 70
     8
177
     3
291
     0
 70
    58
 90
        2
176
     1
 90
        3
176
     1
 90
        0
176
     1
 90
        2
176
     1
 40
0.6
176
     1
 40
30.0
176
     1
 62
     7
420
 16777215
176
     1
 90
        0
176
     1
 90
        0
176
     1
 62
     7
176
     1
 62
   257
176
     1
 90
        1
176
     1
 90
        1
176
     1
 40
1.0
176
     1
 90
        8
176
     1
 62
   257
176
     1
 40
1.0
176
     1
 90
        1
176
     1
 90
        6
176
     1
 90
        2
176
     1
 62
     7
176
     1
 90
        3
176
     1
 90
        0
176
     1
 90
        0
176
     1
290
     0
176
     1
 90
       13
176
     1
 40
0.0
176
     1
 90
        0
176
     1
290
     0
176
     1
290
     1
176
     1
290
     1
176
     1
290
     0
176
     1
290
     0
176
     1
290
     0
176
     1
290
     0
176
     1
290
     0
176
     1
290
     0
176
     1
 90
       50
176
     1
 40
0.0
176
     1
 40
1.0
176
     1
 90
        0
176
     1
 62
    18
420
        0
176
     1
 90
       50
176
     1
 90
        3
176
     1
 62
     5
420
      255
176
     1
290
     0
176
     1
 90
       50
176
     1
 90
       50
176
     1
 90
       50
176
     1
290
     0
176
     1
 90
       50
176
     1
 62
   256
176
     0
 40
1.0
176
     0
 90
        2
176
     1
  1
strokes_ogs.tif
176
     1
290
     0
176
     1
 40
1.0
176
     1
 40
1.0
176
     1
  0
VISUALSTYLE
  5
42
102
{ACAD_REACTORS
330
2A
102
}
330
2A
100
AcDbVisualStyle
  2
Shaded
 70
    27
177
     3
291
     0
 70
    58
 90
        2
176
     1
 90
        2
176
     1
 90
        1
176
     1
 90
        2
176
     1
 40
0.6
176
     1
 40
30.0
176
     1
 62
     7
420
 16777215
176
     1
 90
        0
176
     1
 90
        4
176
     1
 62
     7
176
     1
 62
   257
176
     1
 90
        1
176
     1
 90
        1
176
     1
 40
1.0
176
     1
 90
        8
176
     1
 62
   257
176
     1
 40
1.0
176
     1
 90
        1
176
     1
 90
        6
176
     1
 90
        2
176
     1
 62
     8
420
  7895160
176
     1
 90
        3
176
     1
 90
        0
176
     1
 90
        0
176
     1
290
     0
176
     1
 90
        5
176
     1
 40
0.0
176
     1
 90
        0
176
     1
290
     0
176
     1
290
     1
176
     1
290
     1
176
     1
290
     0
176
     1
290
     0
176
     1
290
     0
176
     1
290
     0
176
     1
290
     0
176
     1
290
     0
176
     1
 90
       50
176
     1
 40
0.0
176
     1
 40
1.0
176
     1
 90
        0
176
     1
 62
    18
420
        0
176
     1
 90
       50
176
     1
 90
        3
176
     1
 62
     5
420
      255
176
     1
290
     0
176
     1
 90
       50
176
     1
 90
       50
176
     1
 90
       50
176
     1
290
     0
176
     1
 90
       50
176
     1
 62
   256
176
     0
 40
1.0
176
     0
 90
        2
176
     1
  1
strokes_ogs.tif
176
     1
290
     0
176
     1
 40
1.0
176
     1
 40
1.0
176
     1
  0
VISUALSTYLE
  5
41
102
{ACAD_REACTORS
330
2A
102
}
330
2A
100
AcDbVisualStyle
  2
Shaded with edges
 70
    26
177
     3
291
     0
 70
    58
 90
        2
176
     1
 90
        2
176
     1
 90
        1
176
     1
 90
        2
176
     1
 40
0.6
176
     1
 40
30.0
176
     1
 62
     7
420
 16777215
176
     1
 90
        1
176
     1
 90
       10
176
     1
 62
     7
176
     1
 62
   257
176
     1
 90
        2
176
     1
 90
        1
176
     1
 40
1.0
176
     1
 90
        8
176
     1
 62
   257
176
     1
 40
1.0
176
     1
 90
        1
176
     1
 90
        6
176
     1
 90
        2
176
     1
 62
     7
176
     1
 90
        3
176
     1
 90
        0
176
     1
 90
        0
176
     1
290
     0
176
     1
 90
        5
176
     1
 40
0.0
176
     1
 90
        0
176
     1
290
     0
176
     1
290
     1
176
     1
290
     1
176
     1
290
     0
176
     1
290
     0
176
     1
290
     0
176
     1
290
     0
176
     1
290
     0
176
     1
290
     0
176
     1
 90
       50
176
     1
 40
0.0
176
     1
 40
1.0
176
     1
 90
        0
176
     1
 62
    18
420
        0
176
     1
 90
       50
176
     1
 90
        3
176
     1
 62
     5
420
      255
176
     1
290
     0
176
     1
 90
       50
176
     1
 90
       50
176
     1
 90
       50
176
     1
290
     0
176
     1
 90
       50
176
     1
 62
   256
176
     0
 40
1.0
176
     0
 90
        2
176
     1
  1
strokes_ogs.tif
176
     1
290
     0
176
     1
 40
1.0
176
     1
 40
1.0
176
     1
  0
VISUALSTYLE
  5
3E
102
{ACAD_REACTORS
330
2A
102
}
330
2A
100
AcDbVisualStyle
  2
Shades of Gray
 70
    23
177
     3
291
     0
 70
    58
 90
        2
176
     1
 90
        2
176
     1
 90
        3
176
     1
 90
        0
176
     1
 40
0.6
176
     1
 40
30.0
176
     1
 62
     7
420
 16777215
176
     1
 90
        2
176
     1
 90
        2
176
     1
 62
     7
176
     1
 62
     7
176
     1
 90
        1
176
     1
 90
        1
176
     1
 40
40.0
176
     1
 90
        8
176
     1
 62
     7
176
     1
 40
1.0
176
     1
 90
        1
176
     1
 90
        6
176
     1
 90
        2
176
     1
 62
     7
176
     1
 90
        3
176
     1
 90
        0
176
     1
 90
        0
176
     1
290
     0
176
     1
 90
        1
176
     1
 40
0.0
176
     1
 90
        0
176
     1
290
     0
176
     1
290
     1
176
     1
290
     1
176
     1
290
     0
176
     1
290
     0
176
     1
290
     0
176
     1
290
     0
176
     1
290
     0
176
     1
290
     0
176
     1
 90
       50
176
     1
 40
0.0
176
     1
 40
1.0
176
     1
 90
        0
176
     1
 62
    18
420
        0
176
     1
 90
       50
176
     1
 90
        3
176
     1
 62
     5
420
      255
176
     1
290
     0
176
     1
 90
       50
176
     1
 90
       50
176
     1
 90
       50
176
     1
290
     0
176
     1
 90
       50
176
     1
 62
   256
176
     0
 40
1.0
176
     0
 90
        2
176
     1
  1
strokes_ogs.tif
176
     1
290
     0
176
     1
 40
1.0
176
     1
 40
1.0
176
     1
  0
VISUALSTYLE
  5
3F
102
{ACAD_REACTORS
330
2A
102
}
330
2A
100
AcDbVisualStyle
  2
Sketchy
 70
    24
177
     3
291
     0
 70
    58
 90
        1
176
     1
 90
        2
176
     1
 90
        2
176
     1
 90
        0
176
     1
 40
0.6
176
     1
 40
30.0
176
     1
 62
     7
420
 16777215
176
     1
 90
        2
176
     1
 90
        2
176
     1
 62
     7
176
     1
 62
     7
176
     1
 90
        1
176
     1
 90
        1
176
     1
 40
40.0
176
     1
 90
       11
176
     1
 62
     7
176
     1
 40
1.0
176
     1
 90
        1
176
     1
 90
        6
176
     1
 90
        2
176
     1
 62
     7
176
     1
 90
        6
176
     1
 90
        0
176
     1
 90
        0
176
     1
290
     0
176
     1
 90
        1
176
     1
 40
0.0
176
     1
 90
        0
176
     1
290
     0
176
     1
290
     1
176
     1
290
     1
176
     1
290
     0
176
     1
290
     0
176
     1
290
     0
176
     1
290
     0
176
     1
290
     0
176
     1
290
     0
176
     1
 90
       50
176
     1
 40
0.0
176
     1
 40
1.0
176
     1
 90
        0
176
     1
 62
    18
420
        0
176
     1
 90
       50
176
     1
 90
        3
176
     1
 62
     5
420
      255
176
     1
290
     0
176
     1
 90
       50
176
     1
 90
       50
176
     1
 90
       50
176
     1
290
     0
176
     1
 90
       50
176
     1
 62
   256
176
     0
 40
1.0
176
     0
 90
        2
176
     1
  1
strokes_ogs.tif
176
     1
290
     0
176
     1
 40
1.0
176
     1
 40
1.0
176
     1
  0
VISUALSTYLE
  5
37
102
{ACAD_REACTORS
330
2A
102
}
330
2A
100
AcDbVisualStyle
  2
Thicken
 70
    13
177
     3
291
     1
 70
    58
 90
        2
176
     1
 90
        2
176
     1
 90
        0
176
     1
 90
        0
176
     1
 40
0.6
176
     1
 40
30.0
176
     1
 62
     7
420
 16777215
176
     1
 90
        1
176
     1
 90
        4
176
     1
 62
     7
176
     1
 62
   257
176
     1
 90
        1
176
     1
 90
        1
176
     1
 40
1.0
176
     1
 90
       12
176
     1
 62
     7
176
     1
 40
1.0
176
     1
 90
        1
176
     1
 90
        6
176
     1
 90
        2
176
     1
 62
     7
176
     1
 90
        5
176
     1
 90
        0
176
     1
 90
        0
176
     1
290
     0
176
     1
 90
        1
176
     1
 40
0.0
176
     1
 90
        0
176
     1
290
     0
176
     1
290
     1
176
     1
290
     1
176
     1
290
     0
176
     1
290
     0
176
     1
290
     0
176
     1
290
     0
176
     1
290
     0
176
     1
290
     0
176
     1
 90
       50
176
     1
 40
0.0
176
     1
 40
1.0
176
     1
 90
        0
176
     1
 62
    18
420
        0
176
     1
 90
       50
176
     1
 90
        3
176
     1
 62
     5
420
      255
176
     1
290
     0
176
     1
 90
       50
176
     1
 90
       50
176
     1
 90
       50
176
     1
290
     0
176
     1
 90
       50
176
     1
 62
   256
176
     0
 40
1.0
176
     0
 90
        2
176
     1
  1
strokes_ogs.tif
176
     1
290
     0
176
     1
 40
1.0
176
     1
 40
1.0
176
     1
  0
VISUALSTYLE
  5
30
102
{ACAD_REACTORS
330
2A
102
}
330
2A
100
AcDbVisualStyle
  2
Wireframe
 70
     5
177
     3
291
     0
 70
    58
 90
        0
176
     1
 90
        2
176
     1
 90
        0
176
     1
 90
        0
176
     1
 40
0.6
176
     1
 40
30.0
176
     1
 62
     7
420
 16777215
176
     1
 90
        1
176
     1
 90
        4
176
     1
 62
     7
176
     1
 62
   257
176
     1
 90
        1
176
     1
 90
        1
176
     1
 40
1.0
176
     1
 90
        0
176
     1
 62
   257
176
     1
 40
1.0
176
     1
 90
        1
176
     1
 90
        6
176
     1
 90
        2
176
     1
 62
     7
176
     1
 90
        3
176
     1
 90
        0
176
     1
 90
        0
176
     1
290
     0
176
     1
 90
        1
176
     1
 40
0.0
176
     1
 90
        0
176
     1
290
     0
176
     1
290
     1
176
     1
290
     1
176
     1
290
     0
176
     1
290
     0
176
     1
290
     0
176
     1
290
     0
176
     1
290
     0
176
     1
290
     0
176
     1
 90
       50
176
     1
 40
0.0
176
     1
 40
1.0
176
     1
 90
        0
176
     1
 62
    18
420
        0
176
     1
 90
       50
176
     1
 90
        3
176
     1
 62
     5
420
      255
176
     1
290
     0
176
     1
 90
       50
176
     1
 90
       50
176
     1
 90
       50
176
     1
290
     0
176
     1
 90
       50
176
     1
 62
   256
176
     0
 40
1.0
176
     0
 90
        2
176
     1
  1
strokes_ogs.tif
176
     1
290
     0
176
     1
 40
1.0
176
     1
 40
1.0
176
     1
  0
VISUALSTYLE
  5
40
102
{ACAD_REACTORS
330
2A
102
}
330
2A
100
AcDbVisualStyle
  2
X-Ray
 70
    25
177
     3
291
     0
 70
    58
 90
        2
176
     1
 90
        2
176
     1
 90
        1
176
     1
 90
        1
176
     1
 40
0.5
176
     1
 40
30.0
176
     1
 62
     7
420
 16777215
176
     1
 90
        1
176
     1
 90
        0
176
     1
 62
     7
176
     1
 62
   257
176
     1
 90
        1
176
     1
 90
        1
176
     1
 40
1.0
176
     1
 90
        8
176
     1
 62
     7
176
     1
 40
1.0
176
     1
 90
        1
176
     1
 90
        6
176
     1
 90
        2
176
     1
 62
     7
176
     1
 90
        3
176
     1
 90
        0
176
     1
 90
        0
176
     1
290
     0
176
     1
 90
       13
176
     1
 40
0.0
176
     1
 90
        0
176
     1
290
     0
176
     1
290
     1
176
     1
290
     1
176
     1
290
     0
176
     1
290
     0
176
     1
290
     0
176
     1
290
     0
176
     1
290
     0
176
     1
290
     0
176
     1
 90
       50
176
     1
 40
0.0
176
     1
 40
1.0
176
     1
 90
        0
176
     1
 62
    18
420
        0
176
     1
 90
       50
176
     1
 90
        3
176
     1
 62
     5
420
      255
176
     1
290
     0
176
     1
 90
       50
176
     1
 90
       50
176
     1
 90
       50
176
     1
290
     0
176
     1
 90
       50
176
     1
 62
   256
176
     0
 40
1.0
176
     0
 90
        2
176
     1
  1
strokes_ogs.tif
176
     1
290
     0
176
     1
 40
1.0
176
     1
 40
1.0
176
     1
  0
DICTIONARYVAR
  5
1B3
102
{ACAD_REACTORS
330
1B2
102
}
330
1B2
100
DictionaryVariables
280
     0
  1
1:1
  0
DICTIONARYVAR
  5
1BB
102
{ACAD_REACTORS
330
1B2
102
}
330
1B2
100
DictionaryVariables
280
     0
  1
3.500000
  0
DICTIONARYVAR
  5
1BC
102
{ACAD_REACTORS
330
1B2
102
}
330
1B2
100
DictionaryVariables
280
     0
  1
acadiso.lin
  0
DICTIONARYVAR
  5
1B8
102
{ACAD_REACTORS
330
1B2
102
}
330
1B2
100
DictionaryVariables
280
     0
  1
Standard
  0
DICTIONARYVAR
  5
1B7
102
{ACAD_REACTORS
330
1B2
102
}
330
1B2
100
DictionaryVariables
280
     0
  1
Standard
  0
DICTIONARY
  5
1B4
330
5A
100
AcDbDictionary
280
     1
281
     1
  3
ACAD_ROUNDTRIP_2008_TABLESTYLE_CELLSTYLEMAP
360
1B5
  0
CELLSTYLEMAP
  5
1B5
102
{ACAD_REACTORS
330
1B4
102
}
330
1B4
100
AcDbCellStyleMap
 90
        3
300
CELLSTYLE
  1
TABLEFORMAT_BEGIN
 90
        5
170
     1
 91
        0
 92
    32768
 62
   257
 93
        1
300
CONTENTFORMAT
  1
CONTENTFORMAT_BEGIN
 90
        0
 91
        0
 92
        4
 93
        0
300

 40
0.0
140
1.0
 94
        5
 62
     0
340
11
144
6.0
309
CONTENTFORMAT_END
171
     1
301
MARGIN
  1
CELLMARGIN_BEGIN
 40
1.5
 40
1.5
 40
1.5
 40
1.5
 40
1.5
 40
1.5
309
CELLMARGIN_END
 94
        6
 95
        1
302
GRIDFORMAT
  1
GRIDFORMAT_BEGIN
 90
        0
 91
        1
 62
     0
 92
       -2
340
14
 93
        0
 40
0.045
309
GRIDFORMAT_END
 95
        2
302
GRIDFORMAT
  1
GRIDFORMAT_BEGIN
 90
        0
 91
        1
 62
     0
 92
       -2
340
14
 93
        0
 40
0.045
309
GRIDFORMAT_END
 95
        4
302
GRIDFORMAT
  1
GRIDFORMAT_BEGIN
 90
        0
 91
        1
 62
     0
 92
       -2
340
14
 93
        0
 40
0.045
309
GRIDFORMAT_END
 95
        8
302
GRIDFORMAT
  1
GRIDFORMAT_BEGIN
 90
        0
 91
        1
 62
     0
 92
       -2
340
14
 93
        0
 40
0.045
309
GRIDFORMAT_END
 95
       16
302
GRIDFORMAT
  1
GRIDFORMAT_BEGIN
 90
        0
 91
        1
 62
     0
 92
       -2
340
14
 93
        0
 40
0.045
309
GRIDFORMAT_END
 95
       32
302
GRIDFORMAT
  1
GRIDFORMAT_BEGIN
 90
        0
 91
        1
 62
     0
 92
       -2
340
14
 93
        0
 40
0.045
309
GRIDFORMAT_END
309
TABLEFORMAT_END
  1
CELLSTYLE_BEGIN
 90
        1
 91
        1
300
_TITLE
309
CELLSTYLE_END
300
CELLSTYLE
  1
TABLEFORMAT_BEGIN
 90
        5
170
     1
 91
        0
 92
        0
 62
   257
 93
        1
300
CONTENTFORMAT
  1
CONTENTFORMAT_BEGIN
 90
        0
 91
        0
 92
        4
 93
        0
300

 40
0.0
140
1.0
 94
        5
 62
     0
340
11
144
4.5
309
CONTENTFORMAT_END
171
     1
301
MARGIN
  1
CELLMARGIN_BEGIN
 40
1.5
 40
1.5
 40
1.5
 40
1.5
 40
1.5
 40
1.5
309
CELLMARGIN_END
 94
        6
 95
        1
302
GRIDFORMAT
  1
GRIDFORMAT_BEGIN
 90
        0
 91
        1
 62
     0
 92
       -2
340
14
 93
        0
 40
0.045
309
GRIDFORMAT_END
 95
        2
302
GRIDFORMAT
  1
GRIDFORMAT_BEGIN
 90
        0
 91
        1
 62
     0
 92
       -2
340
14
 93
        0
 40
0.045
309
GRIDFORMAT_END
 95
        4
302
GRIDFORMAT
  1
GRIDFORMAT_BEGIN
 90
        0
 91
        1
 62
     0
 92
       -2
340
14
 93
        0
 40
0.045
309
GRIDFORMAT_END
 95
        8
302
GRIDFORMAT
  1
GRIDFORMAT_BEGIN
 90
        0
 91
        1
 62
     0
 92
       -2
340
14
 93
        0
 40
0.045
309
GRIDFORMAT_END
 95
       16
302
GRIDFORMAT
  1
GRIDFORMAT_BEGIN
 90
        0
 91
        1
 62
     0
 92
       -2
340
14
 93
        0
 40
0.045
309
GRIDFORMAT_END
 95
       32
302
GRIDFORMAT
  1
GRIDFORMAT_BEGIN
 90
        0
 91
        1
 62
     0
 92
       -2
340
14
 93
        0
 40
0.045
309
GRIDFORMAT_END
309
TABLEFORMAT_END
  1
CELLSTYLE_BEGIN
 90
        2
 91
        1
300
_HEADER
309
CELLSTYLE_END
300
CELLSTYLE
  1
TABLEFORMAT_BEGIN
 90
        5
170
     1
 91
        0
 92
        0
 62
   257
 93
        1
300
CONTENTFORMAT
  1
CONTENTFORMAT_BEGIN
 90
        0
 91
        0
 92
        4
 93
        0
300

 40
0.0
140
1.0
 94
        2
 62
     0
340
11
144
4.5
309
CONTENTFORMAT_END
171
     1
301
MARGIN
  1
CELLMARGIN_BEGIN
 40
1.5
 40
1.5
 40
1.5
 40
1.5
 40
1.5
 40
1.5
309
CELLMARGIN_END
 94
        6
 95
        1
302
GRIDFORMAT
  1
GRIDFORMAT_BEGIN
 90
        0
 91
        1
 62
     0
 92
       -2
340
14
 93
        0
 40
0.045
309
GRIDFORMAT_END
 95
        2
302
GRIDFORMAT
  1
GRIDFORMAT_BEGIN
 90
        0
 91
        1
 62
     0
 92
       -2
340
14
 93
        0
 40
0.045
309
GRIDFORMAT_END
 95
        4
302
GRIDFORMAT
  1
GRIDFORMAT_BEGIN
 90
        0
 91
        1
 62
     0
 92
       -2
340
14
 93
        0
 40
0.045
309
GRIDFORMAT_END
 95
        8
302
GRIDFORMAT
  1
GRIDFORMAT_BEGIN
 90
        0
 91
        1
 62
     0
 92
       -2
340
14
 93
        0
 40
0.045
309
GRIDFORMAT_END
 95
       16
302
GRIDFORMAT
  1
GRIDFORMAT_BEGIN
 90
        0
 91
        1
 62
     0
 92
       -2
340
14
 93
        0
 40
0.045
309
GRIDFORMAT_END
 95
       32
302
GRIDFORMAT
  1
GRIDFORMAT_BEGIN
 90
        0
 91
        1
 62
     0
 92
       -2
340
14
 93
        0
 40
0.045
309
GRIDFORMAT_END
309
TABLEFORMAT_END
  1
CELLSTYLE_BEGIN
 90
        3
 91
        2
300
_DATA
309
CELLSTYLE_END
  0
ENDSEC
  0
EOF
