  0
SECTION
  2
HEADER
  9
$ACADVER
  1
AC1027
  9
$ACADMAINTVER
 70
   105
  9
$DWGCODEPAGE
  3
ANSI_1252
  9
$COMMENTS
  1
File was created by Cadenas
  9
$LASTSAVEDBY
  1
psAdmin
  9
$CUSTOMPROPERTYTAG
  1
NB
  9
$CUSTOMPROPERTY
  1
33500
  9
$CUSTOMPROPERTYTAG
  1
NN
  9
$CUSTOMPROPERTY
  1
Size NH 00
  9
$CUSTOMPROPERTYTAG
  1
NT
  9
$CUSTOMPROPERTY
  1

  9
$CUSTOMPROPERTYTAG
  1
NBSYN
  9
$CUSTOMPROPERTY
  1
$ARTNR.
  9
$CUSTOMPROPERTYTAG
  1
LINA
  9
$CUSTOMPROPERTY
  1
33500000
  9
$CUSTOMPROPERTYTAG
  1
CATALOG
  9
$CUSTOMPROPERTY
  1
Wöhner
  9
$CUSTOMPROPERTYTAG
  1
ARTNR
  9
$CUSTOMPROPERTY
  1
33500
  9
$CUSTOMPROPERTYTAG
  1
BUSB
  9
$CUSTOMPROPERTY
  1
12, 15, 20, 25, 30 x 5, 10 and section busbars
  9
$CUSTOMPROPERTYTAG
  1
POF
  9
$CUSTOMPROPERTY
  1
QUADRON®60Classic Speed
  9
$CUSTOMPROPERTYTAG
  1
TYPE
  9
$CUSTOMPROPERTY
  1
QCS-NH00
  9
$CUSTOMPROPERTYTAG
  1
QNT
  9
$CUSTOMPROPERTY
  1
1
  9
$CUSTOMPROPERTYTAG
  1
W
  9
$CUSTOMPROPERTY
  1
106
  9
$CUSTOMPROPERTYTAG
  1
H
  9
$CUSTOMPROPERTY
  1
200
  9
$CUSTOMPROPERTYTAG
  1
D
  9
$CUSTOMPROPERTY
  1
128
  9
$CUSTOMPROPERTYTAG
  1
LINK
  9
$CUSTOMPROPERTY
  1
Product link
  9
$CUSTOMPROPERTYTAG
  1
COMPANY
  9
$CUSTOMPROPERTY
  1
woehner
  9
$REQUIREDVERSIONS
160
                 0
  9
$INSBASE
 10
0.0
 20
0.0
 30
0.0
  9
$EXTMIN
 10
0.0
 20
-204.0
 30
0.0
  9
$EXTMAX
 10
114.4523809523809
 20
34.5
 30
0.0
  9
$LIMMIN
 10
0.0
 20
0.0
  9
$LIMMAX
 10
420.0
 20
297.0
  9
$ORTHOMODE
 70
     0
  9
$REGENMODE
 70
     1
  9
$FILLMODE
 70
     1
  9
$QTEXTMODE
 70
     0
  9
$MIRRTEXT
 70
     1
  9
$LTSCALE
 40
1.0
  9
$ATTMODE
 70
     1
  9
$TEXTSIZE
 40
2.5
  9
$TRACEWID
 40
1.0
  9
$TEXTSTYLE
  7
Standard
  9
$CLAYER
  8
0
  9
$CELTYPE
  6
ByLayer
  9
$CECOLOR
 62
   256
  9
$CELTSCALE
 40
1.0
  9
$DISPSILH
 70
     0
  9
$DIMSCALE
 40
1.0
  9
$DIMASZ
 40
2.5
  9
$DIMEXO
 40
0.625
  9
$DIMDLI
 40
3.75
  9
$DIMRND
 40
0.0
  9
$DIMDLE
 40
0.0
  9
$DIMEXE
 40
1.25
  9
$DIMTP
 40
0.0
  9
$DIMTM
 40
0.0
  9
$DIMTXT
 40
2.5
  9
$DIMCEN
 40
2.5
  9
$DIMTSZ
 40
0.0
  9
$DIMTOL
 70
     0
  9
$DIMLIM
 70
     0
  9
$DIMTIH
 70
     0
  9
$DIMTOH
 70
     0
  9
$DIMSE1
 70
     0
  9
$DIMSE2
 70
     0
  9
$DIMTAD
 70
     1
  9
$DIMZIN
 70
     8
  9
$DIMBLK
  1

  9
$DIMASO
 70
     1
  9
$DIMSHO
 70
     1
  9
$DIMPOST
  1

  9
$DIMAPOST
  1

  9
$DIMALT
 70
     0
  9
$DIMALTD
 70
     3
  9
$DIMALTF
 40
0.03937007874016
  9
$DIMLFAC
 40
1.0
  9
$DIMTOFL
 70
     1
  9
$DIMTVP
 40
0.0
  9
$DIMTIX
 70
     0
  9
$DIMSOXD
 70
     0
  9
$DIMSAH
 70
     0
  9
$DIMBLK1
  1

  9
$DIMBLK2
  1

  9
$DIMSTYLE
  2
ISO-25
  9
$DIMCLRD
 70
     0
  9
$DIMCLRE
 70
     0
  9
$DIMCLRT
 70
     0
  9
$DIMTFAC
 40
1.0
  9
$DIMGAP
 40
0.625
  9
$DIMJUST
 70
     0
  9
$DIMSD1
 70
     0
  9
$DIMSD2
 70
     0
  9
$DIMTOLJ
 70
     0
  9
$DIMTZIN
 70
     8
  9
$DIMALTZ
 70
     0
  9
$DIMALTTZ
 70
     0
  9
$DIMUPT
 70
     0
  9
$DIMDEC
 70
     2
  9
$DIMTDEC
 70
     2
  9
$DIMALTU
 70
     2
  9
$DIMALTTD
 70
     3
  9
$DIMTXSTY
  7
Standard
  9
$DIMAUNIT
 70
     0
  9
$DIMADEC
 70
     0
  9
$DIMALTRND
 40
0.0
  9
$DIMAZIN
 70
     0
  9
$DIMDSEP
 70
    44
  9
$DIMATFIT
 70
     3
  9
$DIMFRAC
 70
     0
  9
$DIMLDRBLK
  1

  9
$DIMLUNIT
 70
     2
  9
$DIMLWD
 70
    -2
  9
$DIMLWE
 70
    -2
  9
$DIMTMOVE
 70
     0
  9
$DIMFXL
 40
1.0
  9
$DIMFXLON
 70
     0
  9
$DIMJOGANG
 40
0.7853981633974483
  9
$DIMTFILL
 70
     0
  9
$DIMTFILLCLR
 70
     0
  9
$DIMARCSYM
 70
     0
  9
$DIMLTYPE
  6

  9
$DIMLTEX1
  6

  9
$DIMLTEX2
  6

  9
$DIMTXTDIRECTION
 70
     0
  9
$LUNITS
 70
     2
  9
$LUPREC
 70
     4
  9
$SKETCHINC
 40
1.0
  9
$FILLETRAD
 40
0.0
  9
$AUNITS
 70
     0
  9
$AUPREC
 70
     0
  9
$MENU
  1
.
  9
$ELEVATION
 40
0.0
  9
$PELEVATION
 40
0.0
  9
$THICKNESS
 40
0.0
  9
$LIMCHECK
 70
     0
  9
$CHAMFERA
 40
0.0
  9
$CHAMFERB
 40
0.0
  9
$CHAMFERC
 40
0.0
  9
$CHAMFERD
 40
0.0
  9
$SKPOLY
 70
     0
  9
$TDCREATE
 40
2460360.546560128
  9
$TDUCREATE
 40
2460360.504893461
  9
$TDUPDATE
 40
2460360.546560671
  9
$TDUUPDATE
 40
2460360.504894005
  9
$TDINDWG
 40
0.0000000116
  9
$TDUSRTIMER
 40
0.0000000116
  9
$USRTIMER
 70
     1
  9
$ANGBASE
 50
0.0
  9
$ANGDIR
 70
     0
  9
$PDMODE
 70
     0
  9
$PDSIZE
 40
0.0
  9
$PLINEWID
 40
0.0
  9
$SPLFRAME
 70
     0
  9
$SPLINETYPE
 70
     6
  9
$SPLINESEGS
 70
     8
  9
$HANDSEED
  5
30C
  9
$SURFTAB1
 70
     6
  9
$SURFTAB2
 70
     6
  9
$SURFTYPE
 70
     6
  9
$SURFU
 70
     6
  9
$SURFV
 70
     6
  9
$UCSBASE
  2

  9
$UCSNAME
  2

  9
$UCSORG
 10
0.0
 20
0.0
 30
0.0
  9
$UCSXDIR
 10
1.0
 20
0.0
 30
0.0
  9
$UCSYDIR
 10
0.0
 20
1.0
 30
0.0
  9
$UCSORTHOREF
  2

  9
$UCSORTHOVIEW
 70
     0
  9
$UCSORGTOP
 10
0.0
 20
0.0
 30
0.0
  9
$UCSORGBOTTOM
 10
0.0
 20
0.0
 30
0.0
  9
$UCSORGLEFT
 10
0.0
 20
0.0
 30
0.0
  9
$UCSORGRIGHT
 10
0.0
 20
0.0
 30
0.0
  9
$UCSORGFRONT
 10
0.0
 20
0.0
 30
0.0
  9
$UCSORGBACK
 10
0.0
 20
0.0
 30
0.0
  9
$PUCSBASE
  2

  9
$PUCSNAME
  2

  9
$PUCSORG
 10
0.0
 20
0.0
 30
0.0
  9
$PUCSXDIR
 10
1.0
 20
0.0
 30
0.0
  9
$PUCSYDIR
 10
0.0
 20
1.0
 30
0.0
  9
$PUCSORTHOREF
  2

  9
$PUCSORTHOVIEW
 70
     0
  9
$PUCSORGTOP
 10
0.0
 20
0.0
 30
0.0
  9
$PUCSORGBOTTOM
 10
0.0
 20
0.0
 30
0.0
  9
$PUCSORGLEFT
 10
0.0
 20
0.0
 30
0.0
  9
$PUCSORGRIGHT
 10
0.0
 20
0.0
 30
0.0
  9
$PUCSORGFRONT
 10
0.0
 20
0.0
 30
0.0
  9
$PUCSORGBACK
 10
0.0
 20
0.0
 30
0.0
  9
$USERI1
 70
     0
  9
$USERI2
 70
     0
  9
$USERI3
 70
     0
  9
$USERI4
 70
     0
  9
$USERI5
 70
     0
  9
$USERR1
 40
0.0
  9
$USERR2
 40
0.0
  9
$USERR3
 40
0.0
  9
$USERR4
 40
0.0
  9
$USERR5
 40
0.0
  9
$WORLDVIEW
 70
     1
  9
$SHADEDGE
 70
     3
  9
$SHADEDIF
 70
    70
  9
$TILEMODE
 70
     1
  9
$MAXACTVP
 70
    64
  9
$PINSBASE
 10
0.0
 20
0.0
 30
0.0
  9
$PLIMCHECK
 70
     0
  9
$PEXTMIN
 10
1.000000000000000E+20
 20
1.000000000000000E+20
 30
1.000000000000000E+20
  9
$PEXTMAX
 10
-1.000000000000000E+20
 20
-1.000000000000000E+20
 30
-1.000000000000000E+20
  9
$PLIMMIN
 10
0.0
 20
0.0
  9
$PLIMMAX
 10
420.0
 20
297.0
  9
$UNITMODE
 70
     0
  9
$VISRETAIN
 70
     1
  9
$PLINEGEN
 70
     0
  9
$PSLTSCALE
 70
     1
  9
$TREEDEPTH
 70
  3020
  9
$CMLSTYLE
  2
Standard
  9
$CMLJUST
 70
     0
  9
$CMLSCALE
 40
20.0
  9
$PROXYGRAPHICS
 70
     1
  9
$MEASUREMENT
 70
     1
  9
$CELWEIGHT
370
    -1
  9
$ENDCAPS
280
     0
  9
$JOINSTYLE
280
     0
  9
$LWDISPLAY
290
     0
  9
$INSUNITS
 70
     4
  9
$HYPERLINKBASE
  1

  9
$STYLESHEET
  1

  9
$XEDIT
290
     1
  9
$CEPSNTYPE
380
     0
  9
$PSTYLEMODE
290
     1
  9
$FINGERPRINTGUID
  2
{1264c016-ccd2-4d27-bd58-de62b013a971}
  9
$VERSIONGUID
  2
{FAEB1C32-E019-11D5-929B-00C0DF256EC4}
  9
$EXTNAMES
290
     1
  9
$PSVPSCALE
 40
0.0
  9
$OLESTARTUP
290
     0
  9
$SORTENTS
280
   127
  9
$INDEXCTL
280
     0
  9
$HIDETEXT
280
     1
  9
$XCLIPFRAME
280
     2
  9
$HALOGAP
280
     0
  9
$OBSCOLOR
 70
   257
  9
$OBSLTYPE
280
     0
  9
$INTERSECTIONDISPLAY
280
     0
  9
$INTERSECTIONCOLOR
 70
   257
  9
$DIMASSOC
280
     2
  9
$PROJECTNAME
  1

  9
$CAMERADISPLAY
290
     0
  9
$LENSLENGTH
 40
50.0
  9
$CAMERAHEIGHT
 40
0.0
  9
$STEPSPERSEC
 40
2.0
  9
$STEPSIZE
 40
6.0
  9
$3DDWFPREC
 40
2.0
  9
$PSOLWIDTH
 40
5.0
  9
$PSOLHEIGHT
 40
80.0
  9
$LOFTANG1
 40
1.570796326794897
  9
$LOFTANG2
 40
1.570796326794897
  9
$LOFTMAG1
 40
0.0
  9
$LOFTMAG2
 40
0.0
  9
$LOFTPARAM
 70
     7
  9
$LOFTNORMALS
280
     1
  9
$LATITUDE
 40
37.795
  9
$LONGITUDE
 40
-122.394
  9
$NORTHDIRECTION
 40
0.0
  9
$TIMEZONE
 70
 -8000
  9
$LIGHTGLYPHDISPLAY
280
     1
  9
$TILEMODELIGHTSYNCH
280
     1
  9
$CMATERIAL
347
44
  9
$SOLIDHIST
280
     0
  9
$SHOWHIST
280
     1
  9
$DWFFRAME
280
     2
  9
$DGNFRAME
280
     2
  9
$REALWORLDSCALE
290
     1
  9
$INTERFERECOLOR
 62
   256
  9
$CSHADOW
280
     0
  9
$SHADOWPLANELOCATION
 40
0.0
  0
ENDSEC
  0
SECTION
  2
CLASSES
  0
CLASS
  1
ACDBDICTIONARYWDFLT
  2
AcDbDictionaryWithDefault
  3
ObjectDBX Classes
 90
        0
 91
        3
280
     0
281
     0
  0
CLASS
  1
VISUALSTYLE
  2
AcDbVisualStyle
  3
ObjectDBX Classes
 90
     4095
 91
        3
280
     0
281
     0
  0
CLASS
  1
MATERIAL
  2
AcDbMaterial
  3
ObjectDBX Classes
 90
     1153
 91
        3
280
     0
281
     0
  0
CLASS
  1
SCALE
  2
AcDbScale
  3
ObjectDBX Classes
 90
     1153
 91
        3
280
     0
281
     0
  0
CLASS
  1
TABLESTYLE
  2
AcDbTableStyle
  3
ObjectDBX Classes
 90
     4095
 91
        3
280
     0
281
     0
  0
CLASS
  1
MLEADERSTYLE
  2
AcDbMLeaderStyle
  3
ACDB_MLEADERSTYLE_CLASS
 90
     4095
 91
        3
280
     0
281
     0
  0
CLASS
  1
SUN
  2
AcDbSun
  3
SCENEOE
 90
     1153
 91
        3
280
     0
281
     0
  0
CLASS
  1
DICTIONARYVAR
  2
AcDbDictionaryVar
  3
ObjectDBX Classes
 90
        0
 91
        3
280
     0
281
     0
  0
CLASS
  1
CELLSTYLEMAP
  2
AcDbCellStyleMap
  3
ObjectDBX Classes
 90
     1152
 91
        3
280
     0
281
     0
  0
ENDSEC
  0
SECTION
  2
TABLES
  0
TABLE
  2
VPORT
  5
8
330
0
100
AcDbSymbolTable
 70
     1
  0
VPORT
  5
29
330
8
100
AcDbSymbolTableRecord
100
AcDbViewportTableRecord
  2
*Active
 70
     0
 10
0.0
 20
0.0
 11
1.0
 21
1.0
 12
57.22619047619048
 22
-84.75
 13
0.0
 23
0.0
 14
10.0
 24
10.0
 15
10.0
 25
10.0
 16
0.0
 26
0.0
 36
1.0
 17
0.0
 27
0.0
 37
0.0
 40
243.27
 41
0.479884196865329
 42
50.0
 43
0.0
 44
0.0
 50
0.0
 51
0.0
 71
     0
 72
   100
 73
     1
 74
     3
 75
     0
 76
     0
 77
     0
 78
     0
281
     0
 65
     1
110
0.0
120
0.0
130
0.0
111
1.0
121
0.0
131
0.0
112
0.0
122
1.0
132
0.0
 79
     0
146
0.0
348
2F
 60
     3
 61
     5
292
     1
282
     1
141
0.0
142
0.0
 63
   250
361
5D
  0
ENDTAB
  0
TABLE
  2
LTYPE
  5
5
330
0
100
AcDbSymbolTable
 70
     3
  0
LTYPE
  5
14
330
5
100
AcDbSymbolTableRecord
100
AcDbLinetypeTableRecord
  2
ByBlock
 70
     0
  3

 72
    65
 73
     0
 40
0.0
  0
LTYPE
  5
15
330
5
100
AcDbSymbolTableRecord
100
AcDbLinetypeTableRecord
  2
ByLayer
 70
     0
  3

 72
    65
 73
     0
 40
0.0
  0
LTYPE
  5
16
330
5
100
AcDbSymbolTableRecord
100
AcDbLinetypeTableRecord
  2
Continuous
 70
     0
  3
Solid line
 72
    65
 73
     0
 40
0.0
  0
LTYPE
  5
85
330
5
100
AcDbSymbolTableRecord
100
AcDbLinetypeTableRecord
  2
Dashed
 70
     0
  3

 72
    65
 73
     2
 40
2.0
 49
1.0
 74
     0
 49
-1.0
 74
     0
  0
LTYPE
  5
97
330
5
100
AcDbSymbolTableRecord
100
AcDbLinetypeTableRecord
  2
Center
 70
     0
  3

 72
    65
 73
     4
 40
1.5
 49
0.45
 74
     0
 49
-0.5
 74
     0
 49
0.05
 74
     0
 49
-0.5
 74
     0
  0
ENDTAB
  0
TABLE
  2
LAYER
  5
2
330
0
100
AcDbSymbolTable
 70
     9
  0
LAYER
  5
10
330
2
100
AcDbSymbolTableRecord
100
AcDbLayerTableRecord
  2
0
 70
     0
 62
     7
  6
Continuous
370
    -3
390
F
347
46
348
0
  0
LAYER
  5
5E
330
2
100
AcDbSymbolTableRecord
100
AcDbLayerTableRecord
  2
attrib
 70
     0
 62
    -2
  6
Continuous
370
    35
390
F
347
46
348
0
  0
LAYER
  5
86
330
2
100
AcDbSymbolTableRecord
100
AcDbLayerTableRecord
  2
hidden
 70
     0
 62
    -6
  6
Dashed
370
    25
390
F
347
46
348
0
  0
LAYER
  5
98
330
2
100
AcDbSymbolTableRecord
100
AcDbLayerTableRecord
  2
center
 70
     0
 62
    -7
  6
Center
370
    25
390
F
347
46
348
0
  0
LAYER
  5
9B
330
2
100
AcDbSymbolTableRecord
100
AcDbLayerTableRecord
  2
bold
 70
     0
 62
     7
  6
Continuous
370
    50
390
F
347
46
348
0
  0
LAYER
  5
B3
330
2
100
AcDbSymbolTableRecord
100
AcDbLayerTableRecord
  2
light
 70
     0
 62
    -3
  6
Continuous
370
    25
390
F
347
46
348
0
  0
LAYER
  5
2CF
330
2
100
AcDbSymbolTableRecord
100
AcDbLayerTableRecord
  2
dimension
 70
     0
 62
    -5
  6
Continuous
370
    25
390
F
347
46
348
0
  0
LAYER
  5
2D1
330
2
100
AcDbSymbolTableRecord
100
AcDbLayerTableRecord
  2
Defpoints
 70
     0
 62
     7
  6
Continuous
290
     0
370
    -3
390
F
347
46
348
0
  0
LAYER
  5
2DE
330
2
100
AcDbSymbolTableRecord
100
AcDbLayerTableRecord
  2
connection
 70
     0
 62
    -7
  6
Continuous
370
    50
390
F
347
46
348
0
  0
ENDTAB
  0
TABLE
  2
STYLE
  5
3
330
0
100
AcDbSymbolTable
 70
     1
  0
STYLE
  5
11
330
3
100
AcDbSymbolTableRecord
100
AcDbTextStyleTableRecord
  2
Standard
 70
     0
 40
0.0
 41
1.0
 50
0.0
 71
     0
 42
2.5
  3
txt
  4

  0
ENDTAB
  0
TABLE
  2
VIEW
  5
6
330
0
100
AcDbSymbolTable
 70
     0
  0
ENDTAB
  0
TABLE
  2
UCS
  5
7
330
0
100
AcDbSymbolTable
 70
     0
  0
ENDTAB
  0
TABLE
  2
APPID
  5
9
330
0
100
AcDbSymbolTable
 70
     1
  0
APPID
  5
12
330
9
100
AcDbSymbolTableRecord
100
AcDbRegAppTableRecord
  2
ACAD
 70
     0
  0
ENDTAB
  0
TABLE
  2
DIMSTYLE
  5
A
330
0
100
AcDbSymbolTable
 70
     1
100
AcDbDimStyleTable
  0
DIMSTYLE
105
27
102
{ACAD_REACTORS
330
2D0
102
}
330
A
100
AcDbSymbolTableRecord
100
AcDbDimStyleTableRecord
  2
ISO-25
 70
     0
 41
2.5
 42
0.625
 43
3.75
 44
1.25
 73
     0
 74
     0
 77
     1
 78
     8
140
2.5
141
2.5
143
0.03937007874016
147
0.625
171
     3
172
     1
178
     0
271
     2
272
     2
274
     3
278
    44
283
     0
284
     8
340
11
  0
ENDTAB
  0
TABLE
  2
BLOCK_RECORD
  5
1
330
0
100
AcDbSymbolTable
 70
     7
  0
BLOCK_RECORD
  5
1F
330
1
100
AcDbSymbolTableRecord
100
AcDbBlockTableRecord
  2
*Model_Space
340
22
 70
     0
280
     1
281
     0
  0
BLOCK_RECORD
  5
1B
330
1
100
AcDbSymbolTableRecord
100
AcDbBlockTableRecord
  2
*Paper_Space
340
1E
 70
     0
280
     1
281
     0
  0
BLOCK_RECORD
  5
23
330
1
100
AcDbSymbolTableRecord
100
AcDbBlockTableRecord
  2
*Paper_Space0
340
26
 70
     0
280
     1
281
     0
  0
BLOCK_RECORD
  5
74
330
1
100
AcDbSymbolTableRecord
100
AcDbBlockTableRecord
  2
1_77067000_0_in_33500_0
340
0
102
{BLKREFS
331
75
102
}
 70
     0
280
     1
281
     0
  0
BLOCK_RECORD
  5
BE
330
1
100
AcDbSymbolTableRecord
100
AcDbBlockTableRecord
  2
2_30664000_0_in_33500_0
340
0
102
{BLKREFS
331
BF
102
}
 70
     0
280
     1
281
     0
  0
BLOCK_RECORD
  5
10E
330
1
100
AcDbSymbolTableRecord
100
AcDbBlockTableRecord
  2
3_30898000_0_in_33500_0
340
0
102
{BLKREFS
331
10F
102
}
 70
     0
280
     1
281
     0
  0
BLOCK_RECORD
  5
143
330
1
100
AcDbSymbolTableRecord
100
AcDbBlockTableRecord
  2
4_77052000_77055000_0_in_33500_0
340
0
102
{BLKREFS
331
144
102
}
 70
     0
280
     1
281
     0
  0
BLOCK_RECORD
  5
230
330
1
100
AcDbSymbolTableRecord
100
AcDbBlockTableRecord
  2
5_7706400041_0_in_33500_0
340
0
102
{BLKREFS
331
231
102
}
 70
     0
280
     1
281
     0
  0
BLOCK_RECORD
  5
2D2
330
1
100
AcDbSymbolTableRecord
100
AcDbBlockTableRecord
  2
*D6
340
0
 70
     0
280
     1
281
     0
  0
ENDTAB
  0
ENDSEC
  0
SECTION
  2
BLOCKS
  0
BLOCK
  5
20
330
1F
100
AcDbEntity
  8
0
100
AcDbBlockBegin
  2
*Model_Space
 70
     2
 10
0.0
 20
0.0
 30
0.0
  3
*Model_Space
  1

  0
ENDBLK
  5
21
330
1F
100
AcDbEntity
  8
0
100
AcDbBlockEnd
  0
BLOCK
  5
1C
330
1B
100
AcDbEntity
 67
     1
  8
0
100
AcDbBlockBegin
  2
*Paper_Space
 70
     0
 10
0.0
 20
0.0
 30
0.0
  3
*Paper_Space
  1

  0
ENDBLK
  5
1D
330
1B
100
AcDbEntity
 67
     1
  8
0
100
AcDbBlockEnd
  0
BLOCK
  5
24
330
23
100
AcDbEntity
  8
0
100
AcDbBlockBegin
  2
*Paper_Space0
 70
     0
 10
0.0
 20
0.0
 30
0.0
  3
*Paper_Space0
  1

  0
ENDBLK
  5
25
330
23
100
AcDbEntity
  8
0
100
AcDbBlockEnd
  0
BLOCK
  5
76
330
74
100
AcDbEntity
  8
0
100
AcDbBlockBegin
  2
1_77067000_0_in_33500_0
 70
     2
 10
0.0
 20
0.0
 30
0.0
  3
1_77067000_0_in_33500_0
  1

  0
ATTDEF
  5
78
330
74
100
AcDbEntity
  8
attrib
100
AcDbText
 10
110.5
 20
34.0
 30
0.0
 40
0.5
  1
77067000
100
AcDbAttributeDefinition
  3

  2
NB
 70
     8
280
     0
  0
ATTDEF
  5
79
330
74
100
AcDbEntity
  8
attrib
100
AcDbText
 10
110.5
 20
33.5
 30
0.0
 40
0.5
  1
Cover
100
AcDbAttributeDefinition
  3

  2
NN
 70
     8
280
     0
  0
ATTDEF
  5
7A
330
74
100
AcDbEntity
  8
attrib
100
AcDbText
 10
110.5
 20
33.0
 30
0.0
 40
0.5
  1

100
AcDbAttributeDefinition
  3

  2
NT
 70
     8
280
     0
  0
ATTDEF
  5
7B
330
74
100
AcDbEntity
  8
attrib
100
AcDbText
 10
110.5
 20
32.5
 30
0.0
 40
0.5
  1
$ARTNR.
100
AcDbAttributeDefinition
  3

  2
NBSYN
 70
     8
280
     0
  0
ATTDEF
  5
7C
330
74
100
AcDbEntity
  8
attrib
100
AcDbText
 10
110.5
 20
32.0
 30
0.0
 40
0.5
  1
77067000
100
AcDbAttributeDefinition
  3

  2
LINA
 70
     8
280
     0
  0
ATTDEF
  5
7D
330
74
100
AcDbEntity
  8
attrib
100
AcDbText
 10
110.5
 20
31.5
 30
0.0
 40
0.5
  1
Wöhner
100
AcDbAttributeDefinition
  3

  2
CATALOG
 70
     8
280
     0
  0
ATTDEF
  5
7E
330
74
100
AcDbEntity
  8
attrib
100
AcDbText
 10
110.5
 20
31.0
 30
0.0
 40
0.5
  1
77067000
100
AcDbAttributeDefinition
  3

  2
ARTNR
 70
     8
280
     0
  0
ATTDEF
  5
7F
330
74
100
AcDbEntity
  8
attrib
100
AcDbText
 10
110.5
 20
30.5
 30
0.0
 40
0.5
  1
QUADRON®60Classic Speed
100
AcDbAttributeDefinition
  3

  2
POF
 70
     8
280
     0
  0
ATTDEF
  5
80
330
74
100
AcDbEntity
  8
attrib
100
AcDbText
 10
110.5
 20
30.0
 30
0.0
 40
0.5
  1
QCS-NH00
100
AcDbAttributeDefinition
  3

  2
TYPE
 70
     8
280
     0
  0
ATTDEF
  5
81
330
74
100
AcDbEntity
  8
attrib
100
AcDbText
 10
110.5
 20
29.5
 30
0.0
 40
0.5
  1
1
100
AcDbAttributeDefinition
  3

  2
VER
 70
     8
280
     0
  0
ATTDEF
  5
82
330
74
100
AcDbEntity
  8
attrib
100
AcDbText
 10
110.5
 20
29.0
 30
0.0
 40
0.5
  1
woehner
100
AcDbAttributeDefinition
  3

  2
COMPANY
 70
     8
280
     0
  0
ATTDEF
  5
83
330
74
100
AcDbEntity
  8
attrib
100
AcDbText
 10
110.5
 20
28.5
 30
0.0
 40
0.5
  1
{$CADENAS_DATA/23d-libs/woehner/sys_60classic/switch_fuses_nh/parts/switch_discon_fuses_3pole_abdeckung.prj},160 {VTYP=3D},{NB=77067000},{LINA=77067000},{NN=Abdeckung},{DATE=26.01.2024 06:39:58},{GEOMDATE=02.12.2022 08:15:00},{VERSION=},{LINEID=380},{WBVA
100
AcDbAttributeDefinition
  3

  2
PSOL_0
 70
     9
280
     0
  0
ATTDEF
  5
84
330
74
100
AcDbEntity
  8
attrib
100
AcDbText
 10
110.5
 20
28.0
 30
0.0
 40
0.5
  1
R=},{WBNUMERIC=}  {NB=77067000},{LINA=77067000},{KT=DUMMY},{ARTNR=77067000},{POF=QUADRON®60Classic Speed},{TYPE=QCS-NH00},{VER=1}
100
AcDbAttributeDefinition
  3

  2
PSOL_1
 70
     9
280
     0
  0
LINE
  5
87
330
74
100
AcDbEntity
  8
hidden
100
AcDbLine
 10
1.499999999999994
 20
9.999999999999998
 30
0.0
 11
1.499999999999994
 21
33.0
 31
0.0
  0
LINE
  5
88
330
74
100
AcDbEntity
  8
hidden
100
AcDbLine
 10
1.499999999999994
 20
33.0
 30
0.0
 11
104.5
 21
33.0
 31
0.0
  0
LINE
  5
89
330
74
100
AcDbEntity
  8
hidden
100
AcDbLine
 10
104.5
 20
9.999999999999998
 30
0.0
 11
104.5
 21
33.0
 31
0.0
  0
LINE
  5
8A
330
74
100
AcDbEntity
  8
hidden
100
AcDbLine
 10
103.5
 20
9.999999999999998
 30
0.0
 11
105.5
 21
9.999999999999998
 31
0.0
  0
LINE
  5
8B
330
74
100
AcDbEntity
  8
hidden
100
AcDbLine
 10
0.5000000000000004
 20
9.999999999999998
 30
0.0
 11
2.499999999999995
 21
9.999999999999998
 31
0.0
  0
LINE
  5
8C
330
74
100
AcDbEntity
  8
hidden
100
AcDbLine
 10
0.5000000000000004
 20
9.999999999999998
 30
0.0
 11
0.5000000000000004
 21
14.00000000000001
 31
0.0
  0
LINE
  5
8D
330
74
100
AcDbEntity
  8
hidden
100
AcDbLine
 10
105.5
 20
9.999999999999998
 30
0.0
 11
105.5
 21
14.00000000000001
 31
0.0
  0
LINE
  5
8E
330
74
100
AcDbEntity
  8
hidden
100
AcDbLine
 10
14.0
 20
25.58578643762691
 30
0.0
 11
92.0
 21
25.58578643762691
 31
0.0
  0
LINE
  5
8F
330
74
100
AcDbEntity
  8
hidden
100
AcDbLine
 10
14.0
 20
24.64649677635888
 30
0.0
 11
92.0
 21
24.64649677635888
 31
0.0
  0
LINE
  5
90
330
74
100
AcDbEntity
  8
hidden
100
AcDbLine
 10
92.0
 20
24.6657
 30
0.0
 11
14.0
 21
24.6657
 31
0.0
  0
LINE
  5
91
330
74
100
AcDbEntity
  8
hidden
100
AcDbLine
 10
18.0
 20
13.0
 30
0.0
 11
88.0
 21
13.0
 31
0.0
  0
LINE
  5
92
330
74
100
AcDbEntity
  8
hidden
100
AcDbLine
 10
2.499999999999995
 20
0.2372478313265418
 30
0.0
 11
5.999999999999998
 21
0.2372478313265418
 31
0.0
  0
LINE
  5
93
330
74
100
AcDbEntity
  8
hidden
100
AcDbLine
 10
2.499999999999995
 20
-1.826000000000001
 30
0.0
 11
2.499999999999995
 21
30.00000000000001
 31
0.0
  0
LINE
  5
94
330
74
100
AcDbEntity
  8
hidden
100
AcDbLine
 10
103.5
 20
-1.826000000000001
 30
0.0
 11
103.5
 21
30.00000000000001
 31
0.0
  0
LINE
  5
95
330
74
100
AcDbEntity
  8
hidden
100
AcDbLine
 10
100.0
 20
0.2372478313265418
 30
0.0
 11
103.5
 21
0.2372478313265418
 31
0.0
  0
LINE
  5
96
330
74
100
AcDbEntity
  8
hidden
100
AcDbLine
 10
2.499999999999995
 20
30.00000000000001
 30
0.0
 11
103.5
 21
30.00000000000001
 31
0.0
  0
LINE
  5
99
330
74
100
AcDbEntity
  8
center
100
AcDbLine
 10
87.8
 20
-10.0
 30
0.0
 11
92.2
 21
-10.0
 31
0.0
  0
LINE
  5
9A
330
74
100
AcDbEntity
  8
center
100
AcDbLine
 10
13.8
 20
-10.0
 30
0.0
 11
18.2
 21
-10.0
 31
0.0
  0
LINE
  5
9C
330
74
100
AcDbEntity
  8
bold
100
AcDbLine
 10
0.5000000000000004
 20
34.0
 30
0.0
 11
105.5
 21
34.0
 31
0.0
  0
LINE
  5
9D
330
74
100
AcDbEntity
  8
bold
100
AcDbLine
 10
0.5000000000000004
 20
14.00000000000001
 30
0.0
 11
0.5000000000000004
 21
34.0
 31
0.0
  0
LINE
  5
9E
330
74
100
AcDbEntity
  8
bold
100
AcDbLine
 10
105.5
 20
14.00000000000001
 30
0.0
 11
105.5
 21
34.0
 31
0.0
  0
LINE
  5
9F
330
74
100
AcDbEntity
  8
bold
100
AcDbLine
 10
18.0
 20
26.0
 30
0.0
 11
88.00000000000001
 21
26.0
 31
0.0
  0
LINE
  5
A0
330
74
100
AcDbEntity
  8
bold
100
AcDbLine
 10
18.0
 20
25.66467383630522
 30
0.0
 11
88.00000000000001
 21
25.66467383630522
 31
0.0
  0
LINE
  5
A1
330
74
100
AcDbEntity
  8
bold
100
AcDbLine
 10
18.0
 20
13.96648840781057
 30
0.0
 11
88.00000000000001
 21
13.96648840781057
 31
0.0
  0
LINE
  5
A2
330
74
100
AcDbEntity
  8
bold
100
AcDbLine
 10
95.0
 20
5.207000000000036
 30
0.0
 11
91.61699999999999
 21
12.99999999999998
 31
0.0
  0
LINE
  5
A3
330
74
100
AcDbEntity
  8
bold
100
AcDbLine
 10
92.0
 20
31.0
 30
0.0
 11
88.0
 21
27.0
 31
0.0
  0
LINE
  5
A4
330
74
100
AcDbEntity
  8
bold
100
AcDbLine
 10
88.0
 20
27.0
 30
0.0
 11
88.0
 21
13.0
 31
0.0
  0
LINE
  5
A5
330
74
100
AcDbEntity
  8
bold
100
AcDbLine
 10
91.61699999999999
 20
13.0
 30
0.0
 11
88.0
 21
13.0
 31
0.0
  0
LINE
  5
A6
330
74
100
AcDbEntity
  8
bold
100
AcDbLine
 10
14.38300000000001
 20
13.00000000000002
 30
0.0
 11
11.0
 21
5.207000000000019
 31
0.0
  0
LINE
  5
A7
330
74
100
AcDbEntity
  8
bold
100
AcDbLine
 10
18.0
 20
13.0
 30
0.0
 11
14.38300000000001
 21
13.0
 31
0.0
  0
LINE
  5
A8
330
74
100
AcDbEntity
  8
bold
100
AcDbLine
 10
18.0
 20
27.0
 30
0.0
 11
18.0
 21
13.0
 31
0.0
  0
LINE
  5
A9
330
74
100
AcDbEntity
  8
bold
100
AcDbLine
 10
18.0
 20
27.0
 30
0.0
 11
14.0
 21
31.0
 31
0.0
  0
LINE
  5
AA
330
74
100
AcDbEntity
  8
bold
100
AcDbLine
 10
95.0
 20
24.0
 30
0.0
 11
100.0
 21
24.0
 31
0.0
  0
LINE
  5
AB
330
74
100
AcDbEntity
  8
bold
100
AcDbLine
 10
105.0
 20
31.0
 30
0.0
 11
105.0
 21
-1.826000000000001
 31
0.0
  0
LINE
  5
AC
330
74
100
AcDbEntity
  8
bold
100
AcDbLine
 10
0.999999999999994
 20
31.0
 30
0.0
 11
105.0
 21
31.0
 31
0.0
  0
LINE
  5
AD
330
74
100
AcDbEntity
  8
bold
100
AcDbLine
 10
92.0
 20
12.11773012119419
 30
0.0
 11
92.0
 21
31.0
 31
0.0
  0
LINE
  5
AE
330
74
100
AcDbEntity
  8
bold
100
AcDbLine
 10
95.0
 20
5.207
 30
0.0
 11
95.0
 21
24.0
 31
0.0
  0
LINE
  5
AF
330
74
100
AcDbEntity
  8
bold
100
AcDbLine
 10
11.0
 20
24.0
 30
0.0
 11
11.0
 21
5.207000000000007
 31
0.0
  0
LINE
  5
B0
330
74
100
AcDbEntity
  8
bold
100
AcDbLine
 10
14.0
 20
31.0
 30
0.0
 11
13.99999999999999
 21
12.11773012119419
 31
0.0
  0
LINE
  5
B1
330
74
100
AcDbEntity
  8
bold
100
AcDbLine
 10
0.999999999999994
 20
-1.826000000000001
 30
0.0
 11
0.999999999999994
 21
31.0
 31
0.0
  0
LINE
  5
B2
330
74
100
AcDbEntity
  8
bold
100
AcDbLine
 10
5.999999999999998
 20
24.0
 30
0.0
 11
11.0
 21
24.0
 31
0.0
  0
LINE
  5
B4
330
74
100
AcDbEntity
  8
light
100
AcDbLine
 10
2.762112246369158
 20
1.869973310952247
 30
0.0
 11
5.999999999999998
 21
1.86997331095224
 31
0.0
  0
LINE
  5
B5
330
74
100
AcDbEntity
  8
bold
100
AcDbLine
 10
0.999999999999994
 20
-1.826000000000001
 30
0.0
 11
5.999999999999998
 21
-1.826000000000001
 31
0.0
  0
LINE
  5
B6
330
74
100
AcDbEntity
  8
bold
100
AcDbLine
 10
5.999999999999998
 20
-1.826000000000001
 30
0.0
 11
5.999999999999998
 21
24.0
 31
0.0
  0
LWPOLYLINE
  5
B7
330
74
100
AcDbEntity
  8
bold
100
AcDbPolyline
 90
        4
 70
     0
 43
0.0
 10
5.999999999999977
 20
-1.316000000000005
 10
4.439612765577956
 20
-0.0476977209011437
 10
2.918597675898182
 20
1.665406588318645
 10
2.762112246369159
 20
1.869973310952233
  0
LINE
  5
B8
330
74
100
AcDbEntity
  8
bold
100
AcDbLine
 10
2.762112246369158
 20
1.869973310952247
 30
0.0
 11
0.999999999999994
 21
4.293501570993715
 31
0.0
  0
LINE
  5
B9
330
74
100
AcDbEntity
  8
light
100
AcDbLine
 10
100.0
 20
1.86997331095224
 30
0.0
 11
103.2378877536309
 21
1.869973310952247
 31
0.0
  0
LINE
  5
BA
330
74
100
AcDbEntity
  8
bold
100
AcDbLine
 10
100.0
 20
-1.826000000000001
 30
0.0
 11
100.0
 21
24.0
 31
0.0
  0
LINE
  5
BB
330
74
100
AcDbEntity
  8
bold
100
AcDbLine
 10
100.0
 20
-1.826000000000001
 30
0.0
 11
105.0
 21
-1.826000000000001
 31
0.0
  0
LINE
  5
BC
330
74
100
AcDbEntity
  8
bold
100
AcDbLine
 10
105.0
 20
4.293501570993715
 30
0.0
 11
103.2378877536309
 21
1.869973310952247
 31
0.0
  0
LWPOLYLINE
  5
BD
330
74
100
AcDbEntity
  8
bold
100
AcDbPolyline
 90
        4
 70
     0
 43
0.0
 10
103.2378877536309
 20
1.869973310952247
 10
101.7216698833209
 20
0.110999014134
 10
100.1648524099255
 20
-1.204381030540623
 10
99.99999999999997
 20
-1.316000000000053
  0
ENDBLK
  5
77
330
74
100
AcDbEntity
  8
0
100
AcDbBlockEnd
  0
BLOCK
  5
C0
330
BE
100
AcDbEntity
  8
0
100
AcDbBlockBegin
  2
2_30664000_0_in_33500_0
 70
     2
 10
0.0
 20
0.0
 30
0.0
  3
2_30664000_0_in_33500_0
  1

  0
ATTDEF
  5
C2
330
BE
100
AcDbEntity
  8
attrib
100
AcDbText
 10
111.0
 20
31.0
 30
0.0
 40
0.5
  1
30664000
100
AcDbAttributeDefinition
  3

  2
NB
 70
     8
280
     0
  0
ATTDEF
  5
C3
330
BE
100
AcDbEntity
  8
attrib
100
AcDbText
 10
111.0
 20
30.5
 30
0.0
 40
0.5
  1
Adapter
100
AcDbAttributeDefinition
  3

  2
NN
 70
     8
280
     0
  0
ATTDEF
  5
C4
330
BE
100
AcDbEntity
  8
attrib
100
AcDbText
 10
111.0
 20
30.0
 30
0.0
 40
0.5
  1

100
AcDbAttributeDefinition
  3

  2
NT
 70
     8
280
     0
  0
ATTDEF
  5
C5
330
BE
100
AcDbEntity
  8
attrib
100
AcDbText
 10
111.0
 20
29.5
 30
0.0
 40
0.5
  1
$ARTNR.
100
AcDbAttributeDefinition
  3

  2
NBSYN
 70
     8
280
     0
  0
ATTDEF
  5
C6
330
BE
100
AcDbEntity
  8
attrib
100
AcDbText
 10
111.0
 20
29.0
 30
0.0
 40
0.5
  1
30664000
100
AcDbAttributeDefinition
  3

  2
LINA
 70
     8
280
     0
  0
ATTDEF
  5
C7
330
BE
100
AcDbEntity
  8
attrib
100
AcDbText
 10
111.0
 20
28.5
 30
0.0
 40
0.5
  1
Wöhner
100
AcDbAttributeDefinition
  3

  2
CATALOG
 70
     8
280
     0
  0
ATTDEF
  5
C8
330
BE
100
AcDbEntity
  8
attrib
100
AcDbText
 10
111.0
 20
28.0
 30
0.0
 40
0.5
  1
30664000
100
AcDbAttributeDefinition
  3

  2
ARTNR
 70
     8
280
     0
  0
ATTDEF
  5
C9
330
BE
100
AcDbEntity
  8
attrib
100
AcDbText
 10
111.0
 20
27.5
 30
0.0
 40
0.5
  1
QUADRON®60Classic Speed
100
AcDbAttributeDefinition
  3

  2
POF
 70
     8
280
     0
  0
ATTDEF
  5
CA
330
BE
100
AcDbEntity
  8
attrib
100
AcDbText
 10
111.0
 20
27.0
 30
0.0
 40
0.5
  1
QCS-NH00
100
AcDbAttributeDefinition
  3

  2
TYPE
 70
     8
280
     0
  0
ATTDEF
  5
CB
330
BE
100
AcDbEntity
  8
attrib
100
AcDbText
 10
111.0
 20
26.5
 30
0.0
 40
0.5
  1
1
100
AcDbAttributeDefinition
  3

  2
VER
 70
     8
280
     0
  0
ATTDEF
  5
CC
330
BE
100
AcDbEntity
  8
attrib
100
AcDbText
 10
111.0
 20
26.0
 30
0.0
 40
0.5
  1
woehner
100
AcDbAttributeDefinition
  3

  2
COMPANY
 70
     8
280
     0
  0
ATTDEF
  5
CD
330
BE
100
AcDbEntity
  8
attrib
100
AcDbText
 10
111.0
 20
25.5
 30
0.0
 40
0.5
  1
{$CADENAS_DATA/23d-libs/woehner/sys_60classic/switch_fuses_nh/parts/switch_discon_fuses_3pole_adapter.prj},171 {VTYP=3D},{NB=30664000},{LINA=30664000},{NN=Adapter},{DATE=26.01.2024 07:04:31},{GEOMDATE=02.10.2023 08:35:00},{VERSION=v231002115156},{LINEID=3
100
AcDbAttributeDefinition
  3

  2
PSOL_0
 70
     9
280
     0
  0
ATTDEF
  5
CE
330
BE
100
AcDbEntity
  8
attrib
100
AcDbText
 10
111.0
 20
25.0
 30
0.0
 40
0.5
  1
80},{WBVAR=},{WBNUMERIC=}  {NB=30664000},{LINA=30664000},{KT=DUMMY},{ARTNR=30664000},{POF=QUADRON®60Classic Speed},{TYPE=QCS-NH00},{VER=1}
100
AcDbAttributeDefinition
  3

  2
PSOL_1
 70
     9
280
     0
  0
LINE
  5
CF
330
BE
100
AcDbEntity
  8
hidden
100
AcDbLine
 10
40.99999999999999
 20
-68.0
 30
0.0
 11
65.0
 21
-68.0
 31
0.0
  0
LINE
  5
D0
330
BE
100
AcDbEntity
  8
hidden
100
AcDbLine
 10
8.0
 20
-8.0
 30
0.0
 11
32.0
 21
-8.0
 31
0.0
  0
LINE
  5
D1
330
BE
100
AcDbEntity
  8
hidden
100
AcDbLine
 10
74.0
 20
-128.0
 30
0.0
 11
98.0
 21
-128.0
 31
0.0
  0
LINE
  5
D2
330
BE
100
AcDbEntity
  8
hidden
100
AcDbLine
 10
30.0
 20
-8.2
 30
0.0
 11
28.0
 21
-8.2
 31
0.0
  0
LINE
  5
D3
330
BE
100
AcDbEntity
  8
hidden
100
AcDbLine
 10
30.0
 20
-8.2
 30
0.0
 11
30.0
 21
0.0
 31
0.0
  0
LINE
  5
D4
330
BE
100
AcDbEntity
  8
hidden
100
AcDbLine
 10
43.0
 20
-68.2
 30
0.0
 11
43.0
 21
-60.0
 31
0.0
  0
LINE
  5
D5
330
BE
100
AcDbEntity
  8
hidden
100
AcDbLine
 10
43.0
 20
-68.2
 30
0.0
 11
45.0
 21
-68.2
 31
0.0
  0
LINE
  5
D6
330
BE
100
AcDbEntity
  8
hidden
100
AcDbLine
 10
76.0
 20
-128.2
 30
0.0
 11
76.0
 21
-120.0
 31
0.0
  0
LINE
  5
D7
330
BE
100
AcDbEntity
  8
hidden
100
AcDbLine
 10
76.0
 20
-128.2
 30
0.0
 11
78.0
 21
-128.2
 31
0.0
  0
LINE
  5
D8
330
BE
100
AcDbEntity
  8
hidden
100
AcDbLine
 10
63.0
 20
-68.2
 30
0.0
 11
61.0
 21
-68.2
 31
0.0
  0
LINE
  5
D9
330
BE
100
AcDbEntity
  8
hidden
100
AcDbLine
 10
63.0
 20
-68.2
 30
0.0
 11
63.0
 21
-60.0
 31
0.0
  0
LINE
  5
DA
330
BE
100
AcDbEntity
  8
hidden
100
AcDbLine
 10
96.0
 20
-128.2
 30
0.0
 11
94.0
 21
-128.2
 31
0.0
  0
LINE
  5
DB
330
BE
100
AcDbEntity
  8
hidden
100
AcDbLine
 10
96.0
 20
-128.2
 30
0.0
 11
96.0
 21
-120.0
 31
0.0
  0
LINE
  5
DC
330
BE
100
AcDbEntity
  8
hidden
100
AcDbLine
 10
9.999999999999995
 20
-8.2
 30
0.0
 11
9.999999999999995
 21
0.0
 31
0.0
  0
LINE
  5
DD
330
BE
100
AcDbEntity
  8
hidden
100
AcDbLine
 10
9.999999999999995
 20
-8.2
 30
0.0
 11
12.0
 21
-8.2
 31
0.0
  0
LINE
  5
DE
330
BE
100
AcDbEntity
  8
hidden
100
AcDbLine
 10
74.0
 20
-30.0
 30
0.0
 11
68.0
 21
-30.0
 31
0.0
  0
LINE
  5
DF
330
BE
100
AcDbEntity
  8
hidden
100
AcDbLine
 10
78.0
 20
-129.0
 30
0.0
 11
94.0
 21
-129.0
 31
0.0
  0
LINE
  5
E0
330
BE
100
AcDbEntity
  8
hidden
100
AcDbLine
 10
12.0
 20
-9.000000000000002
 30
0.0
 11
28.0
 21
-9.000000000000002
 31
0.0
  0
LINE
  5
E1
330
BE
100
AcDbEntity
  8
hidden
100
AcDbLine
 10
45.0
 20
-69.0
 30
0.0
 11
61.0
 21
-69.0
 31
0.0
  0
LINE
  5
E2
330
BE
100
AcDbEntity
  8
hidden
100
AcDbLine
 10
94.0
 20
-133.0
 30
0.0
 11
94.0
 21
-120.0
 31
0.0
  0
LINE
  5
E3
330
BE
100
AcDbEntity
  8
hidden
100
AcDbLine
 10
78.0
 20
-133.0
 30
0.0
 11
78.00000000000001
 21
-120.0
 31
0.0
  0
LINE
  5
E4
330
BE
100
AcDbEntity
  8
hidden
100
AcDbLine
 10
78.0
 20
-125.0
 30
0.0
 11
94.0
 21
-125.0
 31
0.0
  0
LINE
  5
E5
330
BE
100
AcDbEntity
  8
hidden
100
AcDbLine
 10
28.0
 20
-12.99999999999999
 30
0.0
 11
28.0
 21
0.0
 31
0.0
  0
LINE
  5
E6
330
BE
100
AcDbEntity
  8
hidden
100
AcDbLine
 10
12.0
 20
-4.999999999999997
 30
0.0
 11
28.0
 21
-4.999999999999997
 31
0.0
  0
LINE
  5
E7
330
BE
100
AcDbEntity
  8
hidden
100
AcDbLine
 10
61.0
 20
-73.0
 30
0.0
 11
61.0
 21
-60.0
 31
0.0
  0
LINE
  5
E8
330
BE
100
AcDbEntity
  8
hidden
100
AcDbLine
 10
45.0
 20
-73.00000000000001
 30
0.0
 11
45.0
 21
-60.0
 31
0.0
  0
LINE
  5
E9
330
BE
100
AcDbEntity
  8
hidden
100
AcDbLine
 10
45.0
 20
-65.0
 30
0.0
 11
61.0
 21
-65.0
 31
0.0
  0
LINE
  5
EA
330
BE
100
AcDbEntity
  8
hidden
100
AcDbLine
 10
74.0
 20
-25.0
 30
0.0
 11
68.0
 21
-25.0
 31
0.0
  0
LINE
  5
EB
330
BE
100
AcDbEntity
  8
hidden
100
AcDbLine
 10
74.0
 20
-20.0
 30
0.0
 11
68.0
 21
-20.0
 31
0.0
  0
LINE
  5
EC
330
BE
100
AcDbEntity
  8
hidden
100
AcDbLine
 10
74.0
 20
-15.0
 30
0.0
 11
68.0
 21
-15.0
 31
0.0
  0
LINE
  5
ED
330
BE
100
AcDbEntity
  8
hidden
100
AcDbLine
 10
45.0
 20
-61.0
 30
0.0
 11
61.0
 21
-61.0
 31
0.0
  0
LINE
  5
EE
330
BE
100
AcDbEntity
  8
hidden
100
AcDbLine
 10
45.0
 20
-73.00000000000001
 30
0.0
 11
61.0
 21
-73.0
 31
0.0
  0
LINE
  5
EF
330
BE
100
AcDbEntity
  8
hidden
100
AcDbLine
 10
32.0
 20
1.500000000000001
 30
0.0
 11
98.0
 21
1.500000000000001
 31
0.0
  0
LINE
  5
F0
330
BE
100
AcDbEntity
  8
hidden
100
AcDbLine
 10
8.0
 20
-118.5
 30
0.0
 11
73.99999999999999
 21
-118.5
 31
0.0
  0
LINE
  5
F1
330
BE
100
AcDbEntity
  8
hidden
100
AcDbLine
 10
12.0
 20
-13.0
 30
0.0
 11
12.0
 21
0.0
 31
0.0
  0
LINE
  5
F2
330
BE
100
AcDbEntity
  8
hidden
100
AcDbLine
 10
105.0
 20
31.0
 30
0.0
 11
106.0
 21
31.0
 31
0.0
  0
LINE
  5
F3
330
BE
100
AcDbEntity
  8
hidden
100
AcDbLine
 10
0.0
 20
31.0
 30
0.0
 11
0.999999999999994
 21
31.0
 31
0.0
  0
LINE
  5
F4
330
BE
100
AcDbEntity
  8
hidden
100
AcDbLine
 10
64.99999999999997
 20
-58.5
 30
0.0
 11
98.0
 21
-58.5
 31
0.0
  0
LINE
  5
F5
330
BE
100
AcDbEntity
  8
hidden
100
AcDbLine
 10
8.0
 20
0.0
 30
0.0
 11
98.0
 21
0.0
 31
0.0
  0
LINE
  5
F6
330
BE
100
AcDbEntity
  8
hidden
100
AcDbLine
 10
8.0
 20
-60.0
 30
0.0
 11
98.0
 21
-60.0
 31
0.0
  0
LINE
  5
F7
330
BE
100
AcDbEntity
  8
hidden
100
AcDbLine
 10
74.0
 20
-128.0
 30
0.0
 11
74.0
 21
-105.0
 31
0.0
  0
LINE
  5
F8
330
BE
100
AcDbEntity
  8
hidden
100
AcDbLine
 10
8.0
 20
-58.5
 30
0.0
 11
40.99999999999999
 21
-58.5
 31
0.0
  0
LINE
  5
F9
330
BE
100
AcDbEntity
  8
hidden
100
AcDbLine
 10
65.0
 20
-68.0
 30
0.0
 11
65.0
 21
-45.0
 31
0.0
  0
LINE
  5
FA
330
BE
100
AcDbEntity
  8
hidden
100
AcDbLine
 10
32.0
 20
-8.0
 30
0.0
 11
32.0
 21
15.0
 31
0.0
  0
LINE
  5
FB
330
BE
100
AcDbEntity
  8
hidden
100
AcDbLine
 10
74.0
 20
-105.0
 30
0.0
 11
98.0
 21
-105.0
 31
0.0
  0
LINE
  5
FC
330
BE
100
AcDbEntity
  8
hidden
100
AcDbLine
 10
12.0
 20
-13.0
 30
0.0
 11
28.0
 21
-12.99999999999999
 31
0.0
  0
LINE
  5
FD
330
BE
100
AcDbEntity
  8
hidden
100
AcDbLine
 10
12.0
 20
-1.000000000000001
 30
0.0
 11
28.0
 21
-1.000000000000001
 31
0.0
  0
LINE
  5
FE
330
BE
100
AcDbEntity
  8
hidden
100
AcDbLine
 10
74.0
 20
-43.0
 30
0.0
 11
74.0
 21
-12.0
 31
0.0
  0
LINE
  5
FF
330
BE
100
AcDbEntity
  8
hidden
100
AcDbLine
 10
68.0
 20
-25.46340563017735
 30
0.0
 11
68.0
 21
-12.0
 31
0.0
  0
LINE
  5
100
330
BE
100
AcDbEntity
  8
hidden
100
AcDbLine
 10
68.0
 20
-43.0
 30
0.0
 11
68.0
 21
-34.85464115248448
 31
0.0
  0
LINE
  5
101
330
BE
100
AcDbEntity
  8
hidden
100
AcDbLine
 10
74.0
 20
-43.0
 30
0.0
 11
68.0
 21
-43.0
 31
0.0
  0
LINE
  5
102
330
BE
100
AcDbEntity
  8
hidden
100
AcDbLine
 10
74.0
 20
-12.0
 30
0.0
 11
68.0
 21
-12.0
 31
0.0
  0
LINE
  5
103
330
BE
100
AcDbEntity
  8
hidden
100
AcDbLine
 10
41.0
 20
-45.0
 30
0.0
 11
65.0
 21
-45.0
 31
0.0
  0
LINE
  5
104
330
BE
100
AcDbEntity
  8
hidden
100
AcDbLine
 10
98.0
 20
-120.0
 30
0.0
 11
8.0
 21
-120.0
 31
0.0
  0
LINE
  5
105
330
BE
100
AcDbEntity
  8
hidden
100
AcDbLine
 10
40.99999999999999
 20
-68.0
 30
0.0
 11
41.0
 21
-45.0
 31
0.0
  0
LINE
  5
106
330
BE
100
AcDbEntity
  8
hidden
100
AcDbLine
 10
78.0
 20
-133.0
 30
0.0
 11
94.0
 21
-133.0
 31
0.0
  0
LINE
  5
107
330
BE
100
AcDbEntity
  8
hidden
100
AcDbLine
 10
78.0
 20
-121.0
 30
0.0
 11
94.0
 21
-121.0
 31
0.0
  0
LINE
  5
108
330
BE
100
AcDbEntity
  8
hidden
100
AcDbLine
 10
8.0
 20
-147.0
 30
0.0
 11
8.0
 21
14.00000000000001
 31
0.0
  0
LINE
  5
109
330
BE
100
AcDbEntity
  8
hidden
100
AcDbLine
 10
98.0
 20
-147.0
 30
0.0
 11
106.0
 21
-147.0
 31
0.0
  0
LINE
  5
10A
330
BE
100
AcDbEntity
  8
hidden
100
AcDbLine
 10
98.0
 20
-147.0
 30
0.0
 11
98.0
 21
14.00000000000001
 31
0.0
  0
LINE
  5
10B
330
BE
100
AcDbEntity
  8
hidden
100
AcDbLine
 10
98.0
 20
15.00000000000001
 30
0.0
 11
106.0
 21
15.00000000000001
 31
0.0
  0
LINE
  5
10C
330
BE
100
AcDbEntity
  8
hidden
100
AcDbLine
 10
32.0
 20
15.0
 30
0.0
 11
0.0
 21
15.00000000000001
 31
0.0
  0
LINE
  5
10D
330
BE
100
AcDbEntity
  8
hidden
100
AcDbLine
 10
8.0
 20
-147.0
 30
0.0
 11
0.0
 21
-147.0
 31
0.0
  0
ENDBLK
  5
C1
330
BE
100
AcDbEntity
  8
0
100
AcDbBlockEnd
  0
BLOCK
  5
110
330
10E
100
AcDbEntity
  8
0
100
AcDbBlockBegin
  2
3_30898000_0_in_33500_0
 70
     2
 10
0.0
 20
0.0
 30
0.0
  3
3_30898000_0_in_33500_0
  1

  0
ATTDEF
  5
112
330
10E
100
AcDbEntity
  8
attrib
100
AcDbText
 10
108.0
 20
-17.51581503615117
 30
0.0
 40
0.5
  1
30898000
100
AcDbAttributeDefinition
  3

  2
NB
 70
     8
280
     0
  0
ATTDEF
  5
113
330
10E
100
AcDbEntity
  8
attrib
100
AcDbText
 10
108.0
 20
-18.01581503615117
 30
0.0
 40
0.5
  1
Handle Capus
100
AcDbAttributeDefinition
  3

  2
NN
 70
     8
280
     0
  0
ATTDEF
  5
114
330
10E
100
AcDbEntity
  8
attrib
100
AcDbText
 10
108.0
 20
-18.51581503615117
 30
0.0
 40
0.5
  1

100
AcDbAttributeDefinition
  3

  2
NT
 70
     8
280
     0
  0
ATTDEF
  5
115
330
10E
100
AcDbEntity
  8
attrib
100
AcDbText
 10
108.0
 20
-19.01581503615117
 30
0.0
 40
0.5
  1
$ARTNR.
100
AcDbAttributeDefinition
  3

  2
NBSYN
 70
     8
280
     0
  0
ATTDEF
  5
116
330
10E
100
AcDbEntity
  8
attrib
100
AcDbText
 10
108.0
 20
-19.51581503615117
 30
0.0
 40
0.5
  1
30898000
100
AcDbAttributeDefinition
  3

  2
LINA
 70
     8
280
     0
  0
ATTDEF
  5
117
330
10E
100
AcDbEntity
  8
attrib
100
AcDbText
 10
108.0
 20
-20.01581503615117
 30
0.0
 40
0.5
  1
Wöhner
100
AcDbAttributeDefinition
  3

  2
CATALOG
 70
     8
280
     0
  0
ATTDEF
  5
118
330
10E
100
AcDbEntity
  8
attrib
100
AcDbText
 10
108.0
 20
-20.51581503615117
 30
0.0
 40
0.5
  1
30898000
100
AcDbAttributeDefinition
  3

  2
ARTNR
 70
     8
280
     0
  0
ATTDEF
  5
119
330
10E
100
AcDbEntity
  8
attrib
100
AcDbText
 10
108.0
 20
-21.01581503615117
 30
0.0
 40
0.5
  1
QUADRON®60Classic Speed
100
AcDbAttributeDefinition
  3

  2
POF
 70
     8
280
     0
  0
ATTDEF
  5
11A
330
10E
100
AcDbEntity
  8
attrib
100
AcDbText
 10
108.0
 20
-21.51581503615117
 30
0.0
 40
0.5
  1
QCS-NH00
100
AcDbAttributeDefinition
  3

  2
TYPE
 70
     8
280
     0
  0
ATTDEF
  5
11B
330
10E
100
AcDbEntity
  8
attrib
100
AcDbText
 10
108.0
 20
-22.01581503615117
 30
0.0
 40
0.5
  1
1
100
AcDbAttributeDefinition
  3

  2
VER
 70
     8
280
     0
  0
ATTDEF
  5
11C
330
10E
100
AcDbEntity
  8
attrib
100
AcDbText
 10
108.0
 20
-22.51581503615117
 30
0.0
 40
0.5
  1
woehner
100
AcDbAttributeDefinition
  3

  2
COMPANY
 70
     8
280
     0
  0
ATTDEF
  5
11D
330
10E
100
AcDbEntity
  8
attrib
100
AcDbText
 10
108.0
 20
-23.01581503615117
 30
0.0
 40
0.5
  1
{$CADENAS_DATA/23d-libs/woehner/sys_60classic/switch_fuses_nh/parts/switch_discon_fuses_3pole_griff.prj},162 {VTYP=3D},{NB=30898000},{LINA=30898000},{NN=Griff Capus},{DATE=26.01.2024 06:39:58},{GEOMDATE=02.12.2022 08:14:07},{VERSION=},{LINEID=380},{WBVAR=
100
AcDbAttributeDefinition
  3

  2
PSOL_0
 70
     9
280
     0
  0
ATTDEF
  5
11E
330
10E
100
AcDbEntity
  8
attrib
100
AcDbText
 10
108.0
 20
-23.51581503615117
 30
0.0
 40
0.5
  1
},{WBNUMERIC=}  {NB=30898000},{LINA=30898000},{KT=DUMMY},{ARTNR=30898000},{POF=QUADRON®60Classic Speed},{TYPE=QCS-NH00},{VER=1}
100
AcDbAttributeDefinition
  3

  2
PSOL_1
 70
     9
280
     0
  0
LINE
  5
11F
330
10E
100
AcDbEntity
  8
hidden
100
AcDbLine
 10
6.499999999999999
 20
-22.51581503615117
 30
0.0
 11
6.499999999999999
 21
-34.51581503615117
 31
0.0
  0
LINE
  5
120
330
10E
100
AcDbEntity
  8
hidden
100
AcDbLine
 10
99.5
 20
-22.51581503615117
 30
0.0
 11
99.5
 21
-34.51581503615117
 31
0.0
  0
LINE
  5
121
330
10E
100
AcDbEntity
  8
hidden
100
AcDbLine
 10
10.5
 20
-22.51581503615117
 30
0.0
 11
10.5
 21
-34.51581503615117
 31
0.0
  0
LINE
  5
122
330
10E
100
AcDbEntity
  8
hidden
100
AcDbLine
 10
95.5
 20
-22.51581503615117
 30
0.0
 11
99.5
 21
-22.51581503615117
 31
0.0
  0
LINE
  5
123
330
10E
100
AcDbEntity
  8
hidden
100
AcDbLine
 10
95.5
 20
-22.51581503615117
 30
0.0
 11
95.5
 21
-34.51581503615117
 31
0.0
  0
LINE
  5
124
330
10E
100
AcDbEntity
  8
hidden
100
AcDbLine
 10
6.499999999999999
 20
-22.51581503615117
 30
0.0
 11
10.5
 21
-22.51581503615117
 31
0.0
  0
LINE
  5
125
330
10E
100
AcDbEntity
  8
hidden
100
AcDbLine
 10
6.499999999999999
 20
-34.51581503615117
 30
0.0
 11
10.5
 21
-34.51581503615117
 31
0.0
  0
LINE
  5
126
330
10E
100
AcDbEntity
  8
hidden
100
AcDbLine
 10
95.5
 20
-34.51581503615117
 30
0.0
 11
99.5
 21
-34.51581503615117
 31
0.0
  0
LINE
  5
127
330
10E
100
AcDbEntity
  8
bold
100
AcDbLine
 10
26.0
 20
-31.51581503615117
 30
0.0
 11
80.0
 21
-31.51581503615117
 31
0.0
  0
ARC
  5
128
330
10E
100
AcDbEntity
  8
bold
100
AcDbCircle
 10
80.0
 20
-29.51581503615116
 30
0.0
 40
2.000000000000011
100
AcDbArc
 50
270.0
 51
359.9999999999997
  0
ARC
  5
129
330
10E
100
AcDbEntity
  8
bold
100
AcDbCircle
 10
80.0
 20
-27.51581503615117
 30
0.0
 40
2.0
100
AcDbArc
 50
0.0000000000002036
 51
90.0
  0
ARC
  5
12A
330
10E
100
AcDbEntity
  8
bold
100
AcDbCircle
 10
26.0
 20
-27.51581503615117
 30
0.0
 40
2.000000000000004
100
AcDbArc
 50
89.9999999999999
 51
179.9999999999998
  0
LINE
  5
12B
330
10E
100
AcDbEntity
  8
bold
100
AcDbLine
 10
23.99999999999999
 20
-27.51581503615117
 30
0.0
 11
24.0
 21
-29.51581503615117
 31
0.0
  0
LINE
  5
12C
330
10E
100
AcDbEntity
  8
bold
100
AcDbLine
 10
80.0
 20
-25.51581503615117
 30
0.0
 11
26.0
 21
-25.51581503615117
 31
0.0
  0
LINE
  5
12D
330
10E
100
AcDbEntity
  8
bold
100
AcDbLine
 10
82.0
 20
-29.51581503615117
 30
0.0
 11
82.0
 21
-27.51581503615117
 31
0.0
  0
ARC
  5
12E
330
10E
100
AcDbEntity
  8
bold
100
AcDbCircle
 10
26.0
 20
-29.51581503615117
 30
0.0
 40
2.0
100
AcDbArc
 50
180.0
 51
270.0000000000001
  0
LINE
  5
12F
330
10E
100
AcDbEntity
  8
bold
100
AcDbLine
 10
2.999999999999996
 20
-19.51581503615117
 30
0.0
 11
2.999999999999996
 21
-37.51581503615117
 31
0.0
  0
ARC
  5
130
330
10E
100
AcDbEntity
  8
bold
100
AcDbCircle
 10
101.0
 20
-37.51581503615117
 30
0.0
 40
1.999999999999993
100
AcDbArc
 50
269.9999999999996
 51
0.0
  0
ARC
  5
131
330
10E
100
AcDbEntity
  8
bold
100
AcDbCircle
 10
101.0
 20
-19.51581503615117
 30
0.0
 40
2.0
100
AcDbArc
 50
0.0000000000002036
 51
90.0
  0
ARC
  5
132
330
10E
100
AcDbEntity
  8
bold
100
AcDbCircle
 10
90.0
 20
-31.51581503615116
 30
0.0
 40
2.000000000000011
100
AcDbArc
 50
270.0
 51
359.9999999999997
  0
ARC
  5
133
330
10E
100
AcDbEntity
  8
bold
100
AcDbCircle
 10
90.0
 20
-25.51581503615118
 30
0.0
 40
2.0
100
AcDbArc
 50
0.0000000000002036
 51
90.0
  0
ARC
  5
134
330
10E
100
AcDbEntity
  8
bold
100
AcDbCircle
 10
15.99999999999999
 20
-25.51581503615116
 30
0.0
 40
1.999999999999996
100
AcDbArc
 50
89.99999999999982
 51
180.0000000000002
  0
LINE
  5
135
330
10E
100
AcDbEntity
  8
bold
100
AcDbLine
 10
16.0
 20
-33.51581503615116
 30
0.0
 11
90.0
 21
-33.51581503615117
 31
0.0
  0
ARC
  5
136
330
10E
100
AcDbEntity
  8
bold
100
AcDbCircle
 10
15.99999999999999
 20
-31.51581503615117
 30
0.0
 40
1.999999999999988
100
AcDbArc
 50
179.9999999999999
 51
270.0000000000004
  0
LINE
  5
137
330
10E
100
AcDbEntity
  8
bold
100
AcDbLine
 10
14.0
 20
-25.51581503615117
 30
0.0
 11
14.0
 21
-31.51581503615117
 31
0.0
  0
LINE
  5
138
330
10E
100
AcDbEntity
  8
bold
100
AcDbLine
 10
90.0
 20
-23.51581503615117
 30
0.0
 11
16.0
 21
-23.51581503615117
 31
0.0
  0
LINE
  5
139
330
10E
100
AcDbEntity
  8
bold
100
AcDbLine
 10
92.0
 20
-31.51581503615117
 30
0.0
 11
92.0
 21
-25.51581503615117
 31
0.0
  0
ARC
  5
13A
330
10E
100
AcDbEntity
  8
bold
100
AcDbCircle
 10
4.999999999999996
 20
-37.51581503615117
 30
0.0
 40
2.0
100
AcDbArc
 50
180.0000000000002
 51
270.0000000000001
  0
ARC
  5
13B
330
10E
100
AcDbEntity
  8
bold
100
AcDbCircle
 10
5.000000000000003
 20
-19.51581503615118
 30
0.0
 40
2.000000000000007
100
AcDbArc
 50
90.00000000000016
 51
179.9999999999996
  0
LINE
  5
13C
330
10E
100
AcDbEntity
  8
bold
100
AcDbLine
 10
4.999999999999997
 20
-17.51581503615117
 30
0.0
 11
101.0
 21
-17.51581503615117
 31
0.0
  0
LINE
  5
13D
330
10E
100
AcDbEntity
  8
light
100
AcDbLine
 10
101.0
 20
-39.51581503615117
 30
0.0
 11
101.0
 21
-17.51581503615117
 31
0.0
  0
LINE
  5
13E
330
10E
100
AcDbEntity
  8
light
100
AcDbLine
 10
4.999999999999997
 20
-39.51581503615117
 30
0.0
 11
4.999999999999997
 21
-17.51581503615117
 31
0.0
  0
LINE
  5
13F
330
10E
100
AcDbEntity
  8
bold
100
AcDbLine
 10
4.999999999999997
 20
-39.51581503615117
 30
0.0
 11
101.0
 21
-39.51581503615117
 31
0.0
  0
LINE
  5
140
330
10E
100
AcDbEntity
  8
light
100
AcDbLine
 10
2.999999999999996
 20
-37.51581503615117
 30
0.0
 11
103.0
 21
-37.51581503615117
 31
0.0
  0
LINE
  5
141
330
10E
100
AcDbEntity
  8
bold
100
AcDbLine
 10
103.0
 20
-19.51581503615117
 30
0.0
 11
103.0
 21
-37.51581503615117
 31
0.0
  0
LINE
  5
142
330
10E
100
AcDbEntity
  8
light
100
AcDbLine
 10
2.999999999999996
 20
-19.51581503615117
 30
0.0
 11
103.0
 21
-19.51581503615117
 31
0.0
  0
ENDBLK
  5
111
330
10E
100
AcDbEntity
  8
0
100
AcDbBlockEnd
  0
BLOCK
  5
145
330
143
100
AcDbEntity
  8
0
100
AcDbBlockBegin
  2
4_77052000_77055000_0_in_33500_0
 70
     2
 10
0.0
 20
0.0
 30
0.0
  3
4_77052000_77055000_0_in_33500_0
  1

  0
ATTDEF
  5
147
330
143
100
AcDbEntity
  8
attrib
100
AcDbText
 10
110.0
 20
-1.831308798573839
 30
0.0
 40
0.5
  1
77052000+77055000
100
AcDbAttributeDefinition
  3

  2
NB
 70
     8
280
     0
  0
ATTDEF
  5
148
330
143
100
AcDbEntity
  8
attrib
100
AcDbText
 10
110.0
 20
-2.331308798573839
 30
0.0
 40
0.5
  1
Lid Capus
100
AcDbAttributeDefinition
  3

  2
NN
 70
     8
280
     0
  0
ATTDEF
  5
149
330
143
100
AcDbEntity
  8
attrib
100
AcDbText
 10
110.0
 20
-2.831308798573839
 30
0.0
 40
0.5
  1

100
AcDbAttributeDefinition
  3

  2
NT
 70
     8
280
     0
  0
ATTDEF
  5
14A
330
143
100
AcDbEntity
  8
attrib
100
AcDbText
 10
110.0
 20
-3.331308798573839
 30
0.0
 40
0.5
  1
$ARTNRT.
100
AcDbAttributeDefinition
  3

  2
NBSYN
 70
     8
280
     0
  0
ATTDEF
  5
14B
330
143
100
AcDbEntity
  8
attrib
100
AcDbText
 10
110.0
 20
-3.831308798573839
 30
0.0
 40
0.5
  1
77052000+77055000
100
AcDbAttributeDefinition
  3

  2
LINA
 70
     8
280
     0
  0
ATTDEF
  5
14C
330
143
100
AcDbEntity
  8
attrib
100
AcDbText
 10
110.0
 20
-4.331308798573839
 30
0.0
 40
0.5
  1
Wöhner
100
AcDbAttributeDefinition
  3

  2
CATALOG
 70
     8
280
     0
  0
ATTDEF
  5
14D
330
143
100
AcDbEntity
  8
attrib
100
AcDbText
 10
110.0
 20
-4.831308798573839
 30
0.0
 40
0.5
  1
77052000+77055000
100
AcDbAttributeDefinition
  3

  2
ARTNR
 70
     8
280
     0
  0
ATTDEF
  5
14E
330
143
100
AcDbEntity
  8
attrib
100
AcDbText
 10
110.0
 20
-5.331308798573839
 30
0.0
 40
0.5
  1
QUADRON®60Classic Speed
100
AcDbAttributeDefinition
  3

  2
POF
 70
     8
280
     0
  0
ATTDEF
  5
14F
330
143
100
AcDbEntity
  8
attrib
100
AcDbText
 10
110.0
 20
-5.831308798573839
 30
0.0
 40
0.5
  1
QCS-NH00
100
AcDbAttributeDefinition
  3

  2
TYPE
 70
     8
280
     0
  0
ATTDEF
  5
150
330
143
100
AcDbEntity
  8
attrib
100
AcDbText
 10
110.0
 20
-6.331308798573839
 30
0.0
 40
0.5
  1
1
100
AcDbAttributeDefinition
  3

  2
VER
 70
     8
280
     0
  0
ATTDEF
  5
151
330
143
100
AcDbEntity
  8
attrib
100
AcDbText
 10
110.0
 20
-6.831308798573839
 30
0.0
 40
0.5
  1
woehner
100
AcDbAttributeDefinition
  3

  2
COMPANY
 70
     8
280
     0
  0
ATTDEF
  5
152
330
143
100
AcDbEntity
  8
attrib
100
AcDbText
 10
110.0
 20
-7.331308798573839
 30
0.0
 40
0.5
  1
{$CADENAS_DATA/23d-libs/woehner/sys_60classic/switch_fuses_nh/parts/switch_discon_fuses_3pole_deckel.prj},181 {VTYP=3D},{NB=77052000+77055000},{LINA=77052000+77055000},{NN=Deckel Capus},{DATE=26.01.2024 06:39:58},{GEOMDATE=02.12.2022 08:55:44},{VERSION=},
100
AcDbAttributeDefinition
  3

  2
PSOL_0
 70
     9
280
     0
  0
ATTDEF
  5
153
330
143
100
AcDbEntity
  8
attrib
100
AcDbText
 10
110.0
 20
-7.831308798573839
 30
0.0
 40
0.5
  1
{LINEID=380},{WBVAR=},{WBNUMERIC=}  {NB=77052000+77055000},{LINA=77052000+77055000},{KT=DUMMY},{ARTNR=77052000+77055000},{POF=QUADRON®60Classic Speed},{TYPE=QCS-NH00},{VER=1},{ARTNRT=77052000+77055000},{COL=blau_klar_20_11_2020}
100
AcDbAttributeDefinition
  3

  2
PSOL_1
 70
     9
280
     0
  0
LINE
  5
154
330
143
100
AcDbEntity
  8
hidden
100
AcDbLine
 10
6.499999999999999
 20
-157.2015975434093
 30
0.0
 11
2.499999999999995
 21
-157.2015975434093
 31
0.0
  0
LINE
  5
155
330
143
100
AcDbEntity
  8
hidden
100
AcDbLine
 10
2.499999999999995
 20
-157.6198709145698
 30
0.0
 11
6.499999999999999
 21
-157.6198709145698
 31
0.0
  0
LINE
  5
156
330
143
100
AcDbEntity
  8
hidden
100
AcDbLine
 10
2.499999999999995
 20
-157.6198709145698
 30
0.0
 11
2.499999999999995
 21
-130.9426025867525
 31
0.0
  0
LINE
  5
157
330
143
100
AcDbEntity
  8
hidden
100
AcDbLine
 10
99.5
 20
-157.2015975434093
 30
0.0
 11
103.5
 21
-157.2015975434093
 31
0.0
  0
LINE
  5
158
330
143
100
AcDbEntity
  8
hidden
100
AcDbLine
 10
99.5
 20
-157.6198709145698
 30
0.0
 11
103.5
 21
-157.6198709145698
 31
0.0
  0
LINE
  5
159
330
143
100
AcDbEntity
  8
hidden
100
AcDbLine
 10
103.5
 20
-157.6198709145698
 30
0.0
 11
103.5
 21
-130.9426025867525
 31
0.0
  0
LINE
  5
15A
330
143
100
AcDbEntity
  8
hidden
100
AcDbLine
 10
99.5
 20
-151.1315394200345
 30
0.0
 11
103.5
 21
-151.1315394200345
 31
0.0
  0
LINE
  5
15B
330
143
100
AcDbEntity
  8
hidden
100
AcDbLine
 10
99.5
 20
-156.9968393555526
 30
0.0
 11
103.5
 21
-156.9968393555526
 31
0.0
  0
LINE
  5
15C
330
143
100
AcDbEntity
  8
hidden
100
AcDbLine
 10
99.5
 20
-156.9999815139855
 30
0.0
 11
103.5
 21
-156.9999815139855
 31
0.0
  0
LINE
  5
15D
330
143
100
AcDbEntity
  8
hidden
100
AcDbLine
 10
103.5
 20
-150.9999815139855
 30
0.0
 11
99.5
 21
-150.9999815139855
 31
0.0
  0
LINE
  5
15E
330
143
100
AcDbEntity
  8
hidden
100
AcDbLine
 10
6.499999999999999
 20
-156.9968393555526
 30
0.0
 11
2.499999999999995
 21
-156.9968393555526
 31
0.0
  0
LINE
  5
15F
330
143
100
AcDbEntity
  8
hidden
100
AcDbLine
 10
6.499999999999999
 20
-151.1315394200345
 30
0.0
 11
2.499999999999995
 21
-151.1315394200345
 31
0.0
  0
LINE
  5
160
330
143
100
AcDbEntity
  8
hidden
100
AcDbLine
 10
6.499999999999999
 20
-150.9999815139855
 30
0.0
 11
2.499999999999995
 21
-150.9999815139855
 31
0.0
  0
LINE
  5
161
330
143
100
AcDbEntity
  8
hidden
100
AcDbLine
 10
2.499999999999995
 20
-156.9999815139855
 30
0.0
 11
6.499999999999999
 21
-156.9999815139855
 31
0.0
  0
LINE
  5
162
330
143
100
AcDbEntity
  8
hidden
100
AcDbLine
 10
99.5
 20
-126.0540055958633
 30
0.0
 11
103.5
 21
-126.0540055958633
 31
0.0
  0
LINE
  5
163
330
143
100
AcDbEntity
  8
hidden
100
AcDbLine
 10
99.5
 20
-133.4716819257111
 30
0.0
 11
103.5
 21
-133.4716819257111
 31
0.0
  0
LINE
  5
164
330
143
100
AcDbEntity
  8
hidden
100
AcDbLine
 10
103.5
 20
-125.3292201146738
 30
0.0
 11
99.5
 21
-125.3292201146738
 31
0.0
  0
LINE
  5
165
330
143
100
AcDbEntity
  8
hidden
100
AcDbLine
 10
6.499999999999999
 20
-126.0540055958633
 30
0.0
 11
2.499999999999995
 21
-126.0540055958633
 31
0.0
  0
LINE
  5
166
330
143
100
AcDbEntity
  8
hidden
100
AcDbLine
 10
6.499999999999999
 20
-133.4716819257111
 30
0.0
 11
2.499999999999995
 21
-133.4716819257111
 31
0.0
  0
LINE
  5
167
330
143
100
AcDbEntity
  8
hidden
100
AcDbLine
 10
6.499999999999999
 20
-125.3292201146738
 30
0.0
 11
2.499999999999995
 21
-125.3292201146738
 31
0.0
  0
LINE
  5
168
330
143
100
AcDbEntity
  8
hidden
100
AcDbLine
 10
99.5
 20
-117.0764646939583
 30
0.0
 11
103.5
 21
-117.0764646939583
 31
0.0
  0
LINE
  5
169
330
143
100
AcDbEntity
  8
hidden
100
AcDbLine
 10
103.5
 20
-100.3845678888211
 30
0.0
 11
99.5
 21
-100.3845678888211
 31
0.0
  0
LINE
  5
16A
330
143
100
AcDbEntity
  8
hidden
100
AcDbLine
 10
6.499999999999999
 20
-117.0764646939583
 30
0.0
 11
2.499999999999995
 21
-117.0764646939583
 31
0.0
  0
LINE
  5
16B
330
143
100
AcDbEntity
  8
hidden
100
AcDbLine
 10
6.499999999999999
 20
-100.3845678888211
 30
0.0
 11
2.499999999999995
 21
-100.3845678888211
 31
0.0
  0
ELLIPSE
  5
16C
330
143
100
AcDbEntity
  8
hidden
100
AcDbEllipse
 10
53.00000000000078
 20
45.81507826931417
 30
0.0
 11
200.0000000000051
 21
-2.266215559059249E-13
 31
0.0
210
0.0
220
0.0
230
1.0
 40
0.9990068231153919
 41
4.535302097443946
 42
4.889475863325428
  0
ELLIPSE
  5
16D
330
143
100
AcDbEntity
  8
hidden
100
AcDbEllipse
 10
86.82325107007686
 20
-142.9945358637628
 30
0.0
 11
7.999999999999758
 21
-3.714416574738767E-13
 31
0.0
210
0.0
220
0.0
230
1.0
 40
0.9990068231153924
 41
4.889475863325472
 42
5.760667778535923
  0
ELLIPSE
  5
16E
330
143
100
AcDbEntity
  8
hidden
100
AcDbEllipse
 10
19.17674892992322
 20
-142.9945358637627
 30
0.0
 11
7.999999999999904
 21
3.410605131648481E-13
 31
0.0
210
0.0
220
0.0
230
1.0
 40
0.9990068231153919
 41
3.664110182233467
 42
4.535302097443902
  0
ELLIPSE
  5
16F
330
143
100
AcDbEntity
  8
hidden
100
AcDbEllipse
 10
33.0000000000072
 20
-112.0279997829256
 30
0.0
 11
70.11099999999225
 21
-1.178640583004525E-11
 31
0.0
210
0.0
220
0.0
230
1.0
 40
0.999006823115392
 41
5.760667778536003
 42
6.023733602978202
  0
ELLIPSE
  5
170
330
143
100
AcDbEntity
  8
hidden
100
AcDbEllipse
 10
72.9999999999891
 20
-112.0279997829271
 30
0.0
 11
70.11099999998827
 21
1.173816599475686E-11
 31
0.0
210
0.0
220
0.0
230
1.0
 40
0.9990068231153921
 41
3.401044357791172
 42
3.664110182233382
  0
LINE
  5
171
330
143
100
AcDbEntity
  8
hidden
100
AcDbLine
 10
3.168321307537157
 20
-129.9971578095882
 30
0.0
 11
5.235559848786687
 21
-129.9971578095882
 31
0.0
  0
LINE
  5
172
330
143
100
AcDbEntity
  8
hidden
100
AcDbLine
 10
102.8316786924628
 20
-129.9971578095882
 30
0.0
 11
100.7644401512133
 21
-129.9971578095882
 31
0.0
  0
LINE
  5
173
330
143
100
AcDbEntity
  8
hidden
100
AcDbLine
 10
2.499999999999995
 20
-106.9101206107243
 30
0.0
 11
2.999999999999996
 21
-106.9101206107243
 31
0.0
  0
LINE
  5
174
330
143
100
AcDbEntity
  8
hidden
100
AcDbLine
 10
6.499999999999999
 20
-102.409435309001
 30
0.0
 11
2.499999999999995
 21
-102.409435309001
 31
0.0
  0
LINE
  5
175
330
143
100
AcDbEntity
  8
hidden
100
AcDbLine
 10
103.5
 20
-106.9101206107243
 30
0.0
 11
103.0
 21
-106.9101206107243
 31
0.0
  0
LINE
  5
176
330
143
100
AcDbEntity
  8
hidden
100
AcDbLine
 10
99.5
 20
-102.409435309001
 30
0.0
 11
103.5
 21
-102.409435309001
 31
0.0
  0
LINE
  5
177
330
143
100
AcDbEntity
  8
hidden
100
AcDbLine
 10
103.0
 20
-104.9337077179283
 30
0.0
 11
105.0
 21
-104.9337077179283
 31
0.0
  0
LINE
  5
178
330
143
100
AcDbEntity
  8
hidden
100
AcDbLine
 10
103.5
 20
-127.0669575396919
 30
0.0
 11
103.5
 21
-100.3845678888211
 31
0.0
  0
LINE
  5
179
330
143
100
AcDbEntity
  8
hidden
100
AcDbLine
 10
0.999999999999994
 20
-104.9337077179283
 30
0.0
 11
2.999999999999996
 21
-104.9337077179283
 31
0.0
  0
LINE
  5
17A
330
143
100
AcDbEntity
  8
hidden
100
AcDbLine
 10
2.499999999999995
 20
-127.0669575396919
 30
0.0
 11
2.499999999999995
 21
-100.3845678888211
 31
0.0
  0
LINE
  5
17B
330
143
100
AcDbEntity
  8
hidden
100
AcDbLine
 10
100.4770287030016
 20
-130.9426025867525
 30
0.0
 11
100.7644401512133
 21
-129.9971578095882
 31
0.0
  0
ELLIPSE
  5
17C
330
143
100
AcDbEntity
  8
hidden
100
AcDbEllipse
 10
33.00000000000277
 20
-111.9246264724107
 30
0.0
 11
-70.11099999999719
 21
-4.137054466732404E-11
 31
0.0
210
0.0
220
0.0
230
1.0
 40
0.9990068231153917
 41
2.866615538344886
 42
3.085314385864815
  0
LINE
  5
17D
330
143
100
AcDbEntity
  8
hidden
100
AcDbLine
 10
99.5
 20
-157.6198709145698
 30
0.0
 11
99.5
 21
-100.3845678888211
 31
0.0
  0
LINE
  5
17E
330
143
100
AcDbEntity
  8
hidden
100
AcDbLine
 10
99.5
 20
-106.9295923568332
 30
0.0
 11
103.0
 21
-106.9295923568333
 31
0.0
  0
LINE
  5
17F
330
143
100
AcDbEntity
  8
hidden
100
AcDbLine
 10
99.5
 20
-130.9426025867525
 30
0.0
 11
100.4770287030015
 21
-130.9426025867525
 31
0.0
  0
LINE
  5
180
330
143
100
AcDbEntity
  8
hidden
100
AcDbLine
 10
5.522971296998428
 20
-130.9426025867525
 30
0.0
 11
5.23555984878668
 21
-129.9971578095882
 31
0.0
  0
ELLIPSE
  5
181
330
143
100
AcDbEntity
  8
hidden
100
AcDbEllipse
 10
72.99999999999714
 20
-111.9246264724106
 30
0.0
 11
70.11099999999713
 21
-1.384135137710463E-11
 31
0.0
210
0.0
220
0.0
230
1.0
 40
0.9990068231153918
 41
3.197870921314379
 42
3.416569768834309
  0
LINE
  5
182
330
143
100
AcDbEntity
  8
hidden
100
AcDbLine
 10
6.499999999999999
 20
-157.6198709145698
 30
0.0
 11
6.499999999999999
 21
-100.3845678888211
 31
0.0
  0
LINE
  5
183
330
143
100
AcDbEntity
  8
hidden
100
AcDbLine
 10
6.499999999999999
 20
-106.9295923568332
 30
0.0
 11
2.999999999999996
 21
-106.9295923568332
 31
0.0
  0
LINE
  5
184
330
143
100
AcDbEntity
  8
hidden
100
AcDbLine
 10
6.499999999999999
 20
-130.9426025867525
 30
0.0
 11
5.522971296998448
 21
-130.9426025867525
 31
0.0
  0
LINE
  5
185
330
143
100
AcDbEntity
  8
hidden
100
AcDbLine
 10
37.99999999999999
 20
-29.24473517998386
 30
0.0
 11
68.0
 21
-29.24473517998383
 31
0.0
  0
LWPOLYLINE
  5
186
330
143
100
AcDbEntity
  8
hidden
100
AcDbPolyline
 90
       17
 70
     0
 43
0.0
 10
21.32424227488424
 20
-15.65431031580116
 10
21.68860140153529
 20
-17.09599251018959
 10
22.17710012061242
 20
-18.50040110759166
 10
22.78602066189984
 20
-19.85684771057607
 10
23.51072877240211
 20
-21.15500894144924
 10
24.34570898580757
 20
-22.38500500939304
 10
25.28460659851735
 20
-23.53747490163849
 10
26.32027603277688
 20
-24.60364762642526
 10
27.44483521883713
 20
-25.57540896554503
 10
28.64972558226477
 20
-26.44536322844155
 10
29.92577717986144
 20
-27.20688953788144
 10
31.2632784884684
 20
-27.8541922188277
 10
32.65205031552177
 20
-28.38234490702629
 10
34.08152326885433
 20
-28.7873280416127
 10
35.54081819615185
 20
-29.06605945639722
 10
37.01882898187123
 20
-29.21641783701073
 10
37.99999932861987
 20
-29.24473517998386
  0
LWPOLYLINE
  5
187
330
143
100
AcDbEntity
  8
hidden
100
AcDbPolyline
 90
       17
 70
     0
 43
0.0
 10
68.00000035886778
 20
-29.24473517998383
 10
69.48421036304916
 20
-29.17986871651791
 10
70.95712463017699
 20
-28.98576306169154
 10
72.40753339330853
 20
-28.66389547674215
 10
73.82439816597554
 20
-28.21671556834016
 10
75.19693575173173
 20
-27.64762664560312
 10
76.51470031078861
 20
-26.96095981885836
 10
77.76766285916376
 20
-26.16194103727815
 10
78.94628759530461
 20
-25.25665131625106
 10
80.04160447329603
 20
-24.25198045718298
 10
81.04527747032608
 20
-23.15557461194828
 10
81.94966802885305
 20
-21.97577809105714
 10
82.74789319064061
 20
-20.72156985841415
 10
83.43387798022599
 20
-19.40249519598137
 10
84.00240163915154
 20
-18.02859305841897
 10
84.44913735908887
 20
-16.61031967057859
 10
84.6757577251157
 20
-15.65431031580122
  0
LINE
  5
188
330
143
100
AcDbEntity
  8
hidden
100
AcDbLine
 10
21.32424227488426
 20
-15.65431031580117
 30
0.0
 11
18.46523340332861
 21
-1.831308798573905
 31
0.0
  0
LINE
  5
189
330
143
100
AcDbEntity
  8
hidden
100
AcDbLine
 10
87.53476659667137
 20
-1.831308798573905
 30
0.0
 11
84.6757577251157
 21
-15.65431031580122
 31
0.0
  0
ELLIPSE
  5
18A
330
143
100
AcDbEntity
  8
hidden
100
AcDbEllipse
 10
112.778999999998
 20
10.51919455857225
 30
0.0
 11
96.849999999998
 21
1.477928890381008E-11
 31
0.0
210
0.0
220
0.0
230
1.0
 40
0.9990068231153918
 41
3.269590629747952
 42
3.433050982876611
  0
LINE
  5
18B
330
143
100
AcDbEntity
  8
hidden
100
AcDbLine
 10
19.9654617531017
 20
-17.51581503615117
 30
0.0
 11
20.01356698962962
 21
-17.67683129961043
 31
0.0
  0
LWPOLYLINE
  5
18C
330
143
100
AcDbEntity
  8
hidden
100
AcDbPolyline
 90
        3
 70
     0
 43
0.0
 10
16.67529299553527
 20
-1.831308798573839
 10
18.08686552816155
 20
-10.16991685322169
 10
19.9654617531017
 20
-17.51581503615117
  0
ELLIPSE
  5
18D
330
143
100
AcDbEntity
  8
hidden
100
AcDbEllipse
 10
-6.77900000000345
 20
10.51919455857348
 30
0.0
 11
96.85000000000358
 21
7.020162229309788E-12
 31
0.0
210
0.0
220
0.0
230
1.0
 40
0.9990068231153918
 41
5.991726968045626
 42
6.155187331021196
  0
LWPOLYLINE
  5
18E
330
143
100
AcDbEntity
  8
hidden
100
AcDbPolyline
 90
        3
 70
     0
 43
0.0
 10
86.03453824689834
 20
-17.51581503615116
 10
88.09286074880626
 20
-9.313146845398888
 10
89.32470700446471
 20
-1.831308798573902
  0
LINE
  5
18F
330
143
100
AcDbEntity
  8
hidden
100
AcDbLine
 10
85.98643273633266
 20
-17.6768322139725
 30
0.0
 11
86.03453824689834
 21
-17.51581503615116
 31
0.0
  0
ELLIPSE
  5
190
330
143
100
AcDbEntity
  8
hidden
100
AcDbEllipse
 10
38.24041832936449
 20
-11.82029631788696
 30
0.0
 11
19.02940000000002
 21
1.669775429036236E-13
 31
0.0
210
0.0
220
0.0
230
1.0
 40
0.9990068231153917
 41
3.433050942607835
 42
4.712388980384681
  0
LWPOLYLINE
  5
191
330
143
100
AcDbEntity
  8
hidden
100
AcDbPolyline
 90
       10
 70
     0
 43
0.0
 10
24.93597359693552
 20
-25.82234291840561
 10
26.17239907467281
 20
-26.931229940954
 10
27.50066946580757
 20
-27.92802860002222
 10
28.91067583063166
 20
-28.80515265593129
 10
30.39168716932365
 20
-29.55592666499376
 10
31.932432091337
 20
-30.1746367836709
 10
33.52118459748797
 20
-30.65657425437221
 10
35.14585332188975
 20
-30.99807124194385
 10
36.79407355454786
 20
-31.19652874810889
 10
37.99999999999977
 20
-31.25010808117769
  0
LWPOLYLINE
  5
192
330
143
100
AcDbEntity
  8
hidden
100
AcDbPolyline
 90
        3
 70
     0
 43
0.0
 10
22.93031160809889
 20
-23.51581503615117
 10
23.97354174000285
 20
-24.80845783883416
 10
24.93597359693552
 20
-25.82234291840561
  0
LWPOLYLINE
  5
193
330
143
100
AcDbEntity
  8
hidden
100
AcDbPolyline
 90
        5
 70
     0
 43
0.0
 10
20.01356698962965
 20
-17.67683129961051
 10
20.55950067962091
 20
-19.24615696941183
 10
21.23999682895669
 20
-20.76188232142037
 10
22.04987645104573
 20
-22.21247177048733
 10
22.93031160809889
 20
-23.51581503615117
  0
LINE
  5
194
330
143
100
AcDbEntity
  8
hidden
100
AcDbLine
 10
20.01356698962964
 20
-17.28295063653223
 30
0.0
 11
20.01356698962965
 21
-17.67683129961051
 31
0.0
  0
LINE
  5
195
330
143
100
AcDbEntity
  8
hidden
100
AcDbLine
 10
67.75958167063551
 20
-30.83079675767905
 30
0.0
 11
38.24041832936449
 21
-30.83079675767902
 31
0.0
  0
LINE
  5
196
330
143
100
AcDbEntity
  8
hidden
100
AcDbLine
 10
38.24041832936449
 20
-30.83079675767902
 30
0.0
 11
38.24041832936449
 21
-31.25162837991989
 31
0.0
  0
ELLIPSE
  5
197
330
143
100
AcDbEntity
  8
hidden
100
AcDbEllipse
 10
67.75958167063563
 20
-11.82029631788725
 30
0.0
 11
19.02939999999974
 21
-1.398728781186695E-13
 31
0.0
210
0.0
220
0.0
230
1.0
 40
0.9990068231153915
 41
4.712388980384691
 42
5.991726968045719
  0
LWPOLYLINE
  5
198
330
143
100
AcDbEntity
  8
hidden
100
AcDbPolyline
 90
        5
 70
     0
 43
0.0
 10
83.06968839190112
 20
-23.51581503615116
 10
83.99639936716105
 20
-22.13707723969747
 10
84.79953835569185
 20
-20.68273747660872
 10
85.47299298484221
 20
-19.16386415063639
 10
85.98643273633266
 20
-17.67683221397251
  0
LWPOLYLINE
  5
199
330
143
100
AcDbEntity
  8
hidden
100
AcDbPolyline
 90
        3
 70
     0
 43
0.0
 10
81.06402640306624
 20
-25.82234291840392
 10
82.19919702294621
 20
-24.60980683218111
 10
83.06968839190112
 20
-23.51581503615116
  0
LWPOLYLINE
  5
19A
330
143
100
AcDbEntity
  8
hidden
100
AcDbPolyline
 90
       10
 70
     0
 43
0.0
 10
67.99999999999974
 20
-31.25010808117771
 10
69.65747425554713
 20
-31.1566545945862
 10
71.30050440254446
 20
-30.91895471151922
 10
72.91658598948436
 20
-30.53881747161403
 10
74.49341965967349
 20
-30.01913594879945
 10
76.01900475676348
 20
-29.36386523325638
 10
77.48173065699201
 20
-28.57799233079337
 10
78.87046513304033
 20
-27.66749820872121
 10
80.17463907700488
 20
-26.63931227708024
 10
81.06402640306624
 20
-25.82234291840392
  0
LINE
  5
19B
330
143
100
AcDbEntity
  8
hidden
100
AcDbLine
 10
37.99999999999977
 20
-31.25010808117769
 30
0.0
 11
67.99999999999974
 21
-31.25010808117771
 31
0.0
  0
LINE
  5
19C
330
143
100
AcDbEntity
  8
hidden
100
AcDbLine
 10
85.98643273633263
 20
-17.28295154907888
 30
0.0
 11
85.98643273633263
 21
-17.67683221397251
 31
0.0
  0
LINE
  5
19D
330
143
100
AcDbEntity
  8
hidden
100
AcDbLine
 10
67.75958167063551
 20
-30.83079675767905
 30
0.0
 11
67.75958167063551
 21
-31.2516283799199
 31
0.0
  0
LINE
  5
19E
330
143
100
AcDbEntity
  8
hidden
100
AcDbLine
 10
2.999999999999996
 20
-1.831308798573877
 30
0.0
 11
2.999999999999996
 21
-19.51581503615117
 31
0.0
  0
LINE
  5
19F
330
143
100
AcDbEntity
  8
hidden
100
AcDbLine
 10
2.999999999999996
 20
-37.51581503615117
 30
0.0
 11
2.999999999999996
 21
-115.8643528498858
 31
0.0
  0
LINE
  5
1A0
330
143
100
AcDbEntity
  8
hidden
100
AcDbLine
 10
103.0
 20
-19.51581503615117
 30
0.0
 11
103.0
 21
-1.831308798573905
 31
0.0
  0
LINE
  5
1A1
330
143
100
AcDbEntity
  8
hidden
100
AcDbLine
 10
103.0
 20
-37.51581503615117
 30
0.0
 11
103.0
 21
-115.8643528498859
 31
0.0
  0
ELLIPSE
  5
1A2
330
143
100
AcDbEntity
  8
hidden
100
AcDbEllipse
 10
52.99999999999942
 20
84.78090604282687
 30
0.0
 11
136.4899999999989
 21
-3.343040832312418E-14
 31
0.0
210
0.0
220
0.0
230
1.0
 40
0.9990068231153919
 41
4.414961339862234
 42
5.009816620907153
  0
LINE
  5
1A3
330
143
100
AcDbEntity
  8
hidden
100
AcDbLine
 10
93.0
 20
-118.8807294243442
 30
0.0
 11
93.0
 21
-119.3561481925713
 31
0.0
  0
LINE
  5
1A4
330
143
100
AcDbEntity
  8
hidden
100
AcDbLine
 10
13.0
 20
-118.8807294243442
 30
0.0
 11
13.0
 21
-119.3561481925712
 31
0.0
  0
ELLIPSE
  5
1A5
330
143
100
AcDbEntity
  8
hidden
100
AcDbEllipse
 10
53.00000000000055
 20
-23.44703742734843
 30
0.0
 11
-104.0000000000024
 21
1.273632671113277E-14
 31
0.0
210
0.0
220
0.0
230
1.0
 40
0.999006823115392
 41
1.176005207095139
 42
1.965587446494645
  0
ELLIPSE
  5
1A6
330
143
100
AcDbEntity
  8
hidden
100
AcDbEllipse
 10
52.99999999999982
 20
-23.45149317349303
 30
0.0
 11
104.0000000000006
 21
-2.547265342226510E-14
 31
0.0
210
0.0
220
0.0
230
1.0
 40
0.9990068231153919
 41
4.317597860684932
 42
5.10718010008445
  0
ELLIPSE
  5
1A7
330
143
100
AcDbEntity
  8
hidden
100
AcDbEllipse
 10
73.00000000000061
 20
-111.359637861505
 30
0.0
 11
70.11100000000069
 21
-3.255268255894001E-12
 31
0.0
210
0.0
220
0.0
230
1.0
 40
0.9990068231153921
 41
3.197870921314236
 42
3.664110182233573
  0
LINE
  5
1A8
330
143
100
AcDbEntity
  8
hidden
100
AcDbLine
 10
12.24422476253557
 20
-146.3147152417401
 30
0.0
 11
12.24422476253557
 21
-146.9830771631575
 31
0.0
  0
ELLIPSE
  5
1A9
330
143
100
AcDbEntity
  8
hidden
100
AcDbEllipse
 10
32.99999999999905
 20
-111.3596378615051
 30
0.0
 11
70.11100000000098
 21
3.254285729781259E-12
 31
0.0
210
0.0
220
0.0
230
1.0
 40
0.9990068231153919
 41
5.760667778535809
 42
6.226907039455144
  0
LINE
  5
1AA
330
143
100
AcDbEntity
  8
hidden
100
AcDbLine
 10
93.7557752374644
 20
-146.3147152417401
 30
0.0
 11
93.7557752374644
 21
-146.9830771631575
 31
0.0
  0
ELLIPSE
  5
1AB
330
143
100
AcDbEntity
  8
hidden
100
AcDbEllipse
 10
19.17674892992313
 20
-142.3261739423454
 30
0.0
 11
7.999999999999783
 21
4.547473508864641E-13
 31
0.0
210
0.0
220
0.0
230
1.0
 40
0.9990068231153928
 41
3.664110182233451
 42
4.535302097443897
  0
LINE
  5
1AC
330
143
100
AcDbEntity
  8
hidden
100
AcDbLine
 10
17.76744680200339
 20
-150.1932411978898
 30
0.0
 11
17.76744680200339
 21
-150.8616031193072
 31
0.0
  0
ELLIPSE
  5
1AD
330
143
100
AcDbEntity
  8
hidden
100
AcDbEllipse
 10
86.82325107007681
 20
-142.3261739423453
 30
0.0
 11
7.999999999999872
 21
-3.714416574738819E-13
 31
0.0
210
0.0
220
0.0
230
1.0
 40
0.9990068231153924
 41
4.889475863325476
 42
5.760667778535914
  0
LINE
  5
1AE
330
143
100
AcDbEntity
  8
hidden
100
AcDbLine
 10
88.23255319799661
 20
-150.1932411978899
 30
0.0
 11
88.23255319799661
 21
-150.8616031193073
 31
0.0
  0
ELLIPSE
  5
1AF
330
143
100
AcDbEntity
  8
hidden
100
AcDbEllipse
 10
53.00000000000078
 20
46.48344019073159
 30
0.0
 11
200.0000000000051
 21
-2.266215559059249E-13
 31
0.0
210
0.0
220
0.0
230
1.0
 40
0.9990068231153919
 41
4.535302097443946
 42
4.889475863325428
  0
LINE
  5
1B0
330
143
100
AcDbEntity
  8
hidden
100
AcDbLine
 10
11.0
 20
-35.43511930473557
 30
0.0
 11
5.999999999999998
 21
-35.43511930473557
 31
0.0
  0
LINE
  5
1B1
330
143
100
AcDbEntity
  8
hidden
100
AcDbLine
 10
100.0
 20
-35.43511930473557
 30
0.0
 11
95.0
 21
-35.43511930473557
 31
0.0
  0
LINE
  5
1B2
330
143
100
AcDbEntity
  8
hidden
100
AcDbLine
 10
84.67575772511573
 20
-14.94042324038389
 30
0.0
 11
84.6757577251157
 21
-15.65431031580122
 31
0.0
  0
LINE
  5
1B3
330
143
100
AcDbEntity
  8
hidden
100
AcDbLine
 10
21.32424227488426
 20
-14.94042324038391
 30
0.0
 11
21.32424227488426
 21
-15.65431031580117
 31
0.0
  0
ELLIPSE
  5
1B4
330
143
100
AcDbEntity
  8
hidden
100
AcDbEllipse
 10
86.82325107007682
 20
-142.9945358637628
 30
0.0
 11
9.999999999999801
 21
-6.863466767673775E-13
 31
0.0
210
0.0
220
0.0
230
1.0
 40
0.9990068231153941
 41
4.889475863325497
 42
5.760667778535937
  0
ELLIPSE
  5
1B5
330
143
100
AcDbEntity
  8
hidden
100
AcDbEllipse
 10
19.17674892992326
 20
-142.9945358637626
 30
0.0
 11
9.999999999999986
 21
6.821210263296961E-13
 31
0.0
210
0.0
220
0.0
230
1.0
 40
0.9990068231153929
 41
3.664110182233452
 42
4.535302097443875
  0
LINE
  5
1B6
330
143
100
AcDbEntity
  8
hidden
100
AcDbLine
 10
5.999999999999998
 20
-17.51581503615117
 30
0.0
 11
5.999999999999998
 21
-35.43511930473557
 31
0.0
  0
LINE
  5
1B7
330
143
100
AcDbEntity
  8
hidden
100
AcDbLine
 10
100.0
 20
-17.51581503615117
 30
0.0
 11
100.0
 21
-35.43511930473557
 31
0.0
  0
LINE
  5
1B8
330
143
100
AcDbEntity
  8
hidden
100
AcDbLine
 10
93.02999999999989
 20
-118.8682082602003
 30
0.0
 11
93.02999999999989
 21
-119.3391993645854
 31
0.0
  0
LINE
  5
1B9
330
143
100
AcDbEntity
  8
hidden
100
AcDbLine
 10
12.97
 20
-118.8682082602002
 30
0.0
 11
12.97
 21
-119.3391993645854
 31
0.0
  0
LINE
  5
1BA
330
143
100
AcDbEntity
  8
hidden
100
AcDbLine
 10
95.0
 20
-17.51572317915268
 30
0.0
 11
95.0
 21
-35.43511930473557
 31
0.0
  0
LINE
  5
1BB
330
143
100
AcDbEntity
  8
hidden
100
AcDbLine
 10
11.0
 20
-17.51572337281559
 30
0.0
 11
11.0
 21
-35.43511930473557
 31
0.0
  0
ELLIPSE
  5
1BC
330
143
100
AcDbEntity
  8
hidden
100
AcDbEllipse
 10
67.99999999999906
 20
-11.49137932494946
 30
0.0
 11
-17.02940000000152
 21
-2.071180137239608E-11
 31
0.0
210
0.0
220
0.0
230
1.0
 40
0.9990068231153887
 41
2.172519701979254
 42
2.779621370586464
  0
LINE
  5
1BD
330
143
100
AcDbEntity
  8
hidden
100
AcDbLine
 10
68.0
 20
-31.51581503615117
 30
0.0
 11
68.0
 21
-34.85464115248448
 31
0.0
  0
LINE
  5
1BE
330
143
100
AcDbEntity
  8
hidden
100
AcDbLine
 10
88.54111655644692
 20
-23.51761269902394
 30
0.0
 11
88.60499999999125
 21
-23.41514534625122
 31
0.0
  0
LWPOLYLINE
  5
1BF
330
143
100
AcDbEntity
  8
hidden
100
AcDbPolyline
 90
        6
 70
     0
 43
0.0
 10
81.61971005493305
 20
-30.68232156416659
 10
83.03446775565926
 20
-29.64562883260172
 10
85.0831094685659
 20
-27.83385165463942
 10
86.90956231416078
 20
-25.81025441272283
 10
87.79378911827813
 20
-24.63852199082597
 10
88.54111655644692
 20
-23.51761269902394
  0
LWPOLYLINE
  5
1C0
330
143
100
AcDbEntity
  8
hidden
100
AcDbPolyline
 90
        3
 70
     0
 43
0.0
 10
75.94200597517192
 20
-33.52190052910828
 10
78.40276235588037
 20
-32.51587410485422
 10
80.39946533157233
 20
-31.45623039022227
  0
LWPOLYLINE
  5
1C1
330
143
100
AcDbEntity
  8
hidden
100
AcDbPolyline
 90
        5
 70
     0
 43
0.0
 10
68.0
 20
-34.85464115248448
 10
70.6321821019345
 20
-34.71145769439619
 10
73.23355145233612
 20
-34.28518536363226
 10
75.86361309729575
 20
-33.54678949486227
 10
75.94200597517192
 20
-33.52190052910828
  0
LINE
  5
1C2
330
143
100
AcDbEntity
  8
hidden
100
AcDbLine
 10
37.99999999999999
 20
-34.85464115248448
 30
0.0
 11
68.0
 21
-34.85464115248448
 31
0.0
  0
ELLIPSE
  5
1C3
330
143
100
AcDbEntity
  8
hidden
100
AcDbEllipse
 10
53.00000000000021
 20
84.78536178897153
 30
0.0
 11
-136.3400000000008
 21
1.669683445957512E-14
 31
0.0
210
0.0
220
0.0
230
1.0
 40
0.999006823115392
 41
1.272801263560581
 42
1.86879139002921
  0
ELLIPSE
  5
1C4
330
143
100
AcDbEntity
  8
hidden
100
AcDbEllipse
 10
9.248999999999874
 20
-35.56077134596321
 30
0.0
 11
17.39999999999888
 21
-1.278962068832820E-13
 31
0.0
210
0.0
220
0.0
230
1.0
 40
0.044557461427896
 41
-4.669329698558377
 42
-4.524562405494304
  0
ELLIPSE
  5
1C5
330
143
100
AcDbEntity
  8
hidden
100
AcDbEllipse
 10
96.75099999999932
 20
-35.56077134596377
 30
0.0
 11
17.40000000000586
 21
1.492139745096211E-13
 31
0.0
210
0.0
220
0.0
230
1.0
 40
0.0445574614279096
 41
1.382969751904545
 42
1.527737044968556
  0
LWPOLYLINE
  5
1C6
330
143
100
AcDbEntity
  8
hidden
100
AcDbPolyline
 90
        4
 70
     0
 43
0.0
 10
30.0764215641952
 20
-33.52825795371739
 10
32.468586233838
 20
-34.21761683586139
 10
35.21606424996715
 20
-34.69435910240574
 10
37.99999999999999
 20
-34.85464115248448
  0
LWPOLYLINE
  5
1C7
330
143
100
AcDbEntity
  8
hidden
100
AcDbPolyline
 90
        4
 70
     0
 43
0.0
 10
25.63720562025077
 20
-31.47793906061823
 10
27.35741231670566
 20
-32.40078582889834
 10
29.86646343411164
 20
-33.45284761554247
 10
30.0764215641952
 20
-33.52825795371739
  0
LWPOLYLINE
  5
1C8
330
143
100
AcDbEntity
  8
hidden
100
AcDbPolyline
 90
        5
 70
     0
 43
0.0
 10
17.46001317665116
 20
-23.51941447550607
 10
18.9901145104732
 20
-25.68456327861757
 10
20.78292027190893
 20
-27.70018742520111
 10
22.79491193828069
 20
-29.50999220137895
 10
24.39846874856586
 20
-30.69461426628447
  0
LINE
  5
1C9
330
143
100
AcDbEntity
  8
hidden
100
AcDbLine
 10
17.39500000000008
 20
-23.41514534623712
 30
0.0
 11
17.46001317665116
 21
-23.51941447550607
 31
0.0
  0
LINE
  5
1CA
330
143
100
AcDbEntity
  8
hidden
100
AcDbLine
 10
37.99999999999998
 20
-31.51581503615117
 30
0.0
 11
37.99999999999999
 21
-34.85464115248448
 31
0.0
  0
ELLIPSE
  5
1CB
330
143
100
AcDbEntity
  8
hidden
100
AcDbEllipse
 10
37.99999999999984
 20
-11.49137932495065
 30
0.0
 11
-17.02939999999986
 21
-1.979308571017656E-12
 31
0.0
210
0.0
220
0.0
230
1.0
 40
0.9990068231153919
 41
0.3619712830019512
 42
0.9690729516092159
  0
LINE
  5
1CC
330
143
100
AcDbEntity
  8
hidden
100
AcDbLine
 10
102.5528101702994
 20
-130.9426025867525
 30
0.0
 11
102.8316786924628
 21
-129.9971578095882
 31
0.0
  0
LINE
  5
1CD
330
143
100
AcDbEntity
  8
hidden
100
AcDbLine
 10
95.48890627931131
 20
-147.9644280869522
 30
0.0
 11
95.48890627931131
 21
-147.9802124880063
 31
0.0
  0
ELLIPSE
  5
1CE
330
143
100
AcDbEntity
  8
hidden
100
AcDbEllipse
 10
32.99999999953624
 20
-112.0279997828173
 30
0.0
 11
72.11100000047963
 21
8.192131417672499E-9
 31
0.0
210
0.0
220
0.0
230
1.0
 40
0.999006823115332
 41
6.017511797536025
 42
6.031088322171005
  0
ELLIPSE
  5
1CF
330
143
100
AcDbEntity
  8
hidden
100
AcDbEllipse
 10
32.99999999999986
 20
-112.0279997829218
 30
0.0
 11
72.1110000000005
 21
8.682832230988426E-12
 31
0.0
210
0.0
220
0.0
230
1.0
 40
0.9990068231153918
 41
5.760667778535722
 42
6.017511797649334
  0
LINE
  5
1D0
330
143
100
AcDbEntity
  8
hidden
100
AcDbLine
 10
3.447189829700659
 20
-130.9426025867525
 30
0.0
 11
3.16832130753715
 21
-129.9971578095882
 31
0.0
  0
ELLIPSE
  5
1D1
330
143
100
AcDbEntity
  8
hidden
100
AcDbEllipse
 10
72.99999999999955
 20
-112.0279997829222
 30
0.0
 11
72.11099999999982
 21
-8.600018260148069E-12
 31
0.0
210
0.0
220
0.0
230
1.0
 40
0.9990068231153917
 41
3.39368963848497
 42
3.664110182233655
  0
LINE
  5
1D2
330
143
100
AcDbEntity
  8
hidden
100
AcDbLine
 10
10.51109372068866
 20
-147.9644280869521
 30
0.0
 11
10.51109372068866
 21
-147.9802124880062
 31
0.0
  0
LINE
  5
1D3
330
143
100
AcDbEntity
  8
hidden
100
AcDbLine
 10
97.5
 20
-39.51561239637704
 30
0.0
 11
97.5
 21
-34.75952089225139
 31
0.0
  0
ELLIPSE
  5
1D4
330
143
100
AcDbEntity
  8
hidden
100
AcDbEllipse
 10
88.58499999987303
 20
-50.28790349738253
 30
0.0
 11
-348.6164162163628
 21
-8.862075350847517E-13
 31
0.0
210
0.0
220
0.0
230
1.0
 40
0.0445574614279729
 41
4.686813673148126
 42
4.693986628155606
  0
LWPOLYLINE
  5
1D5
330
143
100
AcDbEntity
  8
hidden
100
AcDbPolyline
 90
        5
 70
     0
 43
0.0
 10
91.23090220379801
 20
-17.51646049924782
 10
90.79674515100353
 20
-18.85923400189066
 10
90.24452640051256
 20
-20.26682409286196
 10
89.60431226657714
 20
-21.63669565037288
 10
88.60499999999125
 20
-23.41514534625122
  0
LINE
  5
1D6
330
143
100
AcDbEntity
  8
hidden
100
AcDbLine
 10
88.605
 20
-33.51581503615117
 30
0.0
 11
88.605
 21
-23.51581503615117
 31
0.0
  0
LINE
  5
1D7
330
143
100
AcDbEntity
  8
hidden
100
AcDbLine
 10
17.39499999999999
 20
-33.51581503615117
 30
0.0
 11
17.39499999999999
 21
-23.51581503615117
 31
0.0
  0
LWPOLYLINE
  5
1D8
330
143
100
AcDbEntity
  8
hidden
100
AcDbPolyline
 90
        5
 70
     0
 43
0.0
 10
17.39500000000008
 20
-23.41514534623712
 10
16.49041720940566
 20
-21.82142492435615
 10
15.71111481764623
 20
-20.16293352842935
 10
15.04723601471052
 20
-18.40664158469504
 10
14.77040912038784
 20
-17.52096373220072
  0
ELLIPSE
  5
1D9
330
143
100
AcDbEntity
  8
hidden
100
AcDbEllipse
 10
17.41500000038801
 20
-50.28790349721314
 30
0.0
 11
-348.6164162273905
 21
-1.451008495155283E-11
 31
0.0
210
0.0
220
0.0
230
1.0
 40
0.0445574614260801
 41
-1.552393974565647
 42
-1.545221019558395
  0
LINE
  5
1DA
330
143
100
AcDbEntity
  8
hidden
100
AcDbLine
 10
8.5
 20
-34.75952089225139
 30
0.0
 11
8.5
 21
-39.51561239637702
 31
0.0
  0
LINE
  5
1DB
330
143
100
AcDbEntity
  8
hidden
100
AcDbLine
 10
88.58487872997655
 20
-152.8222300536486
 30
0.0
 11
88.58487872997655
 21
-152.8283699331935
 31
0.0
  0
LINE
  5
1DC
330
143
100
AcDbEntity
  8
hidden
100
AcDbLine
 10
17.41512127002343
 20
-152.8222300536485
 30
0.0
 11
17.41512127002343
 21
-152.8283699331934
 31
0.0
  0
ELLIPSE
  5
1DD
330
143
100
AcDbEntity
  8
hidden
100
AcDbEllipse
 10
52.99999999999817
 20
45.81507826932349
 30
0.0
 11
202.0000000000144
 21
2.430056156299542E-12
 31
0.0
210
0.0
220
0.0
230
1.0
 40
0.9990068231153924
 41
4.738635541301631
 42
4.88947586332542
  0
ELLIPSE
  5
1DE
330
143
100
AcDbEntity
  8
hidden
100
AcDbEllipse
 10
53.00000000000043
 20
45.8150782693188
 30
0.0
 11
202.0000000000095
 21
-2.740656342377061E-12
 31
0.0
210
0.0
220
0.0
230
1.0
 40
0.9990068231153924
 41
4.535302097443964
 42
4.686142419467759
  0
LINE
  5
1DF
330
143
100
AcDbEntity
  8
bold
100
AcDbLine
 10
2.499999999999995
 20
-130.9426025867525
 30
0.0
 11
2.499999999999995
 21
-127.0669575396919
 31
0.0
  0
LINE
  5
1E0
330
143
100
AcDbEntity
  8
bold
100
AcDbLine
 10
3.447189829700666
 20
-130.9426025867525
 30
0.0
 11
2.499999999999995
 21
-130.9426025867525
 31
0.0
  0
LINE
  5
1E1
330
143
100
AcDbEntity
  8
bold
100
AcDbLine
 10
103.5
 20
-130.9426025867525
 30
0.0
 11
103.5
 21
-127.0669575396919
 31
0.0
  0
LINE
  5
1E2
330
143
100
AcDbEntity
  8
bold
100
AcDbLine
 10
102.5528101702994
 20
-130.9426025867525
 30
0.0
 11
103.5
 21
-130.9426025867525
 31
0.0
  0
LINE
  5
1E3
330
143
100
AcDbEntity
  8
bold
100
AcDbLine
 10
84.67575772511573
 20
-14.94042324038389
 30
0.0
 11
84.67575772511573
 21
-14.93470731374175
 31
0.0
  0
LINE
  5
1E4
330
143
100
AcDbEntity
  8
bold
100
AcDbLine
 10
21.32424227488426
 20
-14.93470731374175
 30
0.0
 11
21.32424227488426
 21
-14.94042324038391
 31
0.0
  0
LINE
  5
1E5
330
143
100
AcDbEntity
  8
bold
100
AcDbLine
 10
94.99999999997796
 20
-1.831308798573905
 30
0.0
 11
87.39132263353768
 21
-1.831308798573877
 31
0.0
  0
LINE
  5
1E6
330
143
100
AcDbEntity
  8
bold
100
AcDbLine
 10
87.39132263353768
 20
-1.831308798573877
 30
0.0
 11
84.67575772511573
 21
-14.93470731374175
 31
0.0
  0
LINE
  5
1E7
330
143
100
AcDbEntity
  8
bold
100
AcDbLine
 10
84.67575772511573
 20
-14.93470731374175
 30
0.0
 11
91.51479992149969
 21
-15.97836006137651
 31
0.0
  0
LINE
  5
1E8
330
143
100
AcDbEntity
  8
bold
100
AcDbLine
 10
14.48520007850026
 20
-15.97836006137654
 30
0.0
 11
21.32424227488426
 21
-14.93470731374175
 31
0.0
  0
LINE
  5
1E9
330
143
100
AcDbEntity
  8
bold
100
AcDbLine
 10
18.60867736646232
 20
-1.831308798573905
 30
0.0
 11
21.32424227488426
 21
-14.93470731374175
 31
0.0
  0
LINE
  5
1EA
330
143
100
AcDbEntity
  8
bold
100
AcDbLine
 10
18.60867736646232
 20
-1.831308798573905
 30
0.0
 11
11.0
 21
-1.831308798573905
 31
0.0
  0
LINE
  5
1EB
330
143
100
AcDbEntity
  8
bold
100
AcDbLine
 10
37.99999999999999
 20
-28.50386611851185
 30
0.0
 11
68.0
 21
-28.50386611851183
 31
0.0
  0
LINE
  5
1EC
330
143
100
AcDbEntity
  8
bold
100
AcDbLine
 10
93.0
 20
-118.8784940173507
 30
0.0
 11
93.0
 21
-44.91832864812447
 31
0.0
  0
ELLIPSE
  5
1ED
330
143
100
AcDbEntity
  8
bold
100
AcDbEllipse
 10
52.99999999998402
 20
85.44926796430599
 30
0.0
 11
136.4900000000628
 21
-1.730615023392102E-12
 31
0.0
210
0.0
220
0.0
230
1.0
 40
0.999006823115392
 41
4.942474189127268
 42
5.009816620907139
  0
LINE
  5
1EE
330
143
100
AcDbEntity
  8
bold
100
AcDbLine
 10
13.0
 20
-44.91832864812445
 30
0.0
 11
13.0
 21
-118.8784940173647
 31
0.0
  0
ELLIPSE
  5
1EF
330
143
100
AcDbEntity
  8
bold
100
AcDbEllipse
 10
53.0000000000162
 20
85.44926796430532
 30
0.0
 11
136.4900000000621
 21
4.533262654149439E-12
 31
0.0
210
0.0
220
0.0
230
1.0
 40
0.9990068231153924
 41
4.414961339862217
 42
4.482303771642088
  0
LINE
  5
1F0
330
143
100
AcDbEntity
  8
bold
100
AcDbLine
 10
91.61914016586256
 20
-15.99999853676037
 30
0.0
 11
84.67575772511573
 21
-14.94042324038389
 31
0.0
  0
ELLIPSE
  5
1F1
330
143
100
AcDbEntity
  8
bold
100
AcDbEllipse
 10
68.00000000000003
 20
-11.49137932495081
 30
0.0
 11
-17.02939999999978
 21
-4.743565857637551E-13
 31
0.0
210
0.0
220
0.0
230
1.0
 40
0.9990068231153919
 41
1.570796326794867
 42
2.172519701980441
  0
ELLIPSE
  5
1F2
330
143
100
AcDbEntity
  8
bold
100
AcDbEllipse
 10
68.00000000000037
 20
-11.49137932495073
 30
0.0
 11
-17.0293999999996
 21
5.227823298062492E-12
 31
0.0
210
0.0
220
0.0
230
1.0
 40
0.9990068231153919
 41
2.779621370588031
 42
2.937441490984329
  0
LINE
  5
1F3
330
143
100
AcDbEntity
  8
light
100
AcDbLine
 10
68.0
 20
-28.50386611851183
 30
0.0
 11
68.0
 21
-31.51581503615117
 31
0.0
  0
LWPOLYLINE
  5
1F4
330
143
100
AcDbEntity
  8
bold
100
AcDbPolyline
 90
       13
 70
     0
 43
0.0
 10
17.39499999467425
 20
-46.02892373384239
 10
22.8887102957469
 20
-47.39388793075911
 10
28.43916435953882
 20
-48.53051653112347
 10
34.03195550869106
 20
-49.4361430781575
 10
39.65267706051893
 20
-50.10810113923166
 10
45.46070222338032
 20
-50.55422342107928
 10
51.28782340708457
 20
-50.75183889706873
 10
57.11807054401475
 20
-50.70074475384788
 10
62.93547356655394
 20
-50.40073817806455
 10
69.39427803775696
 20
-49.77340610776614
 10
75.81591160799512
 20
-48.83943027481645
 10
82.24421293121696
 20
-47.58777776688279
 10
88.605
 20
-46.02892370969388
  0
LINE
  5
1F5
330
143
100
AcDbEntity
  8
bold
100
AcDbLine
 10
5.999999999999998
 20
-1.831308798573905
 30
0.0
 11
5.999999999999998
 21
-17.51581503615117
 31
0.0
  0
LINE
  5
1F6
330
143
100
AcDbEntity
  8
bold
100
AcDbLine
 10
6.000000000000019
 20
-1.831308798573897
 30
0.0
 11
0.9999999999999974
 21
-1.831308798573898
 31
0.0
  0
LINE
  5
1F7
330
143
100
AcDbEntity
  8
bold
100
AcDbLine
 10
105.0
 20
-1.831308798573898
 30
0.0
 11
100.0
 21
-1.831308798573897
 31
0.0
  0
LINE
  5
1F8
330
143
100
AcDbEntity
  8
bold
100
AcDbLine
 10
100.0
 20
-17.51581503615117
 30
0.0
 11
100.0
 21
-1.831308798573905
 31
0.0
  0
LINE
  5
1F9
330
143
100
AcDbEntity
  8
light
100
AcDbLine
 10
37.99999999999999
 20
-28.50386611851185
 30
0.0
 11
37.99999999999998
 21
-31.51581503615117
 31
0.0
  0
ELLIPSE
  5
1FA
330
143
100
AcDbEntity
  8
bold
100
AcDbEllipse
 10
37.99999999999739
 20
-11.49137932495144
 30
0.0
 11
-17.02939999999728
 21
-5.556405500791154E-12
 31
0.0
210
0.0
220
0.0
230
1.0
 40
0.9990068231153918
 41
0.2041511626054318
 42
0.3619712830017488
  0
ELLIPSE
  5
1FB
330
143
100
AcDbEntity
  8
bold
100
AcDbEllipse
 10
37.99999999999996
 20
-11.49137932495061
 30
0.0
 11
-17.0294
 21
4.709650130138206E-13
 31
0.0
210
0.0
220
0.0
230
1.0
 40
0.999006823115392
 41
0.9690729516093555
 42
1.570796326794925
  0
LINE
  5
1FC
330
143
100
AcDbEntity
  8
bold
100
AcDbLine
 10
14.38085983413738
 20
-15.99999853676037
 30
0.0
 11
21.32424227488426
 21
-14.94042324038391
 31
0.0
  0
LWPOLYLINE
  5
1FD
330
143
100
AcDbEntity
  8
bold
100
AcDbPolyline
 90
        4
 70
     0
 43
0.0
 10
13.0
 20
-46.56733721015895
 10
14.35386090022216
 20
-46.95503343810148
 10
15.86405157150105
 20
-47.22042664965864
 10
17.41500000000005
 20
-47.31182006720957
  0
LWPOLYLINE
  5
1FE
330
143
100
AcDbEntity
  8
bold
100
AcDbPolyline
 90
        4
 70
     0
 43
0.0
 10
88.585
 20
-47.31182006720957
 10
90.51710851740485
 20
-47.16992785423157
 10
91.76703694686707
 20
-46.92620572918879
 10
93.00000000000018
 20
-46.56733721015707
  0
LINE
  5
1FF
330
143
100
AcDbEntity
  8
bold
100
AcDbLine
 10
88.585
 20
-120.6044070887034
 30
0.0
 11
93.0
 21
-118.8784940173507
 31
0.0
  0
LINE
  5
200
330
143
100
AcDbEntity
  8
bold
100
AcDbLine
 10
13.0
 20
-118.8784940173647
 30
0.0
 11
17.415
 21
-120.6044070887034
 31
0.0
  0
ELLIPSE
  5
201
330
143
100
AcDbEntity
  8
bold
100
AcDbEllipse
 10
33.00000000004601
 20
-111.9246264724226
 30
0.0
 11
-72.11099999995267
 21
-6.371350426098100E-10
 31
0.0
210
0.0
220
0.0
230
1.0
 40
0.9990068231153876
 41
2.87443171227984
 42
2.929818052266041
  0
ELLIPSE
  5
202
330
143
100
AcDbEntity
  8
bold
100
AcDbEllipse
 10
32.99999999999379
 20
-111.9267554797351
 30
0.0
 11
-72.11100000000629
 21
-1.440184160464196E-11
 31
0.0
210
0.0
220
0.0
230
1.0
 40
0.9990068231153918
 41
2.929818052274657
 42
3.086100516212195
  0
LINE
  5
203
330
143
100
AcDbEntity
  8
bold
100
AcDbLine
 10
105.0
 20
-1.831308798573905
 30
0.0
 11
105.0
 21
-115.9223233275224
 31
0.0
  0
LINE
  5
204
330
143
100
AcDbEntity
  8
light
100
AcDbLine
 10
95.48890627931131
 20
-146.954808572984
 30
0.0
 11
95.48890627931131
 21
-147.9644280869522
 31
0.0
  0
ELLIPSE
  5
205
330
143
100
AcDbEntity
  8
bold
100
AcDbEllipse
 10
72.99999999995332
 20
-111.9246264724227
 30
0.0
 11
72.110999999952
 21
-6.375458203655418E-10
 31
0.0
210
0.0
220
0.0
230
1.0
 40
0.9990068231153876
 41
3.35336725491355
 42
3.408753594899753
  0
LINE
  5
206
330
143
100
AcDbEntity
  8
light
100
AcDbLine
 10
10.51109372068866
 20
-146.954808572984
 30
0.0
 11
10.51109372068866
 21
-147.9644280869521
 31
0.0
  0
LINE
  5
207
330
143
100
AcDbEntity
  8
bold
100
AcDbLine
 10
0.999999999999994
 20
-1.831308798573905
 30
0.0
 11
0.999999999999994
 21
-115.9223233275224
 31
0.0
  0
ELLIPSE
  5
208
330
143
100
AcDbEntity
  8
bold
100
AcDbEllipse
 10
72.999999999994
 20
-111.9267554797373
 30
0.0
 11
-72.11099999999392
 21
7.110148281605260E-11
 31
0.0
210
0.0
220
0.0
230
1.0
 40
0.9990068231153917
 41
0.0554921373783648
 42
0.2117746013159293
  0
LINE
  5
209
330
143
100
AcDbEntity
  8
light
100
AcDbLine
 10
88.585
 20
-120.6044070887034
 30
0.0
 11
88.585
 21
-47.31182006720957
 31
0.0
  0
LINE
  5
20A
330
143
100
AcDbEntity
  8
bold
100
AcDbLine
 10
88.585
 20
-47.31182006720957
 30
0.0
 11
84.12797595206726
 21
-47.31182006720957
 31
0.0
  0
LWPOLYLINE
  5
20B
330
143
100
AcDbEntity
  8
bold
100
AcDbPolyline
 90
       13
 70
     0
 43
0.0
 10
84.12797595206726
 20
-47.31182006720957
 10
78.58499291734964
 20
-48.4897186913573
 10
72.99303955467914
 20
-49.43721820874257
 10
67.36662202189908
 20
-50.15214732396099
 10
61.72024647685281
 20
-50.63233474160836
 10
55.8941924783694
 20
-50.88017494106146
 10
50.05752685584857
 20
-50.87873997245975
 10
44.22623298046106
 20
-50.62837834958364
 10
38.41629422337764
 20
-50.12943858621351
 10
34.25754607468674
 20
-49.61743556796731
 10
30.11648240285695
 20
-48.97796709683266
 10
25.9814118392663
 20
-48.20843195735944
 10
21.87202404793273
 20
-47.31182006720957
  0
LINE
  5
20C
330
143
100
AcDbEntity
  8
bold
100
AcDbLine
 10
21.87202404793273
 20
-47.31182006720957
 30
0.0
 11
17.41500000000005
 21
-47.31182006720957
 31
0.0
  0
LINE
  5
20D
330
143
100
AcDbEntity
  8
light
100
AcDbLine
 10
17.415
 20
-120.6044070887034
 30
0.0
 11
17.41500000000005
 21
-47.31182006720957
 31
0.0
  0
LWPOLYLINE
  5
20E
330
143
100
AcDbEntity
  8
bold
100
AcDbPolyline
 90
       15
 70
     0
 43
0.0
 10
88.585
 20
-120.6044070887034
 10
83.13756060793594
 20
-122.4237584245142
 10
77.59357960548222
 20
-123.9406161079264
 10
71.97846852989922
 20
-125.1478990508035
 10
66.13947318374981
 20
-126.0628491804369
 10
60.25302241707399
 20
-126.6446387680261
 10
54.34778460370556
 20
-126.8903780891916
 10
49.72011273813465
 20
-126.846788664453
 10
45.09438476186266
 20
-126.5965360445816
 10
40.48439855951728
 20
-126.1406961359247
 10
35.90395201572618
 20
-125.4803448448294
 10
31.20476666762264
 20
-124.5826395565502
 10
26.54705858888781
 20
-123.4681101115524
 10
21.94555921964062
 20
-122.1407135941616
 10
17.415
 20
-120.6044070887034
  0
LWPOLYLINE
  5
20F
330
143
100
AcDbEntity
  8
bold
100
AcDbPolyline
 90
       12
 70
     0
 43
0.0
 10
97.5
 20
-51.71691836588681
 10
97.95595258848098
 20
-52.05448569631824
 10
98.36487862400253
 20
-52.58893788486546
 10
98.6910634363978
 20
-53.18147115600098
 10
99.45039546986142
 20
-55.01093600096091
 10
100.0247180103146
 20
-56.91547273302762
 10
100.5042666684906
 20
-58.84649778805846
 10
101.7399940515596
 20
-64.60874104511156
 10
102.7496128433708
 20
-70.4181207500257
 10
103.6094854269273
 20
-76.25505409138304
 10
104.3959741852319
 20
-82.09995825776575
 10
105.0
 20
-86.78048735025935
  0
LINE
  5
210
330
143
100
AcDbEntity
  8
bold
100
AcDbLine
 10
97.5
 20
-51.71691836588681
 30
0.0
 11
97.5
 21
-39.51561239637704
 31
0.0
  0
LINE
  5
211
330
143
100
AcDbEntity
  8
bold
100
AcDbLine
 10
95.0
 20
-17.51572317915268
 30
0.0
 11
94.99999999997796
 21
-1.831308798573905
 31
0.0
  0
LINE
  5
212
330
143
100
AcDbEntity
  8
bold
100
AcDbLine
 10
91.51479992149969
 20
-15.97836006137651
 30
0.0
 11
94.58724489691545
 21
-1.831308798573905
 31
0.0
  0
LINE
  5
213
330
143
100
AcDbEntity
  8
bold
100
AcDbLine
 10
91.61914016586256
 20
-15.99999853676037
 30
0.0
 11
91.51479992149969
 21
-15.97836006137651
 31
0.0
  0
LWPOLYLINE
  5
214
330
143
100
AcDbEntity
  8
bold
100
AcDbPolyline
 90
        3
 70
     0
 43
0.0
 10
91.61914016586256
 20
-15.99999853676037
 10
91.25230001547972
 20
-17.44235400541211
 10
91.23090220379801
 20
-17.51646049924782
  0
LINE
  5
215
330
143
100
AcDbEntity
  8
bold
100
AcDbLine
 10
93.03
 20
-44.75165591478396
 30
0.0
 11
88.605
 21
-46.02892370969388
 31
0.0
  0
LINE
  5
216
330
143
100
AcDbEntity
  8
bold
100
AcDbLine
 10
93.03
 20
-44.75165591478396
 30
0.0
 11
93.02999999999989
 21
-118.8682082602003
 31
0.0
  0
LINE
  5
217
330
143
100
AcDbEntity
  8
bold
100
AcDbLine
 10
93.02999999999989
 20
-118.8682082602003
 30
0.0
 11
93.0
 21
-118.8807294243442
 31
0.0
  0
LINE
  5
218
330
143
100
AcDbEntity
  8
bold
100
AcDbLine
 10
93.0
 20
-118.8807294243442
 30
0.0
 11
88.60500000000002
 21
-120.5993378300397
 31
0.0
  0
LWPOLYLINE
  5
219
330
143
100
AcDbEntity
  8
bold
100
AcDbPolyline
 90
        7
 70
     0
 43
0.0
 10
88.605
 20
-151.8178326587621
 10
90.19774078886975
 20
-151.3899506763306
 10
91.73959999742048
 20
-150.6825342472043
 10
93.11027191871229
 20
-149.7484253421508
 10
94.33941165163256
 20
-148.5647188797026
 10
94.95117493263352
 20
-147.7920878880425
 10
95.48890627931131
 20
-146.954808572984
  0
LWPOLYLINE
  5
21A
330
143
100
AcDbEntity
  8
bold
100
AcDbPolyline
 90
        9
 70
     0
 43
0.0
 10
95.48890627931131
 20
-146.954808572984
 10
97.39081266685167
 20
-143.4188189905695
 10
99.09557623581628
 20
-139.7799961106646
 10
100.5952611772263
 20
-136.0551193055655
 10
101.9199203649568
 20
-132.1410009459464
 10
103.0204224186956
 20
-128.1544866692059
 10
103.8913930302515
 20
-124.1150406075406
 10
104.592714715948
 20
-119.5278907582222
 10
105.0
 20
-114.8861545453746
  0
LWPOLYLINE
  5
21B
330
143
100
AcDbEntity
  8
bold
100
AcDbPolyline
 90
       12
 70
     0
 43
0.0
 10
0.999999999999994
 20
-86.780487350246
 10
1.851408039303684
 20
-80.25268347599854
 10
2.781197351396245
 20
-73.73520454151155
 10
3.462828442838808
 20
-69.37560397096046
 10
4.215218851583908
 20
-65.0276679819396
 10
5.315849952509597
 20
-59.61415107498037
 10
6.175438751578242
 20
-56.26733449779051
 10
6.859504307269177
 20
-54.21510438100704
 10
7.288133413867206
 20
-53.21021615563173
 10
7.851325585689698
 20
-52.28096859646259
 10
8.252132697583729
 20
-51.86572303459229
 10
8.5
 20
-51.71691836589219
  0
LWPOLYLINE
  5
21C
330
143
100
AcDbEntity
  8
bold
100
AcDbPolyline
 90
        9
 70
     0
 43
0.0
 10
0.999999999999994
 20
-114.8861545454031
 10
1.333547135227535
 20
-118.8878578119494
 10
1.888469188458225
 20
-122.8680587008337
 10
2.662232028804105
 20
-126.8084292105312
 10
3.685877143338935
 20
-130.8118997139537
 10
4.936874341002255
 20
-134.7537403558041
 10
6.409100035267255
 20
-138.6147013445753
 10
8.322064283482186
 20
-142.8421337235653
 10
10.51109372068866
 20
-146.954808572984
  0
LWPOLYLINE
  5
21D
330
143
100
AcDbEntity
  8
bold
100
AcDbPolyline
 90
        7
 70
     0
 43
0.0
 10
10.51109372068866
 20
-146.954808572984
 10
11.45563007597184
 20
-148.3229047859321
 10
12.65004340278426
 20
-149.5478329333005
 10
13.99465520641218
 20
-150.5266288067218
 10
15.52829142767709
 20
-151.286893825654
 10
16.44425576376098
 20
-151.5965611896834
 10
17.39499999999999
 20
-151.817832632624
  0
LINE
  5
21E
330
143
100
AcDbEntity
  8
bold
100
AcDbLine
 10
17.39499998463303
 20
-120.5993378503462
 30
0.0
 11
13.0
 21
-118.8807294243442
 31
0.0
  0
LINE
  5
21F
330
143
100
AcDbEntity
  8
bold
100
AcDbLine
 10
13.0
 20
-118.8807294243442
 30
0.0
 11
12.97
 21
-118.8682082602002
 31
0.0
  0
LINE
  5
220
330
143
100
AcDbEntity
  8
bold
100
AcDbLine
 10
12.97
 20
-118.8682082602002
 30
0.0
 11
12.97
 21
-44.75165591478399
 31
0.0
  0
LINE
  5
221
330
143
100
AcDbEntity
  8
bold
100
AcDbLine
 10
17.39499999467425
 20
-46.02892373384239
 30
0.0
 11
12.97
 21
-44.75165591478399
 31
0.0
  0
LWPOLYLINE
  5
222
330
143
100
AcDbEntity
  8
bold
100
AcDbPolyline
 90
        3
 70
     0
 43
0.0
 10
14.77040912038784
 20
-17.52096373220072
 10
14.52284555210914
 20
-16.60384920300243
 10
14.38085983413738
 20
-15.99999853676037
  0
LINE
  5
223
330
143
100
AcDbEntity
  8
bold
100
AcDbLine
 10
14.38085983413738
 20
-15.99999853676037
 30
0.0
 11
14.48520007850026
 21
-15.97836006137654
 31
0.0
  0
LINE
  5
224
330
143
100
AcDbEntity
  8
bold
100
AcDbLine
 10
11.4127551030846
 20
-1.831308798573905
 30
0.0
 11
14.48520007850026
 21
-15.97836006137654
 31
0.0
  0
LINE
  5
225
330
143
100
AcDbEntity
  8
bold
100
AcDbLine
 10
11.0
 20
-1.831308798573905
 30
0.0
 11
11.0
 21
-17.51572337281559
 31
0.0
  0
LINE
  5
226
330
143
100
AcDbEntity
  8
bold
100
AcDbLine
 10
8.5
 20
-39.51561239637702
 30
0.0
 11
8.5
 21
-51.71691836589219
 31
0.0
  0
LWPOLYLINE
  5
227
330
143
100
AcDbEntity
  8
bold
100
AcDbPolyline
 90
       15
 70
     0
 43
0.0
 10
17.39499998463303
 20
-120.5993378503462
 10
22.84206805528596
 20
-122.41980697591
 10
28.38573973490795
 20
-123.9378024519243
 10
34.0006050382687
 20
-125.1462379022445
 10
39.83941445463267
 20
-126.0623865007879
 10
45.72574776488342
 20
-126.6453842658171
 10
51.63093720496687
 20
-126.8923354755104
 10
56.26366212764923
 20
-126.8495348853506
 10
60.8944763925666
 20
-126.599619488208
 10
65.50953681265149
 20
-126.1436671941927
 10
70.09500020083638
 20
-125.4827559134149
 10
74.79964948482265
 20
-124.5839236331372
 10
79.46272094928177
 20
-123.4677615961518
 10
84.06943198930911
 20
-122.1382421969542
 10
88.60500000000002
 20
-120.5993378300397
  0
LINE
  5
228
330
143
100
AcDbEntity
  8
light
100
AcDbLine
 10
17.39499999999999
 20
-151.817832632624
 30
0.0
 11
17.39499998463303
 21
-120.5993378503462
 31
0.0
  0
LINE
  5
229
330
143
100
AcDbEntity
  8
bold
100
AcDbLine
 10
17.41512127002357
 20
-151.8214675713176
 30
0.0
 11
17.39499999999999
 21
-151.817832632624
 31
0.0
  0
LINE
  5
22A
330
143
100
AcDbEntity
  8
bold
100
AcDbLine
 10
88.605
 20
-151.8178326587621
 30
0.0
 11
88.58487872997655
 21
-151.8214675713176
 31
0.0
  0
LINE
  5
22B
330
143
100
AcDbEntity
  8
light
100
AcDbLine
 10
88.605
 20
-151.8178326587621
 30
0.0
 11
88.60500000000002
 21
-120.5993378300397
 31
0.0
  0
LINE
  5
22C
330
143
100
AcDbEntity
  8
light
100
AcDbLine
 10
88.58487872997655
 20
-151.8214675713176
 30
0.0
 11
88.58487872997655
 21
-152.8222300536486
 31
0.0
  0
LWPOLYLINE
  5
22D
330
143
100
AcDbEntity
  8
bold
100
AcDbPolyline
 90
       11
 70
     0
 43
0.0
 10
88.58487872997655
 20
-151.8214675713176
 10
81.63940972175145
 20
-152.9433351473564
 10
74.65242081408664
 20
-153.8224241470766
 10
67.63678640450367
 20
-154.45753287487
 10
60.60538089052397
 20
-154.8474596351286
 10
53.57107866966901
 20
-154.9910027322441
 10
46.30820442295023
 20
-154.879844387394
 10
39.04700047090573
 20
-154.5060307641598
 10
31.80163790225607
 20
-153.8708427972579
 10
24.58628780572183
 20
-152.975561421405
 10
17.41512127002357
 20
-151.8214675713176
  0
LINE
  5
22E
330
143
100
AcDbEntity
  8
light
100
AcDbLine
 10
17.41512127002357
 20
-151.8214675713176
 30
0.0
 11
17.41512127002343
 21
-152.8222300536485
 31
0.0
  0
ELLIPSE
  5
22F
330
143
100
AcDbEntity
  8
bold
100
AcDbEllipse
 10
53.00000000000016
 20
45.81507826931559
 30
0.0
 11
202.0000000000053
 21
-4.947573068555436E-14
 31
0.0
210
0.0
220
0.0
230
1.0
 40
0.9990068231153972
 41
4.686142419467746
 42
4.738635541301634
  0
ENDBLK
  5
146
330
143
100
AcDbEntity
  8
0
100
AcDbBlockEnd
  0
BLOCK
  5
232
330
230
100
AcDbEntity
  8
0
100
AcDbBlockBegin
  2
5_7706400041_0_in_33500_0
 70
     2
 10
0.0
 20
0.0
 30
0.0
  3
5_7706400041_0_in_33500_0
  1

  0
ATTDEF
  5
234
330
230
100
AcDbEntity
  8
attrib
100
AcDbText
 10
111.0
 20
34.0
 30
0.0
 40
0.5
  1
7706400041
100
AcDbAttributeDefinition
  3

  2
NB
 70
     8
280
     0
  0
ATTDEF
  5
235
330
230
100
AcDbEntity
  8
attrib
100
AcDbText
 10
111.0
 20
33.5
 30
0.0
 40
0.5
  1
CAPUS
100
AcDbAttributeDefinition
  3

  2
NN
 70
     8
280
     0
  0
ATTDEF
  5
236
330
230
100
AcDbEntity
  8
attrib
100
AcDbText
 10
111.0
 20
33.0
 30
0.0
 40
0.5
  1

100
AcDbAttributeDefinition
  3

  2
NT
 70
     8
280
     0
  0
ATTDEF
  5
237
330
230
100
AcDbEntity
  8
attrib
100
AcDbText
 10
111.0
 20
32.5
 30
0.0
 40
0.5
  1
$ARTNR.$PRIO.$ECP.
100
AcDbAttributeDefinition
  3

  2
NBSYN
 70
     8
280
     0
  0
ATTDEF
  5
238
330
230
100
AcDbEntity
  8
attrib
100
AcDbText
 10
111.0
 20
32.0
 30
0.0
 40
0.5
  1
7706400041
100
AcDbAttributeDefinition
  3

  2
LINA
 70
     8
280
     0
  0
ATTDEF
  5
239
330
230
100
AcDbEntity
  8
attrib
100
AcDbText
 10
111.0
 20
31.5
 30
0.0
 40
0.5
  1
Wöhner
100
AcDbAttributeDefinition
  3

  2
CATALOG
 70
     8
280
     0
  0
ATTDEF
  5
23A
330
230
100
AcDbEntity
  8
attrib
100
AcDbText
 10
111.0
 20
31.0
 30
0.0
 40
0.5
  1
77064000
100
AcDbAttributeDefinition
  3

  2
ARTNR
 70
     8
280
     0
  0
ATTDEF
  5
23B
330
230
100
AcDbEntity
  8
attrib
100
AcDbText
 10
111.0
 20
30.5
 30
0.0
 40
0.5
  1
QUADRON®60Classic Speed
100
AcDbAttributeDefinition
  3

  2
POF
 70
     8
280
     0
  0
ATTDEF
  5
23C
330
230
100
AcDbEntity
  8
attrib
100
AcDbText
 10
111.0
 20
30.0
 30
0.0
 40
0.5
  1
QCS-NH00
100
AcDbAttributeDefinition
  3

  2
TYPE
 70
     8
280
     0
  0
ATTDEF
  5
23D
330
230
100
AcDbEntity
  8
attrib
100
AcDbText
 10
111.0
 20
29.5
 30
0.0
 40
0.5
  1
1
100
AcDbAttributeDefinition
  3

  2
VER
 70
     8
280
     0
  0
ATTDEF
  5
23E
330
230
100
AcDbEntity
  8
attrib
100
AcDbText
 10
111.0
 20
29.0
 30
0.0
 40
0.5
  1
4
100
AcDbAttributeDefinition
  3

  2
PRIO
 70
     8
280
     0
  0
ATTDEF
  5
23F
330
230
100
AcDbEntity
  8
attrib
100
AcDbText
 10
111.0
 20
28.5
 30
0.0
 40
0.5
  1
1
100
AcDbAttributeDefinition
  3

  2
ECP
 70
     8
280
     0
  0
ATTDEF
  5
240
330
230
100
AcDbEntity
  8
attrib
100
AcDbText
 10
111.0
 20
28.0
 30
0.0
 40
0.5
  1
woehner
100
AcDbAttributeDefinition
  3

  2
COMPANY
 70
     8
280
     0
  0
ATTDEF
  5
241
330
230
100
AcDbEntity
  8
attrib
100
AcDbText
 10
111.0
 20
27.5
 30
0.0
 40
0.5
  1
{$CADENAS_DATA/23d-libs/woehner/sys_60classic/switch_fuses_nh/parts/switch_discon_fuses_3pole_capus.prj},189 {VTYP=3D},{NB=7706400041},{LINA=7706400041},{NN=CAPUS},{DATE=26.01.2024 07:04:31},{GEOMDATE=03.10.2023 07:46:00},{VERSION=v231003085622},{LINEID=3
100
AcDbAttributeDefinition
  3

  2
PSOL_0
 70
     9
280
     0
  0
ATTDEF
  5
242
330
230
100
AcDbEntity
  8
attrib
100
AcDbText
 10
111.0
 20
27.0
 30
0.0
 40
0.5
  1
80},{WBVAR=PRIO,ECP},{WBNUMERIC=PRIO,ECP}  {NB=7706400041},{LINA=7706400041},{KT=DUMMY},{ARTNR=77064000},{POF=QUADRON®60Classic Speed},{TYPE=QCS-NH00},{VER=1},{PRIO=4},{ECP=1}
100
AcDbAttributeDefinition
  3

  2
PSOL_1
 70
     9
280
     0
  0
LINE
  5
243
330
230
100
AcDbEntity
  8
hidden
100
AcDbLine
 10
59.0
 20
14.0
 30
0.0
 11
59.0
 21
29.0
 31
0.0
  0
LINE
  5
244
330
230
100
AcDbEntity
  8
hidden
100
AcDbLine
 10
26.0
 20
14.0
 30
0.0
 11
26.0
 21
29.0
 31
0.0
  0
LINE
  5
245
330
230
100
AcDbEntity
  8
hidden
100
AcDbLine
 10
47.0
 20
14.0
 30
0.0
 11
47.0
 21
29.0
 31
0.0
  0
LINE
  5
246
330
230
100
AcDbEntity
  8
hidden
100
AcDbLine
 10
80.0
 20
14.0
 30
0.0
 11
80.0
 21
29.0
 31
0.0
  0
LINE
  5
247
330
230
100
AcDbEntity
  8
hidden
100
AcDbLine
 10
8.0
 20
24.0
 30
0.0
 11
8.0
 21
29.0
 31
0.0
  0
LINE
  5
248
330
230
100
AcDbEntity
  8
hidden
100
AcDbLine
 10
27.0
 20
27.0
 30
0.0
 11
13.0
 21
27.0
 31
0.0
  0
LINE
  5
249
330
230
100
AcDbEntity
  8
hidden
100
AcDbLine
 10
13.0
 20
27.0
 30
0.0
 11
13.0
 21
14.0
 31
0.0
  0
LINE
  5
24A
330
230
100
AcDbEntity
  8
hidden
100
AcDbLine
 10
31.0
 20
14.0
 30
0.0
 11
31.0
 21
29.0
 31
0.0
  0
LINE
  5
24B
330
230
100
AcDbEntity
  8
hidden
100
AcDbLine
 10
27.0
 20
14.0
 30
0.0
 11
27.0
 21
27.0
 31
0.0
  0
LINE
  5
24C
330
230
100
AcDbEntity
  8
hidden
100
AcDbLine
 10
8.0
 20
29.0
 30
0.0
 11
98.0
 21
29.0
 31
0.0
  0
LINE
  5
24D
330
230
100
AcDbEntity
  8
hidden
100
AcDbLine
 10
93.0
 20
27.0
 30
0.0
 11
79.0
 21
27.0
 31
0.0
  0
LINE
  5
24E
330
230
100
AcDbEntity
  8
hidden
100
AcDbLine
 10
75.0
 20
14.0
 30
0.0
 11
74.99999999999999
 21
29.0
 31
0.0
  0
LINE
  5
24F
330
230
100
AcDbEntity
  8
hidden
100
AcDbLine
 10
79.0
 20
27.0
 30
0.0
 11
79.0
 21
14.0
 31
0.0
  0
LINE
  5
250
330
230
100
AcDbEntity
  8
hidden
100
AcDbLine
 10
93.0
 20
14.0
 30
0.0
 11
93.0
 21
27.0
 31
0.0
  0
LINE
  5
251
330
230
100
AcDbEntity
  8
hidden
100
AcDbLine
 10
98.0
 20
24.0
 30
0.0
 11
98.0
 21
29.0
 31
0.0
  0
LINE
  5
252
330
230
100
AcDbEntity
  8
hidden
100
AcDbLine
 10
41.99999999999999
 20
14.0
 30
0.0
 11
41.99999999999999
 21
29.0
 31
0.0
  0
LINE
  5
253
330
230
100
AcDbEntity
  8
hidden
100
AcDbLine
 10
46.0
 20
27.0
 30
0.0
 11
46.0
 21
14.0
 31
0.0
  0
LINE
  5
254
330
230
100
AcDbEntity
  8
hidden
100
AcDbLine
 10
60.0
 20
27.0
 30
0.0
 11
46.0
 21
27.0
 31
0.0
  0
LINE
  5
255
330
230
100
AcDbEntity
  8
hidden
100
AcDbLine
 10
60.0
 20
14.0
 30
0.0
 11
60.0
 21
27.0
 31
0.0
  0
LINE
  5
256
330
230
100
AcDbEntity
  8
hidden
100
AcDbLine
 10
64.0
 20
14.0
 30
0.0
 11
64.0
 21
29.0
 31
0.0
  0
LINE
  5
257
330
230
100
AcDbEntity
  8
hidden
100
AcDbLine
 10
104.0
 20
-84.0
 30
0.0
 11
105.0
 21
-84.0
 31
0.0
  0
LINE
  5
258
330
230
100
AcDbEntity
  8
hidden
100
AcDbLine
 10
0.999999999999994
 20
-1.83130879857391
 30
0.0
 11
0.999999999999994
 21
-1.826000000000009
 31
0.0
  0
LINE
  5
259
330
230
100
AcDbEntity
  8
hidden
100
AcDbLine
 10
2.000000000000002
 20
-57.99999999999999
 30
0.0
 11
0.999999999999994
 21
-57.99999999999999
 31
0.0
  0
LINE
  5
25A
330
230
100
AcDbEntity
  8
hidden
100
AcDbLine
 10
105.0
 20
-162.5825756949559
 30
0.0
 11
105.0
 21
-115.9223233275224
 31
0.0
  0
LINE
  5
25B
330
230
100
AcDbEntity
  8
hidden
100
AcDbLine
 10
0.999999999999994
 20
-162.5825756949559
 30
0.0
 11
0.999999999999994
 21
-115.9223233275225
 31
0.0
  0
LINE
  5
25C
330
230
100
AcDbEntity
  8
hidden
100
AcDbLine
 10
2.000000000000002
 20
-84.0
 30
0.0
 11
0.999999999999994
 21
-84.0
 31
0.0
  0
LINE
  5
25D
330
230
100
AcDbEntity
  8
hidden
100
AcDbLine
 10
105.0
 20
-1.831308798573902
 30
0.0
 11
105.0
 21
-1.826000000000003
 31
0.0
  0
LINE
  5
25E
330
230
100
AcDbEntity
  8
hidden
100
AcDbLine
 10
104.0
 20
-57.99999999999999
 30
0.0
 11
105.0
 21
-57.99999999999999
 31
0.0
  0
LINE
  5
25F
330
230
100
AcDbEntity
  8
hidden
100
AcDbLine
 10
90.0
 20
-134.0
 30
0.0
 11
90.0
 21
-113.0
 31
0.0
  0
LINE
  5
260
330
230
100
AcDbEntity
  8
hidden
100
AcDbLine
 10
56.99999999999999
 20
-52.00000000000001
 30
0.0
 11
56.99999999999999
 21
-33.46339999999999
 31
0.0
  0
LINE
  5
261
330
230
100
AcDbEntity
  8
hidden
100
AcDbLine
 10
37.0
 20
-52.00000000000001
 30
0.0
 11
37.0
 21
-113.0
 31
0.0
  0
LINE
  5
262
330
230
100
AcDbEntity
  8
hidden
100
AcDbLine
 10
69.0
 20
-52.00000000000001
 30
0.0
 11
37.0
 21
-52.00000000000001
 31
0.0
  0
LINE
  5
263
330
230
100
AcDbEntity
  8
hidden
100
AcDbLine
 10
49.0
 20
-33.46339999999999
 30
0.0
 11
49.0
 21
-52.00000000000001
 31
0.0
  0
LINE
  5
264
330
230
100
AcDbEntity
  8
hidden
100
AcDbLine
 10
69.0
 20
-113.0
 30
0.0
 11
69.0
 21
-52.00000000000001
 31
0.0
  0
LINE
  5
265
330
230
100
AcDbEntity
  8
hidden
100
AcDbLine
 10
37.0
 20
-113.0
 30
0.0
 11
69.0
 21
-113.0
 31
0.0
  0
LINE
  5
266
330
230
100
AcDbEntity
  8
hidden
100
AcDbLine
 10
56.99999999999999
 20
-134.0
 30
0.0
 11
56.99999999999999
 21
-113.0
 31
0.0
  0
LINE
  5
267
330
230
100
AcDbEntity
  8
hidden
100
AcDbLine
 10
49.0
 20
-134.0
 30
0.0
 11
56.99999999999999
 21
-134.0
 31
0.0
  0
LINE
  5
268
330
230
100
AcDbEntity
  8
hidden
100
AcDbLine
 10
49.0
 20
-113.0
 30
0.0
 11
49.0
 21
-134.0
 31
0.0
  0
LINE
  5
269
330
230
100
AcDbEntity
  8
hidden
100
AcDbLine
 10
1.999999999999995
 20
-52.00000000000001
 30
0.0
 11
1.999999999999995
 21
-113.0
 31
0.0
  0
LINE
  5
26A
330
230
100
AcDbEntity
  8
hidden
100
AcDbLine
 10
34.99999999999999
 20
-52.00000000000001
 30
0.0
 11
1.999999999999995
 21
-52.00000000000001
 31
0.0
  0
LINE
  5
26B
330
230
100
AcDbEntity
  8
hidden
100
AcDbLine
 10
16.0
 20
-33.46339999999999
 30
0.0
 11
16.0
 21
-52.00000000000001
 31
0.0
  0
LINE
  5
26C
330
230
100
AcDbEntity
  8
hidden
100
AcDbLine
 10
24.0
 20
-33.46340000000001
 30
0.0
 11
16.0
 21
-33.46339999999999
 31
0.0
  0
LINE
  5
26D
330
230
100
AcDbEntity
  8
hidden
100
AcDbLine
 10
24.0
 20
-52.00000000000001
 30
0.0
 11
24.0
 21
-33.46340000000001
 31
0.0
  0
LINE
  5
26E
330
230
100
AcDbEntity
  8
hidden
100
AcDbLine
 10
34.99999999999999
 20
-113.0
 30
0.0
 11
34.99999999999999
 21
-52.00000000000001
 31
0.0
  0
LINE
  5
26F
330
230
100
AcDbEntity
  8
hidden
100
AcDbLine
 10
24.0
 20
-134.0
 30
0.0
 11
24.0
 21
-113.0
 31
0.0
  0
LINE
  5
270
330
230
100
AcDbEntity
  8
hidden
100
AcDbLine
 10
16.0
 20
-134.0
 30
0.0
 11
24.0
 21
-134.0
 31
0.0
  0
LINE
  5
271
330
230
100
AcDbEntity
  8
hidden
100
AcDbLine
 10
16.0
 20
-113.0
 30
0.0
 11
16.0
 21
-134.0
 31
0.0
  0
LINE
  5
272
330
230
100
AcDbEntity
  8
hidden
100
AcDbLine
 10
1.999999999999995
 20
-113.0
 30
0.0
 11
34.99999999999999
 21
-113.0
 31
0.0
  0
LINE
  5
273
330
230
100
AcDbEntity
  8
hidden
100
AcDbLine
 10
71.00000000000001
 20
-52.00000000000001
 30
0.0
 11
71.00000000000001
 21
-113.0
 31
0.0
  0
LINE
  5
274
330
230
100
AcDbEntity
  8
hidden
100
AcDbLine
 10
82.0
 20
-33.46339999999999
 30
0.0
 11
82.0
 21
-52.00000000000001
 31
0.0
  0
LINE
  5
275
330
230
100
AcDbEntity
  8
hidden
100
AcDbLine
 10
90.0
 20
-33.46340000000001
 30
0.0
 11
82.0
 21
-33.46339999999999
 31
0.0
  0
LINE
  5
276
330
230
100
AcDbEntity
  8
hidden
100
AcDbLine
 10
90.0
 20
-52.00000000000001
 30
0.0
 11
90.0
 21
-33.46340000000001
 31
0.0
  0
LINE
  5
277
330
230
100
AcDbEntity
  8
hidden
100
AcDbLine
 10
104.0
 20
-52.00000000000001
 30
0.0
 11
71.00000000000001
 21
-52.00000000000001
 31
0.0
  0
LINE
  5
278
330
230
100
AcDbEntity
  8
hidden
100
AcDbLine
 10
104.0
 20
-113.0
 30
0.0
 11
104.0
 21
-52.00000000000001
 31
0.0
  0
LINE
  5
279
330
230
100
AcDbEntity
  8
hidden
100
AcDbLine
 10
71.00000000000001
 20
-113.0
 30
0.0
 11
104.0
 21
-113.0
 31
0.0
  0
LINE
  5
27A
330
230
100
AcDbEntity
  8
hidden
100
AcDbLine
 10
82.0
 20
-134.0
 30
0.0
 11
90.0
 21
-134.0
 31
0.0
  0
LINE
  5
27B
330
230
100
AcDbEntity
  8
hidden
100
AcDbLine
 10
82.0
 20
-113.0
 30
0.0
 11
82.0
 21
-134.0
 31
0.0
  0
LINE
  5
27C
330
230
100
AcDbEntity
  8
hidden
100
AcDbLine
 10
11.0
 20
-6.000000000000005
 30
0.0
 11
19.47260221218353
 21
-6.000000000000005
 31
0.0
  0
LINE
  5
27D
330
230
100
AcDbEntity
  8
hidden
100
AcDbLine
 10
0.999999999999994
 20
-6.000000000000005
 30
0.0
 11
5.999999999999998
 21
-6.000000000000005
 31
0.0
  0
LINE
  5
27E
330
230
100
AcDbEntity
  8
hidden
100
AcDbLine
 10
88.14998360543616
 20
13.36491673103708
 30
0.0
 11
17.85001639456387
 21
13.36491673103708
 31
0.0
  0
LINE
  5
27F
330
230
100
AcDbEntity
  8
hidden
100
AcDbLine
 10
100.0
 20
-6.000000000000005
 30
0.0
 11
105.0
 21
-6.000000000000005
 31
0.0
  0
LINE
  5
280
330
230
100
AcDbEntity
  8
hidden
100
AcDbLine
 10
86.52739778781645
 20
-6.000000000000005
 30
0.0
 11
94.99999999998354
 21
-6.000000000000005
 31
0.0
  0
LINE
  5
281
330
230
100
AcDbEntity
  8
hidden
100
AcDbLine
 10
100.0
 20
14.0
 30
0.0
 11
105.0
 21
14.00000000000001
 31
0.0
  0
LINE
  5
282
330
230
100
AcDbEntity
  8
hidden
100
AcDbLine
 10
11.0
 20
14.0
 30
0.0
 11
95.0
 21
14.0
 31
0.0
  0
LINE
  5
283
330
230
100
AcDbEntity
  8
hidden
100
AcDbLine
 10
0.999999999999994
 20
14.00000000000001
 30
0.0
 11
5.999999999999998
 21
14.0
 31
0.0
  0
LINE
  5
284
330
230
100
AcDbEntity
  8
hidden
100
AcDbLine
 10
63.99999999999999
 20
-19.0
 30
0.0
 11
63.99999999999999
 21
-17.51581503615117
 31
0.0
  0
ARC
  5
285
330
230
100
AcDbEntity
  8
hidden
100
AcDbCircle
 10
62.00000000000001
 20
-19.00000000000002
 30
0.0
 40
1.999999999999979
100
AcDbArc
 50
269.9999999999996
 51
0.0000000000006107
  0
LINE
  5
286
330
230
100
AcDbEntity
  8
hidden
100
AcDbLine
 10
44.0
 20
-21.0
 30
0.0
 11
62.0
 21
-21.0
 31
0.0
  0
ARC
  5
287
330
230
100
AcDbEntity
  8
hidden
100
AcDbCircle
 10
44.0
 20
-18.99999999999999
 30
0.0
 40
2.000000000000007
100
AcDbArc
 50
180.0000000000001
 51
270.0
  0
LINE
  5
288
330
230
100
AcDbEntity
  8
hidden
100
AcDbLine
 10
41.99999999999999
 20
-17.51581503615117
 30
0.0
 11
41.99999999999999
 21
-19.0
 31
0.0
  0
ARC
  5
289
330
230
100
AcDbEntity
  8
hidden
100
AcDbCircle
 10
38.16448298359413
 20
-8.434800000000024
 30
0.0
 40
17.02939999999997
100
AcDbArc
 50
212.2256563341134
 51
269.4465848884356
  0
LINE
  5
28A
330
230
100
AcDbEntity
  8
hidden
100
AcDbLine
 10
37.99999999999999
 20
-25.46340563017735
 30
0.0
 11
37.99999999999999
 21
-25.51581503615117
 31
0.0
  0
LINE
  5
28B
330
230
100
AcDbEntity
  8
hidden
100
AcDbLine
 10
38.0
 20
-33.46339999999999
 30
0.0
 11
68.0
 21
-33.46339999999999
 31
0.0
  0
LINE
  5
28C
330
230
100
AcDbEntity
  8
hidden
100
AcDbLine
 10
68.0
 20
-25.51581503615117
 30
0.0
 11
68.0
 21
-25.46340563017735
 31
0.0
  0
ARC
  5
28D
330
230
100
AcDbEntity
  8
hidden
100
AcDbCircle
 10
67.83551701640575
 20
-8.434799999999829
 30
0.0
 40
17.02940000000017
100
AcDbArc
 50
270.5534151115647
 51
327.7743436658862
  0
LINE
  5
28E
330
230
100
AcDbEntity
  8
hidden
100
AcDbLine
 10
88.1481340608792
 20
13.0052563549561
 30
0.0
 11
88.15010000000001
 21
13.92280000000001
 31
0.0
  0
LINE
  5
28F
330
230
100
AcDbEntity
  8
hidden
100
AcDbLine
 10
18.0
 20
13.92280000000001
 30
0.0
 11
17.84990000000001
 21
13.92280000000001
 31
0.0
  0
LINE
  5
290
330
230
100
AcDbEntity
  8
hidden
100
AcDbLine
 10
88.15010000000001
 20
13.92280000000001
 30
0.0
 11
88.0
 21
13.92280000000001
 31
0.0
  0
LINE
  5
291
330
230
100
AcDbEntity
  8
hidden
100
AcDbLine
 10
17.84990000000001
 20
13.92280000000001
 30
0.0
 11
17.85185306150663
 21
13.007078645044
 31
0.0
  0
LINE
  5
292
330
230
100
AcDbEntity
  8
bold
100
AcDbLine
 10
105.5
 20
34.0
 30
0.0
 11
106.0
 21
34.0
 31
0.0
  0
LINE
  5
293
330
230
100
AcDbEntity
  8
bold
100
AcDbLine
 10
0.0
 20
34.0
 30
0.0
 11
0.5000000000000004
 21
34.0
 31
0.0
  0
LINE
  5
294
330
230
100
AcDbEntity
  8
bold
100
AcDbLine
 10
0.0
 20
-166.0
 30
0.0
 11
106.0
 21
-166.0
 31
0.0
  0
LINE
  5
295
330
230
100
AcDbEntity
  8
bold
100
AcDbLine
 10
8.0
 20
14.0
 30
0.0
 11
8.0
 21
24.0
 31
0.0
  0
LINE
  5
296
330
230
100
AcDbEntity
  8
bold
100
AcDbLine
 10
98.0
 20
14.0
 30
0.0
 11
98.0
 21
24.0
 31
0.0
  0
LINE
  5
297
330
230
100
AcDbEntity
  8
bold
100
AcDbLine
 10
0.0
 20
14.0
 30
0.0
 11
0.999999999999994
 21
14.00000000000001
 31
0.0
  0
LINE
  5
298
330
230
100
AcDbEntity
  8
bold
100
AcDbLine
 10
105.0
 20
14.00000000000001
 30
0.0
 11
106.0
 21
14.00000000000001
 31
0.0
  0
LINE
  5
299
330
230
100
AcDbEntity
  8
bold
100
AcDbLine
 10
106.0
 20
-163.0
 30
0.0
 11
0.0
 21
-163.0
 31
0.0
  0
LINE
  5
29A
330
230
100
AcDbEntity
  8
bold
100
AcDbLine
 10
105.0
 20
-163.0
 30
0.0
 11
105.0
 21
-162.5825756949559
 31
0.0
  0
LINE
  5
29B
330
230
100
AcDbEntity
  8
bold
100
AcDbLine
 10
105.0
 20
-162.5825756949559
 30
0.0
 11
106.0
 21
-162.5825756949559
 31
0.0
  0
LINE
  5
29C
330
230
100
AcDbEntity
  8
bold
100
AcDbLine
 10
0.0
 20
-162.5825756949559
 30
0.0
 11
0.999999999999994
 21
-162.5825756949559
 31
0.0
  0
LINE
  5
29D
330
230
100
AcDbEntity
  8
bold
100
AcDbLine
 10
0.999999999999994
 20
-162.5825756949559
 30
0.0
 11
0.999999999999994
 21
-163.0
 31
0.0
  0
LINE
  5
29E
330
230
100
AcDbEntity
  8
light
100
AcDbLine
 10
0.0
 20
-158.0
 30
0.0
 11
106.0
 21
-158.0
 31
0.0
  0
LINE
  5
29F
330
230
100
AcDbEntity
  8
light
100
AcDbLine
 10
19.47260221218353
 20
-6.000000000000005
 30
0.0
 11
19.95235287073338
 21
-6.000000000000005
 31
0.0
  0
LINE
  5
2A0
330
230
100
AcDbEntity
  8
light
100
AcDbLine
 10
5.999999999999998
 20
-6.000000000000005
 30
0.0
 11
11.0
 21
-6.000000000000005
 31
0.0
  0
LINE
  5
2A1
330
230
100
AcDbEntity
  8
light
100
AcDbLine
 10
0.0
 20
-6.000000000000005
 30
0.0
 11
0.999999999999994
 21
-6.000000000000005
 31
0.0
  0
LINE
  5
2A2
330
230
100
AcDbEntity
  8
light
100
AcDbLine
 10
105.0
 20
-6.000000000000005
 30
0.0
 11
106.0
 21
-6.000000000000005
 31
0.0
  0
LINE
  5
2A3
330
230
100
AcDbEntity
  8
light
100
AcDbLine
 10
94.99999999998354
 20
-6.000000000000005
 30
0.0
 11
100.0
 21
-6.000000000000005
 31
0.0
  0
LINE
  5
2A4
330
230
100
AcDbEntity
  8
light
100
AcDbLine
 10
86.04764712926664
 20
-6.000000000000005
 30
0.0
 11
86.52739778781645
 21
-6.000000000000005
 31
0.0
  0
LINE
  5
2A5
330
230
100
AcDbEntity
  8
bold
100
AcDbLine
 10
106.0
 20
4.535653752852718
 30
0.0
 11
105.0
 21
4.535653752852725
 31
0.0
  0
LINE
  5
2A6
330
230
100
AcDbEntity
  8
bold
100
AcDbLine
 10
105.0
 20
8.282856857085688
 30
0.0
 11
106.0
 21
8.282856857085685
 31
0.0
  0
LINE
  5
2A7
330
230
100
AcDbEntity
  8
bold
100
AcDbLine
 10
106.0
 20
11.32050807568877
 30
0.0
 11
105.0
 21
11.32050807568877
 31
0.0
  0
LINE
  5
2A8
330
230
100
AcDbEntity
  8
bold
100
AcDbLine
 10
105.0
 20
12.73499399519519
 30
0.0
 11
106.0
 21
12.7349939951952
 31
0.0
  0
LINE
  5
2A9
330
230
100
AcDbEntity
  8
bold
100
AcDbLine
 10
106.0
 20
-166.0
 30
0.0
 11
106.0
 21
34.0
 31
0.0
  0
LINE
  5
2AA
330
230
100
AcDbEntity
  8
bold
100
AcDbLine
 10
106.0
 20
13.77371993328519
 30
0.0
 11
105.0
 21
13.77371993328519
 31
0.0
  0
LINE
  5
2AB
330
230
100
AcDbEntity
  8
bold
100
AcDbLine
 10
95.0
 20
14.0
 30
0.0
 11
100.0
 21
14.0
 31
0.0
  0
LINE
  5
2AC
330
230
100
AcDbEntity
  8
bold
100
AcDbLine
 10
5.999999999999998
 20
14.0
 30
0.0
 11
11.0
 21
14.0
 31
0.0
  0
LINE
  5
2AD
330
230
100
AcDbEntity
  8
bold
100
AcDbLine
 10
0.999999999999994
 20
13.77371993328519
 30
0.0
 11
0.0
 21
13.77371993328519
 31
0.0
  0
LINE
  5
2AE
330
230
100
AcDbEntity
  8
bold
100
AcDbLine
 10
0.0
 20
-166.0
 30
0.0
 11
0.0
 21
34.0
 31
0.0
  0
LINE
  5
2AF
330
230
100
AcDbEntity
  8
bold
100
AcDbLine
 10
0.0
 20
12.73499399519519
 30
0.0
 11
0.999999999999994
 21
12.7349939951952
 31
0.0
  0
LINE
  5
2B0
330
230
100
AcDbEntity
  8
bold
100
AcDbLine
 10
0.999999999999994
 20
11.32050807568877
 30
0.0
 11
0.0
 21
11.32050807568877
 31
0.0
  0
LINE
  5
2B1
330
230
100
AcDbEntity
  8
bold
100
AcDbLine
 10
0.0
 20
8.282856857085688
 30
0.0
 11
0.999999999999994
 21
8.282856857085685
 31
0.0
  0
LINE
  5
2B2
330
230
100
AcDbEntity
  8
bold
100
AcDbLine
 10
0.999999999999994
 20
4.535653752852718
 30
0.0
 11
0.0
 21
4.535653752852725
 31
0.0
  0
LWPOLYLINE
  5
2B3
330
230
100
AcDbEntity
  8
bold
100
AcDbPolyline
 90
       20
 70
     0
 43
0.0
 10
59.0
 20
-2.999999999999996
 10
59.81255148685857
 20
-2.933014285374416
 10
60.6019398240085
 20
-2.736432074912039
 10
61.34483789413384
 20
-2.415540845912473
 10
62.02281721745481
 20
-1.982784964049487
 10
62.62603739163333
 20
-1.442020681914812
 10
63.13083587399439
 20
-0.8171253046538387
 10
63.53833149183168
 20
-0.097464682650053
 10
63.82056875348312
 20
0.6725524895717303
 10
63.97568760083612
 20
1.511831597941889
 10
63.98695203237698
 20
2.360983970241127
 10
63.84519168867346
 20
3.232686941309088
 10
63.55251022439968
 20
4.067522831007246
 10
63.10677514593602
 20
4.851123012364313
 10
62.52246851060596
 20
5.548551196162935
 10
61.83766049091982
 20
6.115956923046492
 10
61.05397749394016
 20
6.558637565587691
 10
60.25845147951932
 20
6.838362336446437
 10
59.4216726348156
 20
6.982187490354779
 10
59.0
 20
6.999999999999999
  0
LINE
  5
2B4
330
230
100
AcDbEntity
  8
bold
100
AcDbLine
 10
59.0
 20
6.999999999999999
 30
0.0
 11
47.0
 21
7.000000000000003
 31
0.0
  0
LWPOLYLINE
  5
2B5
330
230
100
AcDbEntity
  8
bold
100
AcDbPolyline
 90
       20
 70
     0
 43
0.0
 10
47.0
 20
7.000000000000003
 10
46.20814723671115
 20
6.936369204601084
 10
45.43930382970435
 20
6.750181834837957
 10
44.7168041277924
 20
6.447793091973103
 10
44.05616027671577
 20
6.04151056952891
 10
43.45341123440344
 20
5.523945287371809
 10
42.94442699800302
 20
4.924436291915631
 10
42.51348323244608
 20
4.206220915991234
 10
42.20919169497262
 20
3.431137933422462
 10
42.03299194723918
 20
2.569432891818463
 10
42.00967238855828
 20
1.689145805107373
 10
42.1469313948637
 20
0.799134788123955
 10
42.44331384277936
 20
-0.0583030060207004
 10
42.88244542612321
 20
-0.8353931649260695
 10
43.45789845244109
 20
-1.528954041466218
 10
44.12005484410836
 20
-2.086529177547571
 10
44.87397356790238
 20
-2.525484682332074
 10
45.6582862071626
 20
-2.816026202698649
 10
46.48297210137343
 20
-2.973196371755471
 10
47.0
 20
-2.999999999999996
  0
LINE
  5
2B6
330
230
100
AcDbEntity
  8
bold
100
AcDbLine
 10
47.0
 20
-2.999999999999996
 30
0.0
 11
59.0
 21
-2.999999999999996
 31
0.0
  0
ARC
  5
2B7
330
230
100
AcDbEntity
  8
bold
100
AcDbCircle
 10
62.00000000001599
 20
-14.99999999999956
 30
0.0
 40
1.999999999984013
100
AcDbArc
 50
359.9999999999876
 51
2.489712235218339
  0
LINE
  5
2B8
330
230
100
AcDbEntity
  8
bold
100
AcDbLine
 10
63.99999999999999
 20
-17.51581503615117
 30
0.0
 11
64.0
 21
-15.0
 31
0.0
  0
LINE
  5
2B9
330
230
100
AcDbEntity
  8
bold
100
AcDbLine
 10
41.99999999999999
 20
-15.0
 30
0.0
 11
41.99999999999999
 21
-17.51581503615117
 31
0.0
  0
ARC
  5
2BA
330
230
100
AcDbEntity
  8
bold
100
AcDbCircle
 10
43.99999999999856
 20
-15.00000000000005
 30
0.0
 40
1.999999999998572
100
AcDbArc
 50
177.5102877647859
 51
179.9999999999986
  0
ARC
  5
2BB
330
230
100
AcDbEntity
  8
bold
100
AcDbCircle
 10
38.16448298359415
 20
-8.434799999999965
 30
0.0
 40
17.02940000000001
100
AcDbArc
 50
202.3596850124282
 51
212.2256563341136
  0
LINE
  5
2BC
330
230
100
AcDbEntity
  8
bold
100
AcDbLine
 10
37.99999999999999
 20
-25.51581503615117
 30
0.0
 11
37.99999999999999
 21
-28.50386611851185
 31
0.0
  0
LINE
  5
2BD
330
230
100
AcDbEntity
  8
bold
100
AcDbLine
 10
68.0
 20
-28.50386611851183
 30
0.0
 11
68.0
 21
-25.51581503615117
 31
0.0
  0
ARC
  5
2BE
330
230
100
AcDbEntity
  8
bold
100
AcDbCircle
 10
67.8355170163981
 20
-8.434799999995748
 30
0.0
 40
17.02940000000882
100
AcDbArc
 50
327.7743436658884
 51
337.6403149875684
  0
LWPOLYLINE
  5
2BF
330
230
100
AcDbEntity
  8
bold
100
AcDbPolyline
 90
       12
 70
     0
 43
0.0
 10
47.98797388123371
 20
-3.916099999999999
 10
47.01607213499138
 20
-3.997371742266498
 10
46.04371618534972
 20
-3.9213032393959
 10
45.09901779952881
 20
-3.688274446682571
 10
44.20735980128976
 20
-3.308476505978319
 10
43.38861868305501
 20
-2.788758813109443
 10
42.66838744348128
 20
-2.149762596802635
 10
42.05035734668272
 20
-1.388401304074541
 10
41.56735596449769
 20
-0.544837015500052
 10
41.21912845028434
 20
0.3971655523796191
 10
41.03271878845102
 20
1.376256488411873
 10
40.99999999999999
 20
2.002000000000004
  0
LINE
  5
2C0
330
230
100
AcDbEntity
  8
bold
100
AcDbLine
 10
40.99999999999999
 20
2.002000000000004
 30
0.0
 11
40.99999999999999
 21
8.700891692320702
 31
0.0
  0
LINE
  5
2C1
330
230
100
AcDbEntity
  8
bold
100
AcDbLine
 10
65.0
 20
8.700891692320702
 30
0.0
 11
40.99999999999999
 21
8.700891692320702
 31
0.0
  0
LINE
  5
2C2
330
230
100
AcDbEntity
  8
bold
100
AcDbLine
 10
65.0
 20
8.700891692320702
 30
0.0
 11
65.0
 21
2.002000000000011
 31
0.0
  0
LWPOLYLINE
  5
2C3
330
230
100
AcDbEntity
  8
bold
100
AcDbPolyline
 90
       11
 70
     0
 43
0.0
 10
65.0
 20
2.002000000000011
 10
64.90846944618455
 20
0.961330831538397
 10
64.63646264465868
 20
-0.0547666020643198
 10
64.18408168566947
 20
-1.017371823990157
 10
63.56337230505536
 20
-1.893591509059142
 10
62.81887497672162
 20
-2.624794462874891
 10
61.95237507003308
 20
-3.221359210876386
 10
61.03461263644246
 20
-3.641764290385568
 10
60.0553231706271
 20
-3.904461970210049
 10
59.03420836026993
 20
-3.997161357167989
 10
58.01202611876629
 20
-3.916099999999999
  0
LINE
  5
2C4
330
230
100
AcDbEntity
  8
bold
100
AcDbLine
 10
58.01202611876629
 20
-3.916099999999999
 30
0.0
 11
47.98797388123371
 21
-3.916099999999999
 31
0.0
  0
LINE
  5
2C5
330
230
100
AcDbEntity
  8
bold
100
AcDbLine
 10
44.0
 20
-13.0
 30
0.0
 11
62.0
 21
-13.0
 31
0.0
  0
LWPOLYLINE
  5
2C6
330
230
100
AcDbEntity
  8
bold
100
AcDbPolyline
 90
        6
 70
     0
 43
0.0
 10
62.0
 20
-13.0
 10
62.65469676318155
 20
-13.11019256317487
 10
63.23551663263538
 20
-13.42726396032858
 10
63.6821586120212
 20
-13.91817635263279
 10
63.94525178196427
 20
-14.53524683458333
 10
63.99811207514451
 20
-14.91311999561633
  0
LINE
  5
2C7
330
230
100
AcDbEntity
  8
bold
100
AcDbLine
 10
63.99811207514451
 20
-14.91311999561633
 30
0.0
 11
83.58454347502855
 21
-14.91311999561641
 31
0.0
  0
LINE
  5
2C8
330
230
100
AcDbEntity
  8
bold
100
AcDbLine
 10
83.58454347502855
 20
-14.91311999561641
 30
0.0
 11
84.12830264024929
 21
-13.38915172101068
 31
0.0
  0
LWPOLYLINE
  5
2C9
330
230
100
AcDbEntity
  8
bold
100
AcDbPolyline
 90
        9
 70
     0
 43
0.0
 10
84.12830264024929
 20
-13.38915172101068
 10
85.14318924613661
 20
-9.792158560211837
 10
86.00699654332841
 20
-6.185206045591945
 10
86.7194233971345
 20
-2.587459932665487
 10
87.29712976619719
 20
1.097378829365697
 10
87.72196451575404
 20
4.750435328631616
 10
87.99867561868224
 20
8.352413201230144
 10
88.11667518191243
 20
11.15680408960083
 10
88.1481340608792
 20
13.0052563549561
  0
LINE
  5
2CA
330
230
100
AcDbEntity
  8
bold
100
AcDbLine
 10
88.0
 20
13.92280000000001
 30
0.0
 11
18.0
 21
13.92280000000001
 31
0.0
  0
LWPOLYLINE
  5
2CB
330
230
100
AcDbEntity
  8
bold
100
AcDbPolyline
 90
        9
 70
     0
 43
0.0
 10
17.85185306150663
 20
13.007078645044
 10
17.90286530099395
 20
10.52251830388482
 10
18.08485130018914
 20
7.055985956716207
 10
18.40234206296817
 20
3.538993361696777
 10
18.877399066629
 20
-0.121666724093486
 10
19.50747912479162
 20
-3.815567063958691
 10
20.2951107308119
 20
-7.522308303606645
 10
21.03203330239138
 20
-10.45578064034897
 10
21.87169726165668
 20
-13.3891513984205
  0
LINE
  5
2CC
330
230
100
AcDbEntity
  8
bold
100
AcDbLine
 10
21.87169726165668
 20
-13.3891513984205
 30
0.0
 11
22.41545652497145
 21
-14.91311999561633
 31
0.0
  0
LINE
  5
2CD
330
230
100
AcDbEntity
  8
bold
100
AcDbLine
 10
22.41545652497145
 20
-14.91311999561633
 30
0.0
 11
42.00188792485549
 21
-14.91311999561633
 31
0.0
  0
LWPOLYLINE
  5
2CE
330
230
100
AcDbEntity
  8
bold
100
AcDbPolyline
 90
        6
 70
     0
 43
0.0
 10
42.00188792485549
 20
-14.91311999561633
 10
42.14589000363959
 20
-14.25014926725619
 10
42.50425283348648
 20
-13.67231765325181
 10
43.03500178064152
 20
-13.24820707940837
 10
43.67092850318014
 20
-13.02725775885932
 10
44.0
 20
-13.0
  0
ENDBLK
  5
233
330
230
100
AcDbEntity
  8
0
100
AcDbBlockEnd
  0
BLOCK
  5
2D3
330
2D2
100
AcDbEntity
  8
0
100
AcDbBlockBegin
  2
*D6
 70
     1
 10
0.0
 20
0.0
 30
0.0
  3
*D6
  1

  0
LINE
  5
2D5
330
2D2
100
AcDbEntity
  8
dimension
 62
     0
370
    -2
100
AcDbLine
 10
0.0
 20
-166.0
 30
0.0
 11
0.0
 21
-191.0
 31
0.0
  0
LINE
  5
2D6
330
2D2
100
AcDbEntity
  8
dimension
 62
     0
370
    -2
100
AcDbLine
 10
106.0
 20
-166.0
 30
0.0
 11
106.0
 21
-191.0
 31
0.0
  0
LINE
  5
2D7
330
2D2
100
AcDbEntity
  8
dimension
 62
     0
370
    -2
100
AcDbLine
 10
5.0
 20
-191.0
 30
0.0
 11
101.0
 21
-191.0
 31
0.0
  0
SOLID
  5
2D8
330
2D2
100
AcDbEntity
  8
dimension
 62
     0
100
AcDbTrace
 10
5.0
 20
-190.1666666666667
 30
0.0
 11
5.0
 21
-191.8333333333333
 31
0.0
 12
0.0
 22
-191.0
 32
0.0
 13
0.0
 23
-191.0
 33
0.0
  0
SOLID
  5
2D9
330
2D2
100
AcDbEntity
  8
dimension
 62
     0
100
AcDbTrace
 10
101.0
 20
-191.8333333333333
 30
0.0
 11
101.0
 21
-190.1666666666667
 31
0.0
 12
106.0
 22
-191.0
 32
0.0
 13
106.0
 23
-191.0
 33
0.0
  0
MTEXT
  5
2DA
330
2D2
100
AcDbEntity
  8
dimension
 62
     0
100
AcDbMText
 10
53.0
 20
-187.0
 30
0.0
 40
5.0
 41
0.0
 46
0.0
 71
     5
 72
     1
  1
106
 73
     1
 44
1.0
  0
POINT
  5
2DB
330
2D2
100
AcDbEntity
  8
Defpoints
 62
     0
100
AcDbPoint
 10
0.0
 20
-166.0
 30
0.0
  0
POINT
  5
2DC
330
2D2
100
AcDbEntity
  8
Defpoints
 62
     0
100
AcDbPoint
 10
106.0
 20
-166.0
 30
0.0
  0
POINT
  5
2DD
330
2D2
100
AcDbEntity
  8
Defpoints
 62
     0
100
AcDbPoint
 10
106.0
 20
-191.0
 30
0.0
  0
ENDBLK
  5
2D4
330
2D2
100
AcDbEntity
  8
0
100
AcDbBlockEnd
  0
ENDSEC
  0
SECTION
  2
ENTITIES
  0
ATTDEF
  5
5F
330
1F
100
AcDbEntity
  8
attrib
100
AcDbText
 10
111.0
 20
34.0
 30
0.0
 40
0.5
  1
33500
100
AcDbAttributeDefinition
  3

  2
NB
 70
     8
280
     0
  0
ATTDEF
  5
60
330
1F
100
AcDbEntity
  8
attrib
100
AcDbText
 10
111.0
 20
33.5
 30
0.0
 40
0.5
  1
Size NH 00
100
AcDbAttributeDefinition
  3

  2
NN
 70
     8
280
     0
  0
ATTDEF
  5
61
330
1F
100
AcDbEntity
  8
attrib
100
AcDbText
 10
111.0
 20
33.0
 30
0.0
 40
0.5
  1

100
AcDbAttributeDefinition
  3

  2
NT
 70
     8
280
     0
  0
ATTDEF
  5
62
330
1F
100
AcDbEntity
  8
attrib
100
AcDbText
 10
111.0
 20
32.5
 30
0.0
 40
0.5
  1
$ARTNR.
100
AcDbAttributeDefinition
  3

  2
NBSYN
 70
     8
280
     0
  0
ATTDEF
  5
63
330
1F
100
AcDbEntity
  8
attrib
100
AcDbText
 10
111.0
 20
32.0
 30
0.0
 40
0.5
  1
33500000
100
AcDbAttributeDefinition
  3

  2
LINA
 70
     8
280
     0
  0
ATTDEF
  5
64
330
1F
100
AcDbEntity
  8
attrib
100
AcDbText
 10
111.0
 20
31.5
 30
0.0
 40
0.5
  1
Wöhner
100
AcDbAttributeDefinition
  3

  2
CATALOG
 70
     8
280
     0
  0
ATTDEF
  5
65
330
1F
100
AcDbEntity
  8
attrib
100
AcDbText
 10
111.0
 20
31.0
 30
0.0
 40
0.5
  1
33500
100
AcDbAttributeDefinition
  3

  2
ARTNR
 70
     8
280
     0
  0
ATTDEF
  5
66
330
1F
100
AcDbEntity
  8
attrib
100
AcDbText
 10
111.0
 20
30.5
 30
0.0
 40
0.5
  1
12, 15, 20, 25, 30 x 5, 10 and section busbars
100
AcDbAttributeDefinition
  3

  2
BUSB
 70
     8
280
     0
  0
ATTDEF
  5
67
330
1F
100
AcDbEntity
  8
attrib
100
AcDbText
 10
111.0
 20
30.0
 30
0.0
 40
0.5
  1
QUADRON®60Classic Speed
100
AcDbAttributeDefinition
  3

  2
POF
 70
     8
280
     0
  0
ATTDEF
  5
68
330
1F
100
AcDbEntity
  8
attrib
100
AcDbText
 10
111.0
 20
29.5
 30
0.0
 40
0.5
  1
QCS-NH00
100
AcDbAttributeDefinition
  3

  2
TYPE
 70
     8
280
     0
  0
ATTDEF
  5
69
330
1F
100
AcDbEntity
  8
attrib
100
AcDbText
 10
111.0
 20
29.0
 30
0.0
 40
0.5
  1
1
100
AcDbAttributeDefinition
  3

  2
QNT
 70
     8
280
     0
  0
ATTDEF
  5
6A
330
1F
100
AcDbEntity
  8
attrib
100
AcDbText
 10
111.0
 20
28.5
 30
0.0
 40
0.5
  1
106
100
AcDbAttributeDefinition
  3

  2
W
 70
     8
280
     0
  0
ATTDEF
  5
6B
330
1F
100
AcDbEntity
  8
attrib
100
AcDbText
 10
111.0
 20
28.0
 30
0.0
 40
0.5
  1
200
100
AcDbAttributeDefinition
  3

  2
H
 70
     8
280
     0
  0
ATTDEF
  5
6C
330
1F
100
AcDbEntity
  8
attrib
100
AcDbText
 10
111.0
 20
27.5
 30
0.0
 40
0.5
  1
128
100
AcDbAttributeDefinition
  3

  2
D
 70
     8
280
     0
  0
ATTDEF
  5
6D
330
1F
100
AcDbEntity
  8
attrib
100
AcDbText
 10
111.0
 20
27.0
 30
0.0
 40
0.5
  1
Product link
100
AcDbAttributeDefinition
  3

  2
LINK
 70
     8
280
     0
  0
ATTDEF
  5
6E
330
1F
100
AcDbEntity
  8
attrib
100
AcDbText
 10
111.0
 20
26.5
 30
0.0
 40
0.5
  1
woehner
100
AcDbAttributeDefinition
  3

  2
COMPANY
 70
     8
280
     0
  0
ATTDEF
  5
6F
330
1F
100
AcDbEntity
  8
attrib
100
AcDbText
 10
111.0
 20
26.0
 30
0.0
 40
0.5
  1
{$CADENAS_DATA/23d-libs/woehner/sys_60classic/switch_fuses_nh/switch_discon_fuses_3pole_nh00_asmtab.prj},184 {VTYP=3D},{STYP=ASSTAB},{NB=33500},{LINA=33500000},{NN=Gr. NH 00},{DATE=26.01.2024 06:39:58},{GEOMDATE=29.09.2023 13:43:14},{VERSION=v231003085622
100
AcDbAttributeDefinition
  3

  2
PSOL_0
 70
     9
280
     0
  0
ATTDEF
  5
70
330
1F
100
AcDbEntity
  8
attrib
100
AcDbText
 10
111.0
 20
25.5
 30
0.0
 40
0.5
  1
},{LINEID=380},{WBVAR=},{WBNUMERIC=}  {NB=33500},{LINA=33500000},{KT=DUMMY},{EAN=4021267335014},{ARTICLEORDER=3},{BOM=33500000},{ARTNR=33500},{BUSB=12, 15, 20, 25, 30 x 5, 10 and section busbars},{BE=switch disconnector with fuses, 3-pole},{POF=QUADRON®60
100
AcDbAttributeDefinition
  3

  2
PSOL_1
 70
     9
280
     0
  0
ATTDEF
  5
71
330
1F
100
AcDbEntity
  8
attrib
100
AcDbText
 10
111.0
 20
25.0
 30
0.0
 40
0.5
  1
Classic Speed},{TYPE=QCS-NH00},{QNT=1},{W=106},{H=200},{D=128},{CONCA=},{BUSIN=},{IPR=},{IPRF=},{SEARCH=},{EDZ=},{IODD=},{DIST=7.5},{LINK=Product link},{LINKX=https://www.woehner.de/de/produkte/33500.html},{VER1=1},{VER2=1},{PRA=1},{PPATH=parts/switch_dis
100
AcDbAttributeDefinition
  3

  2
PSOL_2
 70
     9
280
     0
  0
ATTDEF
  5
72
330
1F
100
AcDbEntity
  8
attrib
100
AcDbText
 10
111.0
 20
24.5
 30
0.0
 40
0.5
  1
con_fuses_3pole_asmtpl.prj},{AAO677=Wöhner},{MANUFACTURER_URL=www.woehner.de},{AAQ326=www.woehner.de/de/produkte/33500.html },{AAO676=33500},{TC=QCS-NH00},{CTN=85361090},{MASS=2,190},{AAU731=QUADRON®60Classic Speed},{DESCRIPTION_LONG=switch disconnector w
100
AcDbAttributeDefinition
  3

  2
PSOL_3
 70
     9
280
     0
  0
ATTDEF
  5
73
330
1F
100
AcDbEntity
  8
attrib
100
AcDbText
 10
111.0
 20
24.0
 30
0.0
 40
0.5
  1
ith fuses, 3-pole, box terminal, connection bottom, size 00},{DESCRIPTION_SHORT=switch disconnector with fuses, 3-pole},{BAH005=690},{AAF726=125},{AAB821=125},{AAT080=3}
100
AcDbAttributeDefinition
  3

  2
PSOL_4
 70
     9
280
     0
  0
INSERT
  5
75
330
1F
100
AcDbEntity
  8
0
100
AcDbBlockReference
  2
1_77067000_0_in_33500_0
 10
0.0
 20
0.0
 30
0.0
  0
INSERT
  5
BF
330
1F
100
AcDbEntity
  8
0
100
AcDbBlockReference
  2
2_30664000_0_in_33500_0
 10
0.0
 20
0.0
 30
0.0
  0
INSERT
  5
10F
330
1F
100
AcDbEntity
  8
0
100
AcDbBlockReference
  2
3_30898000_0_in_33500_0
 10
0.0
 20
0.0
 30
0.0
  0
INSERT
  5
144
330
1F
100
AcDbEntity
  8
0
100
AcDbBlockReference
  2
4_77052000_77055000_0_in_33500_0
 10
0.0
 20
0.0
 30
0.0
  0
INSERT
  5
231
330
1F
100
AcDbEntity
  8
0
100
AcDbBlockReference
  2
5_7706400041_0_in_33500_0
 10
0.0
 20
0.0
 30
0.0
  0
DIMENSION
  5
2D0
330
1F
100
AcDbEntity
  8
dimension
100
AcDbDimension
280
     0
  2
*D6
 10
106.0
 20
-191.0
 30
0.0
 11
53.0
 21
-191.0
 31
0.0
 70
   160
  1
106
 71
     5
 42
106.0
 73
     0
 74
     0
 75
     0
  3
ISO-25
100
AcDbAlignedDimension
 13
0.0
 23
-166.0
 33
0.0
 14
106.0
 24
-166.0
 34
0.0
100
AcDbRotatedDimension
1001
ACAD
1000
DSTYLE
1002
{
1070
   147
1040
1.5
1070
    42
1040
0.0
1070
    44
1040
0.0
1070
    41
1040
5.0
1070
   140
1040
5.0
1002
}
  0
POINT
  5
2DF
330
1F
100
AcDbEntity
  8
connection
100
AcDbPoint
 10
20.0
 20
-1.0
 30
0.0
  0
POINT
  5
2E0
330
1F
100
AcDbEntity
  8
connection
100
AcDbPoint
 10
53.0
 20
-61.0
 30
0.0
  0
POINT
  5
2E1
330
1F
100
AcDbEntity
  8
connection
100
AcDbPoint
 10
86.0
 20
-121.0
 30
0.0
  0
POINT
  5
2E2
330
1F
100
AcDbEntity
  8
connection
100
AcDbPoint
 10
86.0
 20
-127.5
 30
0.0
  0
POINT
  5
2E3
330
1F
100
AcDbEntity
  8
connection
100
AcDbPoint
 10
53.0
 20
-127.5
 30
0.0
  0
POINT
  5
2E4
330
1F
100
AcDbEntity
  8
connection
100
AcDbPoint
 10
20.0
 20
-127.5
 30
0.0
  0
POINT
  5
2E5
330
1F
100
AcDbEntity
  8
connection
100
AcDbPoint
 10
0.0
 20
0.0
 30
0.0
  0
POINT
  5
2E6
330
1F
100
AcDbEntity
  8
connection
100
AcDbPoint
 10
53.0
 20
16.0
 30
0.0
  0
POINT
  5
2E7
330
1F
100
AcDbEntity
  8
connection
100
AcDbPoint
 10
53.0
 20
34.0
 30
0.0
  0
POINT
  5
2E8
330
1F
100
AcDbEntity
  8
connection
100
AcDbPoint
 10
0.0
 20
-68.0
 30
0.0
  0
POINT
  5
2E9
330
1F
100
AcDbEntity
  8
connection
100
AcDbPoint
 10
0.0
 20
-166.0
 30
0.0
  0
POINT
  5
2EA
330
1F
100
AcDbEntity
  8
connection
100
AcDbPoint
 10
53.0
 20
-28.51581503615117
 30
0.0
  0
POINT
  5
2EB
330
1F
100
AcDbEntity
  8
connection
100
AcDbPoint
 10
53.0
 20
-155.9843
 30
0.0
  0
POINT
  5
2EC
330
1F
100
AcDbEntity
  8
connection
100
AcDbPoint
 10
53.0
 20
-28.51581503615117
 30
0.0
  0
POINT
  5
2ED
330
1F
100
AcDbEntity
  8
connection
100
AcDbPoint
 10
50.5
 20
-139.2433490253978
 30
0.0
  0
POINT
  5
2EE
330
1F
100
AcDbEntity
  8
connection
100
AcDbPoint
 10
53.0
 20
-48.82634095790456
 30
0.0
  0
POINT
  5
2EF
330
1F
100
AcDbEntity
  8
connection
100
AcDbPoint
 10
18.57
 20
2.140000000000001
 30
0.0
  0
POINT
  5
2F0
330
1F
100
AcDbEntity
  8
connection
100
AcDbPoint
 10
57.0
 20
-140.62
 30
0.0
  0
POINT
  5
2F1
330
1F
100
AcDbEntity
  8
connection
100
AcDbPoint
 10
53.0
 20
-60.0
 30
0.0
  0
POINT
  5
2F2
330
1F
100
AcDbEntity
  8
connection
100
AcDbPoint
 10
87.43
 20
-120.0
 30
0.0
  0
POINT
  5
2F3
330
1F
100
AcDbEntity
  8
connection
100
AcDbPoint
 10
20.0
 20
-33.45999999999999
 30
0.0
  0
POINT
  5
2F4
330
1F
100
AcDbEntity
  8
connection
100
AcDbPoint
 10
53.0
 20
-33.45999999999999
 30
0.0
  0
POINT
  5
2F5
330
1F
100
AcDbEntity
  8
connection
100
AcDbPoint
 10
86.0
 20
-33.45999999999999
 30
0.0
  0
POINT
  5
2F6
330
1F
100
AcDbEntity
  8
connection
100
AcDbPoint
 10
61.5
 20
-140.62
 30
0.0
  0
POINT
  5
2F7
330
1F
100
AcDbEntity
  8
connection
100
AcDbPoint
 10
60.0
 20
-140.62
 30
0.0
  0
POINT
  5
2F8
330
1F
100
AcDbEntity
  8
connection
100
AcDbPoint
 10
58.5
 20
-140.62
 30
0.0
  0
POINT
  5
2F9
330
1F
100
AcDbEntity
  8
connection
100
AcDbPoint
 10
0.0
 20
0.0
 30
0.0
  0
POINT
  5
2FA
330
1F
100
AcDbEntity
  8
connection
100
AcDbPoint
 10
53.0
 20
34.0
 30
0.0
  0
POINT
  5
2FB
330
1F
100
AcDbEntity
  8
connection
100
AcDbPoint
 10
0.0
 20
-66.0
 30
0.0
  0
POINT
  5
2FC
330
1F
100
AcDbEntity
  8
connection
100
AcDbPoint
 10
0.0
 20
-204.0
 30
0.0
  0
POINT
  5
2FD
330
1F
100
AcDbEntity
  8
connection
100
AcDbPoint
 10
53.0
 20
31.0
 30
0.0
  0
POINT
  5
2FE
330
1F
100
AcDbEntity
  8
connection
100
AcDbPoint
 10
53.0
 20
34.0
 30
0.0
  0
POINT
  5
2FF
330
1F
100
AcDbEntity
  8
connection
100
AcDbPoint
 10
53.0
 20
-155.9843
 30
0.0
  0
POINT
  5
300
330
1F
100
AcDbEntity
  8
connection
100
AcDbPoint
 10
74.0
 20
-10.0
 30
0.0
  0
ENDSEC
  0
SECTION
  2
OBJECTS
  0
DICTIONARY
  5
C
330
0
100
AcDbDictionary
281
     1
  3
ACAD_DETAILVIEWSTYLE
350
308
  3
ACAD_GROUP
350
D
  3
ACAD_LAYOUT
350
1A
  3
ACAD_MATERIAL
350
43
  3
ACAD_MLEADERSTYLE
350
5B
  3
ACAD_MLINESTYLE
350
17
  3
ACAD_PLOTSETTINGS
350
19
  3
ACAD_PLOTSTYLENAME
350
E
  3
ACAD_SCALELIST
350
47
  3
ACAD_SECTIONVIEWSTYLE
350
309
  3
ACAD_TABLESTYLE
350
59
  3
ACAD_VISUALSTYLE
350
2A
  3
ACDB_RECOMPOSE_DATA
350
305
  3
AcDbVariableDictionary
350
301
  0
SUN
  5
5D
330
29
100
AcDbSun
 90
        1
290
     0
 63
     7
421
 16777215
 40
1.0
291
     1
 91
  2455826
 92
 54000000
292
     0
 70
     2
 71
   256
280
     1
  0
DICTIONARY
  5
308
102
{ACAD_REACTORS
330
C
102
}
330
C
100
AcDbDictionary
281
     1
  0
DICTIONARY
  5
D
102
{ACAD_REACTORS
330
C
102
}
330
C
100
AcDbDictionary
281
     1
  0
DICTIONARY
  5
1A
102
{ACAD_REACTORS
330
C
102
}
330
C
100
AcDbDictionary
281
     1
  3
Layout1
350
1E
  3
Layout2
350
26
  3
Model
350
22
  0
DICTIONARY
  5
43
102
{ACAD_REACTORS
330
C
102
}
330
C
100
AcDbDictionary
281
     1
  3
ByBlock
350
45
  3
ByLayer
350
44
  3
Global
350
46
  0
DICTIONARY
  5
5B
102
{ACAD_REACTORS
330
C
102
}
330
C
100
AcDbDictionary
281
     1
  3
Standard
350
5C
  0
DICTIONARY
  5
17
102
{ACAD_REACTORS
330
C
102
}
330
C
100
AcDbDictionary
281
     1
  3
Standard
350
18
  0
DICTIONARY
  5
19
102
{ACAD_REACTORS
330
C
102
}
330
C
100
AcDbDictionary
281
     1
  0
ACDBDICTIONARYWDFLT
  5
E
102
{ACAD_REACTORS
330
C
102
}
330
C
100
AcDbDictionary
281
     1
  3
Normal
350
F
100
AcDbDictionaryWithDefault
340
F
  0
DICTIONARY
  5
47
102
{ACAD_REACTORS
330
C
102
}
330
C
100
AcDbDictionary
281
     1
  3
A0
350
48
  3
A1
350
49
  3
A2
350
4A
  3
A3
350
4B
  3
A4
350
4C
  3
A5
350
4D
  3
A6
350
4E
  3
A7
350
4F
  3
A8
350
50
  3
A9
350
51
  3
B0
350
52
  3
B1
350
53
  3
B2
350
54
  3
B3
350
55
  3
B4
350
56
  3
B5
350
57
  3
B6
350
58
  0
DICTIONARY
  5
309
102
{ACAD_REACTORS
330
C
102
}
330
C
100
AcDbDictionary
281
     1
  0
DICTIONARY
  5
59
102
{ACAD_REACTORS
330
C
102
}
330
C
100
AcDbDictionary
281
     1
  3
Standard
350
5A
  0
DICTIONARY
  5
2A
102
{ACAD_REACTORS
330
C
102
}
330
C
100
AcDbDictionary
281
     1
  3
2dWireframe
350
2F
  3
Basic
350
32
  3
Brighten
350
36
  3
ColorChange
350
3A
  3
Conceptual
350
34
  3
Dim
350
35
  3
EdgeColorOff
350
3D
  3
Facepattern
350
39
  3
Flat
350
2B
  3
FlatWithEdges
350
2C
  3
Gouraud
350
2D
  3
GouraudWithEdges
350
2E
  3
Hidden
350
31
  3
JitterOff
350
3B
  3
Linepattern
350
38
  3
OverhangOff
350
3C
  3
Realistic
350
33
  3
Shaded
350
42
  3
Shaded with edges
350
41
  3
Shades of Gray
350
3E
  3
Sketchy
350
3F
  3
Thicken
350
37
  3
Wireframe
350
30
  3
X-Ray
350
40
  0
XRECORD
  5
305
102
{ACAD_REACTORS
330
C
102
}
330
C
100
AcDbXrecord
280
     1
 90
        1
330
5A
  0
DICTIONARY
  5
301
102
{ACAD_REACTORS
330
C
102
}
330
C
100
AcDbDictionary
281
     1
  3
CANNOSCALE
350
302
  3
CENTEREXE
350
30A
  3
CENTERLTYPEFILE
350
30B
  3
CMLEADERSTYLE
350
307
  3
CTABLESTYLE
350
306
  0
LAYOUT
  5
1E
102
{ACAD_REACTORS
330
1A
102
}
330
1A
100
AcDbPlotSettings
  1

  2
none_device
  4

  6

 40
0.0
 41
0.0
 42
0.0
 43
0.0
 44
0.0
 45
0.0
 46
0.0
 47
0.0
 48
0.0
 49
0.0
140
0.0
141
0.0
142
1.0
143
1.0
 70
   688
 72
     1
 73
     0
 74
     5
  7

 75
    16
 76
     0
 77
     2
 78
   300
147
1.0
148
0.0
149
0.0
100
AcDbLayout
  1
Layout1
 70
     1
 71
     1
 10
0.0
 20
0.0
 11
420.0
 21
297.0
 12
0.0
 22
0.0
 32
0.0
 14
1.000000000000000E+20
 24
1.000000000000000E+20
 34
1.000000000000000E+20
 15
-1.000000000000000E+20
 25
-1.000000000000000E+20
 35
-1.000000000000000E+20
146
0.0
 13
0.0
 23
0.0
 33
0.0
 16
1.0
 26
0.0
 36
0.0
 17
0.0
 27
1.0
 37
0.0
 76
     0
330
1B
  0
LAYOUT
  5
26
102
{ACAD_REACTORS
330
1A
102
}
330
1A
100
AcDbPlotSettings
  1

  2
none_device
  4

  6

 40
0.0
 41
0.0
 42
0.0
 43
0.0
 44
0.0
 45
0.0
 46
0.0
 47
0.0
 48
0.0
 49
0.0
140
0.0
141
0.0
142
1.0
143
1.0
 70
   688
 72
     1
 73
     0
 74
     5
  7

 75
    16
 76
     0
 77
     2
 78
   300
147
1.0
148
0.0
149
0.0
100
AcDbLayout
  1
Layout2
 70
     1
 71
     2
 10
0.0
 20
0.0
 11
0.0
 21
0.0
 12
0.0
 22
0.0
 32
0.0
 14
0.0
 24
0.0
 34
0.0
 15
0.0
 25
0.0
 35
0.0
146
0.0
 13
0.0
 23
0.0
 33
0.0
 16
1.0
 26
0.0
 36
0.0
 17
0.0
 27
1.0
 37
0.0
 76
     0
330
23
  0
LAYOUT
  5
22
102
{ACAD_REACTORS
330
1A
102
}
330
1A
100
AcDbPlotSettings
  1

  2
none_device
  4
Letter_(8.50_x_11.00_Inches)
  6

 40
6.35
 41
6.35
 42
6.35000508
 43
6.35000508
 44
215.9
 45
279.4
 46
0.0
 47
0.0
 48
0.0
 49
0.0
140
0.0
141
0.0
142
1.0
143
1.0
 70
  1712
 72
     1
 73
     0
 74
     0
  7

 75
     0
 76
     0
 77
     2
 78
   300
147
1.0
148
0.0
149
0.0
100
AcDbLayout
  1
Model
 70
     1
 71
     0
 10
0.0
 20
0.0
 11
420.0
 21
297.0
 12
0.0
 22
0.0
 32
0.0
 14
0.0
 24
-204.0
 34
0.0
 15
114.4523809523809
 25
34.5
 35
0.0
146
0.0
 13
0.0
 23
0.0
 33
0.0
 16
1.0
 26
0.0
 36
0.0
 17
0.0
 27
1.0
 37
0.0
 76
     0
330
1F
331
29
  0
MATERIAL
  5
45
102
{ACAD_REACTORS
330
43
102
}
330
43
100
AcDbMaterial
  1
ByBlock
 72
     1
 94
      127
  0
MATERIAL
  5
44
102
{ACAD_REACTORS
330
43
102
}
330
43
100
AcDbMaterial
  1
ByLayer
 72
     1
 94
      127
  0
MATERIAL
  5
46
102
{ACAD_REACTORS
330
43
102
}
330
43
100
AcDbMaterial
  1
Global
 72
     1
 94
      127
  0
MLEADERSTYLE
  5
5C
102
{ACAD_REACTORS
330
5B
102
}
330
5B
100
AcDbMLeaderStyle
179
     2
170
     2
171
     1
172
     0
 90
        2
 40
0.0
 41
0.0
173
     1
 91
-1056964608
340
14
 92
       -2
290
     1
 42
2.0
291
     1
 43
8.0
  3
Standard
341
0
 44
4.0
300

342
11
174
     1
178
     6
175
     1
176
     0
 93
-1056964608
 45
4.0
292
     0
297
     0
 46
4.0
343
0
 94
-1056964608
 47
1.0
 49
1.0
140
1.0
293
     1
141
0.0
294
     1
177
     0
142
1.0
295
     0
296
     0
143
3.75
271
     0
272
     9
273
     9
298
     0
  0
MLINESTYLE
  5
18
102
{ACAD_REACTORS
330
17
102
}
330
17
100
AcDbMlineStyle
  2
Standard
 70
     0
  3

 62
   256
 51
90.0
 52
90.0
 71
     2
 49
0.5
 62
   256
  6
BYLAYER
 49
-0.5
 62
   256
  6
BYLAYER
  0
ACDBPLACEHOLDER
  5
F
102
{ACAD_REACTORS
330
E
102
}
330
E
  0
SCALE
  5
48
102
{ACAD_REACTORS
330
47
102
}
330
47
100
AcDbScale
 70
     0
300
1:1
140
1.0
141
1.0
290
     1
  0
SCALE
  5
49
102
{ACAD_REACTORS
330
47
102
}
330
47
100
AcDbScale
 70
     0
300
1:2
140
1.0
141
2.0
290
     0
  0
SCALE
  5
4A
102
{ACAD_REACTORS
330
47
102
}
330
47
100
AcDbScale
 70
     0
300
1:4
140
1.0
141
4.0
290
     0
  0
SCALE
  5
4B
102
{ACAD_REACTORS
330
47
102
}
330
47
100
AcDbScale
 70
     0
300
1:5
140
1.0
141
5.0
290
     0
  0
SCALE
  5
4C
102
{ACAD_REACTORS
330
47
102
}
330
47
100
AcDbScale
 70
     0
300
1:8
140
1.0
141
8.0
290
     0
  0
SCALE
  5
4D
102
{ACAD_REACTORS
330
47
102
}
330
47
100
AcDbScale
 70
     0
300
1:10
140
1.0
141
10.0
290
     0
  0
SCALE
  5
4E
102
{ACAD_REACTORS
330
47
102
}
330
47
100
AcDbScale
 70
     0
300
1:16
140
1.0
141
16.0
290
     0
  0
SCALE
  5
4F
102
{ACAD_REACTORS
330
47
102
}
330
47
100
AcDbScale
 70
     0
300
1:20
140
1.0
141
20.0
290
     0
  0
SCALE
  5
50
102
{ACAD_REACTORS
330
47
102
}
330
47
100
AcDbScale
 70
     0
300
1:30
140
1.0
141
30.0
290
     0
  0
SCALE
  5
51
102
{ACAD_REACTORS
330
47
102
}
330
47
100
AcDbScale
 70
     0
300
1:40
140
1.0
141
40.0
290
     0
  0
SCALE
  5
52
102
{ACAD_REACTORS
330
47
102
}
330
47
100
AcDbScale
 70
     0
300
1:50
140
1.0
141
50.0
290
     0
  0
SCALE
  5
53
102
{ACAD_REACTORS
330
47
102
}
330
47
100
AcDbScale
 70
     0
300
1:100
140
1.0
141
100.0
290
     0
  0
SCALE
  5
54
102
{ACAD_REACTORS
330
47
102
}
330
47
100
AcDbScale
 70
     0
300
2:1
140
2.0
141
1.0
290
     0
  0
SCALE
  5
55
102
{ACAD_REACTORS
330
47
102
}
330
47
100
AcDbScale
 70
     0
300
4:1
140
4.0
141
1.0
290
     0
  0
SCALE
  5
56
102
{ACAD_REACTORS
330
47
102
}
330
47
100
AcDbScale
 70
     0
300
8:1
140
8.0
141
1.0
290
     0
  0
SCALE
  5
57
102
{ACAD_REACTORS
330
47
102
}
330
47
100
AcDbScale
 70
     0
300
10:1
140
10.0
141
1.0
290
     0
  0
SCALE
  5
58
102
{ACAD_REACTORS
330
47
102
}
330
47
100
AcDbScale
 70
     0
300
100:1
140
100.0
141
1.0
290
     0
  0
TABLESTYLE
  5
5A
102
{ACAD_REACTORS
330
59
102
}
102
{ACAD_XDICTIONARY
360
303
102
}
330
59
100
AcDbTableStyle
  3
Standard
 70
     0
 71
     0
 40
0.06
 41
0.06
280
     0
281
     0
  7
Standard
140
4.5
170
     2
 62
     0
 63
   257
283
     0
 90
        4
 91
        0
  1

274
    -2
284
     1
 64
     0
275
    -2
285
     1
 65
     0
276
    -2
286
     1
 66
     0
277
    -2
287
     1
 67
     0
278
    -2
288
     1
 68
     0
279
    -2
289
     1
 69
     0
  7
Standard
140
6.0
170
     5
 62
     0
 63
   257
283
     0
 90
        4
 91
        0
  1

274
    -2
284
     1
 64
     0
275
    -2
285
     1
 65
     0
276
    -2
286
     1
 66
     0
277
    -2
287
     1
 67
     0
278
    -2
288
     1
 68
     0
279
    -2
289
     1
 69
     0
  7
Standard
140
4.5
170
     5
 62
     0
 63
   257
283
     0
 90
        4
 91
        0
  1

274
    -2
284
     1
 64
     0
275
    -2
285
     1
 65
     0
276
    -2
286
     1
 66
     0
277
    -2
287
     1
 67
     0
278
    -2
288
     1
 68
     0
279
    -2
289
     1
 69
     0
  0
VISUALSTYLE
  5
2F
102
{ACAD_REACTORS
330
2A
102
}
330
2A
100
AcDbVisualStyle
  2
2dWireframe
 70
     4
177
     3
291
     0
 70
    58
 90
        0
176
     1
 90
        2
176
     1
 90
        0
176
     1
 90
        0
176
     1
 40
0.6
176
     1
 40
30.0
176
     1
 62
     7
420
 16777215
176
     1
 90
        1
176
     1
 90
        4
176
     1
 62
     7
176
     1
 62
   257
176
     1
 90
        1
176
     1
 90
        1
176
     1
 40
1.0
176
     1
 90
        0
176
     1
 62
   257
176
     1
 40
1.0
176
     1
 90
        1
176
     1
 90
        6
176
     1
 90
        2
176
     1
 62
     7
176
     1
 90
        5
176
     1
 90
        0
176
     1
 90
        0
176
     1
290
     0
176
     1
 90
        1
176
     1
 40
0.0
176
     1
 90
        0
176
     1
290
     1
176
     1
290
     1
176
     1
290
     0
176
     1
290
     0
176
     1
290
     0
176
     1
290
     0
176
     1
290
     0
176
     1
290
     0
176
     1
290
     0
176
     1
 90
       50
176
     1
 40
0.0
176
     1
 40
1.0
176
     1
 90
        0
176
     1
 62
    18
420
        0
176
     1
 90
       50
176
     1
 90
        3
176
     1
 62
     5
420
      255
176
     1
290
     0
176
     1
 90
       50
176
     1
 90
       50
176
     1
 90
       50
176
     1
290
     0
176
     1
 90
       50
176
     1
 62
   256
176
     0
 40
1.0
176
     0
 90
        2
176
     1
  1
strokes_ogs.tif
176
     1
290
     0
176
     1
 40
1.0
176
     1
 40
1.0
176
     1
  0
VISUALSTYLE
  5
32
102
{ACAD_REACTORS
330
2A
102
}
330
2A
100
AcDbVisualStyle
  2
Basic
 70
     7
177
     3
291
     1
 70
    58
 90
        1
176
     1
 90
        0
176
     1
 90
        1
176
     1
 90
        0
176
     1
 40
0.6
176
     1
 40
30.0
176
     1
 62
     7
420
 16777215
176
     1
 90
        0
176
     1
 90
        4
176
     1
 62
     7
176
     1
 62
   257
176
     1
 90
        1
176
     1
 90
        1
176
     1
 40
1.0
176
     1
 90
        8
176
     1
 62
     7
176
     1
 40
1.0
176
     1
 90
        1
176
     1
 90
        6
176
     1
 90
        2
176
     1
 62
     7
176
     1
 90
        5
176
     1
 90
        0
176
     1
 90
        0
176
     1
290
     0
176
     1
 90
        1
176
     1
 40
0.0
176
     1
 90
        0
176
     1
290
     0
176
     1
290
     1
176
     1
290
     1
176
     1
290
     0
176
     1
290
     0
176
     1
290
     0
176
     1
290
     0
176
     1
290
     0
176
     1
290
     0
176
     1
 90
       50
176
     1
 40
0.0
176
     1
 40
1.0
176
     1
 90
        0
176
     1
 62
    18
420
        0
176
     1
 90
       50
176
     1
 90
        3
176
     1
 62
     5
420
      255
176
     1
290
     0
176
     1
 90
       50
176
     1
 90
       50
176
     1
 90
       50
176
     1
290
     0
176
     1
 90
       50
176
     1
 62
   256
176
     0
 40
1.0
176
     0
 90
        2
176
     1
  1
strokes_ogs.tif
176
     1
290
     0
176
     1
 40
1.0
176
     1
 40
1.0
176
     1
  0
VISUALSTYLE
  5
36
102
{ACAD_REACTORS
330
2A
102
}
330
2A
100
AcDbVisualStyle
  2
Brighten
 70
    12
177
     3
291
     1
 70
    58
 90
        2
176
     1
 90
        2
176
     1
 90
        0
176
     1
 90
        0
176
     1
 40
0.6
176
     1
 40
30.0
176
     1
 62
     7
420
 16777215
176
     1
 90
        1
176
     1
 90
        4
176
     1
 62
     7
176
     1
 62
   257
176
     1
 90
        1
176
     1
 90
        1
176
     1
 40
1.0
176
     1
 90
        8
176
     1
 62
     7
176
     1
 40
1.0
176
     1
 90
        1
176
     1
 90
        6
176
     1
 90
        2
176
     1
 62
     7
176
     1
 90
        5
176
     1
 90
        0
176
     1
 90
        0
176
     1
290
     0
176
     1
 90
        1
176
     1
 40
50.0
176
     1
 90
        0
176
     1
290
     0
176
     1
290
     1
176
     1
290
     1
176
     1
290
     0
176
     1
290
     0
176
     1
290
     0
176
     1
290
     0
176
     1
290
     0
176
     1
290
     0
176
     1
 90
       50
176
     1
 40
0.0
176
     1
 40
1.0
176
     1
 90
        0
176
     1
 62
    18
420
        0
176
     1
 90
       50
176
     1
 90
        3
176
     1
 62
     5
420
      255
176
     1
290
     0
176
     1
 90
       50
176
     1
 90
       50
176
     1
 90
       50
176
     1
290
     0
176
     1
 90
       50
176
     1
 62
   256
176
     0
 40
1.0
176
     0
 90
        2
176
     1
  1
strokes_ogs.tif
176
     1
290
     0
176
     1
 40
1.0
176
     1
 40
1.0
176
     1
  0
VISUALSTYLE
  5
3A
102
{ACAD_REACTORS
330
2A
102
}
330
2A
100
AcDbVisualStyle
  2
ColorChange
 70
    16
177
     3
291
     1
 70
    58
 90
        2
176
     1
 90
        2
176
     1
 90
        3
176
     1
 90
        0
176
     1
 40
0.6
176
     1
 40
30.0
176
     1
 62
     8
420
  8421504
176
     1
 90
        1
176
     1
 90
        4
176
     1
 62
     7
176
     1
 62
   257
176
     1
 90
        1
176
     1
 90
        1
176
     1
 40
1.0
176
     1
 90
        8
176
     1
 62
     8
420
  8421504
176
     1
 40
1.0
176
     1
 90
        1
176
     1
 90
        6
176
     1
 90
        2
176
     1
 62
     7
176
     1
 90
        5
176
     1
 90
        0
176
     1
 90
        0
176
     1
290
     0
176
     1
 90
        1
176
     1
 40
0.0
176
     1
 90
        0
176
     1
290
     0
176
     1
290
     1
176
     1
290
     1
176
     1
290
     0
176
     1
290
     0
176
     1
290
     0
176
     1
290
     0
176
     1
290
     0
176
     1
290
     0
176
     1
 90
       50
176
     1
 40
0.0
176
     1
 40
1.0
176
     1
 90
        0
176
     1
 62
    18
420
        0
176
     1
 90
       50
176
     1
 90
        3
176
     1
 62
     5
420
      255
176
     1
290
     0
176
     1
 90
       50
176
     1
 90
       50
176
     1
 90
       50
176
     1
290
     0
176
     1
 90
       50
176
     1
 62
   256
176
     0
 40
1.0
176
     0
 90
        2
176
     1
  1
strokes_ogs.tif
176
     1
290
     0
176
     1
 40
1.0
176
     1
 40
1.0
176
     1
  0
VISUALSTYLE
  5
34
102
{ACAD_REACTORS
330
2A
102
}
330
2A
100
AcDbVisualStyle
  2
Conceptual
 70
     9
177
     3
291
     0
 70
    58
 90
        3
176
     1
 90
        2
176
     1
 90
        0
176
     1
 90
        0
176
     1
 40
0.6
176
     1
 40
30.0
176
     1
 62
     7
420
 16777215
176
     1
 90
        2
176
     1
 90
        2
176
     1
 62
     7
176
     1
 62
   257
176
     1
 90
        1
176
     1
 90
        1
176
     1
 40
179.0
176
     1
 90
        8
176
     1
 62
     7
176
     1
 40
1.0
176
     1
 90
        1
176
     1
 90
        6
176
     1
 90
        2
176
     1
 62
     7
176
     1
 90
        3
176
     1
 90
        0
176
     1
 90
        0
176
     1
290
     0
176
     1
 90
        1
176
     1
 40
0.0
176
     1
 90
        0
176
     1
290
     0
176
     1
290
     1
176
     1
290
     1
176
     1
290
     0
176
     1
290
     0
176
     1
290
     0
176
     1
290
     0
176
     1
290
     0
176
     1
290
     0
176
     1
 90
       50
176
     1
 40
0.0
176
     1
 40
1.0
176
     1
 90
        0
176
     1
 62
    18
420
        0
176
     1
 90
       50
176
     1
 90
        3
176
     1
 62
     5
420
      255
176
     1
290
     0
176
     1
 90
       50
176
     1
 90
       50
176
     1
 90
       50
176
     1
290
     0
176
     1
 90
       50
176
     1
 62
   256
176
     0
 40
1.0
176
     0
 90
        2
176
     1
  1
strokes_ogs.tif
176
     1
290
     0
176
     1
 40
1.0
176
     1
 40
1.0
176
     1
  0
VISUALSTYLE
  5
35
102
{ACAD_REACTORS
330
2A
102
}
330
2A
100
AcDbVisualStyle
  2
Dim
 70
    11
177
     3
291
     1
 70
    58
 90
        2
176
     1
 90
        2
176
     1
 90
        0
176
     1
 90
        0
176
     1
 40
0.6
176
     1
 40
30.0
176
     1
 62
     7
420
 16777215
176
     1
 90
        1
176
     1
 90
        4
176
     1
 62
     7
176
     1
 62
   257
176
     1
 90
        1
176
     1
 90
        1
176
     1
 40
1.0
176
     1
 90
        8
176
     1
 62
     7
176
     1
 40
1.0
176
     1
 90
        1
176
     1
 90
        6
176
     1
 90
        2
176
     1
 62
     7
176
     1
 90
        5
176
     1
 90
        0
176
     1
 90
        0
176
     1
290
     0
176
     1
 90
        1
176
     1
 40
-50.0
176
     1
 90
        0
176
     1
290
     0
176
     1
290
     1
176
     1
290
     1
176
     1
290
     0
176
     1
290
     0
176
     1
290
     0
176
     1
290
     0
176
     1
290
     0
176
     1
290
     0
176
     1
 90
       50
176
     1
 40
0.0
176
     1
 40
1.0
176
     1
 90
        0
176
     1
 62
    18
420
        0
176
     1
 90
       50
176
     1
 90
        3
176
     1
 62
     5
420
      255
176
     1
290
     0
176
     1
 90
       50
176
     1
 90
       50
176
     1
 90
       50
176
     1
290
     0
176
     1
 90
       50
176
     1
 62
   256
176
     0
 40
1.0
176
     0
 90
        2
176
     1
  1
strokes_ogs.tif
176
     1
290
     0
176
     1
 40
1.0
176
     1
 40
1.0
176
     1
  0
VISUALSTYLE
  5
3D
102
{ACAD_REACTORS
330
2A
102
}
330
2A
100
AcDbVisualStyle
  2
EdgeColorOff
 70
    22
177
     3
291
     1
 70
    58
 90
        2
176
     0
 90
        2
176
     0
 90
        0
176
     0
 90
        0
176
     0
 40
0.6
176
     0
 40
30.0
176
     0
 62
     7
420
 16777215
176
     0
 90
        1
176
     0
 90
        4
176
     0
 62
     7
176
     0
 62
   257
176
     0
 90
        1
176
     0
 90
        1
176
     0
 40
1.0
176
     0
 90
        8
176
     2
 62
     7
176
     0
 40
1.0
176
     0
 90
        1
176
     0
 90
        6
176
     0
 90
        2
176
     0
 62
     7
176
     0
 90
        5
176
     0
 90
        0
176
     0
 90
        0
176
     0
290
     0
176
     0
 90
        1
176
     0
 40
0.0
176
     0
 90
        0
176
     0
290
     0
176
     0
290
     1
176
     0
290
     1
176
     0
290
     0
176
     0
290
     0
176
     0
290
     0
176
     0
290
     0
176
     0
290
     0
176
     0
290
     0
176
     0
 90
       50
176
     0
 40
0.0
176
     0
 40
1.0
176
     0
 90
        0
176
     0
 62
    18
420
        0
176
     0
 90
       50
176
     0
 90
        3
176
     0
 62
     5
420
      255
176
     0
290
     0
176
     0
 90
       50
176
     0
 90
       50
176
     0
 90
       50
176
     0
290
     0
176
     0
 90
       50
176
     0
 62
   256
176
     0
 40
1.0
176
     0
 90
        2
176
     0
  1
strokes_ogs.tif
176
     0
290
     0
176
     0
 40
1.0
176
     0
 40
1.0
176
     0
  0
VISUALSTYLE
  5
39
102
{ACAD_REACTORS
330
2A
102
}
330
2A
100
AcDbVisualStyle
  2
Facepattern
 70
    15
177
     3
291
     1
 70
    58
 90
        2
176
     1
 90
        2
176
     1
 90
        0
176
     1
 90
        0
176
     1
 40
0.6
176
     1
 40
30.0
176
     1
 62
     7
420
 16777215
176
     1
 90
        1
176
     1
 90
        4
176
     1
 62
     7
176
     1
 62
   257
176
     1
 90
        1
176
     1
 90
        1
176
     1
 40
1.0
176
     1
 90
        8
176
     1
 62
     7
176
     1
 40
1.0
176
     1
 90
        1
176
     1
 90
        6
176
     1
 90
        2
176
     1
 62
     7
176
     1
 90
        5
176
     1
 90
        0
176
     1
 90
        0
176
     1
290
     0
176
     1
 90
        1
176
     1
 40
0.0
176
     1
 90
        0
176
     1
290
     0
176
     1
290
     1
176
     1
290
     1
176
     1
290
     0
176
     1
290
     0
176
     1
290
     0
176
     1
290
     0
176
     1
290
     0
176
     1
290
     0
176
     1
 90
       50
176
     1
 40
0.0
176
     1
 40
1.0
176
     1
 90
        0
176
     1
 62
    18
420
        0
176
     1
 90
       50
176
     1
 90
        3
176
     1
 62
     5
420
      255
176
     1
290
     0
176
     1
 90
       50
176
     1
 90
       50
176
     1
 90
       50
176
     1
290
     0
176
     1
 90
       50
176
     1
 62
   256
176
     0
 40
1.0
176
     0
 90
        2
176
     1
  1
strokes_ogs.tif
176
     1
290
     0
176
     1
 40
1.0
176
     1
 40
1.0
176
     1
  0
VISUALSTYLE
  5
2B
102
{ACAD_REACTORS
330
2A
102
}
330
2A
100
AcDbVisualStyle
  2
Flat
 70
     0
177
     3
291
     1
 70
    58
 90
        2
176
     1
 90
        1
176
     1
 90
        1
176
     1
 90
        2
176
     1
 40
0.6
176
     1
 40
30.0
176
     1
 62
     7
420
 16777215
176
     1
 90
        0
176
     1
 90
        0
176
     1
 62
     7
176
     1
 62
   257
176
     1
 90
        1
176
     1
 90
        1
176
     1
 40
1.0
176
     1
 90
        8
176
     1
 62
     7
176
     1
 40
1.0
176
     1
 90
        1
176
     1
 90
        6
176
     1
 90
        2
176
     1
 62
     7
176
     1
 90
        5
176
     1
 90
        0
176
     1
 90
        0
176
     1
290
     0
176
     1
 90
       13
176
     1
 40
0.0
176
     1
 90
        0
176
     1
290
     0
176
     1
290
     1
176
     1
290
     1
176
     1
290
     0
176
     1
290
     0
176
     1
290
     0
176
     1
290
     0
176
     1
290
     0
176
     1
290
     0
176
     1
 90
       50
176
     1
 40
0.0
176
     1
 40
1.0
176
     1
 90
        0
176
     1
 62
    18
420
        0
176
     1
 90
       50
176
     1
 90
        3
176
     1
 62
     5
420
      255
176
     1
290
     0
176
     1
 90
       50
176
     1
 90
       50
176
     1
 90
       50
176
     1
290
     0
176
     1
 90
       50
176
     1
 62
   256
176
     0
 40
1.0
176
     0
 90
        2
176
     1
  1
strokes_ogs.tif
176
     1
290
     0
176
     1
 40
1.0
176
     1
 40
1.0
176
     1
  0
VISUALSTYLE
  5
2C
102
{ACAD_REACTORS
330
2A
102
}
330
2A
100
AcDbVisualStyle
  2
FlatWithEdges
 70
     1
177
     3
291
     1
 70
    58
 90
        2
176
     1
 90
        1
176
     1
 90
        1
176
     1
 90
        2
176
     1
 40
0.6
176
     1
 40
30.0
176
     1
 62
     7
420
 16777215
176
     1
 90
        1
176
     1
 90
        0
176
     1
 62
     7
176
     1
 62
   257
176
     1
 90
        1
176
     1
 90
        1
176
     1
 40
1.0
176
     1
 90
        0
176
     1
 62
   257
176
     1
 40
1.0
176
     1
 90
        1
176
     1
 90
        6
176
     1
 90
        2
176
     1
 62
     7
176
     1
 90
        5
176
     1
 90
        0
176
     1
 90
        0
176
     1
290
     0
176
     1
 90
       13
176
     1
 40
0.0
176
     1
 90
        0
176
     1
290
     0
176
     1
290
     1
176
     1
290
     1
176
     1
290
     0
176
     1
290
     0
176
     1
290
     0
176
     1
290
     0
176
     1
290
     0
176
     1
290
     0
176
     1
 90
       50
176
     1
 40
0.0
176
     1
 40
1.0
176
     1
 90
        0
176
     1
 62
    18
420
        0
176
     1
 90
       50
176
     1
 90
        3
176
     1
 62
     5
420
      255
176
     1
290
     0
176
     1
 90
       50
176
     1
 90
       50
176
     1
 90
       50
176
     1
290
     0
176
     1
 90
       50
176
     1
 62
   256
176
     0
 40
1.0
176
     0
 90
        2
176
     1
  1
strokes_ogs.tif
176
     1
290
     0
176
     1
 40
1.0
176
     1
 40
1.0
176
     1
  0
VISUALSTYLE
  5
2D
102
{ACAD_REACTORS
330
2A
102
}
330
2A
100
AcDbVisualStyle
  2
Gouraud
 70
     2
177
     3
291
     1
 70
    58
 90
        2
176
     1
 90
        2
176
     1
 90
        1
176
     1
 90
        2
176
     1
 40
0.6
176
     1
 40
30.0
176
     1
 62
     7
420
 16777215
176
     1
 90
        0
176
     1
 90
        0
176
     1
 62
     7
176
     1
 62
   257
176
     1
 90
        1
176
     1
 90
        1
176
     1
 40
1.0
176
     1
 90
        0
176
     1
 62
     7
176
     1
 40
1.0
176
     1
 90
        1
176
     1
 90
        6
176
     1
 90
        2
176
     1
 62
     7
176
     1
 90
        5
176
     1
 90
        0
176
     1
 90
        0
176
     1
290
     0
176
     1
 90
       13
176
     1
 40
0.0
176
     1
 90
        0
176
     1
290
     0
176
     1
290
     1
176
     1
290
     1
176
     1
290
     0
176
     1
290
     0
176
     1
290
     0
176
     1
290
     0
176
     1
290
     0
176
     1
290
     0
176
     1
 90
       50
176
     1
 40
0.0
176
     1
 40
1.0
176
     1
 90
        0
176
     1
 62
    18
420
        0
176
     1
 90
       50
176
     1
 90
        3
176
     1
 62
     5
420
      255
176
     1
290
     0
176
     1
 90
       50
176
     1
 90
       50
176
     1
 90
       50
176
     1
290
     0
176
     1
 90
       50
176
     1
 62
   256
176
     0
 40
1.0
176
     0
 90
        2
176
     1
  1
strokes_ogs.tif
176
     1
290
     0
176
     1
 40
1.0
176
     1
 40
1.0
176
     1
  0
VISUALSTYLE
  5
2E
102
{ACAD_REACTORS
330
2A
102
}
330
2A
100
AcDbVisualStyle
  2
GouraudWithEdges
 70
     3
177
     3
291
     1
 70
    58
 90
        2
176
     1
 90
        2
176
     1
 90
        1
176
     1
 90
        2
176
     1
 40
0.6
176
     1
 40
30.0
176
     1
 62
     7
420
 16777215
176
     1
 90
        1
176
     1
 90
        0
176
     1
 62
     7
176
     1
 62
   257
176
     1
 90
        1
176
     1
 90
        1
176
     1
 40
1.0
176
     1
 90
        0
176
     1
 62
   257
176
     1
 40
1.0
176
     1
 90
        1
176
     1
 90
        6
176
     1
 90
        2
176
     1
 62
     7
176
     1
 90
        5
176
     1
 90
        0
176
     1
 90
        0
176
     1
290
     0
176
     1
 90
       13
176
     1
 40
0.0
176
     1
 90
        0
176
     1
290
     0
176
     1
290
     1
176
     1
290
     1
176
     1
290
     0
176
     1
290
     0
176
     1
290
     0
176
     1
290
     0
176
     1
290
     0
176
     1
290
     0
176
     1
 90
       50
176
     1
 40
0.0
176
     1
 40
1.0
176
     1
 90
        0
176
     1
 62
    18
420
        0
176
     1
 90
       50
176
     1
 90
        3
176
     1
 62
     5
420
      255
176
     1
290
     0
176
     1
 90
       50
176
     1
 90
       50
176
     1
 90
       50
176
     1
290
     0
176
     1
 90
       50
176
     1
 62
   256
176
     0
 40
1.0
176
     0
 90
        2
176
     1
  1
strokes_ogs.tif
176
     1
290
     0
176
     1
 40
1.0
176
     1
 40
1.0
176
     1
  0
VISUALSTYLE
  5
31
102
{ACAD_REACTORS
330
2A
102
}
330
2A
100
AcDbVisualStyle
  2
Hidden
 70
     6
177
     3
291
     0
 70
    58
 90
        1
176
     1
 90
        2
176
     1
 90
        2
176
     1
 90
        0
176
     1
 40
0.6
176
     1
 40
30.0
176
     1
 62
     7
420
 16777215
176
     1
 90
        2
176
     1
 90
        2
176
     1
 62
     7
176
     1
 62
   257
176
     1
 90
        2
176
     1
 90
        1
176
     1
 40
40.0
176
     1
 90
        0
176
     1
 62
   257
176
     1
 40
1.0
176
     1
 90
        1
176
     1
 90
        6
176
     1
 90
        2
176
     1
 62
     7
176
     1
 90
        3
176
     1
 90
        0
176
     1
 90
        0
176
     1
290
     0
176
     1
 90
        1
176
     1
 40
0.0
176
     1
 90
        0
176
     1
290
     0
176
     1
290
     1
176
     1
290
     1
176
     1
290
     0
176
     1
290
     0
176
     1
290
     0
176
     1
290
     0
176
     1
290
     0
176
     1
290
     0
176
     1
 90
       50
176
     1
 40
0.0
176
     1
 40
1.0
176
     1
 90
        0
176
     1
 62
    18
420
        0
176
     1
 90
       50
176
     1
 90
        3
176
     1
 62
     5
420
      255
176
     1
290
     0
176
     1
 90
       50
176
     1
 90
       50
176
     1
 90
       50
176
     1
290
     0
176
     1
 90
       50
176
     1
 62
   256
176
     0
 40
1.0
176
     0
 90
        2
176
     1
  1
strokes_ogs.tif
176
     1
290
     0
176
     1
 40
1.0
176
     1
 40
1.0
176
     1
  0
VISUALSTYLE
  5
3B
102
{ACAD_REACTORS
330
2A
102
}
330
2A
100
AcDbVisualStyle
  2
JitterOff
 70
    20
177
     3
291
     1
 70
    58
 90
        2
176
     0
 90
        2
176
     0
 90
        0
176
     0
 90
        0
176
     0
 40
0.6
176
     0
 40
30.0
176
     0
 62
     7
420
 16777215
176
     0
 90
        1
176
     0
 90
        4
176
     0
 62
     7
176
     0
 62
   257
176
     0
 90
        1
176
     0
 90
        1
176
     0
 40
1.0
176
     0
 90
       10
176
     2
 62
     7
176
     0
 40
1.0
176
     0
 90
        1
176
     0
 90
        6
176
     0
 90
        2
176
     0
 62
     7
176
     0
 90
        5
176
     0
 90
        0
176
     0
 90
        0
176
     0
290
     0
176
     0
 90
        1
176
     0
 40
0.0
176
     0
 90
        0
176
     0
290
     0
176
     0
290
     1
176
     0
290
     1
176
     0
290
     0
176
     0
290
     0
176
     0
290
     0
176
     0
290
     0
176
     0
290
     0
176
     0
290
     0
176
     0
 90
       50
176
     0
 40
0.0
176
     0
 40
1.0
176
     0
 90
        0
176
     0
 62
    18
420
        0
176
     0
 90
       50
176
     0
 90
        3
176
     0
 62
     5
420
      255
176
     0
290
     0
176
     0
 90
       50
176
     0
 90
       50
176
     0
 90
       50
176
     0
290
     0
176
     0
 90
       50
176
     0
 62
   256
176
     0
 40
1.0
176
     0
 90
        2
176
     0
  1
strokes_ogs.tif
176
     0
290
     0
176
     0
 40
1.0
176
     0
 40
1.0
176
     0
  0
VISUALSTYLE
  5
38
102
{ACAD_REACTORS
330
2A
102
}
330
2A
100
AcDbVisualStyle
  2
Linepattern
 70
    14
177
     3
291
     1
 70
    58
 90
        2
176
     1
 90
        2
176
     1
 90
        0
176
     1
 90
        0
176
     1
 40
0.6
176
     1
 40
30.0
176
     1
 62
     7
420
 16777215
176
     1
 90
        1
176
     1
 90
        4
176
     1
 62
     7
176
     1
 62
   257
176
     1
 90
        7
176
     1
 90
        7
176
     1
 40
1.0
176
     1
 90
        8
176
     1
 62
     7
176
     1
 40
1.0
176
     1
 90
        1
176
     1
 90
        6
176
     1
 90
        2
176
     1
 62
     7
176
     1
 90
        5
176
     1
 90
        0
176
     1
 90
        0
176
     1
290
     0
176
     1
 90
        1
176
     1
 40
0.0
176
     1
 90
        0
176
     1
290
     0
176
     1
290
     1
176
     1
290
     1
176
     1
290
     0
176
     1
290
     0
176
     1
290
     0
176
     1
290
     0
176
     1
290
     0
176
     1
290
     0
176
     1
 90
       50
176
     1
 40
0.0
176
     1
 40
1.0
176
     1
 90
        0
176
     1
 62
    18
420
        0
176
     1
 90
       50
176
     1
 90
        3
176
     1
 62
     5
420
      255
176
     1
290
     0
176
     1
 90
       50
176
     1
 90
       50
176
     1
 90
       50
176
     1
290
     0
176
     1
 90
       50
176
     1
 62
   256
176
     0
 40
1.0
176
     0
 90
        2
176
     1
  1
strokes_ogs.tif
176
     1
290
     0
176
     1
 40
1.0
176
     1
 40
1.0
176
     1
  0
VISUALSTYLE
  5
3C
102
{ACAD_REACTORS
330
2A
102
}
330
2A
100
AcDbVisualStyle
  2
OverhangOff
 70
    21
177
     3
291
     1
 70
    58
 90
        2
176
     0
 90
        2
176
     0
 90
        0
176
     0
 90
        0
176
     0
 40
0.6
176
     0
 40
30.0
176
     0
 62
     7
420
 16777215
176
     0
 90
        1
176
     0
 90
        4
176
     0
 62
     7
176
     0
 62
   257
176
     0
 90
        1
176
     0
 90
        1
176
     0
 40
1.0
176
     0
 90
        9
176
     2
 62
     7
176
     0
 40
1.0
176
     0
 90
        1
176
     0
 90
        6
176
     0
 90
        2
176
     0
 62
     7
176
     0
 90
        5
176
     0
 90
        0
176
     0
 90
        0
176
     0
290
     0
176
     0
 90
        1
176
     0
 40
0.0
176
     0
 90
        0
176
     0
290
     0
176
     0
290
     1
176
     0
290
     1
176
     0
290
     0
176
     0
290
     0
176
     0
290
     0
176
     0
290
     0
176
     0
290
     0
176
     0
290
     0
176
     0
 90
       50
176
     0
 40
0.0
176
     0
 40
1.0
176
     0
 90
        0
176
     0
 62
    18
420
        0
176
     0
 90
       50
176
     0
 90
        3
176
     0
 62
     5
420
      255
176
     0
290
     0
176
     0
 90
       50
176
     0
 90
       50
176
     0
 90
       50
176
     0
290
     0
176
     0
 90
       50
176
     0
 62
   256
176
     0
 40
1.0
176
     0
 90
        2
176
     0
  1
strokes_ogs.tif
176
     0
290
     0
176
     0
 40
1.0
176
     0
 40
1.0
176
     0
  0
VISUALSTYLE
  5
33
102
{ACAD_REACTORS
330
2A
102
}
330
2A
100
AcDbVisualStyle
  2
Realistic
 70
     8
177
     3
291
     0
 70
    58
 90
        2
176
     1
 90
        3
176
     1
 90
        0
176
     1
 90
        2
176
     1
 40
0.6
176
     1
 40
30.0
176
     1
 62
     7
420
 16777215
176
     1
 90
        0
176
     1
 90
        0
176
     1
 62
     7
176
     1
 62
   257
176
     1
 90
        1
176
     1
 90
        1
176
     1
 40
1.0
176
     1
 90
        8
176
     1
 62
   257
176
     1
 40
1.0
176
     1
 90
        1
176
     1
 90
        6
176
     1
 90
        2
176
     1
 62
     7
176
     1
 90
        3
176
     1
 90
        0
176
     1
 90
        0
176
     1
290
     0
176
     1
 90
       13
176
     1
 40
0.0
176
     1
 90
        0
176
     1
290
     0
176
     1
290
     1
176
     1
290
     1
176
     1
290
     0
176
     1
290
     0
176
     1
290
     0
176
     1
290
     0
176
     1
290
     0
176
     1
290
     0
176
     1
 90
       50
176
     1
 40
0.0
176
     1
 40
1.0
176
     1
 90
        0
176
     1
 62
    18
420
        0
176
     1
 90
       50
176
     1
 90
        3
176
     1
 62
     5
420
      255
176
     1
290
     0
176
     1
 90
       50
176
     1
 90
       50
176
     1
 90
       50
176
     1
290
     0
176
     1
 90
       50
176
     1
 62
   256
176
     0
 40
1.0
176
     0
 90
        2
176
     1
  1
strokes_ogs.tif
176
     1
290
     0
176
     1
 40
1.0
176
     1
 40
1.0
176
     1
  0
VISUALSTYLE
  5
42
102
{ACAD_REACTORS
330
2A
102
}
330
2A
100
AcDbVisualStyle
  2
Shaded
 70
    27
177
     3
291
     0
 70
    58
 90
        2
176
     1
 90
        2
176
     1
 90
        1
176
     1
 90
        2
176
     1
 40
0.6
176
     1
 40
30.0
176
     1
 62
     7
420
 16777215
176
     1
 90
        0
176
     1
 90
        4
176
     1
 62
     7
176
     1
 62
   257
176
     1
 90
        1
176
     1
 90
        1
176
     1
 40
1.0
176
     1
 90
        8
176
     1
 62
   257
176
     1
 40
1.0
176
     1
 90
        1
176
     1
 90
        6
176
     1
 90
        2
176
     1
 62
     8
420
  7895160
176
     1
 90
        3
176
     1
 90
        0
176
     1
 90
        0
176
     1
290
     0
176
     1
 90
        5
176
     1
 40
0.0
176
     1
 90
        0
176
     1
290
     0
176
     1
290
     1
176
     1
290
     1
176
     1
290
     0
176
     1
290
     0
176
     1
290
     0
176
     1
290
     0
176
     1
290
     0
176
     1
290
     0
176
     1
 90
       50
176
     1
 40
0.0
176
     1
 40
1.0
176
     1
 90
        0
176
     1
 62
    18
420
        0
176
     1
 90
       50
176
     1
 90
        3
176
     1
 62
     5
420
      255
176
     1
290
     0
176
     1
 90
       50
176
     1
 90
       50
176
     1
 90
       50
176
     1
290
     0
176
     1
 90
       50
176
     1
 62
   256
176
     0
 40
1.0
176
     0
 90
        2
176
     1
  1
strokes_ogs.tif
176
     1
290
     0
176
     1
 40
1.0
176
     1
 40
1.0
176
     1
  0
VISUALSTYLE
  5
41
102
{ACAD_REACTORS
330
2A
102
}
330
2A
100
AcDbVisualStyle
  2
Shaded with edges
 70
    26
177
     3
291
     0
 70
    58
 90
        2
176
     1
 90
        2
176
     1
 90
        1
176
     1
 90
        2
176
     1
 40
0.6
176
     1
 40
30.0
176
     1
 62
     7
420
 16777215
176
     1
 90
        1
176
     1
 90
       10
176
     1
 62
     7
176
     1
 62
   257
176
     1
 90
        2
176
     1
 90
        1
176
     1
 40
1.0
176
     1
 90
        8
176
     1
 62
   257
176
     1
 40
1.0
176
     1
 90
        1
176
     1
 90
        6
176
     1
 90
        2
176
     1
 62
     7
176
     1
 90
        3
176
     1
 90
        0
176
     1
 90
        0
176
     1
290
     0
176
     1
 90
        5
176
     1
 40
0.0
176
     1
 90
        0
176
     1
290
     0
176
     1
290
     1
176
     1
290
     1
176
     1
290
     0
176
     1
290
     0
176
     1
290
     0
176
     1
290
     0
176
     1
290
     0
176
     1
290
     0
176
     1
 90
       50
176
     1
 40
0.0
176
     1
 40
1.0
176
     1
 90
        0
176
     1
 62
    18
420
        0
176
     1
 90
       50
176
     1
 90
        3
176
     1
 62
     5
420
      255
176
     1
290
     0
176
     1
 90
       50
176
     1
 90
       50
176
     1
 90
       50
176
     1
290
     0
176
     1
 90
       50
176
     1
 62
   256
176
     0
 40
1.0
176
     0
 90
        2
176
     1
  1
strokes_ogs.tif
176
     1
290
     0
176
     1
 40
1.0
176
     1
 40
1.0
176
     1
  0
VISUALSTYLE
  5
3E
102
{ACAD_REACTORS
330
2A
102
}
330
2A
100
AcDbVisualStyle
  2
Shades of Gray
 70
    23
177
     3
291
     0
 70
    58
 90
        2
176
     1
 90
        2
176
     1
 90
        3
176
     1
 90
        0
176
     1
 40
0.6
176
     1
 40
30.0
176
     1
 62
     7
420
 16777215
176
     1
 90
        2
176
     1
 90
        2
176
     1
 62
     7
176
     1
 62
     7
176
     1
 90
        1
176
     1
 90
        1
176
     1
 40
40.0
176
     1
 90
        8
176
     1
 62
     7
176
     1
 40
1.0
176
     1
 90
        1
176
     1
 90
        6
176
     1
 90
        2
176
     1
 62
     7
176
     1
 90
        3
176
     1
 90
        0
176
     1
 90
        0
176
     1
290
     0
176
     1
 90
        1
176
     1
 40
0.0
176
     1
 90
        0
176
     1
290
     0
176
     1
290
     1
176
     1
290
     1
176
     1
290
     0
176
     1
290
     0
176
     1
290
     0
176
     1
290
     0
176
     1
290
     0
176
     1
290
     0
176
     1
 90
       50
176
     1
 40
0.0
176
     1
 40
1.0
176
     1
 90
        0
176
     1
 62
    18
420
        0
176
     1
 90
       50
176
     1
 90
        3
176
     1
 62
     5
420
      255
176
     1
290
     0
176
     1
 90
       50
176
     1
 90
       50
176
     1
 90
       50
176
     1
290
     0
176
     1
 90
       50
176
     1
 62
   256
176
     0
 40
1.0
176
     0
 90
        2
176
     1
  1
strokes_ogs.tif
176
     1
290
     0
176
     1
 40
1.0
176
     1
 40
1.0
176
     1
  0
VISUALSTYLE
  5
3F
102
{ACAD_REACTORS
330
2A
102
}
330
2A
100
AcDbVisualStyle
  2
Sketchy
 70
    24
177
     3
291
     0
 70
    58
 90
        1
176
     1
 90
        2
176
     1
 90
        2
176
     1
 90
        0
176
     1
 40
0.6
176
     1
 40
30.0
176
     1
 62
     7
420
 16777215
176
     1
 90
        2
176
     1
 90
        2
176
     1
 62
     7
176
     1
 62
     7
176
     1
 90
        1
176
     1
 90
        1
176
     1
 40
40.0
176
     1
 90
       11
176
     1
 62
     7
176
     1
 40
1.0
176
     1
 90
        1
176
     1
 90
        6
176
     1
 90
        2
176
     1
 62
     7
176
     1
 90
        6
176
     1
 90
        0
176
     1
 90
        0
176
     1
290
     0
176
     1
 90
        1
176
     1
 40
0.0
176
     1
 90
        0
176
     1
290
     0
176
     1
290
     1
176
     1
290
     1
176
     1
290
     0
176
     1
290
     0
176
     1
290
     0
176
     1
290
     0
176
     1
290
     0
176
     1
290
     0
176
     1
 90
       50
176
     1
 40
0.0
176
     1
 40
1.0
176
     1
 90
        0
176
     1
 62
    18
420
        0
176
     1
 90
       50
176
     1
 90
        3
176
     1
 62
     5
420
      255
176
     1
290
     0
176
     1
 90
       50
176
     1
 90
       50
176
     1
 90
       50
176
     1
290
     0
176
     1
 90
       50
176
     1
 62
   256
176
     0
 40
1.0
176
     0
 90
        2
176
     1
  1
strokes_ogs.tif
176
     1
290
     0
176
     1
 40
1.0
176
     1
 40
1.0
176
     1
  0
VISUALSTYLE
  5
37
102
{ACAD_REACTORS
330
2A
102
}
330
2A
100
AcDbVisualStyle
  2
Thicken
 70
    13
177
     3
291
     1
 70
    58
 90
        2
176
     1
 90
        2
176
     1
 90
        0
176
     1
 90
        0
176
     1
 40
0.6
176
     1
 40
30.0
176
     1
 62
     7
420
 16777215
176
     1
 90
        1
176
     1
 90
        4
176
     1
 62
     7
176
     1
 62
   257
176
     1
 90
        1
176
     1
 90
        1
176
     1
 40
1.0
176
     1
 90
       12
176
     1
 62
     7
176
     1
 40
1.0
176
     1
 90
        1
176
     1
 90
        6
176
     1
 90
        2
176
     1
 62
     7
176
     1
 90
        5
176
     1
 90
        0
176
     1
 90
        0
176
     1
290
     0
176
     1
 90
        1
176
     1
 40
0.0
176
     1
 90
        0
176
     1
290
     0
176
     1
290
     1
176
     1
290
     1
176
     1
290
     0
176
     1
290
     0
176
     1
290
     0
176
     1
290
     0
176
     1
290
     0
176
     1
290
     0
176
     1
 90
       50
176
     1
 40
0.0
176
     1
 40
1.0
176
     1
 90
        0
176
     1
 62
    18
420
        0
176
     1
 90
       50
176
     1
 90
        3
176
     1
 62
     5
420
      255
176
     1
290
     0
176
     1
 90
       50
176
     1
 90
       50
176
     1
 90
       50
176
     1
290
     0
176
     1
 90
       50
176
     1
 62
   256
176
     0
 40
1.0
176
     0
 90
        2
176
     1
  1
strokes_ogs.tif
176
     1
290
     0
176
     1
 40
1.0
176
     1
 40
1.0
176
     1
  0
VISUALSTYLE
  5
30
102
{ACAD_REACTORS
330
2A
102
}
330
2A
100
AcDbVisualStyle
  2
Wireframe
 70
     5
177
     3
291
     0
 70
    58
 90
        0
176
     1
 90
        2
176
     1
 90
        0
176
     1
 90
        0
176
     1
 40
0.6
176
     1
 40
30.0
176
     1
 62
     7
420
 16777215
176
     1
 90
        1
176
     1
 90
        4
176
     1
 62
     7
176
     1
 62
   257
176
     1
 90
        1
176
     1
 90
        1
176
     1
 40
1.0
176
     1
 90
        0
176
     1
 62
   257
176
     1
 40
1.0
176
     1
 90
        1
176
     1
 90
        6
176
     1
 90
        2
176
     1
 62
     7
176
     1
 90
        3
176
     1
 90
        0
176
     1
 90
        0
176
     1
290
     0
176
     1
 90
        1
176
     1
 40
0.0
176
     1
 90
        0
176
     1
290
     0
176
     1
290
     1
176
     1
290
     1
176
     1
290
     0
176
     1
290
     0
176
     1
290
     0
176
     1
290
     0
176
     1
290
     0
176
     1
290
     0
176
     1
 90
       50
176
     1
 40
0.0
176
     1
 40
1.0
176
     1
 90
        0
176
     1
 62
    18
420
        0
176
     1
 90
       50
176
     1
 90
        3
176
     1
 62
     5
420
      255
176
     1
290
     0
176
     1
 90
       50
176
     1
 90
       50
176
     1
 90
       50
176
     1
290
     0
176
     1
 90
       50
176
     1
 62
   256
176
     0
 40
1.0
176
     0
 90
        2
176
     1
  1
strokes_ogs.tif
176
     1
290
     0
176
     1
 40
1.0
176
     1
 40
1.0
176
     1
  0
VISUALSTYLE
  5
40
102
{ACAD_REACTORS
330
2A
102
}
330
2A
100
AcDbVisualStyle
  2
X-Ray
 70
    25
177
     3
291
     0
 70
    58
 90
        2
176
     1
 90
        2
176
     1
 90
        1
176
     1
 90
        1
176
     1
 40
0.5
176
     1
 40
30.0
176
     1
 62
     7
420
 16777215
176
     1
 90
        1
176
     1
 90
        0
176
     1
 62
     7
176
     1
 62
   257
176
     1
 90
        1
176
     1
 90
        1
176
     1
 40
1.0
176
     1
 90
        8
176
     1
 62
     7
176
     1
 40
1.0
176
     1
 90
        1
176
     1
 90
        6
176
     1
 90
        2
176
     1
 62
     7
176
     1
 90
        3
176
     1
 90
        0
176
     1
 90
        0
176
     1
290
     0
176
     1
 90
       13
176
     1
 40
0.0
176
     1
 90
        0
176
     1
290
     0
176
     1
290
     1
176
     1
290
     1
176
     1
290
     0
176
     1
290
     0
176
     1
290
     0
176
     1
290
     0
176
     1
290
     0
176
     1
290
     0
176
     1
 90
       50
176
     1
 40
0.0
176
     1
 40
1.0
176
     1
 90
        0
176
     1
 62
    18
420
        0
176
     1
 90
       50
176
     1
 90
        3
176
     1
 62
     5
420
      255
176
     1
290
     0
176
     1
 90
       50
176
     1
 90
       50
176
     1
 90
       50
176
     1
290
     0
176
     1
 90
       50
176
     1
 62
   256
176
     0
 40
1.0
176
     0
 90
        2
176
     1
  1
strokes_ogs.tif
176
     1
290
     0
176
     1
 40
1.0
176
     1
 40
1.0
176
     1
  0
DICTIONARYVAR
  5
302
102
{ACAD_REACTORS
330
301
102
}
330
301
100
DictionaryVariables
280
     0
  1
1:1
  0
DICTIONARYVAR
  5
30A
102
{ACAD_REACTORS
330
301
102
}
330
301
100
DictionaryVariables
280
     0
  1
3.500000
  0
DICTIONARYVAR
  5
30B
102
{ACAD_REACTORS
330
301
102
}
330
301
100
DictionaryVariables
280
     0
  1
acadiso.lin
  0
DICTIONARYVAR
  5
307
102
{ACAD_REACTORS
330
301
102
}
330
301
100
DictionaryVariables
280
     0
  1
Standard
  0
DICTIONARYVAR
  5
306
102
{ACAD_REACTORS
330
301
102
}
330
301
100
DictionaryVariables
280
     0
  1
Standard
  0
DICTIONARY
  5
303
330
5A
100
AcDbDictionary
280
     1
281
     1
  3
ACAD_ROUNDTRIP_2008_TABLESTYLE_CELLSTYLEMAP
360
304
  0
CELLSTYLEMAP
  5
304
102
{ACAD_REACTORS
330
303
102
}
330
303
100
AcDbCellStyleMap
 90
        3
300
CELLSTYLE
  1
TABLEFORMAT_BEGIN
 90
        5
170
     1
 91
        0
 92
    32768
 62
   257
 93
        1
300
CONTENTFORMAT
  1
CONTENTFORMAT_BEGIN
 90
        0
 91
        0
 92
        4
 93
        0
300

 40
0.0
140
1.0
 94
        5
 62
     0
340
11
144
6.0
309
CONTENTFORMAT_END
171
     1
301
MARGIN
  1
CELLMARGIN_BEGIN
 40
1.5
 40
1.5
 40
1.5
 40
1.5
 40
1.5
 40
1.5
309
CELLMARGIN_END
 94
        6
 95
        1
302
GRIDFORMAT
  1
GRIDFORMAT_BEGIN
 90
        0
 91
        1
 62
     0
 92
       -2
340
14
 93
        0
 40
0.045
309
GRIDFORMAT_END
 95
        2
302
GRIDFORMAT
  1
GRIDFORMAT_BEGIN
 90
        0
 91
        1
 62
     0
 92
       -2
340
14
 93
        0
 40
0.045
309
GRIDFORMAT_END
 95
        4
302
GRIDFORMAT
  1
GRIDFORMAT_BEGIN
 90
        0
 91
        1
 62
     0
 92
       -2
340
14
 93
        0
 40
0.045
309
GRIDFORMAT_END
 95
        8
302
GRIDFORMAT
  1
GRIDFORMAT_BEGIN
 90
        0
 91
        1
 62
     0
 92
       -2
340
14
 93
        0
 40
0.045
309
GRIDFORMAT_END
 95
       16
302
GRIDFORMAT
  1
GRIDFORMAT_BEGIN
 90
        0
 91
        1
 62
     0
 92
       -2
340
14
 93
        0
 40
0.045
309
GRIDFORMAT_END
 95
       32
302
GRIDFORMAT
  1
GRIDFORMAT_BEGIN
 90
        0
 91
        1
 62
     0
 92
       -2
340
14
 93
        0
 40
0.045
309
GRIDFORMAT_END
309
TABLEFORMAT_END
  1
CELLSTYLE_BEGIN
 90
        1
 91
        1
300
_TITLE
309
CELLSTYLE_END
300
CELLSTYLE
  1
TABLEFORMAT_BEGIN
 90
        5
170
     1
 91
        0
 92
        0
 62
   257
 93
        1
300
CONTENTFORMAT
  1
CONTENTFORMAT_BEGIN
 90
        0
 91
        0
 92
        4
 93
        0
300

 40
0.0
140
1.0
 94
        5
 62
     0
340
11
144
4.5
309
CONTENTFORMAT_END
171
     1
301
MARGIN
  1
CELLMARGIN_BEGIN
 40
1.5
 40
1.5
 40
1.5
 40
1.5
 40
1.5
 40
1.5
309
CELLMARGIN_END
 94
        6
 95
        1
302
GRIDFORMAT
  1
GRIDFORMAT_BEGIN
 90
        0
 91
        1
 62
     0
 92
       -2
340
14
 93
        0
 40
0.045
309
GRIDFORMAT_END
 95
        2
302
GRIDFORMAT
  1
GRIDFORMAT_BEGIN
 90
        0
 91
        1
 62
     0
 92
       -2
340
14
 93
        0
 40
0.045
309
GRIDFORMAT_END
 95
        4
302
GRIDFORMAT
  1
GRIDFORMAT_BEGIN
 90
        0
 91
        1
 62
     0
 92
       -2
340
14
 93
        0
 40
0.045
309
GRIDFORMAT_END
 95
        8
302
GRIDFORMAT
  1
GRIDFORMAT_BEGIN
 90
        0
 91
        1
 62
     0
 92
       -2
340
14
 93
        0
 40
0.045
309
GRIDFORMAT_END
 95
       16
302
GRIDFORMAT
  1
GRIDFORMAT_BEGIN
 90
        0
 91
        1
 62
     0
 92
       -2
340
14
 93
        0
 40
0.045
309
GRIDFORMAT_END
 95
       32
302
GRIDFORMAT
  1
GRIDFORMAT_BEGIN
 90
        0
 91
        1
 62
     0
 92
       -2
340
14
 93
        0
 40
0.045
309
GRIDFORMAT_END
309
TABLEFORMAT_END
  1
CELLSTYLE_BEGIN
 90
        2
 91
        1
300
_HEADER
309
CELLSTYLE_END
300
CELLSTYLE
  1
TABLEFORMAT_BEGIN
 90
        5
170
     1
 91
        0
 92
        0
 62
   257
 93
        1
300
CONTENTFORMAT
  1
CONTENTFORMAT_BEGIN
 90
        0
 91
        0
 92
        4
 93
        0
300

 40
0.0
140
1.0
 94
        2
 62
     0
340
11
144
4.5
309
CONTENTFORMAT_END
171
     1
301
MARGIN
  1
CELLMARGIN_BEGIN
 40
1.5
 40
1.5
 40
1.5
 40
1.5
 40
1.5
 40
1.5
309
CELLMARGIN_END
 94
        6
 95
        1
302
GRIDFORMAT
  1
GRIDFORMAT_BEGIN
 90
        0
 91
        1
 62
     0
 92
       -2
340
14
 93
        0
 40
0.045
309
GRIDFORMAT_END
 95
        2
302
GRIDFORMAT
  1
GRIDFORMAT_BEGIN
 90
        0
 91
        1
 62
     0
 92
       -2
340
14
 93
        0
 40
0.045
309
GRIDFORMAT_END
 95
        4
302
GRIDFORMAT
  1
GRIDFORMAT_BEGIN
 90
        0
 91
        1
 62
     0
 92
       -2
340
14
 93
        0
 40
0.045
309
GRIDFORMAT_END
 95
        8
302
GRIDFORMAT
  1
GRIDFORMAT_BEGIN
 90
        0
 91
        1
 62
     0
 92
       -2
340
14
 93
        0
 40
0.045
309
GRIDFORMAT_END
 95
       16
302
GRIDFORMAT
  1
GRIDFORMAT_BEGIN
 90
        0
 91
        1
 62
     0
 92
       -2
340
14
 93
        0
 40
0.045
309
GRIDFORMAT_END
 95
       32
302
GRIDFORMAT
  1
GRIDFORMAT_BEGIN
 90
        0
 91
        1
 62
     0
 92
       -2
340
14
 93
        0
 40
0.045
309
GRIDFORMAT_END
309
TABLEFORMAT_END
  1
CELLSTYLE_BEGIN
 90
        3
 91
        2
300
_DATA
309
CELLSTYLE_END
  0
ENDSEC
  0
EOF
