  0
SECTION
  2
HEADER
  9
$ACADVER
  1
AC1027
  9
$ACADMAINTVER
 70
   105
  9
$DWGCODEPAGE
  3
ANSI_1252
  9
$COMMENTS
  1
File was created by Cadenas
  9
$LASTSAVEDBY
  1
psAdmin
  9
$CUSTOMPROPERTYTAG
  1
NB
  9
$CUSTOMPROPERTY
  1
33602
  9
$CUSTOMPROPERTYTAG
  1
NN
  9
$CUSTOMPROPERTY
  1
Size 2
  9
$CUSTOMPROPERTYTAG
  1
NT
  9
$CUSTOMPROPERTY
  1

  9
$CUSTOMPROPERTYTAG
  1
NBSYN
  9
$CUSTOMPROPERTY
  1
$ARTNR.
  9
$CUSTOMPROPERTYTAG
  1
LINA
  9
$CUSTOMPROPERTY
  1
33602000
  9
$CUSTOMPROPERTYTAG
  1
CATALOG
  9
$CUSTOMPROPERTY
  1
Wöhner
  9
$CUSTOMPROPERTYTAG
  1
ARTNR
  9
$CUSTOMPROPERTY
  1
33602
  9
$CUSTOMPROPERTYTAG
  1
BUSB
  9
$CUSTOMPROPERTY
  1
12, 20, 30 x 10  and section busbars
  9
$CUSTOMPROPERTYTAG
  1
POF
  9
$CUSTOMPROPERTY
  1
QUADRON®60Classic
  9
$CUSTOMPROPERTYTAG
  1
TYPE
  9
$CUSTOMPROPERTY
  1
LTS-2
  9
$CUSTOMPROPERTYTAG
  1
QNT
  9
$CUSTOMPROPERTY
  1
1
  9
$CUSTOMPROPERTYTAG
  1
W
  9
$CUSTOMPROPERTY
  1
210
  9
$CUSTOMPROPERTYTAG
  1
H
  9
$CUSTOMPROPERTY
  1
288
  9
$CUSTOMPROPERTYTAG
  1
D
  9
$CUSTOMPROPERTY
  1
145
  9
$CUSTOMPROPERTYTAG
  1
IPRF
  9
$CUSTOMPROPERTY
  1
IP30
  9
$CUSTOMPROPERTYTAG
  1
LINK
  9
$CUSTOMPROPERTY
  1
Product link
  9
$CUSTOMPROPERTYTAG
  1
COMPANY
  9
$CUSTOMPROPERTY
  1
woehner
  9
$REQUIREDVERSIONS
160
                 0
  9
$INSBASE
 10
0.0
 20
0.0
 30
0.0
  9
$EXTMIN
 10
-9.0
 20
-266.4444444444444
 30
0.0
  9
$EXTMAX
 10
209.452380952381
 20
92.60399999999998
 30
0.0
  9
$LIMMIN
 10
0.0
 20
0.0
  9
$LIMMAX
 10
420.0
 20
297.0
  9
$ORTHOMODE
 70
     0
  9
$REGENMODE
 70
     1
  9
$FILLMODE
 70
     1
  9
$QTEXTMODE
 70
     0
  9
$MIRRTEXT
 70
     1
  9
$LTSCALE
 40
1.0
  9
$ATTMODE
 70
     1
  9
$TEXTSIZE
 40
2.5
  9
$TRACEWID
 40
1.0
  9
$TEXTSTYLE
  7
Standard
  9
$CLAYER
  8
0
  9
$CELTYPE
  6
ByLayer
  9
$CECOLOR
 62
   256
  9
$CELTSCALE
 40
1.0
  9
$DISPSILH
 70
     0
  9
$DIMSCALE
 40
1.0
  9
$DIMASZ
 40
2.5
  9
$DIMEXO
 40
0.625
  9
$DIMDLI
 40
3.75
  9
$DIMRND
 40
0.0
  9
$DIMDLE
 40
0.0
  9
$DIMEXE
 40
1.25
  9
$DIMTP
 40
0.0
  9
$DIMTM
 40
0.0
  9
$DIMTXT
 40
2.5
  9
$DIMCEN
 40
2.5
  9
$DIMTSZ
 40
0.0
  9
$DIMTOL
 70
     0
  9
$DIMLIM
 70
     0
  9
$DIMTIH
 70
     0
  9
$DIMTOH
 70
     0
  9
$DIMSE1
 70
     0
  9
$DIMSE2
 70
     0
  9
$DIMTAD
 70
     1
  9
$DIMZIN
 70
     8
  9
$DIMBLK
  1

  9
$DIMASO
 70
     1
  9
$DIMSHO
 70
     1
  9
$DIMPOST
  1

  9
$DIMAPOST
  1

  9
$DIMALT
 70
     0
  9
$DIMALTD
 70
     3
  9
$DIMALTF
 40
0.03937007874016
  9
$DIMLFAC
 40
1.0
  9
$DIMTOFL
 70
     1
  9
$DIMTVP
 40
0.0
  9
$DIMTIX
 70
     0
  9
$DIMSOXD
 70
     0
  9
$DIMSAH
 70
     0
  9
$DIMBLK1
  1

  9
$DIMBLK2
  1

  9
$DIMSTYLE
  2
ISO-25
  9
$DIMCLRD
 70
     0
  9
$DIMCLRE
 70
     0
  9
$DIMCLRT
 70
     0
  9
$DIMTFAC
 40
1.0
  9
$DIMGAP
 40
0.625
  9
$DIMJUST
 70
     0
  9
$DIMSD1
 70
     0
  9
$DIMSD2
 70
     0
  9
$DIMTOLJ
 70
     0
  9
$DIMTZIN
 70
     8
  9
$DIMALTZ
 70
     0
  9
$DIMALTTZ
 70
     0
  9
$DIMUPT
 70
     0
  9
$DIMDEC
 70
     2
  9
$DIMTDEC
 70
     2
  9
$DIMALTU
 70
     2
  9
$DIMALTTD
 70
     3
  9
$DIMTXSTY
  7
Standard
  9
$DIMAUNIT
 70
     0
  9
$DIMADEC
 70
     0
  9
$DIMALTRND
 40
0.0
  9
$DIMAZIN
 70
     0
  9
$DIMDSEP
 70
    44
  9
$DIMATFIT
 70
     3
  9
$DIMFRAC
 70
     0
  9
$DIMLDRBLK
  1

  9
$DIMLUNIT
 70
     2
  9
$DIMLWD
 70
    -2
  9
$DIMLWE
 70
    -2
  9
$DIMTMOVE
 70
     0
  9
$DIMFXL
 40
1.0
  9
$DIMFXLON
 70
     0
  9
$DIMJOGANG
 40
0.7853981633974483
  9
$DIMTFILL
 70
     0
  9
$DIMTFILLCLR
 70
     0
  9
$DIMARCSYM
 70
     0
  9
$DIMLTYPE
  6

  9
$DIMLTEX1
  6

  9
$DIMLTEX2
  6

  9
$DIMTXTDIRECTION
 70
     0
  9
$LUNITS
 70
     2
  9
$LUPREC
 70
     4
  9
$SKETCHINC
 40
1.0
  9
$FILLETRAD
 40
0.0
  9
$AUNITS
 70
     0
  9
$AUPREC
 70
     0
  9
$MENU
  1
.
  9
$ELEVATION
 40
0.0
  9
$PELEVATION
 40
0.0
  9
$THICKNESS
 40
0.0
  9
$LIMCHECK
 70
     0
  9
$CHAMFERA
 40
0.0
  9
$CHAMFERB
 40
0.0
  9
$CHAMFERC
 40
0.0
  9
$CHAMFERD
 40
0.0
  9
$SKPOLY
 70
     0
  9
$TDCREATE
 40
2460360.55345728
  9
$TDUCREATE
 40
2460360.511790614
  9
$TDUPDATE
 40
2460360.553457824
  9
$TDUUPDATE
 40
2460360.511791158
  9
$TDINDWG
 40
0.0000000116
  9
$TDUSRTIMER
 40
0.0000000116
  9
$USRTIMER
 70
     1
  9
$ANGBASE
 50
0.0
  9
$ANGDIR
 70
     0
  9
$PDMODE
 70
     0
  9
$PDSIZE
 40
0.0
  9
$PLINEWID
 40
0.0
  9
$SPLFRAME
 70
     0
  9
$SPLINETYPE
 70
     6
  9
$SPLINESEGS
 70
     8
  9
$HANDSEED
  5
531
  9
$SURFTAB1
 70
     6
  9
$SURFTAB2
 70
     6
  9
$SURFTYPE
 70
     6
  9
$SURFU
 70
     6
  9
$SURFV
 70
     6
  9
$UCSBASE
  2

  9
$UCSNAME
  2

  9
$UCSORG
 10
0.0
 20
0.0
 30
0.0
  9
$UCSXDIR
 10
1.0
 20
0.0
 30
0.0
  9
$UCSYDIR
 10
0.0
 20
1.0
 30
0.0
  9
$UCSORTHOREF
  2

  9
$UCSORTHOVIEW
 70
     0
  9
$UCSORGTOP
 10
0.0
 20
0.0
 30
0.0
  9
$UCSORGBOTTOM
 10
0.0
 20
0.0
 30
0.0
  9
$UCSORGLEFT
 10
0.0
 20
0.0
 30
0.0
  9
$UCSORGRIGHT
 10
0.0
 20
0.0
 30
0.0
  9
$UCSORGFRONT
 10
0.0
 20
0.0
 30
0.0
  9
$UCSORGBACK
 10
0.0
 20
0.0
 30
0.0
  9
$PUCSBASE
  2

  9
$PUCSNAME
  2

  9
$PUCSORG
 10
0.0
 20
0.0
 30
0.0
  9
$PUCSXDIR
 10
1.0
 20
0.0
 30
0.0
  9
$PUCSYDIR
 10
0.0
 20
1.0
 30
0.0
  9
$PUCSORTHOREF
  2

  9
$PUCSORTHOVIEW
 70
     0
  9
$PUCSORGTOP
 10
0.0
 20
0.0
 30
0.0
  9
$PUCSORGBOTTOM
 10
0.0
 20
0.0
 30
0.0
  9
$PUCSORGLEFT
 10
0.0
 20
0.0
 30
0.0
  9
$PUCSORGRIGHT
 10
0.0
 20
0.0
 30
0.0
  9
$PUCSORGFRONT
 10
0.0
 20
0.0
 30
0.0
  9
$PUCSORGBACK
 10
0.0
 20
0.0
 30
0.0
  9
$USERI1
 70
     0
  9
$USERI2
 70
     0
  9
$USERI3
 70
     0
  9
$USERI4
 70
     0
  9
$USERI5
 70
     0
  9
$USERR1
 40
0.0
  9
$USERR2
 40
0.0
  9
$USERR3
 40
0.0
  9
$USERR4
 40
0.0
  9
$USERR5
 40
0.0
  9
$WORLDVIEW
 70
     1
  9
$SHADEDGE
 70
     3
  9
$SHADEDIF
 70
    70
  9
$TILEMODE
 70
     1
  9
$MAXACTVP
 70
    64
  9
$PINSBASE
 10
0.0
 20
0.0
 30
0.0
  9
$PLIMCHECK
 70
     0
  9
$PEXTMIN
 10
1.000000000000000E+20
 20
1.000000000000000E+20
 30
1.000000000000000E+20
  9
$PEXTMAX
 10
-1.000000000000000E+20
 20
-1.000000000000000E+20
 30
-1.000000000000000E+20
  9
$PLIMMIN
 10
0.0
 20
0.0
  9
$PLIMMAX
 10
420.0
 20
297.0
  9
$UNITMODE
 70
     0
  9
$VISRETAIN
 70
     1
  9
$PLINEGEN
 70
     0
  9
$PSLTSCALE
 70
     1
  9
$TREEDEPTH
 70
  3020
  9
$CMLSTYLE
  2
Standard
  9
$CMLJUST
 70
     0
  9
$CMLSCALE
 40
20.0
  9
$PROXYGRAPHICS
 70
     1
  9
$MEASUREMENT
 70
     1
  9
$CELWEIGHT
370
    -1
  9
$ENDCAPS
280
     0
  9
$JOINSTYLE
280
     0
  9
$LWDISPLAY
290
     0
  9
$INSUNITS
 70
     4
  9
$HYPERLINKBASE
  1

  9
$STYLESHEET
  1

  9
$XEDIT
290
     1
  9
$CEPSNTYPE
380
     0
  9
$PSTYLEMODE
290
     1
  9
$FINGERPRINTGUID
  2
{4f03e07d-1b37-42b6-9c66-5895aef8c069}
  9
$VERSIONGUID
  2
{FAEB1C32-E019-11D5-929B-00C0DF256EC4}
  9
$EXTNAMES
290
     1
  9
$PSVPSCALE
 40
0.0
  9
$OLESTARTUP
290
     0
  9
$SORTENTS
280
   127
  9
$INDEXCTL
280
     0
  9
$HIDETEXT
280
     1
  9
$XCLIPFRAME
280
     2
  9
$HALOGAP
280
     0
  9
$OBSCOLOR
 70
   257
  9
$OBSLTYPE
280
     0
  9
$INTERSECTIONDISPLAY
280
     0
  9
$INTERSECTIONCOLOR
 70
   257
  9
$DIMASSOC
280
     2
  9
$PROJECTNAME
  1

  9
$CAMERADISPLAY
290
     0
  9
$LENSLENGTH
 40
50.0
  9
$CAMERAHEIGHT
 40
0.0
  9
$STEPSPERSEC
 40
2.0
  9
$STEPSIZE
 40
6.0
  9
$3DDWFPREC
 40
2.0
  9
$PSOLWIDTH
 40
5.0
  9
$PSOLHEIGHT
 40
80.0
  9
$LOFTANG1
 40
1.570796326794897
  9
$LOFTANG2
 40
1.570796326794897
  9
$LOFTMAG1
 40
0.0
  9
$LOFTMAG2
 40
0.0
  9
$LOFTPARAM
 70
     7
  9
$LOFTNORMALS
280
     1
  9
$LATITUDE
 40
37.795
  9
$LONGITUDE
 40
-122.394
  9
$NORTHDIRECTION
 40
0.0
  9
$TIMEZONE
 70
 -8000
  9
$LIGHTGLYPHDISPLAY
280
     1
  9
$TILEMODELIGHTSYNCH
280
     1
  9
$CMATERIAL
347
44
  9
$SOLIDHIST
280
     0
  9
$SHOWHIST
280
     1
  9
$DWFFRAME
280
     2
  9
$DGNFRAME
280
     2
  9
$REALWORLDSCALE
290
     1
  9
$INTERFERECOLOR
 62
   256
  9
$CSHADOW
280
     0
  9
$SHADOWPLANELOCATION
 40
0.0
  0
ENDSEC
  0
SECTION
  2
CLASSES
  0
CLASS
  1
ACDBDICTIONARYWDFLT
  2
AcDbDictionaryWithDefault
  3
ObjectDBX Classes
 90
        0
 91
        3
280
     0
281
     0
  0
CLASS
  1
VISUALSTYLE
  2
AcDbVisualStyle
  3
ObjectDBX Classes
 90
     4095
 91
        3
280
     0
281
     0
  0
CLASS
  1
MATERIAL
  2
AcDbMaterial
  3
ObjectDBX Classes
 90
     1153
 91
        3
280
     0
281
     0
  0
CLASS
  1
SCALE
  2
AcDbScale
  3
ObjectDBX Classes
 90
     1153
 91
        3
280
     0
281
     0
  0
CLASS
  1
TABLESTYLE
  2
AcDbTableStyle
  3
ObjectDBX Classes
 90
     4095
 91
        3
280
     0
281
     0
  0
CLASS
  1
MLEADERSTYLE
  2
AcDbMLeaderStyle
  3
ACDB_MLEADERSTYLE_CLASS
 90
     4095
 91
        3
280
     0
281
     0
  0
CLASS
  1
SUN
  2
AcDbSun
  3
SCENEOE
 90
     1153
 91
        3
280
     0
281
     0
  0
CLASS
  1
DICTIONARYVAR
  2
AcDbDictionaryVar
  3
ObjectDBX Classes
 90
        0
 91
        3
280
     0
281
     0
  0
CLASS
  1
CELLSTYLEMAP
  2
AcDbCellStyleMap
  3
ObjectDBX Classes
 90
     1152
 91
        3
280
     0
281
     0
  0
ENDSEC
  0
SECTION
  2
TABLES
  0
TABLE
  2
VPORT
  5
8
330
0
100
AcDbSymbolTable
 70
     1
  0
VPORT
  5
29
330
8
100
AcDbSymbolTableRecord
100
AcDbViewportTableRecord
  2
*Active
 70
     0
 10
0.0
 20
0.0
 11
1.0
 21
1.0
 12
100.2261904761905
 22
-86.92022222222221
 13
0.0
 23
0.0
 14
10.0
 24
10.0
 15
10.0
 25
10.0
 16
0.0
 26
0.0
 36
1.0
 17
0.0
 27
0.0
 37
0.0
 40
366.2294133333333
 41
0.6084203519956543
 42
50.0
 43
0.0
 44
0.0
 50
0.0
 51
0.0
 71
     0
 72
   100
 73
     1
 74
     3
 75
     0
 76
     0
 77
     0
 78
     0
281
     0
 65
     1
110
0.0
120
0.0
130
0.0
111
1.0
121
0.0
131
0.0
112
0.0
122
1.0
132
0.0
 79
     0
146
0.0
348
2F
 60
     3
 61
     5
292
     1
282
     1
141
0.0
142
0.0
 63
   250
361
5D
  0
ENDTAB
  0
TABLE
  2
LTYPE
  5
5
330
0
100
AcDbSymbolTable
 70
     3
  0
LTYPE
  5
14
330
5
100
AcDbSymbolTableRecord
100
AcDbLinetypeTableRecord
  2
ByBlock
 70
     0
  3

 72
    65
 73
     0
 40
0.0
  0
LTYPE
  5
15
330
5
100
AcDbSymbolTableRecord
100
AcDbLinetypeTableRecord
  2
ByLayer
 70
     0
  3

 72
    65
 73
     0
 40
0.0
  0
LTYPE
  5
16
330
5
100
AcDbSymbolTableRecord
100
AcDbLinetypeTableRecord
  2
Continuous
 70
     0
  3
Solid line
 72
    65
 73
     0
 40
0.0
  0
LTYPE
  5
87
330
5
100
AcDbSymbolTableRecord
100
AcDbLinetypeTableRecord
  2
Dashed
 70
     0
  3

 72
    65
 73
     2
 40
2.0
 49
1.0
 74
     0
 49
-1.0
 74
     0
  0
LTYPE
  5
2FF
330
5
100
AcDbSymbolTableRecord
100
AcDbLinetypeTableRecord
  2
Center
 70
     0
  3

 72
    65
 73
     4
 40
1.5
 49
0.45
 74
     0
 49
-0.5
 74
     0
 49
0.05
 74
     0
 49
-0.5
 74
     0
  0
ENDTAB
  0
TABLE
  2
LAYER
  5
2
330
0
100
AcDbSymbolTable
 70
     8
  0
LAYER
  5
10
330
2
100
AcDbSymbolTableRecord
100
AcDbLayerTableRecord
  2
0
 70
     0
 62
     7
  6
Continuous
370
    -3
390
F
347
46
348
0
  0
LAYER
  5
5E
330
2
100
AcDbSymbolTableRecord
100
AcDbLayerTableRecord
  2
attrib
 70
     0
 62
    -2
  6
Continuous
370
    35
390
F
347
46
348
0
  0
LAYER
  5
88
330
2
100
AcDbSymbolTableRecord
100
AcDbLayerTableRecord
  2
hidden
 70
     0
 62
    -6
  6
Dashed
370
    25
390
F
347
46
348
0
  0
LAYER
  5
153
330
2
100
AcDbSymbolTableRecord
100
AcDbLayerTableRecord
  2
bold
 70
     0
 62
     7
  6
Continuous
370
    50
390
F
347
46
348
0
  0
LAYER
  5
300
330
2
100
AcDbSymbolTableRecord
100
AcDbLayerTableRecord
  2
center
 70
     0
 62
    -7
  6
Center
370
    25
390
F
347
46
348
0
  0
LAYER
  5
4B6
330
2
100
AcDbSymbolTableRecord
100
AcDbLayerTableRecord
  2
dimension
 70
     0
 62
    -5
  6
Continuous
370
    25
390
F
347
46
348
0
  0
LAYER
  5
4B8
330
2
100
AcDbSymbolTableRecord
100
AcDbLayerTableRecord
  2
Defpoints
 70
     0
 62
     7
  6
Continuous
290
     0
370
    -3
390
F
347
46
348
0
  0
LAYER
  5
4DF
330
2
100
AcDbSymbolTableRecord
100
AcDbLayerTableRecord
  2
connection
 70
     0
 62
    -7
  6
Continuous
370
    50
390
F
347
46
348
0
  0
ENDTAB
  0
TABLE
  2
STYLE
  5
3
330
0
100
AcDbSymbolTable
 70
     1
  0
STYLE
  5
11
330
3
100
AcDbSymbolTableRecord
100
AcDbTextStyleTableRecord
  2
Standard
 70
     0
 40
0.0
 41
1.0
 50
0.0
 71
     0
 42
2.5
  3
txt
  4

  0
ENDTAB
  0
TABLE
  2
VIEW
  5
6
330
0
100
AcDbSymbolTable
 70
     0
  0
ENDTAB
  0
TABLE
  2
UCS
  5
7
330
0
100
AcDbSymbolTable
 70
     0
  0
ENDTAB
  0
TABLE
  2
APPID
  5
9
330
0
100
AcDbSymbolTable
 70
     1
  0
APPID
  5
12
330
9
100
AcDbSymbolTableRecord
100
AcDbRegAppTableRecord
  2
ACAD
 70
     0
  0
ENDTAB
  0
TABLE
  2
DIMSTYLE
  5
A
330
0
100
AcDbSymbolTable
 70
     1
100
AcDbDimStyleTable
  0
DIMSTYLE
105
27
102
{ACAD_REACTORS
330
4B7
330
4C5
330
4D2
102
}
330
A
100
AcDbSymbolTableRecord
100
AcDbDimStyleTableRecord
  2
ISO-25
 70
     0
 41
2.5
 42
0.625
 43
3.75
 44
1.25
 73
     0
 74
     0
 77
     1
 78
     8
140
2.5
141
2.5
143
0.03937007874016
147
0.625
171
     3
172
     1
178
     0
271
     2
272
     2
274
     3
278
    44
283
     0
284
     8
340
11
  0
ENDTAB
  0
TABLE
  2
BLOCK_RECORD
  5
1
330
0
100
AcDbSymbolTable
 70
    23
  0
BLOCK_RECORD
  5
1F
330
1
100
AcDbSymbolTableRecord
100
AcDbBlockTableRecord
  2
*Model_Space
340
22
 70
     0
280
     1
281
     0
  0
BLOCK_RECORD
  5
1B
330
1
100
AcDbSymbolTableRecord
100
AcDbBlockTableRecord
  2
*Paper_Space
340
1E
 70
     0
280
     1
281
     0
  0
BLOCK_RECORD
  5
23
330
1
100
AcDbSymbolTableRecord
100
AcDbBlockTableRecord
  2
*Paper_Space0
340
26
 70
     0
280
     1
281
     0
  0
BLOCK_RECORD
  5
75
330
1
100
AcDbSymbolTableRecord
100
AcDbBlockTableRecord
  2
1_80242000_1_0_in_33602_0
340
0
102
{BLKREFS
331
76
102
}
 70
     0
280
     1
281
     0
  0
BLOCK_RECORD
  5
94
330
1
100
AcDbSymbolTableRecord
100
AcDbBlockTableRecord
  2
2_80242000_2_0_in_33602_0
340
0
102
{BLKREFS
331
95
102
}
 70
     0
280
     1
281
     0
  0
BLOCK_RECORD
  5
B1
330
1
100
AcDbSymbolTableRecord
100
AcDbBlockTableRecord
  2
3_80242000_3_0_in_33602_0
340
0
102
{BLKREFS
331
B2
102
}
 70
     0
280
     1
281
     0
  0
BLOCK_RECORD
  5
CE
330
1
100
AcDbSymbolTableRecord
100
AcDbBlockTableRecord
  2
4_80239000_1_0_in_33602_0
340
0
102
{BLKREFS
331
CF
102
}
 70
     0
280
     1
281
     0
  0
BLOCK_RECORD
  5
EB
330
1
100
AcDbSymbolTableRecord
100
AcDbBlockTableRecord
  2
5_80239000_2_0_in_33602_0
340
0
102
{BLKREFS
331
EC
102
}
 70
     0
280
     1
281
     0
  0
BLOCK_RECORD
  5
108
330
1
100
AcDbSymbolTableRecord
100
AcDbBlockTableRecord
  2
6_80239000_3_0_in_33602_0
340
0
102
{BLKREFS
331
109
102
}
 70
     0
280
     1
281
     0
  0
BLOCK_RECORD
  5
125
330
1
100
AcDbSymbolTableRecord
100
AcDbBlockTableRecord
  2
7_79138000_0_in_33602_0
340
0
102
{BLKREFS
331
126
102
}
 70
     0
280
     1
281
     0
  0
BLOCK_RECORD
  5
15B
330
1
100
AcDbSymbolTableRecord
100
AcDbBlockTableRecord
  2
8_79203000_0_in_33602_0
340
0
102
{BLKREFS
331
15C
102
}
 70
     0
280
     1
281
     0
  0
BLOCK_RECORD
  5
19B
330
1
100
AcDbSymbolTableRecord
100
AcDbBlockTableRecord
  2
9_30860000_0_in_33602_0
340
0
102
{BLKREFS
331
19C
102
}
 70
     0
280
     1
281
     0
  0
BLOCK_RECORD
  5
1ED
330
1
100
AcDbSymbolTableRecord
100
AcDbBlockTableRecord
  2
10_79115000_0_in_33602_0
340
0
102
{BLKREFS
331
1EE
102
}
 70
     0
280
     1
281
     0
  0
BLOCK_RECORD
  5
23A
330
1
100
AcDbSymbolTableRecord
100
AcDbBlockTableRecord
  2
11_30712000_0_in_33602_0
340
0
102
{BLKREFS
331
23B
102
}
 70
     0
280
     1
281
     0
  0
BLOCK_RECORD
  5
2D5
330
1
100
AcDbSymbolTableRecord
100
AcDbBlockTableRecord
  2
12_LTS_2_NH_Kontakt2_1_0_in_33602_0
340
0
102
{BLKREFS
331
2D6
102
}
 70
     0
280
     1
281
     0
  0
BLOCK_RECORD
  5
307
330
1
100
AcDbSymbolTableRecord
100
AcDbBlockTableRecord
  2
13_LTS_2_NH_Kontakt2_2_0_in_33602_0
340
0
102
{BLKREFS
331
308
102
}
 70
     0
280
     1
281
     0
  0
BLOCK_RECORD
  5
338
330
1
100
AcDbSymbolTableRecord
100
AcDbBlockTableRecord
  2
14_LTS_2_NH_Kontakt2_3_0_in_33602_0
340
0
102
{BLKREFS
331
339
102
}
 70
     0
280
     1
281
     0
  0
BLOCK_RECORD
  5
368
330
1
100
AcDbSymbolTableRecord
100
AcDbBlockTableRecord
  2
15_LTS_2_NH_Kontakt2_4_0_in_33602_0
340
0
102
{BLKREFS
331
369
102
}
 70
     0
280
     1
281
     0
  0
BLOCK_RECORD
  5
39A
330
1
100
AcDbSymbolTableRecord
100
AcDbBlockTableRecord
  2
16_LTS_2_NH_Kontakt2_5_0_in_33602_0
340
0
102
{BLKREFS
331
39B
102
}
 70
     0
280
     1
281
     0
  0
BLOCK_RECORD
  5
3CC
330
1
100
AcDbSymbolTableRecord
100
AcDbBlockTableRecord
  2
17_LTS_2_NH_Kontakt2_6_0_in_33602_0
340
0
102
{BLKREFS
331
3CD
102
}
 70
     0
280
     1
281
     0
  0
BLOCK_RECORD
  5
3FE
330
1
100
AcDbSymbolTableRecord
100
AcDbBlockTableRecord
  2
18_309690004_0_in_33602_0
340
0
102
{BLKREFS
331
3FF
102
}
 70
     0
280
     1
281
     0
  0
BLOCK_RECORD
  5
462
330
1
100
AcDbSymbolTableRecord
100
AcDbBlockTableRecord
  2
19_77010000_79693000_0_in_33602_0
340
0
102
{BLKREFS
331
463
102
}
 70
     0
280
     1
281
     0
  0
BLOCK_RECORD
  5
4B9
330
1
100
AcDbSymbolTableRecord
100
AcDbBlockTableRecord
  2
*D20
340
0
 70
     0
280
     1
281
     0
  0
BLOCK_RECORD
  5
4C6
330
1
100
AcDbSymbolTableRecord
100
AcDbBlockTableRecord
  2
*D21
340
0
 70
     0
280
     1
281
     0
  0
BLOCK_RECORD
  5
4D3
330
1
100
AcDbSymbolTableRecord
100
AcDbBlockTableRecord
  2
*D22
340
0
 70
     0
280
     1
281
     0
  0
ENDTAB
  0
ENDSEC
  0
SECTION
  2
BLOCKS
  0
BLOCK
  5
20
330
1F
100
AcDbEntity
  8
0
100
AcDbBlockBegin
  2
*Model_Space
 70
     2
 10
0.0
 20
0.0
 30
0.0
  3
*Model_Space
  1

  0
ENDBLK
  5
21
330
1F
100
AcDbEntity
  8
0
100
AcDbBlockEnd
  0
BLOCK
  5
1C
330
1B
100
AcDbEntity
 67
     1
  8
0
100
AcDbBlockBegin
  2
*Paper_Space
 70
     0
 10
0.0
 20
0.0
 30
0.0
  3
*Paper_Space
  1

  0
ENDBLK
  5
1D
330
1B
100
AcDbEntity
 67
     1
  8
0
100
AcDbBlockEnd
  0
BLOCK
  5
24
330
23
100
AcDbEntity
  8
0
100
AcDbBlockBegin
  2
*Paper_Space0
 70
     0
 10
0.0
 20
0.0
 30
0.0
  3
*Paper_Space0
  1

  0
ENDBLK
  5
25
330
23
100
AcDbEntity
  8
0
100
AcDbBlockEnd
  0
BLOCK
  5
77
330
75
100
AcDbEntity
  8
0
100
AcDbBlockBegin
  2
1_80242000_1_0_in_33602_0
 70
     2
 10
0.0
 20
0.0
 30
0.0
  3
1_80242000_1_0_in_33602_0
  1

  0
ATTDEF
  5
79
330
75
100
AcDbEntity
  8
attrib
100
AcDbText
 10
175.0000000000005
 20
46.23760430703401
 30
0.0
 40
0.5
  1
80242000
100
AcDbAttributeDefinition
  3

  2
NB
 70
     8
280
     0
  0
ATTDEF
  5
7A
330
75
100
AcDbEntity
  8
attrib
100
AcDbText
 10
175.0000000000005
 20
45.73760430703401
 30
0.0
 40
0.5
  1
Size 2 hexagon head screw
100
AcDbAttributeDefinition
  3

  2
NN
 70
     8
280
     0
  0
ATTDEF
  5
7B
330
75
100
AcDbEntity
  8
attrib
100
AcDbText
 10
175.0000000000005
 20
45.23760430703401
 30
0.0
 40
0.5
  1

100
AcDbAttributeDefinition
  3

  2
NT
 70
     8
280
     0
  0
ATTDEF
  5
7C
330
75
100
AcDbEntity
  8
attrib
100
AcDbText
 10
175.0000000000005
 20
44.73760430703401
 30
0.0
 40
0.5
  1
$NBX.
100
AcDbAttributeDefinition
  3

  2
NBSYN
 70
     8
280
     0
  0
ATTDEF
  5
7D
330
75
100
AcDbEntity
  8
attrib
100
AcDbText
 10
175.0000000000005
 20
44.23760430703401
 30
0.0
 40
0.5
  1
80242000
100
AcDbAttributeDefinition
  3

  2
LINA
 70
     8
280
     0
  0
ATTDEF
  5
7E
330
75
100
AcDbEntity
  8
attrib
100
AcDbText
 10
175.0000000000005
 20
43.73760430703401
 30
0.0
 40
0.5
  1
Wöhner
100
AcDbAttributeDefinition
  3

  2
CATALOG
 70
     8
280
     0
  0
ATTDEF
  5
7F
330
75
100
AcDbEntity
  8
attrib
100
AcDbText
 10
175.0000000000005
 20
43.23760430703401
 30
0.0
 40
0.5
  1
80242000
100
AcDbAttributeDefinition
  3

  2
NBX
 70
     8
280
     0
  0
ATTDEF
  5
80
330
75
100
AcDbEntity
  8
attrib
100
AcDbText
 10
175.0000000000005
 20
42.73760430703401
 30
0.0
 40
0.5
  1
80242000
100
AcDbAttributeDefinition
  3

  2
ARTNR
 70
     8
280
     0
  0
ATTDEF
  5
81
330
75
100
AcDbEntity
  8
attrib
100
AcDbText
 10
175.0000000000005
 20
42.23760430703401
 30
0.0
 40
0.5
  1
QUADRON®60Classic
100
AcDbAttributeDefinition
  3

  2
POF
 70
     8
280
     0
  0
ATTDEF
  5
82
330
75
100
AcDbEntity
  8
attrib
100
AcDbText
 10
175.0000000000005
 20
41.73760430703401
 30
0.0
 40
0.5
  1
LTS-2
100
AcDbAttributeDefinition
  3

  2
TYPE
 70
     8
280
     0
  0
ATTDEF
  5
83
330
75
100
AcDbEntity
  8
attrib
100
AcDbText
 10
175.0000000000005
 20
41.23760430703401
 30
0.0
 40
0.5
  1
2
100
AcDbAttributeDefinition
  3

  2
VER
 70
     8
280
     0
  0
ATTDEF
  5
84
330
75
100
AcDbEntity
  8
attrib
100
AcDbText
 10
175.0000000000005
 20
40.73760430703401
 30
0.0
 40
0.5
  1
woehner
100
AcDbAttributeDefinition
  3

  2
COMPANY
 70
     8
280
     0
  0
ATTDEF
  5
85
330
75
100
AcDbEntity
  8
attrib
100
AcDbText
 10
175.0000000000005
 20
40.23760430703401
 30
0.0
 40
0.5
  1
{$CADENAS_DATA/23d-libs/woehner/sys_60classic/nh_fuse_switch/parts/size1_2_3/size2_3_screw.prj},176 {VTYP=3D},{NB=80242000},{LINA=80242000},{NN=Size 2 hexagon head screw},{DATE=26.01.2024 06:39:58},{GEOMDATE=10.01.2023 09:12:00},{VERSION=},{LINEID=970},{W
100
AcDbAttributeDefinition
  3

  2
PSOL_0
 70
     9
280
     0
  0
ATTDEF
  5
86
330
75
100
AcDbEntity
  8
attrib
100
AcDbText
 10
175.0000000000005
 20
39.73760430703401
 30
0.0
 40
0.5
  1
BVAR=},{WBNUMERIC=}  {NB=80242000},{LINA=80242000},{KT=DUMMY},{NBX=80242000},{ARTNR=80242000},{POF=QUADRON®60Classic},{TYPE=LTS-2},{VER=2}
100
AcDbAttributeDefinition
  3

  2
PSOL_1
 70
     9
280
     0
  0
CIRCLE
  5
89
330
75
100
AcDbEntity
  8
hidden
100
AcDbCircle
 10
161.0
 20
37.0
 30
0.0
 40
4.0
  0
CIRCLE
  5
8A
330
75
100
AcDbEntity
  8
hidden
100
AcDbCircle
 10
161.0
 20
37.0
 30
0.0
 40
5.0
  0
LINE
  5
8B
330
75
100
AcDbEntity
  8
hidden
100
AcDbLine
 10
169.0
 20
38.0
 30
0.0
 11
153.0
 21
38.0
 31
0.0
  0
LINE
  5
8C
330
75
100
AcDbEntity
  8
hidden
100
AcDbLine
 10
161.0
 20
46.23760430703401
 30
0.0
 11
153.0
 21
41.61880215351701
 31
0.0
  0
LINE
  5
8D
330
75
100
AcDbEntity
  8
hidden
100
AcDbLine
 10
169.0
 20
41.61880215351701
 30
0.0
 11
161.0
 21
46.23760430703401
 31
0.0
  0
LINE
  5
8E
330
75
100
AcDbEntity
  8
hidden
100
AcDbLine
 10
169.0
 20
32.38119784648299
 30
0.0
 11
169.0
 21
41.61880215351701
 31
0.0
  0
LINE
  5
8F
330
75
100
AcDbEntity
  8
hidden
100
AcDbLine
 10
153.0
 20
41.61880215351701
 30
0.0
 11
153.0
 21
32.38119784648299
 31
0.0
  0
LINE
  5
90
330
75
100
AcDbEntity
  8
hidden
100
AcDbLine
 10
153.0
 20
32.38119784648299
 30
0.0
 11
161.0
 21
27.76239569296598
 31
0.0
  0
LINE
  5
91
330
75
100
AcDbEntity
  8
hidden
100
AcDbLine
 10
153.0
 20
36.0
 30
0.0
 11
169.0
 21
36.0
 31
0.0
  0
LINE
  5
92
330
75
100
AcDbEntity
  8
hidden
100
AcDbLine
 10
161.0
 20
27.76239569296598
 30
0.0
 11
169.0
 21
32.38119784648299
 31
0.0
  0
CIRCLE
  5
93
330
75
100
AcDbEntity
  8
hidden
100
AcDbCircle
 10
161.0000000000002
 20
36.99999999999999
 30
0.0
 40
9.000000000000227
  0
ENDBLK
  5
78
330
75
100
AcDbEntity
  8
0
100
AcDbBlockEnd
  0
BLOCK
  5
96
330
94
100
AcDbEntity
  8
0
100
AcDbBlockBegin
  2
2_80242000_2_0_in_33602_0
 70
     2
 10
0.0
 20
0.0
 30
0.0
  3
2_80242000_2_0_in_33602_0
  1

  0
ATTDEF
  5
98
330
94
100
AcDbEntity
  8
attrib
100
AcDbText
 10
110.0000000000027
 20
46.23760430703401
 30
0.0
 40
0.5
  1
80242000
100
AcDbAttributeDefinition
  3

  2
NB
 70
     8
280
     0
  0
ATTDEF
  5
99
330
94
100
AcDbEntity
  8
attrib
100
AcDbText
 10
110.0000000000027
 20
45.73760430703401
 30
0.0
 40
0.5
  1
Size 2 hexagon head screw
100
AcDbAttributeDefinition
  3

  2
NN
 70
     8
280
     0
  0
ATTDEF
  5
9A
330
94
100
AcDbEntity
  8
attrib
100
AcDbText
 10
110.0000000000027
 20
45.23760430703401
 30
0.0
 40
0.5
  1

100
AcDbAttributeDefinition
  3

  2
NT
 70
     8
280
     0
  0
ATTDEF
  5
9B
330
94
100
AcDbEntity
  8
attrib
100
AcDbText
 10
110.0000000000027
 20
44.73760430703401
 30
0.0
 40
0.5
  1
$NBX.
100
AcDbAttributeDefinition
  3

  2
NBSYN
 70
     8
280
     0
  0
ATTDEF
  5
9C
330
94
100
AcDbEntity
  8
attrib
100
AcDbText
 10
110.0000000000027
 20
44.23760430703401
 30
0.0
 40
0.5
  1
80242000
100
AcDbAttributeDefinition
  3

  2
LINA
 70
     8
280
     0
  0
ATTDEF
  5
9D
330
94
100
AcDbEntity
  8
attrib
100
AcDbText
 10
110.0000000000027
 20
43.73760430703401
 30
0.0
 40
0.5
  1
Wöhner
100
AcDbAttributeDefinition
  3

  2
CATALOG
 70
     8
280
     0
  0
ATTDEF
  5
9E
330
94
100
AcDbEntity
  8
attrib
100
AcDbText
 10
110.0000000000027
 20
43.23760430703401
 30
0.0
 40
0.5
  1
80242000
100
AcDbAttributeDefinition
  3

  2
NBX
 70
     8
280
     0
  0
ATTDEF
  5
9F
330
94
100
AcDbEntity
  8
attrib
100
AcDbText
 10
110.0000000000027
 20
42.73760430703401
 30
0.0
 40
0.5
  1
80242000
100
AcDbAttributeDefinition
  3

  2
ARTNR
 70
     8
280
     0
  0
ATTDEF
  5
A0
330
94
100
AcDbEntity
  8
attrib
100
AcDbText
 10
110.0000000000027
 20
42.23760430703401
 30
0.0
 40
0.5
  1
QUADRON®60Classic
100
AcDbAttributeDefinition
  3

  2
POF
 70
     8
280
     0
  0
ATTDEF
  5
A1
330
94
100
AcDbEntity
  8
attrib
100
AcDbText
 10
110.0000000000027
 20
41.73760430703401
 30
0.0
 40
0.5
  1
LTS-2
100
AcDbAttributeDefinition
  3

  2
TYPE
 70
     8
280
     0
  0
ATTDEF
  5
A2
330
94
100
AcDbEntity
  8
attrib
100
AcDbText
 10
110.0000000000027
 20
41.23760430703401
 30
0.0
 40
0.5
  1
2
100
AcDbAttributeDefinition
  3

  2
VER
 70
     8
280
     0
  0
ATTDEF
  5
A3
330
94
100
AcDbEntity
  8
attrib
100
AcDbText
 10
110.0000000000027
 20
40.73760430703401
 30
0.0
 40
0.5
  1
woehner
100
AcDbAttributeDefinition
  3

  2
COMPANY
 70
     8
280
     0
  0
ATTDEF
  5
A4
330
94
100
AcDbEntity
  8
attrib
100
AcDbText
 10
110.0000000000027
 20
40.23760430703401
 30
0.0
 40
0.5
  1
{$CADENAS_DATA/23d-libs/woehner/sys_60classic/nh_fuse_switch/parts/size1_2_3/size2_3_screw.prj},176 {VTYP=3D},{NB=80242000},{LINA=80242000},{NN=Size 2 hexagon head screw},{DATE=26.01.2024 06:39:58},{GEOMDATE=10.01.2023 09:12:00},{VERSION=},{LINEID=970},{W
100
AcDbAttributeDefinition
  3

  2
PSOL_0
 70
     9
280
     0
  0
ATTDEF
  5
A5
330
94
100
AcDbEntity
  8
attrib
100
AcDbText
 10
110.0000000000027
 20
39.73760430703401
 30
0.0
 40
0.5
  1
BVAR=},{WBNUMERIC=}  {NB=80242000},{LINA=80242000},{KT=DUMMY},{NBX=80242000},{ARTNR=80242000},{POF=QUADRON®60Classic},{TYPE=LTS-2},{VER=2}
100
AcDbAttributeDefinition
  3

  2
PSOL_1
 70
     9
280
     0
  0
CIRCLE
  5
A6
330
94
100
AcDbEntity
  8
hidden
100
AcDbCircle
 10
96.0
 20
37.0
 30
0.0
 40
4.0
  0
CIRCLE
  5
A7
330
94
100
AcDbEntity
  8
hidden
100
AcDbCircle
 10
96.0
 20
37.0
 30
0.0
 40
5.0
  0
LINE
  5
A8
330
94
100
AcDbEntity
  8
hidden
100
AcDbLine
 10
104.0
 20
41.61880215351701
 30
0.0
 11
96.0
 21
46.23760430703401
 31
0.0
  0
LINE
  5
A9
330
94
100
AcDbEntity
  8
hidden
100
AcDbLine
 10
104.0
 20
38.0
 30
0.0
 11
88.0
 21
38.0
 31
0.0
  0
LINE
  5
AA
330
94
100
AcDbEntity
  8
hidden
100
AcDbLine
 10
96.0
 20
46.23760430703401
 30
0.0
 11
88.0
 21
41.61880215351701
 31
0.0
  0
LINE
  5
AB
330
94
100
AcDbEntity
  8
hidden
100
AcDbLine
 10
88.0
 20
32.38119784648299
 30
0.0
 11
96.0
 21
27.76239569296598
 31
0.0
  0
LINE
  5
AC
330
94
100
AcDbEntity
  8
hidden
100
AcDbLine
 10
96.0
 20
27.76239569296598
 30
0.0
 11
104.0
 21
32.38119784648299
 31
0.0
  0
LINE
  5
AD
330
94
100
AcDbEntity
  8
hidden
100
AcDbLine
 10
88.0
 20
36.0
 30
0.0
 11
104.0
 21
36.0
 31
0.0
  0
LINE
  5
AE
330
94
100
AcDbEntity
  8
hidden
100
AcDbLine
 10
88.0
 20
41.61880215351701
 30
0.0
 11
88.0
 21
32.38119784648299
 31
0.0
  0
LINE
  5
AF
330
94
100
AcDbEntity
  8
hidden
100
AcDbLine
 10
104.0
 20
32.38119784648299
 30
0.0
 11
104.0
 21
41.61880215351701
 31
0.0
  0
CIRCLE
  5
B0
330
94
100
AcDbEntity
  8
hidden
100
AcDbCircle
 10
96.0
 20
36.9999999999973
 30
0.0
 40
9.0000000000027
  0
ENDBLK
  5
97
330
94
100
AcDbEntity
  8
0
100
AcDbBlockEnd
  0
BLOCK
  5
B3
330
B1
100
AcDbEntity
  8
0
100
AcDbBlockBegin
  2
3_80242000_3_0_in_33602_0
 70
     2
 10
0.0
 20
0.0
 30
0.0
  3
3_80242000_3_0_in_33602_0
  1

  0
ATTDEF
  5
B5
330
B1
100
AcDbEntity
  8
attrib
100
AcDbText
 10
45.0
 20
46.23760430703401
 30
0.0
 40
0.5
  1
80242000
100
AcDbAttributeDefinition
  3

  2
NB
 70
     8
280
     0
  0
ATTDEF
  5
B6
330
B1
100
AcDbEntity
  8
attrib
100
AcDbText
 10
45.0
 20
45.73760430703401
 30
0.0
 40
0.5
  1
Size 2 hexagon head screw
100
AcDbAttributeDefinition
  3

  2
NN
 70
     8
280
     0
  0
ATTDEF
  5
B7
330
B1
100
AcDbEntity
  8
attrib
100
AcDbText
 10
45.0
 20
45.23760430703401
 30
0.0
 40
0.5
  1

100
AcDbAttributeDefinition
  3

  2
NT
 70
     8
280
     0
  0
ATTDEF
  5
B8
330
B1
100
AcDbEntity
  8
attrib
100
AcDbText
 10
45.0
 20
44.73760430703401
 30
0.0
 40
0.5
  1
$NBX.
100
AcDbAttributeDefinition
  3

  2
NBSYN
 70
     8
280
     0
  0
ATTDEF
  5
B9
330
B1
100
AcDbEntity
  8
attrib
100
AcDbText
 10
45.0
 20
44.23760430703401
 30
0.0
 40
0.5
  1
80242000
100
AcDbAttributeDefinition
  3

  2
LINA
 70
     8
280
     0
  0
ATTDEF
  5
BA
330
B1
100
AcDbEntity
  8
attrib
100
AcDbText
 10
45.0
 20
43.73760430703401
 30
0.0
 40
0.5
  1
Wöhner
100
AcDbAttributeDefinition
  3

  2
CATALOG
 70
     8
280
     0
  0
ATTDEF
  5
BB
330
B1
100
AcDbEntity
  8
attrib
100
AcDbText
 10
45.0
 20
43.23760430703401
 30
0.0
 40
0.5
  1
80242000
100
AcDbAttributeDefinition
  3

  2
NBX
 70
     8
280
     0
  0
ATTDEF
  5
BC
330
B1
100
AcDbEntity
  8
attrib
100
AcDbText
 10
45.0
 20
42.73760430703401
 30
0.0
 40
0.5
  1
80242000
100
AcDbAttributeDefinition
  3

  2
ARTNR
 70
     8
280
     0
  0
ATTDEF
  5
BD
330
B1
100
AcDbEntity
  8
attrib
100
AcDbText
 10
45.0
 20
42.23760430703401
 30
0.0
 40
0.5
  1
QUADRON®60Classic
100
AcDbAttributeDefinition
  3

  2
POF
 70
     8
280
     0
  0
ATTDEF
  5
BE
330
B1
100
AcDbEntity
  8
attrib
100
AcDbText
 10
45.0
 20
41.73760430703401
 30
0.0
 40
0.5
  1
LTS-2
100
AcDbAttributeDefinition
  3

  2
TYPE
 70
     8
280
     0
  0
ATTDEF
  5
BF
330
B1
100
AcDbEntity
  8
attrib
100
AcDbText
 10
45.0
 20
41.23760430703401
 30
0.0
 40
0.5
  1
2
100
AcDbAttributeDefinition
  3

  2
VER
 70
     8
280
     0
  0
ATTDEF
  5
C0
330
B1
100
AcDbEntity
  8
attrib
100
AcDbText
 10
45.0
 20
40.73760430703401
 30
0.0
 40
0.5
  1
woehner
100
AcDbAttributeDefinition
  3

  2
COMPANY
 70
     8
280
     0
  0
ATTDEF
  5
C1
330
B1
100
AcDbEntity
  8
attrib
100
AcDbText
 10
45.0
 20
40.23760430703401
 30
0.0
 40
0.5
  1
{$CADENAS_DATA/23d-libs/woehner/sys_60classic/nh_fuse_switch/parts/size1_2_3/size2_3_screw.prj},176 {VTYP=3D},{NB=80242000},{LINA=80242000},{NN=Size 2 hexagon head screw},{DATE=26.01.2024 06:39:58},{GEOMDATE=10.01.2023 09:12:00},{VERSION=},{LINEID=970},{W
100
AcDbAttributeDefinition
  3

  2
PSOL_0
 70
     9
280
     0
  0
ATTDEF
  5
C2
330
B1
100
AcDbEntity
  8
attrib
100
AcDbText
 10
45.0
 20
39.73760430703401
 30
0.0
 40
0.5
  1
BVAR=},{WBNUMERIC=}  {NB=80242000},{LINA=80242000},{KT=DUMMY},{NBX=80242000},{ARTNR=80242000},{POF=QUADRON®60Classic},{TYPE=LTS-2},{VER=2}
100
AcDbAttributeDefinition
  3

  2
PSOL_1
 70
     9
280
     0
  0
CIRCLE
  5
C3
330
B1
100
AcDbEntity
  8
hidden
100
AcDbCircle
 10
31.0
 20
37.0
 30
0.0
 40
4.0
  0
CIRCLE
  5
C4
330
B1
100
AcDbEntity
  8
hidden
100
AcDbCircle
 10
31.0
 20
37.0
 30
0.0
 40
5.0
  0
LINE
  5
C5
330
B1
100
AcDbEntity
  8
hidden
100
AcDbLine
 10
23.0
 20
36.0
 30
0.0
 11
39.0
 21
36.0
 31
0.0
  0
LINE
  5
C6
330
B1
100
AcDbEntity
  8
hidden
100
AcDbLine
 10
23.0
 20
32.38119784648299
 30
0.0
 11
31.0
 21
27.76239569296598
 31
0.0
  0
LINE
  5
C7
330
B1
100
AcDbEntity
  8
hidden
100
AcDbLine
 10
31.0
 20
27.76239569296598
 30
0.0
 11
39.0
 21
32.38119784648299
 31
0.0
  0
LINE
  5
C8
330
B1
100
AcDbEntity
  8
hidden
100
AcDbLine
 10
39.0
 20
38.0
 30
0.0
 11
23.0
 21
38.0
 31
0.0
  0
LINE
  5
C9
330
B1
100
AcDbEntity
  8
hidden
100
AcDbLine
 10
39.0
 20
41.61880215351701
 30
0.0
 11
31.0
 21
46.23760430703401
 31
0.0
  0
LINE
  5
CA
330
B1
100
AcDbEntity
  8
hidden
100
AcDbLine
 10
31.0
 20
46.23760430703401
 30
0.0
 11
23.0
 21
41.61880215351701
 31
0.0
  0
LINE
  5
CB
330
B1
100
AcDbEntity
  8
hidden
100
AcDbLine
 10
23.0
 20
41.61880215351701
 30
0.0
 11
23.0
 21
32.38119784648299
 31
0.0
  0
LINE
  5
CC
330
B1
100
AcDbEntity
  8
hidden
100
AcDbLine
 10
39.0
 20
32.38119784648299
 30
0.0
 11
39.0
 21
41.61880215351701
 31
0.0
  0
CIRCLE
  5
CD
330
B1
100
AcDbEntity
  8
hidden
100
AcDbCircle
 10
30.99999999999989
 20
36.99999999999999
 30
0.0
 40
9.000000000000107
  0
ENDBLK
  5
B4
330
B1
100
AcDbEntity
  8
0
100
AcDbBlockEnd
  0
BLOCK
  5
D0
330
CE
100
AcDbEntity
  8
0
100
AcDbBlockBegin
  2
4_80239000_1_0_in_33602_0
 70
     2
 10
0.0
 20
0.0
 30
0.0
  3
4_80239000_1_0_in_33602_0
  1

  0
ATTDEF
  5
D2
330
CE
100
AcDbEntity
  8
attrib
100
AcDbText
 10
174.999999999986
 20
-163.762395692966
 30
0.0
 40
0.5
  1
80239000
100
AcDbAttributeDefinition
  3

  2
NB
 70
     8
280
     0
  0
ATTDEF
  5
D3
330
CE
100
AcDbEntity
  8
attrib
100
AcDbText
 10
174.999999999986
 20
-164.262395692966
 30
0.0
 40
0.5
  1
Size 2 hexagon head screw
100
AcDbAttributeDefinition
  3

  2
NN
 70
     8
280
     0
  0
ATTDEF
  5
D4
330
CE
100
AcDbEntity
  8
attrib
100
AcDbText
 10
174.999999999986
 20
-164.762395692966
 30
0.0
 40
0.5
  1

100
AcDbAttributeDefinition
  3

  2
NT
 70
     8
280
     0
  0
ATTDEF
  5
D5
330
CE
100
AcDbEntity
  8
attrib
100
AcDbText
 10
174.999999999986
 20
-165.262395692966
 30
0.0
 40
0.5
  1
$NBX.
100
AcDbAttributeDefinition
  3

  2
NBSYN
 70
     8
280
     0
  0
ATTDEF
  5
D6
330
CE
100
AcDbEntity
  8
attrib
100
AcDbText
 10
174.999999999986
 20
-165.762395692966
 30
0.0
 40
0.5
  1
80239000
100
AcDbAttributeDefinition
  3

  2
LINA
 70
     8
280
     0
  0
ATTDEF
  5
D7
330
CE
100
AcDbEntity
  8
attrib
100
AcDbText
 10
174.999999999986
 20
-166.262395692966
 30
0.0
 40
0.5
  1
Wöhner
100
AcDbAttributeDefinition
  3

  2
CATALOG
 70
     8
280
     0
  0
ATTDEF
  5
D8
330
CE
100
AcDbEntity
  8
attrib
100
AcDbText
 10
174.999999999986
 20
-166.762395692966
 30
0.0
 40
0.5
  1
80239000
100
AcDbAttributeDefinition
  3

  2
NBX
 70
     8
280
     0
  0
ATTDEF
  5
D9
330
CE
100
AcDbEntity
  8
attrib
100
AcDbText
 10
174.999999999986
 20
-167.262395692966
 30
0.0
 40
0.5
  1
80239000
100
AcDbAttributeDefinition
  3

  2
ARTNR
 70
     8
280
     0
  0
ATTDEF
  5
DA
330
CE
100
AcDbEntity
  8
attrib
100
AcDbText
 10
174.999999999986
 20
-167.762395692966
 30
0.0
 40
0.5
  1
QUADRON®60Classic
100
AcDbAttributeDefinition
  3

  2
POF
 70
     8
280
     0
  0
ATTDEF
  5
DB
330
CE
100
AcDbEntity
  8
attrib
100
AcDbText
 10
174.999999999986
 20
-168.262395692966
 30
0.0
 40
0.5
  1
LTS-2
100
AcDbAttributeDefinition
  3

  2
TYPE
 70
     8
280
     0
  0
ATTDEF
  5
DC
330
CE
100
AcDbEntity
  8
attrib
100
AcDbText
 10
174.999999999986
 20
-168.762395692966
 30
0.0
 40
0.5
  1
3
100
AcDbAttributeDefinition
  3

  2
VER
 70
     8
280
     0
  0
ATTDEF
  5
DD
330
CE
100
AcDbEntity
  8
attrib
100
AcDbText
 10
174.999999999986
 20
-169.262395692966
 30
0.0
 40
0.5
  1
woehner
100
AcDbAttributeDefinition
  3

  2
COMPANY
 70
     8
280
     0
  0
ATTDEF
  5
DE
330
CE
100
AcDbEntity
  8
attrib
100
AcDbText
 10
174.999999999986
 20
-169.762395692966
 30
0.0
 40
0.5
  1
{$CADENAS_DATA/23d-libs/woehner/sys_60classic/nh_fuse_switch/parts/size1_2_3/size2_3_screw.prj},176 {VTYP=3D},{NB=80239000},{LINA=80239000},{NN=Size 2 hexagon head screw},{DATE=26.01.2024 06:39:58},{GEOMDATE=10.01.2023 09:12:00},{VERSION=},{LINEID=980},{W
100
AcDbAttributeDefinition
  3

  2
PSOL_0
 70
     9
280
     0
  0
ATTDEF
  5
DF
330
CE
100
AcDbEntity
  8
attrib
100
AcDbText
 10
174.999999999986
 20
-170.262395692966
 30
0.0
 40
0.5
  1
BVAR=},{WBNUMERIC=}  {NB=80239000},{LINA=80239000},{KT=DUMMY},{NBX=80239000},{ARTNR=80239000},{POF=QUADRON®60Classic},{TYPE=LTS-2},{VER=3}
100
AcDbAttributeDefinition
  3

  2
PSOL_1
 70
     9
280
     0
  0
CIRCLE
  5
E0
330
CE
100
AcDbEntity
  8
hidden
100
AcDbCircle
 10
161.0
 20
-173.0
 30
0.0
 40
4.0
  0
CIRCLE
  5
E1
330
CE
100
AcDbEntity
  8
hidden
100
AcDbCircle
 10
161.0
 20
-173.0
 30
0.0
 40
5.0
  0
LINE
  5
E2
330
CE
100
AcDbEntity
  8
hidden
100
AcDbLine
 10
169.0
 20
-172.0
 30
0.0
 11
153.0
 21
-172.0
 31
0.0
  0
LINE
  5
E3
330
CE
100
AcDbEntity
  8
hidden
100
AcDbLine
 10
169.0
 20
-168.381197846483
 30
0.0
 11
161.0
 21
-163.762395692966
 31
0.0
  0
LINE
  5
E4
330
CE
100
AcDbEntity
  8
hidden
100
AcDbLine
 10
169.0
 20
-177.618802153517
 30
0.0
 11
169.0
 21
-168.381197846483
 31
0.0
  0
LINE
  5
E5
330
CE
100
AcDbEntity
  8
hidden
100
AcDbLine
 10
161.0
 20
-163.762395692966
 30
0.0
 11
153.0
 21
-168.381197846483
 31
0.0
  0
LINE
  5
E6
330
CE
100
AcDbEntity
  8
hidden
100
AcDbLine
 10
153.0
 20
-177.618802153517
 30
0.0
 11
161.0
 21
-182.237604307034
 31
0.0
  0
LINE
  5
E7
330
CE
100
AcDbEntity
  8
hidden
100
AcDbLine
 10
161.0
 20
-182.237604307034
 30
0.0
 11
169.0
 21
-177.618802153517
 31
0.0
  0
LINE
  5
E8
330
CE
100
AcDbEntity
  8
hidden
100
AcDbLine
 10
153.0
 20
-174.0
 30
0.0
 11
169.0
 21
-174.0
 31
0.0
  0
LINE
  5
E9
330
CE
100
AcDbEntity
  8
hidden
100
AcDbLine
 10
153.0
 20
-168.381197846483
 30
0.0
 11
153.0
 21
-177.618802153517
 31
0.0
  0
CIRCLE
  5
EA
330
CE
100
AcDbEntity
  8
hidden
100
AcDbCircle
 10
161.0
 20
-173.000000000014
 30
0.0
 40
8.999999999986017
  0
ENDBLK
  5
D1
330
CE
100
AcDbEntity
  8
0
100
AcDbBlockEnd
  0
BLOCK
  5
ED
330
EB
100
AcDbEntity
  8
0
100
AcDbBlockBegin
  2
5_80239000_2_0_in_33602_0
 70
     2
 10
0.0
 20
0.0
 30
0.0
  3
5_80239000_2_0_in_33602_0
  1

  0
ATTDEF
  5
EF
330
EB
100
AcDbEntity
  8
attrib
100
AcDbText
 10
109.9999999999982
 20
-163.762395692966
 30
0.0
 40
0.5
  1
80239000
100
AcDbAttributeDefinition
  3

  2
NB
 70
     8
280
     0
  0
ATTDEF
  5
F0
330
EB
100
AcDbEntity
  8
attrib
100
AcDbText
 10
109.9999999999982
 20
-164.262395692966
 30
0.0
 40
0.5
  1
Size 2 hexagon head screw
100
AcDbAttributeDefinition
  3

  2
NN
 70
     8
280
     0
  0
ATTDEF
  5
F1
330
EB
100
AcDbEntity
  8
attrib
100
AcDbText
 10
109.9999999999982
 20
-164.762395692966
 30
0.0
 40
0.5
  1

100
AcDbAttributeDefinition
  3

  2
NT
 70
     8
280
     0
  0
ATTDEF
  5
F2
330
EB
100
AcDbEntity
  8
attrib
100
AcDbText
 10
109.9999999999982
 20
-165.262395692966
 30
0.0
 40
0.5
  1
$NBX.
100
AcDbAttributeDefinition
  3

  2
NBSYN
 70
     8
280
     0
  0
ATTDEF
  5
F3
330
EB
100
AcDbEntity
  8
attrib
100
AcDbText
 10
109.9999999999982
 20
-165.762395692966
 30
0.0
 40
0.5
  1
80239000
100
AcDbAttributeDefinition
  3

  2
LINA
 70
     8
280
     0
  0
ATTDEF
  5
F4
330
EB
100
AcDbEntity
  8
attrib
100
AcDbText
 10
109.9999999999982
 20
-166.262395692966
 30
0.0
 40
0.5
  1
Wöhner
100
AcDbAttributeDefinition
  3

  2
CATALOG
 70
     8
280
     0
  0
ATTDEF
  5
F5
330
EB
100
AcDbEntity
  8
attrib
100
AcDbText
 10
109.9999999999982
 20
-166.762395692966
 30
0.0
 40
0.5
  1
80239000
100
AcDbAttributeDefinition
  3

  2
NBX
 70
     8
280
     0
  0
ATTDEF
  5
F6
330
EB
100
AcDbEntity
  8
attrib
100
AcDbText
 10
109.9999999999982
 20
-167.262395692966
 30
0.0
 40
0.5
  1
80239000
100
AcDbAttributeDefinition
  3

  2
ARTNR
 70
     8
280
     0
  0
ATTDEF
  5
F7
330
EB
100
AcDbEntity
  8
attrib
100
AcDbText
 10
109.9999999999982
 20
-167.762395692966
 30
0.0
 40
0.5
  1
QUADRON®60Classic
100
AcDbAttributeDefinition
  3

  2
POF
 70
     8
280
     0
  0
ATTDEF
  5
F8
330
EB
100
AcDbEntity
  8
attrib
100
AcDbText
 10
109.9999999999982
 20
-168.262395692966
 30
0.0
 40
0.5
  1
LTS-2
100
AcDbAttributeDefinition
  3

  2
TYPE
 70
     8
280
     0
  0
ATTDEF
  5
F9
330
EB
100
AcDbEntity
  8
attrib
100
AcDbText
 10
109.9999999999982
 20
-168.762395692966
 30
0.0
 40
0.5
  1
3
100
AcDbAttributeDefinition
  3

  2
VER
 70
     8
280
     0
  0
ATTDEF
  5
FA
330
EB
100
AcDbEntity
  8
attrib
100
AcDbText
 10
109.9999999999982
 20
-169.262395692966
 30
0.0
 40
0.5
  1
woehner
100
AcDbAttributeDefinition
  3

  2
COMPANY
 70
     8
280
     0
  0
ATTDEF
  5
FB
330
EB
100
AcDbEntity
  8
attrib
100
AcDbText
 10
109.9999999999982
 20
-169.762395692966
 30
0.0
 40
0.5
  1
{$CADENAS_DATA/23d-libs/woehner/sys_60classic/nh_fuse_switch/parts/size1_2_3/size2_3_screw.prj},176 {VTYP=3D},{NB=80239000},{LINA=80239000},{NN=Size 2 hexagon head screw},{DATE=26.01.2024 06:39:58},{GEOMDATE=10.01.2023 09:12:00},{VERSION=},{LINEID=980},{W
100
AcDbAttributeDefinition
  3

  2
PSOL_0
 70
     9
280
     0
  0
ATTDEF
  5
FC
330
EB
100
AcDbEntity
  8
attrib
100
AcDbText
 10
109.9999999999982
 20
-170.262395692966
 30
0.0
 40
0.5
  1
BVAR=},{WBNUMERIC=}  {NB=80239000},{LINA=80239000},{KT=DUMMY},{NBX=80239000},{ARTNR=80239000},{POF=QUADRON®60Classic},{TYPE=LTS-2},{VER=3}
100
AcDbAttributeDefinition
  3

  2
PSOL_1
 70
     9
280
     0
  0
CIRCLE
  5
FD
330
EB
100
AcDbEntity
  8
hidden
100
AcDbCircle
 10
96.0
 20
-173.0
 30
0.0
 40
4.0
  0
CIRCLE
  5
FE
330
EB
100
AcDbEntity
  8
hidden
100
AcDbCircle
 10
96.0
 20
-173.0
 30
0.0
 40
5.0
  0
LINE
  5
FF
330
EB
100
AcDbEntity
  8
hidden
100
AcDbLine
 10
104.0
 20
-168.381197846483
 30
0.0
 11
96.0
 21
-163.762395692966
 31
0.0
  0
LINE
  5
100
330
EB
100
AcDbEntity
  8
hidden
100
AcDbLine
 10
104.0
 20
-177.618802153517
 30
0.0
 11
104.0
 21
-168.381197846483
 31
0.0
  0
LINE
  5
101
330
EB
100
AcDbEntity
  8
hidden
100
AcDbLine
 10
104.0
 20
-172.0
 30
0.0
 11
88.0
 21
-172.0
 31
0.0
  0
LINE
  5
102
330
EB
100
AcDbEntity
  8
hidden
100
AcDbLine
 10
96.0
 20
-163.762395692966
 30
0.0
 11
88.0
 21
-168.381197846483
 31
0.0
  0
LINE
  5
103
330
EB
100
AcDbEntity
  8
hidden
100
AcDbLine
 10
96.0
 20
-182.237604307034
 30
0.0
 11
104.0
 21
-177.618802153517
 31
0.0
  0
LINE
  5
104
330
EB
100
AcDbEntity
  8
hidden
100
AcDbLine
 10
88.0
 20
-168.381197846483
 30
0.0
 11
88.0
 21
-177.618802153517
 31
0.0
  0
LINE
  5
105
330
EB
100
AcDbEntity
  8
hidden
100
AcDbLine
 10
88.0
 20
-177.618802153517
 30
0.0
 11
96.0
 21
-182.237604307034
 31
0.0
  0
LINE
  5
106
330
EB
100
AcDbEntity
  8
hidden
100
AcDbLine
 10
88.0
 20
-174.0
 30
0.0
 11
104.0
 21
-174.0
 31
0.0
  0
CIRCLE
  5
107
330
EB
100
AcDbEntity
  8
hidden
100
AcDbCircle
 10
96.0000000000123
 20
-172.9999999999931
 30
0.0
 40
8.999999999985901
  0
ENDBLK
  5
EE
330
EB
100
AcDbEntity
  8
0
100
AcDbBlockEnd
  0
BLOCK
  5
10A
330
108
100
AcDbEntity
  8
0
100
AcDbBlockBegin
  2
6_80239000_3_0_in_33602_0
 70
     2
 10
0.0
 20
0.0
 30
0.0
  3
6_80239000_3_0_in_33602_0
  1

  0
ATTDEF
  5
10C
330
108
100
AcDbEntity
  8
attrib
100
AcDbText
 10
44.99999999999828
 20
-163.762395692966
 30
0.0
 40
0.5
  1
80239000
100
AcDbAttributeDefinition
  3

  2
NB
 70
     8
280
     0
  0
ATTDEF
  5
10D
330
108
100
AcDbEntity
  8
attrib
100
AcDbText
 10
44.99999999999828
 20
-164.262395692966
 30
0.0
 40
0.5
  1
Size 2 hexagon head screw
100
AcDbAttributeDefinition
  3

  2
NN
 70
     8
280
     0
  0
ATTDEF
  5
10E
330
108
100
AcDbEntity
  8
attrib
100
AcDbText
 10
44.99999999999828
 20
-164.762395692966
 30
0.0
 40
0.5
  1

100
AcDbAttributeDefinition
  3

  2
NT
 70
     8
280
     0
  0
ATTDEF
  5
10F
330
108
100
AcDbEntity
  8
attrib
100
AcDbText
 10
44.99999999999828
 20
-165.262395692966
 30
0.0
 40
0.5
  1
$NBX.
100
AcDbAttributeDefinition
  3

  2
NBSYN
 70
     8
280
     0
  0
ATTDEF
  5
110
330
108
100
AcDbEntity
  8
attrib
100
AcDbText
 10
44.99999999999828
 20
-165.762395692966
 30
0.0
 40
0.5
  1
80239000
100
AcDbAttributeDefinition
  3

  2
LINA
 70
     8
280
     0
  0
ATTDEF
  5
111
330
108
100
AcDbEntity
  8
attrib
100
AcDbText
 10
44.99999999999828
 20
-166.262395692966
 30
0.0
 40
0.5
  1
Wöhner
100
AcDbAttributeDefinition
  3

  2
CATALOG
 70
     8
280
     0
  0
ATTDEF
  5
112
330
108
100
AcDbEntity
  8
attrib
100
AcDbText
 10
44.99999999999828
 20
-166.762395692966
 30
0.0
 40
0.5
  1
80239000
100
AcDbAttributeDefinition
  3

  2
NBX
 70
     8
280
     0
  0
ATTDEF
  5
113
330
108
100
AcDbEntity
  8
attrib
100
AcDbText
 10
44.99999999999828
 20
-167.262395692966
 30
0.0
 40
0.5
  1
80239000
100
AcDbAttributeDefinition
  3

  2
ARTNR
 70
     8
280
     0
  0
ATTDEF
  5
114
330
108
100
AcDbEntity
  8
attrib
100
AcDbText
 10
44.99999999999828
 20
-167.762395692966
 30
0.0
 40
0.5
  1
QUADRON®60Classic
100
AcDbAttributeDefinition
  3

  2
POF
 70
     8
280
     0
  0
ATTDEF
  5
115
330
108
100
AcDbEntity
  8
attrib
100
AcDbText
 10
44.99999999999828
 20
-168.262395692966
 30
0.0
 40
0.5
  1
LTS-2
100
AcDbAttributeDefinition
  3

  2
TYPE
 70
     8
280
     0
  0
ATTDEF
  5
116
330
108
100
AcDbEntity
  8
attrib
100
AcDbText
 10
44.99999999999828
 20
-168.762395692966
 30
0.0
 40
0.5
  1
3
100
AcDbAttributeDefinition
  3

  2
VER
 70
     8
280
     0
  0
ATTDEF
  5
117
330
108
100
AcDbEntity
  8
attrib
100
AcDbText
 10
44.99999999999828
 20
-169.262395692966
 30
0.0
 40
0.5
  1
woehner
100
AcDbAttributeDefinition
  3

  2
COMPANY
 70
     8
280
     0
  0
ATTDEF
  5
118
330
108
100
AcDbEntity
  8
attrib
100
AcDbText
 10
44.99999999999828
 20
-169.762395692966
 30
0.0
 40
0.5
  1
{$CADENAS_DATA/23d-libs/woehner/sys_60classic/nh_fuse_switch/parts/size1_2_3/size2_3_screw.prj},176 {VTYP=3D},{NB=80239000},{LINA=80239000},{NN=Size 2 hexagon head screw},{DATE=26.01.2024 06:39:58},{GEOMDATE=10.01.2023 09:12:00},{VERSION=},{LINEID=980},{W
100
AcDbAttributeDefinition
  3

  2
PSOL_0
 70
     9
280
     0
  0
ATTDEF
  5
119
330
108
100
AcDbEntity
  8
attrib
100
AcDbText
 10
44.99999999999828
 20
-170.262395692966
 30
0.0
 40
0.5
  1
BVAR=},{WBNUMERIC=}  {NB=80239000},{LINA=80239000},{KT=DUMMY},{NBX=80239000},{ARTNR=80239000},{POF=QUADRON®60Classic},{TYPE=LTS-2},{VER=3}
100
AcDbAttributeDefinition
  3

  2
PSOL_1
 70
     9
280
     0
  0
CIRCLE
  5
11A
330
108
100
AcDbEntity
  8
hidden
100
AcDbCircle
 10
31.0
 20
-173.0
 30
0.0
 40
4.0
  0
CIRCLE
  5
11B
330
108
100
AcDbEntity
  8
hidden
100
AcDbCircle
 10
31.0
 20
-173.0
 30
0.0
 40
5.0
  0
LINE
  5
11C
330
108
100
AcDbEntity
  8
hidden
100
AcDbLine
 10
39.0
 20
-172.0
 30
0.0
 11
23.0
 21
-172.0
 31
0.0
  0
LINE
  5
11D
330
108
100
AcDbEntity
  8
hidden
100
AcDbLine
 10
31.0
 20
-163.762395692966
 30
0.0
 11
23.0
 21
-168.381197846483
 31
0.0
  0
LINE
  5
11E
330
108
100
AcDbEntity
  8
hidden
100
AcDbLine
 10
39.0
 20
-177.618802153517
 30
0.0
 11
39.0
 21
-168.381197846483
 31
0.0
  0
LINE
  5
11F
330
108
100
AcDbEntity
  8
hidden
100
AcDbLine
 10
39.0
 20
-168.381197846483
 30
0.0
 11
31.0
 21
-163.762395692966
 31
0.0
  0
LINE
  5
120
330
108
100
AcDbEntity
  8
hidden
100
AcDbLine
 10
23.0
 20
-174.0
 30
0.0
 11
39.0
 21
-174.0
 31
0.0
  0
LINE
  5
121
330
108
100
AcDbEntity
  8
hidden
100
AcDbLine
 10
23.0
 20
-168.381197846483
 30
0.0
 11
23.0
 21
-177.618802153517
 31
0.0
  0
LINE
  5
122
330
108
100
AcDbEntity
  8
hidden
100
AcDbLine
 10
23.0
 20
-177.618802153517
 30
0.0
 11
31.0
 21
-182.237604307034
 31
0.0
  0
LINE
  5
123
330
108
100
AcDbEntity
  8
hidden
100
AcDbLine
 10
31.0
 20
-182.237604307034
 30
0.0
 11
39.0
 21
-177.618802153517
 31
0.0
  0
CIRCLE
  5
124
330
108
100
AcDbEntity
  8
hidden
100
AcDbCircle
 10
31.00000000001168
 20
-172.9999999999934
 30
0.0
 40
8.999999999986604
  0
ENDBLK
  5
10B
330
108
100
AcDbEntity
  8
0
100
AcDbBlockEnd
  0
BLOCK
  5
127
330
125
100
AcDbEntity
  8
0
100
AcDbBlockBegin
  2
7_79138000_0_in_33602_0
 70
     2
 10
0.0
 20
0.0
 30
0.0
  3
7_79138000_0_in_33602_0
  1

  0
ATTDEF
  5
129
330
125
100
AcDbEntity
  8
attrib
100
AcDbText
 10
206.0
 20
66.0
 30
0.0
 40
0.5
  1
79138000
100
AcDbAttributeDefinition
  3

  2
NB
 70
     8
280
     0
  0
ATTDEF
  5
12A
330
125
100
AcDbEntity
  8
attrib
100
AcDbText
 10
206.0
 20
65.5
 30
0.0
 40
0.5
  1
Size 2 add-on module
100
AcDbAttributeDefinition
  3

  2
NN
 70
     8
280
     0
  0
ATTDEF
  5
12B
330
125
100
AcDbEntity
  8
attrib
100
AcDbText
 10
206.0
 20
65.0
 30
0.0
 40
0.5
  1

100
AcDbAttributeDefinition
  3

  2
NT
 70
     8
280
     0
  0
ATTDEF
  5
12C
330
125
100
AcDbEntity
  8
attrib
100
AcDbText
 10
206.0
 20
64.5
 30
0.0
 40
0.5
  1
$NBX.
100
AcDbAttributeDefinition
  3

  2
NBSYN
 70
     8
280
     0
  0
ATTDEF
  5
12D
330
125
100
AcDbEntity
  8
attrib
100
AcDbText
 10
206.0
 20
64.0
 30
0.0
 40
0.5
  1
79138000
100
AcDbAttributeDefinition
  3

  2
LINA
 70
     8
280
     0
  0
ATTDEF
  5
12E
330
125
100
AcDbEntity
  8
attrib
100
AcDbText
 10
206.0
 20
63.5
 30
0.0
 40
0.5
  1
Wöhner
100
AcDbAttributeDefinition
  3

  2
CATALOG
 70
     8
280
     0
  0
ATTDEF
  5
12F
330
125
100
AcDbEntity
  8
attrib
100
AcDbText
 10
206.0
 20
63.0
 30
0.0
 40
0.5
  1
79138000
100
AcDbAttributeDefinition
  3

  2
NBX
 70
     8
280
     0
  0
ATTDEF
  5
130
330
125
100
AcDbEntity
  8
attrib
100
AcDbText
 10
206.0
 20
62.5
 30
0.0
 40
0.5
  1
79138000
100
AcDbAttributeDefinition
  3

  2
ARTNR
 70
     8
280
     0
  0
ATTDEF
  5
131
330
125
100
AcDbEntity
  8
attrib
100
AcDbText
 10
206.0
 20
62.0
 30
0.0
 40
0.5
  1
QUADRON®60Classic
100
AcDbAttributeDefinition
  3

  2
POF
 70
     8
280
     0
  0
ATTDEF
  5
132
330
125
100
AcDbEntity
  8
attrib
100
AcDbText
 10
206.0
 20
61.5
 30
0.0
 40
0.5
  1
LTS-2
100
AcDbAttributeDefinition
  3

  2
TYPE
 70
     8
280
     0
  0
ATTDEF
  5
133
330
125
100
AcDbEntity
  8
attrib
100
AcDbText
 10
206.0
 20
61.0
 30
0.0
 40
0.5
  1
2
100
AcDbAttributeDefinition
  3

  2
VER
 70
     8
280
     0
  0
ATTDEF
  5
134
330
125
100
AcDbEntity
  8
attrib
100
AcDbText
 10
206.0
 20
60.5
 30
0.0
 40
0.5
  1
woehner
100
AcDbAttributeDefinition
  3

  2
COMPANY
 70
     8
280
     0
  0
ATTDEF
  5
135
330
125
100
AcDbEntity
  8
attrib
100
AcDbText
 10
206.0
 20
60.0
 30
0.0
 40
0.5
  1
{$CADENAS_DATA/23d-libs/woehner/sys_60classic/nh_fuse_switch/parts/size1_2_3/size2_3_addon_module2.prj},171 {VTYP=3D},{NB=79138000},{LINA=79138000},{NN=Size 2 add-on module},{DATE=26.01.2024 06:39:58},{GEOMDATE=10.01.2023 09:05:00},{VERSION=},{LINEID=970}
100
AcDbAttributeDefinition
  3

  2
PSOL_0
 70
     9
280
     0
  0
ATTDEF
  5
136
330
125
100
AcDbEntity
  8
attrib
100
AcDbText
 10
206.0
 20
59.5
 30
0.0
 40
0.5
  1
,{WBVAR=},{WBNUMERIC=}  {NB=79138000},{LINA=79138000},{KT=DUMMY},{NBX=79138000},{ARTNR=79138000},{POF=QUADRON®60Classic},{TYPE=LTS-2},{VER=2}
100
AcDbAttributeDefinition
  3

  2
PSOL_1
 70
     9
280
     0
  0
LINE
  5
137
330
125
100
AcDbEntity
  8
hidden
100
AcDbLine
 10
183.0
 20
63.0
 30
0.0
 11
183.0
 21
27.0
 31
0.0
  0
LINE
  5
138
330
125
100
AcDbEntity
  8
hidden
100
AcDbLine
 10
8.999999999999995
 20
63.0
 30
0.0
 11
8.999999999999995
 21
27.0
 31
0.0
  0
LINE
  5
139
330
125
100
AcDbEntity
  8
hidden
100
AcDbLine
 10
-8.000000000000178
 20
63.0
 30
0.0
 11
199.9999999999998
 21
63.0
 31
0.0
  0
LINE
  5
13A
330
125
100
AcDbEntity
  8
hidden
100
AcDbLine
 10
148.0000000000001
 20
66.0
 30
0.0
 11
199.9999999999998
 21
66.0
 31
0.0
  0
LINE
  5
13B
330
125
100
AcDbEntity
  8
hidden
100
AcDbLine
 10
-8.00000000000016
 20
66.0
 30
0.0
 11
44.0
 21
66.0
 31
0.0
  0
LINE
  5
13C
330
125
100
AcDbEntity
  8
hidden
100
AcDbLine
 10
109.0
 20
22.00000000000001
 30
0.0
 11
109.0
 21
27.0
 31
0.0
  0
LINE
  5
13D
330
125
100
AcDbEntity
  8
hidden
100
AcDbLine
 10
44.0
 20
27.0
 30
0.0
 11
81.0
 21
27.0
 31
0.0
  0
LINE
  5
13E
330
125
100
AcDbEntity
  8
hidden
100
AcDbLine
 10
81.0
 20
27.0
 30
0.0
 11
81.0
 21
22.00000000000001
 31
0.0
  0
LINE
  5
13F
330
125
100
AcDbEntity
  8
hidden
100
AcDbLine
 10
81.0
 20
22.00000000000001
 30
0.0
 11
109.0
 21
22.00000000000001
 31
0.0
  0
LINE
  5
140
330
125
100
AcDbEntity
  8
hidden
100
AcDbLine
 10
8.999999999999995
 20
27.0
 30
0.0
 11
16.0
 21
27.0
 31
0.0
  0
LINE
  5
141
330
125
100
AcDbEntity
  8
hidden
100
AcDbLine
 10
16.0
 20
27.0
 30
0.0
 11
16.0
 21
22.00000000000001
 31
0.0
  0
LINE
  5
142
330
125
100
AcDbEntity
  8
hidden
100
AcDbLine
 10
16.0
 20
22.00000000000001
 30
0.0
 11
44.0
 21
22.00000000000001
 31
0.0
  0
LINE
  5
143
330
125
100
AcDbEntity
  8
hidden
100
AcDbLine
 10
44.0
 20
22.00000000000001
 30
0.0
 11
44.0
 21
26.10400000000002
 31
0.0
  0
LINE
  5
144
330
125
100
AcDbEntity
  8
hidden
100
AcDbLine
 10
109.0
 20
27.0
 30
0.0
 11
146.0
 21
27.0
 31
0.0
  0
LINE
  5
145
330
125
100
AcDbEntity
  8
hidden
100
AcDbLine
 10
146.0
 20
27.0
 30
0.0
 11
146.0
 21
22.00000000000001
 31
0.0
  0
LINE
  5
146
330
125
100
AcDbEntity
  8
hidden
100
AcDbLine
 10
146.0
 20
22.00000000000001
 30
0.0
 11
174.0
 21
22.00000000000001
 31
0.0
  0
LINE
  5
147
330
125
100
AcDbEntity
  8
hidden
100
AcDbLine
 10
174.0
 20
22.00000000000001
 30
0.0
 11
174.0
 21
27.0
 31
0.0
  0
LINE
  5
148
330
125
100
AcDbEntity
  8
hidden
100
AcDbLine
 10
174.0
 20
27.0
 30
0.0
 11
183.0
 21
27.0
 31
0.0
  0
CIRCLE
  5
149
330
125
100
AcDbEntity
  8
hidden
100
AcDbCircle
 10
161.0
 20
37.00000000000001
 30
0.0
 40
9.5
  0
CIRCLE
  5
14A
330
125
100
AcDbEntity
  8
hidden
100
AcDbCircle
 10
161.0
 20
37.00000000000001
 30
0.0
 40
5.5
  0
CIRCLE
  5
14B
330
125
100
AcDbEntity
  8
hidden
100
AcDbCircle
 10
96.0
 20
37.00000000000001
 30
0.0
 40
5.5
  0
CIRCLE
  5
14C
330
125
100
AcDbEntity
  8
hidden
100
AcDbCircle
 10
96.0
 20
37.00000000000001
 30
0.0
 40
9.5
  0
CIRCLE
  5
14D
330
125
100
AcDbEntity
  8
hidden
100
AcDbCircle
 10
31.0
 20
37.00000000000001
 30
0.0
 40
5.5
  0
CIRCLE
  5
14E
330
125
100
AcDbEntity
  8
hidden
100
AcDbCircle
 10
31.0
 20
37.00000000000001
 30
0.0
 40
9.5
  0
LINE
  5
14F
330
125
100
AcDbEntity
  8
hidden
100
AcDbLine
 10
192.0
 20
53.00000000000001
 30
0.0
 11
192.0
 21
55.00000000000001
 31
0.0
  0
LINE
  5
150
330
125
100
AcDbEntity
  8
hidden
100
AcDbLine
 10
0.0
 20
55.00000000000001
 30
0.0
 11
192.0
 21
55.00000000000001
 31
0.0
  0
LINE
  5
151
330
125
100
AcDbEntity
  8
hidden
100
AcDbLine
 10
0.0
 20
53.00000000000001
 30
0.0
 11
0.0
 21
55.00000000000001
 31
0.0
  0
LINE
  5
152
330
125
100
AcDbEntity
  8
hidden
100
AcDbLine
 10
0.0
 20
53.00000000000001
 30
0.0
 11
192.0
 21
53.00000000000001
 31
0.0
  0
LINE
  5
154
330
125
100
AcDbEntity
  8
bold
100
AcDbLine
 10
201.0
 20
63.0
 30
0.0
 11
201.0
 21
66.0
 31
0.0
  0
LINE
  5
155
330
125
100
AcDbEntity
  8
bold
100
AcDbLine
 10
199.9999999999998
 20
63.0
 30
0.0
 11
201.0
 21
63.0
 31
0.0
  0
LINE
  5
156
330
125
100
AcDbEntity
  8
bold
100
AcDbLine
 10
199.9999999999998
 20
66.0
 30
0.0
 11
201.0
 21
66.0
 31
0.0
  0
LINE
  5
157
330
125
100
AcDbEntity
  8
bold
100
AcDbLine
 10
44.0
 20
66.0
 30
0.0
 11
148.0000000000001
 21
66.0
 31
0.0
  0
LINE
  5
158
330
125
100
AcDbEntity
  8
bold
100
AcDbLine
 10
-8.999999999999995
 20
66.0
 30
0.0
 11
-8.00000000000016
 21
66.0
 31
0.0
  0
LINE
  5
159
330
125
100
AcDbEntity
  8
bold
100
AcDbLine
 10
-8.999999999999995
 20
63.0
 30
0.0
 11
-8.999999999999995
 21
66.0
 31
0.0
  0
LINE
  5
15A
330
125
100
AcDbEntity
  8
bold
100
AcDbLine
 10
-8.999999999999995
 20
63.0
 30
0.0
 11
-8.000000000000178
 21
63.0
 31
0.0
  0
ENDBLK
  5
128
330
125
100
AcDbEntity
  8
0
100
AcDbBlockEnd
  0
BLOCK
  5
15D
330
15B
100
AcDbEntity
  8
0
100
AcDbBlockBegin
  2
8_79203000_0_in_33602_0
 70
     2
 10
0.0
 20
0.0
 30
0.0
  3
8_79203000_0_in_33602_0
  1

  0
ATTDEF
  5
15F
330
15B
100
AcDbEntity
  8
attrib
100
AcDbText
 10
206.0
 20
-158.0
 30
0.0
 40
0.5
  1
79203000
100
AcDbAttributeDefinition
  3

  2
NB
 70
     8
280
     0
  0
ATTDEF
  5
160
330
15B
100
AcDbEntity
  8
attrib
100
AcDbText
 10
206.0
 20
-158.5
 30
0.0
 40
0.5
  1
Size 2 add-on module
100
AcDbAttributeDefinition
  3

  2
NN
 70
     8
280
     0
  0
ATTDEF
  5
161
330
15B
100
AcDbEntity
  8
attrib
100
AcDbText
 10
206.0
 20
-159.0
 30
0.0
 40
0.5
  1

100
AcDbAttributeDefinition
  3

  2
NT
 70
     8
280
     0
  0
ATTDEF
  5
162
330
15B
100
AcDbEntity
  8
attrib
100
AcDbText
 10
206.0
 20
-159.5
 30
0.0
 40
0.5
  1
$NBX.
100
AcDbAttributeDefinition
  3

  2
NBSYN
 70
     8
280
     0
  0
ATTDEF
  5
163
330
15B
100
AcDbEntity
  8
attrib
100
AcDbText
 10
206.0
 20
-160.0
 30
0.0
 40
0.5
  1
79203000
100
AcDbAttributeDefinition
  3

  2
LINA
 70
     8
280
     0
  0
ATTDEF
  5
164
330
15B
100
AcDbEntity
  8
attrib
100
AcDbText
 10
206.0
 20
-160.5
 30
0.0
 40
0.5
  1
Wöhner
100
AcDbAttributeDefinition
  3

  2
CATALOG
 70
     8
280
     0
  0
ATTDEF
  5
165
330
15B
100
AcDbEntity
  8
attrib
100
AcDbText
 10
206.0
 20
-161.0
 30
0.0
 40
0.5
  1
79203000
100
AcDbAttributeDefinition
  3

  2
NBX
 70
     8
280
     0
  0
ATTDEF
  5
166
330
15B
100
AcDbEntity
  8
attrib
100
AcDbText
 10
206.0
 20
-161.5
 30
0.0
 40
0.5
  1
79203000
100
AcDbAttributeDefinition
  3

  2
ARTNR
 70
     8
280
     0
  0
ATTDEF
  5
167
330
15B
100
AcDbEntity
  8
attrib
100
AcDbText
 10
206.0
 20
-162.0
 30
0.0
 40
0.5
  1
QUADRON®60Classic
100
AcDbAttributeDefinition
  3

  2
POF
 70
     8
280
     0
  0
ATTDEF
  5
168
330
15B
100
AcDbEntity
  8
attrib
100
AcDbText
 10
206.0
 20
-162.5
 30
0.0
 40
0.5
  1
LTS-2
100
AcDbAttributeDefinition
  3

  2
TYPE
 70
     8
280
     0
  0
ATTDEF
  5
169
330
15B
100
AcDbEntity
  8
attrib
100
AcDbText
 10
206.0
 20
-163.0
 30
0.0
 40
0.5
  1
2
100
AcDbAttributeDefinition
  3

  2
VER
 70
     8
280
     0
  0
ATTDEF
  5
16A
330
15B
100
AcDbEntity
  8
attrib
100
AcDbText
 10
206.0
 20
-163.5
 30
0.0
 40
0.5
  1
woehner
100
AcDbAttributeDefinition
  3

  2
COMPANY
 70
     8
280
     0
  0
ATTDEF
  5
16B
330
15B
100
AcDbEntity
  8
attrib
100
AcDbText
 10
206.0
 20
-164.0
 30
0.0
 40
0.5
  1
{$CADENAS_DATA/23d-libs/woehner/sys_60classic/nh_fuse_switch/parts/size1_2_3/size2_3_addon_module1.prj},171 {VTYP=3D},{NB=79203000},{LINA=79203000},{NN=Size 2 add-on module},{DATE=26.01.2024 06:39:58},{GEOMDATE=23.08.2023 07:16:00},{VERSION=},{LINEID=970}
100
AcDbAttributeDefinition
  3

  2
PSOL_0
 70
     9
280
     0
  0
ATTDEF
  5
16C
330
15B
100
AcDbEntity
  8
attrib
100
AcDbText
 10
206.0
 20
-164.5
 30
0.0
 40
0.5
  1
,{WBVAR=},{WBNUMERIC=}  {NB=79203000},{LINA=79203000},{KT=DUMMY},{NBX=79203000},{ARTNR=79203000},{POF=QUADRON®60Classic},{TYPE=LTS-2},{VER=2}
100
AcDbAttributeDefinition
  3

  2
PSOL_1
 70
     9
280
     0
  0
LINE
  5
16D
330
15B
100
AcDbEntity
  8
hidden
100
AcDbLine
 10
8.999999999999995
 20
-199.0
 30
0.0
 11
183.0
 21
-199.0
 31
0.0
  0
CIRCLE
  5
16E
330
15B
100
AcDbEntity
  8
hidden
100
AcDbCircle
 10
161.0
 20
-173.0
 30
0.0
 40
4.188
  0
LINE
  5
16F
330
15B
100
AcDbEntity
  8
hidden
100
AcDbLine
 10
88.0
 20
-170.0
 30
0.0
 11
74.00000000000001
 21
-170.0
 31
0.0
  0
LINE
  5
170
330
15B
100
AcDbEntity
  8
hidden
100
AcDbLine
 10
181.0
 20
-170.0
 30
0.0
 11
169.0
 21
-170.0
 31
0.0
  0
LINE
  5
171
330
15B
100
AcDbEntity
  8
hidden
100
AcDbLine
 10
74.00000000000001
 20
-185.0
 30
0.0
 11
118.0
 21
-185.0
 31
0.0
  0
LINE
  5
172
330
15B
100
AcDbEntity
  8
hidden
100
AcDbLine
 10
181.0
 20
-163.0
 30
0.0
 11
176.0
 21
-163.0
 31
0.0
  0
LINE
  5
173
330
15B
100
AcDbEntity
  8
hidden
100
AcDbLine
 10
176.0
 20
-163.0
 30
0.0
 11
176.0
 21
-158.0
 31
0.0
  0
LINE
  5
174
330
15B
100
AcDbEntity
  8
hidden
100
AcDbLine
 10
53.0
 20
-170.0
 30
0.0
 11
39.0
 21
-170.0
 31
0.0
  0
LINE
  5
175
330
15B
100
AcDbEntity
  8
hidden
100
AcDbLine
 10
118.0
 20
-185.0
 30
0.0
 11
118.0
 21
-170.0
 31
0.0
  0
LINE
  5
176
330
15B
100
AcDbEntity
  8
hidden
100
AcDbLine
 10
18.0
 20
-163.0
 30
0.0
 11
11.0
 21
-163.0
 31
0.0
  0
LINE
  5
177
330
15B
100
AcDbEntity
  8
hidden
100
AcDbLine
 10
118.0
 20
-170.0
 30
0.0
 11
104.0
 21
-170.0
 31
0.0
  0
CIRCLE
  5
178
330
15B
100
AcDbEntity
  8
hidden
100
AcDbCircle
 10
31.0
 20
-173.0
 30
0.0
 40
4.188
  0
CIRCLE
  5
179
330
15B
100
AcDbEntity
  8
hidden
100
AcDbCircle
 10
96.0
 20
-173.0
 30
0.0
 40
4.188
  0
LINE
  5
17A
330
15B
100
AcDbEntity
  8
hidden
100
AcDbLine
 10
139.0
 20
-185.0
 30
0.0
 11
181.0
 21
-185.0
 31
0.0
  0
LINE
  5
17B
330
15B
100
AcDbEntity
  8
hidden
100
AcDbLine
 10
139.0
 20
-170.0
 30
0.0
 11
139.0
 21
-185.0
 31
0.0
  0
LINE
  5
17C
330
15B
100
AcDbEntity
  8
hidden
100
AcDbLine
 10
153.0
 20
-170.0
 30
0.0
 11
139.0
 21
-170.0
 31
0.0
  0
LINE
  5
17D
330
15B
100
AcDbEntity
  8
hidden
100
AcDbLine
 10
176.0
 20
-158.0
 30
0.0
 11
148.0
 21
-158.0
 31
0.0
  0
LINE
  5
17E
330
15B
100
AcDbEntity
  8
hidden
100
AcDbLine
 10
148.0
 20
-158.0
 30
0.0
 11
148.0
 21
-163.0
 31
0.0
  0
LINE
  5
17F
330
15B
100
AcDbEntity
  8
hidden
100
AcDbLine
 10
148.0
 20
-163.0
 30
0.0
 11
111.0
 21
-163.0
 31
0.0
  0
LINE
  5
180
330
15B
100
AcDbEntity
  8
hidden
100
AcDbLine
 10
111.0
 20
-163.0
 30
0.0
 11
111.0
 21
-158.0
 31
0.0
  0
LINE
  5
181
330
15B
100
AcDbEntity
  8
hidden
100
AcDbLine
 10
111.0
 20
-158.0
 30
0.0
 11
83.0
 21
-158.0
 31
0.0
  0
LINE
  5
182
330
15B
100
AcDbEntity
  8
hidden
100
AcDbLine
 10
83.0
 20
-158.0
 30
0.0
 11
83.0
 21
-163.0
 31
0.0
  0
LINE
  5
183
330
15B
100
AcDbEntity
  8
hidden
100
AcDbLine
 10
83.0
 20
-163.0
 30
0.0
 11
46.0
 21
-163.0
 31
0.0
  0
LINE
  5
184
330
15B
100
AcDbEntity
  8
hidden
100
AcDbLine
 10
46.0
 20
-163.0
 30
0.0
 11
46.0
 21
-158.0
 31
0.0
  0
LINE
  5
185
330
15B
100
AcDbEntity
  8
hidden
100
AcDbLine
 10
46.0
 20
-158.0
 30
0.0
 11
18.0
 21
-158.0
 31
0.0
  0
LINE
  5
186
330
15B
100
AcDbEntity
  8
hidden
100
AcDbLine
 10
18.0
 20
-158.0
 30
0.0
 11
18.0
 21
-163.0
 31
0.0
  0
LINE
  5
187
330
15B
100
AcDbEntity
  8
hidden
100
AcDbLine
 10
23.00000000000001
 20
-170.0
 30
0.0
 11
11.0
 21
-170.0
 31
0.0
  0
LINE
  5
188
330
15B
100
AcDbEntity
  8
hidden
100
AcDbLine
 10
53.0
 20
-185.0
 30
0.0
 11
53.0
 21
-170.0
 31
0.0
  0
LINE
  5
189
330
15B
100
AcDbEntity
  8
hidden
100
AcDbLine
 10
11.0
 20
-185.0
 30
0.0
 11
53.0
 21
-185.0
 31
0.0
  0
LINE
  5
18A
330
15B
100
AcDbEntity
  8
hidden
100
AcDbLine
 10
11.0
 20
-189.0
 30
0.0
 11
181.0
 21
-189.0
 31
0.0
  0
LINE
  5
18B
330
15B
100
AcDbEntity
  8
hidden
100
AcDbLine
 10
74.00000000000001
 20
-170.0
 30
0.0
 11
74.00000000000001
 21
-185.0
 31
0.0
  0
LINE
  5
18C
330
15B
100
AcDbEntity
  8
bold
100
AcDbLine
 10
8.999999999999995
 20
-163.0
 30
0.0
 11
8.999999999999995
 21
-199.0
 31
0.0
  0
LINE
  5
18D
330
15B
100
AcDbEntity
  8
bold
100
AcDbLine
 10
-8.999999999999995
 20
-202.0
 30
0.0
 11
201.0
 21
-202.0
 31
0.0
  0
LINE
  5
18E
330
15B
100
AcDbEntity
  8
bold
100
AcDbLine
 10
183.0
 20
-199.0
 30
0.0
 11
201.0
 21
-199.0
 31
0.0
  0
LINE
  5
18F
330
15B
100
AcDbEntity
  8
bold
100
AcDbLine
 10
-8.999999999999995
 20
-199.0
 30
0.0
 11
8.999999999999995
 21
-199.0
 31
0.0
  0
LINE
  5
190
330
15B
100
AcDbEntity
  8
bold
100
AcDbLine
 10
201.0
 20
-202.0
 30
0.0
 11
201.0
 21
-199.0
 31
0.0
  0
LINE
  5
191
330
15B
100
AcDbEntity
  8
bold
100
AcDbLine
 10
-8.999999999999995
 20
-202.0
 30
0.0
 11
-8.999999999999995
 21
-199.0
 31
0.0
  0
LINE
  5
192
330
15B
100
AcDbEntity
  8
bold
100
AcDbLine
 10
183.0
 20
-170.0
 30
0.0
 11
181.0
 21
-170.0
 31
0.0
  0
LINE
  5
193
330
15B
100
AcDbEntity
  8
bold
100
AcDbLine
 10
183.0
 20
-163.0
 30
0.0
 11
181.0
 21
-163.0
 31
0.0
  0
LINE
  5
194
330
15B
100
AcDbEntity
  8
bold
100
AcDbLine
 10
11.0
 20
-163.0
 30
0.0
 11
8.999999999999995
 21
-163.0
 31
0.0
  0
LINE
  5
195
330
15B
100
AcDbEntity
  8
bold
100
AcDbLine
 10
181.0
 20
-185.0
 30
0.0
 11
183.0
 21
-185.0
 31
0.0
  0
LINE
  5
196
330
15B
100
AcDbEntity
  8
bold
100
AcDbLine
 10
183.0
 20
-199.0
 30
0.0
 11
183.0
 21
-163.0
 31
0.0
  0
LINE
  5
197
330
15B
100
AcDbEntity
  8
bold
100
AcDbLine
 10
11.0
 20
-170.0
 30
0.0
 11
8.999999999999995
 21
-170.0
 31
0.0
  0
LINE
  5
198
330
15B
100
AcDbEntity
  8
bold
100
AcDbLine
 10
8.999999999999995
 20
-185.0
 30
0.0
 11
11.0
 21
-185.0
 31
0.0
  0
LINE
  5
199
330
15B
100
AcDbEntity
  8
bold
100
AcDbLine
 10
181.0
 20
-189.0
 30
0.0
 11
183.0
 21
-189.0
 31
0.0
  0
LINE
  5
19A
330
15B
100
AcDbEntity
  8
bold
100
AcDbLine
 10
8.999999999999995
 20
-189.0
 30
0.0
 11
11.0
 21
-189.0
 31
0.0
  0
ENDBLK
  5
15E
330
15B
100
AcDbEntity
  8
0
100
AcDbBlockEnd
  0
BLOCK
  5
19D
330
19B
100
AcDbEntity
  8
0
100
AcDbBlockBegin
  2
9_30860000_0_in_33602_0
 70
     2
 10
0.0
 20
0.0
 30
0.0
  3
9_30860000_0_in_33602_0
  1

  0
ATTDEF
  5
19F
330
19B
100
AcDbEntity
  8
attrib
100
AcDbText
 10
205.0
 20
92.10399999999998
 30
0.0
 40
0.5
  1
30860000
100
AcDbAttributeDefinition
  3

  2
NB
 70
     8
280
     0
  0
ATTDEF
  5
1A0
330
19B
100
AcDbEntity
  8
attrib
100
AcDbText
 10
205.0
 20
91.60399999999998
 30
0.0
 40
0.5
  1
Size 1 cover
100
AcDbAttributeDefinition
  3

  2
NN
 70
     8
280
     0
  0
ATTDEF
  5
1A1
330
19B
100
AcDbEntity
  8
attrib
100
AcDbText
 10
205.0
 20
91.10399999999998
 30
0.0
 40
0.5
  1

100
AcDbAttributeDefinition
  3

  2
NT
 70
     8
280
     0
  0
ATTDEF
  5
1A2
330
19B
100
AcDbEntity
  8
attrib
100
AcDbText
 10
205.0
 20
90.60399999999998
 30
0.0
 40
0.5
  1
$NBX.
100
AcDbAttributeDefinition
  3

  2
NBSYN
 70
     8
280
     0
  0
ATTDEF
  5
1A3
330
19B
100
AcDbEntity
  8
attrib
100
AcDbText
 10
205.0
 20
90.10399999999998
 30
0.0
 40
0.5
  1
30860000
100
AcDbAttributeDefinition
  3

  2
LINA
 70
     8
280
     0
  0
ATTDEF
  5
1A4
330
19B
100
AcDbEntity
  8
attrib
100
AcDbText
 10
205.0
 20
89.60399999999998
 30
0.0
 40
0.5
  1
Wöhner
100
AcDbAttributeDefinition
  3

  2
CATALOG
 70
     8
280
     0
  0
ATTDEF
  5
1A5
330
19B
100
AcDbEntity
  8
attrib
100
AcDbText
 10
205.0
 20
89.10399999999998
 30
0.0
 40
0.5
  1
30860000
100
AcDbAttributeDefinition
  3

  2
NBX
 70
     8
280
     0
  0
ATTDEF
  5
1A6
330
19B
100
AcDbEntity
  8
attrib
100
AcDbText
 10
205.0
 20
88.60399999999998
 30
0.0
 40
0.5
  1
30860000
100
AcDbAttributeDefinition
  3

  2
ARTNR
 70
     8
280
     0
  0
ATTDEF
  5
1A7
330
19B
100
AcDbEntity
  8
attrib
100
AcDbText
 10
205.0
 20
88.10399999999998
 30
0.0
 40
0.5
  1
QUADRON®60Classic
100
AcDbAttributeDefinition
  3

  2
POF
 70
     8
280
     0
  0
ATTDEF
  5
1A8
330
19B
100
AcDbEntity
  8
attrib
100
AcDbText
 10
205.0
 20
87.60399999999998
 30
0.0
 40
0.5
  1
LTS-2
100
AcDbAttributeDefinition
  3

  2
TYPE
 70
     8
280
     0
  0
ATTDEF
  5
1A9
330
19B
100
AcDbEntity
  8
attrib
100
AcDbText
 10
205.0
 20
87.10399999999998
 30
0.0
 40
0.5
  1
3
100
AcDbAttributeDefinition
  3

  2
VER
 70
     8
280
     0
  0
ATTDEF
  5
1AA
330
19B
100
AcDbEntity
  8
attrib
100
AcDbText
 10
205.0
 20
86.60399999999998
 30
0.0
 40
0.5
  1
woehner
100
AcDbAttributeDefinition
  3

  2
COMPANY
 70
     8
280
     0
  0
ATTDEF
  5
1AB
330
19B
100
AcDbEntity
  8
attrib
100
AcDbText
 10
205.0
 20
86.10399999999998
 30
0.0
 40
0.5
  1
{$CADENAS_DATA/23d-libs/woehner/sys_60classic/nh_fuse_switch/parts/size1_2_3/size_1_2_3_cover.prj},163 {VTYP=3D},{NB=30860000},{LINA=30860000},{NN=Size 1 cover},{DATE=26.01.2024 06:39:58},{GEOMDATE=22.05.2023 10:17:40},{VERSION=},{LINEID=970},{WBVAR=},{WB
100
AcDbAttributeDefinition
  3

  2
PSOL_0
 70
     9
280
     0
  0
ATTDEF
  5
1AC
330
19B
100
AcDbEntity
  8
attrib
100
AcDbText
 10
205.0
 20
85.60399999999998
 30
0.0
 40
0.5
  1
NUMERIC=}  {NB=30860000},{LINA=30860000},{KT=DUMMY},{NBX=30860000},{ARTNR=30860000},{POF=QUADRON®60Classic},{TYPE=LTS-2},{VER=3}
100
AcDbAttributeDefinition
  3

  2
PSOL_1
 70
     9
280
     0
  0
LINE
  5
1AD
330
19B
100
AcDbEntity
  8
hidden
100
AcDbLine
 10
3.500000000000003
 20
-148.9579
 30
0.0
 11
-1.500000000000001
 21
-148.9579
 31
0.0
  0
LINE
  5
1AE
330
19B
100
AcDbEntity
  8
hidden
100
AcDbLine
 10
188.5
 20
-148.9579
 30
0.0
 11
193.5
 21
-148.9579
 31
0.0
  0
LINE
  5
1AF
330
19B
100
AcDbEntity
  8
hidden
100
AcDbLine
 10
193.5
 20
-179.8508656674444
 30
0.0
 11
188.5
 21
-179.8508656674444
 31
0.0
  0
LINE
  5
1B0
330
19B
100
AcDbEntity
  8
hidden
100
AcDbLine
 10
3.500000000000003
 20
-179.8508656674444
 30
0.0
 11
-1.500000000000001
 21
-179.8508656674444
 31
0.0
  0
LINE
  5
1B1
330
19B
100
AcDbEntity
  8
hidden
100
AcDbLine
 10
193.5
 20
-140.3248
 30
0.0
 11
188.5
 21
-140.3248
 31
0.0
  0
LINE
  5
1B2
330
19B
100
AcDbEntity
  8
hidden
100
AcDbLine
 10
3.500000000000003
 20
-140.3248
 30
0.0
 11
-1.500000000000001
 21
-140.3248
 31
0.0
  0
LINE
  5
1B3
330
19B
100
AcDbEntity
  8
hidden
100
AcDbLine
 10
42.0
 20
57.1858456175178
 30
0.0
 11
150.0
 21
57.1858456175178
 31
0.0
  0
LINE
  5
1B4
330
19B
100
AcDbEntity
  8
hidden
100
AcDbLine
 10
-1.500000000000001
 20
-157.896
 30
0.0
 11
-1.500000000000001
 21
-116.8077983626151
 31
0.0
  0
LINE
  5
1B5
330
19B
100
AcDbEntity
  8
hidden
100
AcDbLine
 10
3.500000000000003
 20
-157.896
 30
0.0
 11
3.500000000000003
 21
-116.8077983626151
 31
0.0
  0
LINE
  5
1B6
330
19B
100
AcDbEntity
  8
hidden
100
AcDbLine
 10
3.500000000000003
 20
-132.3541606074644
 30
0.0
 11
-1.500000000000001
 21
-132.3541606074644
 31
0.0
  0
LINE
  5
1B7
330
19B
100
AcDbEntity
  8
hidden
100
AcDbLine
 10
3.500000000000003
 20
-116.8077983626151
 30
0.0
 11
-1.500000000000001
 21
-116.8077983626151
 31
0.0
  0
LINE
  5
1B8
330
19B
100
AcDbEntity
  8
hidden
100
AcDbLine
 10
188.5
 20
-157.896
 30
0.0
 11
188.5
 21
-116.8077983626151
 31
0.0
  0
LINE
  5
1B9
330
19B
100
AcDbEntity
  8
hidden
100
AcDbLine
 10
193.5
 20
-157.896
 30
0.0
 11
193.5
 21
-116.8077983626151
 31
0.0
  0
LINE
  5
1BA
330
19B
100
AcDbEntity
  8
hidden
100
AcDbLine
 10
188.5
 20
-132.3541606074644
 30
0.0
 11
193.5
 21
-132.3541606074644
 31
0.0
  0
LINE
  5
1BB
330
19B
100
AcDbEntity
  8
hidden
100
AcDbLine
 10
193.5
 20
-116.8077983626151
 30
0.0
 11
188.5
 21
-116.8077983626151
 31
0.0
  0
LINE
  5
1BC
330
19B
100
AcDbEntity
  8
hidden
100
AcDbLine
 10
44.0
 20
73.104
 30
0.0
 11
44.0
 21
92.10399999999998
 31
0.0
  0
LINE
  5
1BD
330
19B
100
AcDbEntity
  8
hidden
100
AcDbLine
 10
148.0
 20
73.104
 30
0.0
 11
148.0
 21
92.10399999999998
 31
0.0
  0
LINE
  5
1BE
330
19B
100
AcDbEntity
  8
hidden
100
AcDbLine
 10
3.500000000000003
 20
-148.896052705457
 30
0.0
 11
-1.500000000000001
 21
-148.896052705457
 31
0.0
  0
LINE
  5
1BF
330
19B
100
AcDbEntity
  8
hidden
100
AcDbLine
 10
188.5
 20
-148.896052705457
 30
0.0
 11
193.5
 21
-148.896052705457
 31
0.0
  0
LINE
  5
1C0
330
19B
100
AcDbEntity
  8
hidden
100
AcDbLine
 10
3.500000000000003
 20
-117.896
 30
0.0
 11
-1.500000000000001
 21
-117.896
 31
0.0
  0
LINE
  5
1C1
330
19B
100
AcDbEntity
  8
hidden
100
AcDbLine
 10
42.0
 20
25.843
 30
0.0
 11
150.0
 21
25.843
 31
0.0
  0
LINE
  5
1C2
330
19B
100
AcDbEntity
  8
hidden
100
AcDbLine
 10
150.0
 20
90.10399999999998
 30
0.0
 11
150.0
 21
25.843
 31
0.0
  0
LINE
  5
1C3
330
19B
100
AcDbEntity
  8
hidden
100
AcDbLine
 10
42.0
 20
25.843
 30
0.0
 11
42.0
 21
90.10399999999998
 31
0.0
  0
LINE
  5
1C4
330
19B
100
AcDbEntity
  8
hidden
100
AcDbLine
 10
-6.000000000000005
 20
-155.896
 30
0.0
 11
198.0
 21
-155.896
 31
0.0
  0
LINE
  5
1C5
330
19B
100
AcDbEntity
  8
hidden
100
AcDbLine
 10
198.0
 20
-155.896
 30
0.0
 11
198.0
 21
90.10399999999998
 31
0.0
  0
LINE
  5
1C6
330
19B
100
AcDbEntity
  8
hidden
100
AcDbLine
 10
-6.000000000000005
 20
-155.896
 30
0.0
 11
-6.000000000000005
 21
90.10399999999998
 31
0.0
  0
LINE
  5
1C7
330
19B
100
AcDbEntity
  8
hidden
100
AcDbLine
 10
188.5
 20
-117.896
 30
0.0
 11
193.5
 21
-117.896
 31
0.0
  0
LINE
  5
1C8
330
19B
100
AcDbEntity
  8
hidden
100
AcDbLine
 10
198.0
 20
90.10399999999998
 30
0.0
 11
150.0
 21
90.10399999999998
 31
0.0
  0
LINE
  5
1C9
330
19B
100
AcDbEntity
  8
hidden
100
AcDbLine
 10
42.0
 20
90.10399999999998
 30
0.0
 11
-6.000000000000005
 21
90.10399999999998
 31
0.0
  0
LINE
  5
1CA
330
19B
100
AcDbEntity
  8
bold
100
AcDbLine
 10
3.500000000000003
 20
-192.496
 30
0.0
 11
-1.500000000000001
 21
-192.496
 31
0.0
  0
LINE
  5
1CB
330
19B
100
AcDbEntity
  8
bold
100
AcDbLine
 10
188.5
 20
-192.496
 30
0.0
 11
193.5
 21
-192.496
 31
0.0
  0
LINE
  5
1CC
330
19B
100
AcDbEntity
  8
bold
100
AcDbLine
 10
188.5
 20
-187.3922398462174
 30
0.0
 11
193.5
 21
-187.3922398462174
 31
0.0
  0
LINE
  5
1CD
330
19B
100
AcDbEntity
  8
bold
100
AcDbLine
 10
3.500000000000003
 20
-187.3922398462174
 30
0.0
 11
-1.500000000000001
 21
-187.3922398462174
 31
0.0
  0
LINE
  5
1CE
330
19B
100
AcDbEntity
  8
bold
100
AcDbLine
 10
3.500000000000003
 20
-182.3922409996751
 30
0.0
 11
-1.500000000000001
 21
-182.3922409996751
 31
0.0
  0
LINE
  5
1CF
330
19B
100
AcDbEntity
  8
bold
100
AcDbLine
 10
188.5
 20
-192.496
 30
0.0
 11
188.5
 21
-157.896
 31
0.0
  0
LINE
  5
1D0
330
19B
100
AcDbEntity
  8
bold
100
AcDbLine
 10
193.5
 20
-192.496
 30
0.0
 11
193.5
 21
-157.896
 31
0.0
  0
LINE
  5
1D1
330
19B
100
AcDbEntity
  8
bold
100
AcDbLine
 10
-1.500000000000001
 20
-192.496
 30
0.0
 11
-1.500000000000001
 21
-157.896
 31
0.0
  0
LINE
  5
1D2
330
19B
100
AcDbEntity
  8
bold
100
AcDbLine
 10
3.500000000000003
 20
-192.496
 30
0.0
 11
3.500000000000003
 21
-157.896
 31
0.0
  0
LINE
  5
1D3
330
19B
100
AcDbEntity
  8
bold
100
AcDbLine
 10
3.500000000000003
 20
-175.8922606074643
 30
0.0
 11
-1.500000000000001
 21
-175.8922606074643
 31
0.0
  0
LINE
  5
1D4
330
19B
100
AcDbEntity
  8
bold
100
AcDbLine
 10
188.5
 20
-175.8922606074643
 30
0.0
 11
193.5
 21
-175.8922606074643
 31
0.0
  0
LINE
  5
1D5
330
19B
100
AcDbEntity
  8
bold
100
AcDbLine
 10
188.5
 20
-182.3922409996751
 30
0.0
 11
193.5
 21
-182.3922409996751
 31
0.0
  0
LINE
  5
1D6
330
19B
100
AcDbEntity
  8
bold
100
AcDbLine
 10
44.0
 20
60.10399999999999
 30
0.0
 11
148.0
 21
60.10399999999999
 31
0.0
  0
LINE
  5
1D7
330
19B
100
AcDbEntity
  8
bold
100
AcDbLine
 10
44.0
 20
26.10400000000002
 30
0.0
 11
44.0
 21
73.104
 31
0.0
  0
LINE
  5
1D8
330
19B
100
AcDbEntity
  8
bold
100
AcDbLine
 10
148.0
 20
26.10399999999999
 30
0.0
 11
148.0
 21
73.104
 31
0.0
  0
LINE
  5
1D9
330
19B
100
AcDbEntity
  8
bold
100
AcDbLine
 10
199.9999999999998
 20
92.10399999999998
 30
0.0
 11
200.0
 21
-157.896
 31
0.0
  0
LINE
  5
1DA
330
19B
100
AcDbEntity
  8
bold
100
AcDbLine
 10
-8.000000000000007
 20
92.10399999999998
 30
0.0
 11
-8.000000000000007
 21
-157.896
 31
0.0
  0
LINE
  5
1DB
330
19B
100
AcDbEntity
  8
bold
100
AcDbLine
 10
16.29137540802379
 20
73.1040000000025
 30
0.0
 11
-7.999999999999272
 21
26.10400000000368
 31
0.0
  0
LINE
  5
1DC
330
19B
100
AcDbEntity
  8
bold
100
AcDbLine
 10
16.29137540802392
 20
73.104
 30
0.0
 11
175.708624591976
 21
73.104
 31
0.0
  0
LINE
  5
1DD
330
19B
100
AcDbEntity
  8
bold
100
AcDbLine
 10
175.7086245919762
 20
73.1040000000025
 30
0.0
 11
199.9999999999993
 21
26.10400000000368
 31
0.0
  0
LINE
  5
1DE
330
19B
100
AcDbEntity
  8
bold
100
AcDbLine
 10
-8.000000000000007
 20
92.10399999999998
 30
0.0
 11
199.9999999999998
 21
92.10399999999998
 31
0.0
  0
LINE
  5
1DF
330
19B
100
AcDbEntity
  8
bold
100
AcDbLine
 10
14.21405000000002
 20
-44.68280000000001
 30
0.0
 11
14.21405000000001
 21
-95.10919999999999
 31
0.0
  0
LINE
  5
1E0
330
19B
100
AcDbEntity
  8
bold
100
AcDbLine
 10
177.78595
 20
-95.10920000000002
 30
0.0
 11
177.78595
 21
-44.68280000000001
 31
0.0
  0
LWPOLYLINE
  5
1E1
330
19B
100
AcDbEntity
  8
bold
100
AcDbPolyline
 90
       20
 70
     0
 43
0.0
 10
14.21405000000001
 20
-95.10919999999999
 10
14.39294079946477
 20
-98.23751583136423
 10
14.92254977361335
 20
-101.3339547890749
 10
15.79229116335586
 20
-104.3403786690519
 10
16.99785455222574
 20
-107.2266071878562
 10
18.52337142528723
 20
-109.9680943990432
 10
20.34048015568619
 20
-112.5139080604891
 10
22.44242387008769
 20
-114.8433486312583
 10
24.80157814649153
 20
-116.930059327464
 10
27.37397390924044
 20
-118.7341525063943
 10
30.12616449424936
 20
-120.2277886641912
 10
33.04036502613315
 20
-121.4085675763041
 10
36.06101920643741
 20
-122.2530427708351
 10
39.12572396067811
 20
-122.7438175205561
 10
42.23688506841433
 20
-122.8918879886025
 10
45.33514096725761
 20
-122.6942943599326
 10
48.36769357216649
 20
-122.1534816933789
 10
51.32986242329086
 20
-121.2796915497107
 10
54.1667047922949
 20
-120.0898508831588
 10
55.50007353779809
 20
-119.3952002979915
  0
LWPOLYLINE
  5
1E2
330
19B
100
AcDbEntity
  8
bold
100
AcDbPolyline
 90
       20
 70
     0
 43
0.0
 10
55.50007246204795
 20
-20.39679910402178
 10
52.71395051521771
 20
-19.04783983905697
 10
49.78456608888715
 20
-18.01183895520333
 10
46.76653041827984
 20
-17.30870752631863
 10
43.68669510917894
 20
-16.95030645289991
 10
40.57577588471285
 20
-16.93559449014639
 10
37.49263109334424
 20
-17.2648597655789
 10
34.47675855688627
 20
-17.93695502419346
 10
31.54577212228916
 20
-18.94084582427977
 10
28.75403288658494
 20
-20.25733237142685
 10
26.11938830100771
 20
-21.88482276309395
 10
23.67493995364907
 20
-23.79898883435552
 10
21.46531787163744
 20
-25.96421212878405
 10
19.49895530143068
 20
-28.38426584164935
 10
17.80962889360002
 20
-31.01659526577433
 10
16.42867957762957
 20
-33.81237192841679
 10
15.36997888639896
 20
-36.75960708583737
 10
14.64551204873421
 20
-39.81791013213656
 10
14.26941280267989
 20
-42.929671602483
 10
14.21405000000002
 20
-44.68280000000001
  0
LINE
  5
1E3
330
19B
100
AcDbEntity
  8
bold
100
AcDbLine
 10
199.9999999999998
 20
26.10399999999999
 30
0.0
 11
-8.000000000000396
 21
26.10399999999999
 31
0.0
  0
LINE
  5
1E4
330
19B
100
AcDbEntity
  8
bold
100
AcDbLine
 10
-8.000000000000007
 20
-157.896
 30
0.0
 11
200.0
 21
-157.896
 31
0.0
  0
LWPOLYLINE
  5
1E5
330
19B
100
AcDbEntity
  8
bold
100
AcDbPolyline
 90
       13
 70
     0
 43
0.0
 10
55.50007246204795
 20
-20.39679910402178
 10
57.54707830388123
 20
-21.42640168310217
 10
59.67299704686405
 20
-22.28456161141976
 10
61.92789532323892
 20
-22.98149267176791
 10
64.2344608458404
 20
-23.48504051763803
 10
66.5096099720835
 20
-23.78476405696675
 10
68.80195435317712
 20
-23.89605507750797
 10
71.1623046156376
 20
-23.81231006424095
 10
73.50684488786618
 20
-23.52881924549352
 10
75.81424978389083
 20
-23.04803990638923
 10
78.07203666354307
 20
-22.37402482928094
 10
80.32973727402008
 20
-21.48172456391764
 10
82.49992763161976
 20
-20.39679905195391
  0
LWPOLYLINE
  5
1E6
330
19B
100
AcDbEntity
  8
bold
100
AcDbPolyline
 90
       13
 70
     0
 43
0.0
 10
109.5000724620479
 20
-20.39679910402178
 10
107.453076180466
 20
-19.36719571934789
 10
105.3273319474718
 20
-18.50909803138898
 10
103.0728130790774
 20
-17.81224361768099
 10
100.766536621549
 20
-17.30868951882761
 10
98.49122636667741
 20
-17.00887226510603
 10
96.19863741655031
 20
-16.89751002172651
 10
93.83769374922417
 20
-16.98125176144979
 10
91.49263711218839
 20
-17.26482276247249
 10
89.18522655794584
 20
-17.74564344424381
 10
86.92754129956774
 20
-18.4196644459777
 10
84.67006734639611
 20
-19.31188999108474
 10
82.49992763161976
 20
-20.39679905195391
  0
LWPOLYLINE
  5
1E7
330
19B
100
AcDbEntity
  8
bold
100
AcDbPolyline
 90
       13
 70
     0
 43
0.0
 10
109.5000724620479
 20
-20.39679910402178
 10
111.5470783038812
 20
-21.42640168310217
 10
113.672997046864
 20
-22.28456161141976
 10
115.9278953232389
 20
-22.98149267176791
 10
118.2344608458404
 20
-23.48504051763803
 10
120.5096099720835
 20
-23.78476405696672
 10
122.8019543531771
 20
-23.89605507750795
 10
125.1623046156376
 20
-23.81231006424092
 10
127.5068448878662
 20
-23.52881924549352
 10
129.8142497838908
 20
-23.04803990638926
 10
132.0720366635431
 20
-22.37402482928097
 10
134.3297372740201
 20
-21.48172456391767
 10
136.4999276316198
 20
-20.39679905195391
  0
LWPOLYLINE
  5
1E8
330
19B
100
AcDbEntity
  8
bold
100
AcDbPolyline
 90
       20
 70
     0
 43
0.0
 10
177.78595
 20
-44.68280000000001
 10
177.6078235275968
 20
-41.56125737108518
 10
177.0804009764374
 20
-38.47090398430228
 10
176.2141082896082
 20
-35.46980976674045
 10
175.0131557457555
 20
-32.58814873651087
 10
173.4934447406686
 20
-29.8505179902237
 10
171.6833466868182
 20
-27.30778522923397
 10
169.5896494608683
 20
-24.98046831422488
 10
167.2401218156035
 20
-22.89485345215034
 10
164.6785861210207
 20
-21.09046806391962
 10
161.932247551867
 20
-19.59187665605861
 10
159.0242590115641
 20
-18.40550918228967
 10
156.0098248985194
 20
-17.55455472489878
 10
152.9414466823953
 20
-17.05523640635365
 10
149.8258990967486
 20
-16.89963275150005
 10
146.7224279077455
 20
-17.09080639392444
 10
143.6786110987129
 20
-17.62766854211595
 10
140.7046229479097
 20
-18.50005090721896
 10
137.8558112563987
 20
-19.69119539068054
 10
136.4999276316198
 20
-20.39679905195391
  0
LWPOLYLINE
  5
1E9
330
19B
100
AcDbEntity
  8
bold
100
AcDbPolyline
 90
       20
 70
     0
 43
0.0
 10
136.4999271211786
 20
-119.3952006643027
 10
139.277515976754
 20
-120.740598679048
 10
142.1983414574839
 20
-121.775173166701
 10
145.208102859914
 20
-122.4788634171429
 10
148.2802858666222
 20
-122.8396576608173
 10
151.3840046154942
 20
-122.8584327912532
 10
154.4604278151774
 20
-122.5348159298554
 10
157.4672192328697
 20
-121.8707532725629
 10
160.3898945755518
 20
-120.8772008015772
 10
163.1744669946702
 20
-119.5733071378574
 10
165.8062768783851
 20
-117.9588148035969
 10
168.2492849337829
 20
-116.0592991370351
 10
170.4593694184294
 20
-113.9100751914005
 10
172.4338885181796
 20
-111.5000971775777
 10
174.1324050677953
 20
-108.8775640574922
 10
175.5237417244921
 20
-106.0908775384348
 10
176.5966023417341
 20
-103.143891178029
 10
177.3347211648196
 20
-100.0840065620876
 10
177.7236556154796
 20
-96.96872670842744
 10
177.78595
 20
-95.10920000000002
  0
LWPOLYLINE
  5
1EA
330
19B
100
AcDbEntity
  8
bold
100
AcDbPolyline
 90
       13
 70
     0
 43
0.0
 10
136.4999271211786
 20
-119.3952006643027
 10
134.4591983784752
 20
-118.3684385767425
 10
132.3395527842479
 20
-117.511913948709
 10
130.0910578638234
 20
-116.81550292843
 10
127.7907355563738
 20
-116.3113578762082
 10
125.5213797437832
 20
-116.0100425415315
 10
123.2345978433868
 20
-115.8962295032764
 10
120.8796351677649
 20
-115.9764485065199
 10
118.5401920966554
 20
-116.2554903889914
 10
116.2205866251059
 20
-116.735177408705
 10
113.9511113373974
 20
-117.4099905532321
 10
111.6812029398375
 20
-118.305399685176
 10
109.5000723683802
 20
-119.3952009480461
  0
LWPOLYLINE
  5
1EB
330
19B
100
AcDbEntity
  8
bold
100
AcDbPolyline
 90
       13
 70
     0
 43
0.0
 10
82.49992712117859
 20
-119.3952006643027
 10
84.54064263082743
 20
-120.4219626914204
 10
86.66007922382889
 20
-121.2784123667268
 10
88.9081211761678
 20
-121.9747307604726
 10
91.20809671751918
 20
-122.4788813816191
 10
93.4776385934479
 20
-122.7803067376818
 10
95.76470637064801
 20
-122.8942037413707
 10
98.12036885251254
 20
-122.8139891295131
 10
100.4604219271929
 20
-122.5348528132225
 10
102.7800295794208
 20
-122.0551166688439
 10
105.0493775612773
 20
-121.380297460012
 10
107.3190085629731
 20
-120.4849796571503
 10
109.5000723683802
 20
-119.3952009480461
  0
LWPOLYLINE
  5
1EC
330
19B
100
AcDbEntity
  8
bold
100
AcDbPolyline
 90
       13
 70
     0
 43
0.0
 10
82.49992712117859
 20
-119.3952006643027
 10
80.45919837847521
 20
-118.3684385767425
 10
78.33955278424786
 20
-117.511913948709
 10
76.09105786382331
 20
-116.81550292843
 10
73.7907355563738
 20
-116.3113578762082
 10
71.52137974378317
 20
-116.0100425415315
 10
69.23459784338672
 20
-115.8962295032764
 10
66.87963516776483
 20
-115.9764485065199
 10
64.5401920966554
 20
-116.2554903889914
 10
62.22058693507461
 20
-116.7351773306124
 10
59.95111194155496
 20
-117.4099903451333
 10
57.68120384284583
 20
-118.3053992822528
 10
55.50007353779809
 20
-119.3952002979915
  0
ENDBLK
  5
19E
330
19B
100
AcDbEntity
  8
0
100
AcDbBlockEnd
  0
BLOCK
  5
1EF
330
1ED
100
AcDbEntity
  8
0
100
AcDbBlockBegin
  2
10_79115000_0_in_33602_0
 70
     2
 10
0.0
 20
0.0
 30
0.0
  3
10_79115000_0_in_33602_0
  1

  0
ATTDEF
  5
1F1
330
1ED
100
AcDbEntity
  8
attrib
100
AcDbText
 10
201.0
 20
-66.5
 30
0.0
 40
0.5
  1
79115000
100
AcDbAttributeDefinition
  3

  2
NB
 70
     8
280
     0
  0
ATTDEF
  5
1F2
330
1ED
100
AcDbEntity
  8
attrib
100
AcDbText
 10
201.0
 20
-67.0
 30
0.0
 40
0.5
  1
Size 1 middle
100
AcDbAttributeDefinition
  3

  2
NN
 70
     8
280
     0
  0
ATTDEF
  5
1F3
330
1ED
100
AcDbEntity
  8
attrib
100
AcDbText
 10
201.0
 20
-67.5
 30
0.0
 40
0.5
  1

100
AcDbAttributeDefinition
  3

  2
NT
 70
     8
280
     0
  0
ATTDEF
  5
1F4
330
1ED
100
AcDbEntity
  8
attrib
100
AcDbText
 10
201.0
 20
-68.0
 30
0.0
 40
0.5
  1
$NBX.
100
AcDbAttributeDefinition
  3

  2
NBSYN
 70
     8
280
     0
  0
ATTDEF
  5
1F5
330
1ED
100
AcDbEntity
  8
attrib
100
AcDbText
 10
201.0
 20
-68.5
 30
0.0
 40
0.5
  1
79115000
100
AcDbAttributeDefinition
  3

  2
LINA
 70
     8
280
     0
  0
ATTDEF
  5
1F6
330
1ED
100
AcDbEntity
  8
attrib
100
AcDbText
 10
201.0
 20
-69.0
 30
0.0
 40
0.5
  1
Wöhner
100
AcDbAttributeDefinition
  3

  2
CATALOG
 70
     8
280
     0
  0
ATTDEF
  5
1F7
330
1ED
100
AcDbEntity
  8
attrib
100
AcDbText
 10
201.0
 20
-69.5
 30
0.0
 40
0.5
  1
79115000
100
AcDbAttributeDefinition
  3

  2
NBX
 70
     8
280
     0
  0
ATTDEF
  5
1F8
330
1ED
100
AcDbEntity
  8
attrib
100
AcDbText
 10
201.0
 20
-70.0
 30
0.0
 40
0.5
  1
79115000
100
AcDbAttributeDefinition
  3

  2
ARTNR
 70
     8
280
     0
  0
ATTDEF
  5
1F9
330
1ED
100
AcDbEntity
  8
attrib
100
AcDbText
 10
201.0
 20
-70.5
 30
0.0
 40
0.5
  1
QUADRON®60Classic
100
AcDbAttributeDefinition
  3

  2
POF
 70
     8
280
     0
  0
ATTDEF
  5
1FA
330
1ED
100
AcDbEntity
  8
attrib
100
AcDbText
 10
201.0
 20
-71.0
 30
0.0
 40
0.5
  1
LTS-2
100
AcDbAttributeDefinition
  3

  2
TYPE
 70
     8
280
     0
  0
ATTDEF
  5
1FB
330
1ED
100
AcDbEntity
  8
attrib
100
AcDbText
 10
201.0
 20
-71.5
 30
0.0
 40
0.5
  1
3
100
AcDbAttributeDefinition
  3

  2
VER
 70
     8
280
     0
  0
ATTDEF
  5
1FC
330
1ED
100
AcDbEntity
  8
attrib
100
AcDbText
 10
201.0
 20
-72.0
 30
0.0
 40
0.5
  1
woehner
100
AcDbAttributeDefinition
  3

  2
COMPANY
 70
     8
280
     0
  0
ATTDEF
  5
1FD
330
1ED
100
AcDbEntity
  8
attrib
100
AcDbText
 10
201.0
 20
-72.5
 30
0.0
 40
0.5
  1
{$CADENAS_DATA/23d-libs/woehner/sys_60classic/nh_fuse_switch/parts/size1_2_3/size_1_2_3_middle3.prj},164 {VTYP=3D},{NB=79115000},{LINA=79115000},{NN=Size 1 middle},{DATE=26.01.2024 06:39:58},{GEOMDATE=10.01.2023 13:44:00},{VERSION=},{LINEID=970},{WBVAR=},
100
AcDbAttributeDefinition
  3

  2
PSOL_0
 70
     9
280
     0
  0
ATTDEF
  5
1FE
330
1ED
100
AcDbEntity
  8
attrib
100
AcDbText
 10
201.0
 20
-73.0
 30
0.0
 40
0.5
  1
{WBNUMERIC=}  {NB=79115000},{LINA=79115000},{KT=DUMMY},{NBX=79115000},{ARTNR=79115000},{POF=QUADRON®60Classic},{TYPE=LTS-2},{VER=3}
100
AcDbAttributeDefinition
  3

  2
PSOL_1
 70
     9
280
     0
  0
LINE
  5
1FF
330
1ED
100
AcDbEntity
  8
hidden
100
AcDbLine
 10
196.0
 20
-66.5
 30
0.0
 11
196.0
 21
-108.53
 31
0.0
  0
LINE
  5
200
330
1ED
100
AcDbEntity
  8
hidden
100
AcDbLine
 10
196.0
 20
-108.53
 30
0.0
 11
128.0
 21
-108.53
 31
0.0
  0
LINE
  5
201
330
1ED
100
AcDbEntity
  8
hidden
100
AcDbLine
 10
-4.000000000000004
 20
-66.5
 30
0.0
 11
-4.000000000000004
 21
-108.53
 31
0.0
  0
LINE
  5
202
330
1ED
100
AcDbEntity
  8
hidden
100
AcDbLine
 10
64.0
 20
-108.53
 30
0.0
 11
-4.000000000000004
 21
-108.53
 31
0.0
  0
LINE
  5
203
330
1ED
100
AcDbEntity
  8
hidden
100
AcDbLine
 10
126.0
 20
-108.53
 30
0.0
 11
66.0
 21
-108.53
 31
0.0
  0
LINE
  5
204
330
1ED
100
AcDbEntity
  8
hidden
100
AcDbLine
 10
76.0
 20
-94.5
 30
0.0
 11
116.0
 21
-94.5
 31
0.0
  0
LINE
  5
205
330
1ED
100
AcDbEntity
  8
hidden
100
AcDbLine
 10
116.0
 20
-94.5
 30
0.0
 11
116.0
 21
-81.5
 31
0.0
  0
LINE
  5
206
330
1ED
100
AcDbEntity
  8
hidden
100
AcDbLine
 10
116.0
 20
-81.5
 30
0.0
 11
76.0
 21
-81.5
 31
0.0
  0
LINE
  5
207
330
1ED
100
AcDbEntity
  8
hidden
100
AcDbLine
 10
76.0
 20
-81.5
 30
0.0
 11
76.0
 21
-94.5
 31
0.0
  0
LINE
  5
208
330
1ED
100
AcDbEntity
  8
hidden
100
AcDbLine
 10
78.0
 20
-110.5
 30
0.0
 11
78.0
 21
-108.5
 31
0.0
  0
LINE
  5
209
330
1ED
100
AcDbEntity
  8
hidden
100
AcDbLine
 10
13.0
 20
-193.5
 30
0.0
 11
13.0
 21
-108.5
 31
0.0
  0
LINE
  5
20A
330
1ED
100
AcDbEntity
  8
hidden
100
AcDbLine
 10
17.0
 20
-110.5
 30
0.0
 11
17.0
 21
-108.5
 31
0.0
  0
LINE
  5
20B
330
1ED
100
AcDbEntity
  8
hidden
100
AcDbLine
 10
45.0
 20
-110.5
 30
0.0
 11
45.0
 21
-108.5
 31
0.0
  0
LINE
  5
20C
330
1ED
100
AcDbEntity
  8
hidden
100
AcDbLine
 10
64.0
 20
-110.5
 30
0.0
 11
11.0
 21
-110.5
 31
0.0
  0
LINE
  5
20D
330
1ED
100
AcDbEntity
  8
hidden
100
AcDbLine
 10
181.0
 20
-110.5
 30
0.0
 11
128.0
 21
-110.5
 31
0.0
  0
LINE
  5
20E
330
1ED
100
AcDbEntity
  8
hidden
100
AcDbLine
 10
175.0
 20
-110.5
 30
0.0
 11
175.0
 21
-108.5
 31
0.0
  0
LINE
  5
20F
330
1ED
100
AcDbEntity
  8
hidden
100
AcDbLine
 10
179.0
 20
-193.5
 30
0.0
 11
179.0
 21
-108.5
 31
0.0
  0
LINE
  5
210
330
1ED
100
AcDbEntity
  8
hidden
100
AcDbLine
 10
82.0
 20
-110.5
 30
0.0
 11
82.0
 21
-108.5
 31
0.0
  0
LINE
  5
211
330
1ED
100
AcDbEntity
  8
hidden
100
AcDbLine
 10
110.0
 20
-110.5
 30
0.0
 11
110.0
 21
-108.5
 31
0.0
  0
LINE
  5
212
330
1ED
100
AcDbEntity
  8
hidden
100
AcDbLine
 10
49.0
 20
-110.5
 30
0.0
 11
49.0
 21
-108.5
 31
0.0
  0
LINE
  5
213
330
1ED
100
AcDbEntity
  8
hidden
100
AcDbLine
 10
74.00000000000001
 20
-110.5
 30
0.0
 11
74.00000000000001
 21
-108.5
 31
0.0
  0
LINE
  5
214
330
1ED
100
AcDbEntity
  8
hidden
100
AcDbLine
 10
70.0
 20
-110.5
 30
0.0
 11
69.99999999999999
 21
-108.5
 31
0.0
  0
LINE
  5
215
330
1ED
100
AcDbEntity
  8
hidden
100
AcDbLine
 10
143.0
 20
-110.5
 30
0.0
 11
143.0
 21
-108.5
 31
0.0
  0
LINE
  5
216
330
1ED
100
AcDbEntity
  8
hidden
100
AcDbLine
 10
147.0
 20
-110.5
 30
0.0
 11
147.0
 21
-108.5
 31
0.0
  0
LINE
  5
217
330
1ED
100
AcDbEntity
  8
hidden
100
AcDbLine
 10
122.0
 20
-110.5
 30
0.0
 11
122.0
 21
-108.5
 31
0.0
  0
LINE
  5
218
330
1ED
100
AcDbEntity
  8
hidden
100
AcDbLine
 10
118.0
 20
-110.5
 30
0.0
 11
118.0
 21
-108.5
 31
0.0
  0
LINE
  5
219
330
1ED
100
AcDbEntity
  8
hidden
100
AcDbLine
 10
114.0
 20
-110.5
 30
0.0
 11
114.0
 21
-108.5
 31
0.0
  0
LINE
  5
21A
330
1ED
100
AcDbEntity
  8
hidden
100
AcDbLine
 10
66.0
 20
-110.5
 30
0.0
 11
126.0
 21
-110.5
 31
0.0
  0
LINE
  5
21B
330
1ED
100
AcDbEntity
  8
hidden
100
AcDbLine
 10
13.0
 20
-193.5
 30
0.0
 11
64.0
 21
-193.5
 31
0.0
  0
LINE
  5
21C
330
1ED
100
AcDbEntity
  8
hidden
100
AcDbLine
 10
66.0
 20
-193.5
 30
0.0
 11
126.0
 21
-193.5
 31
0.0
  0
LINE
  5
21D
330
1ED
100
AcDbEntity
  8
hidden
100
AcDbLine
 10
128.0
 20
-193.5
 30
0.0
 11
179.0
 21
-193.5
 31
0.0
  0
LINE
  5
21E
330
1ED
100
AcDbEntity
  8
hidden
100
AcDbLine
 10
131.0
 20
-152.5
 30
0.0
 11
131.0
 21
-108.5
 31
0.0
  0
LINE
  5
21F
330
1ED
100
AcDbEntity
  8
hidden
100
AcDbLine
 10
27.00000000000001
 20
-154.5
 30
0.0
 11
35.0
 21
-154.5
 31
0.0
  0
LINE
  5
220
330
1ED
100
AcDbEntity
  8
hidden
100
AcDbLine
 10
64.0
 20
-108.5
 30
0.0
 11
11.0
 21
-108.5
 31
0.0
  0
LINE
  5
221
330
1ED
100
AcDbEntity
  8
hidden
100
AcDbLine
 10
27.00000000000001
 20
-154.5
 30
0.0
 11
27.0
 21
-108.5
 31
0.0
  0
LINE
  5
222
330
1ED
100
AcDbEntity
  8
hidden
100
AcDbLine
 10
128.0
 20
-152.5
 30
0.0
 11
131.0
 21
-152.5
 31
0.0
  0
LINE
  5
223
330
1ED
100
AcDbEntity
  8
hidden
100
AcDbLine
 10
11.0
 20
-108.5
 30
0.0
 11
11.0
 21
-157.896
 31
0.0
  0
LINE
  5
224
330
1ED
100
AcDbEntity
  8
hidden
100
AcDbLine
 10
61.0
 20
-152.5
 30
0.0
 11
64.0
 21
-152.5
 31
0.0
  0
LINE
  5
225
330
1ED
100
AcDbEntity
  8
hidden
100
AcDbLine
 10
61.0
 20
-108.5
 30
0.0
 11
61.0
 21
-152.5
 31
0.0
  0
LINE
  5
226
330
1ED
100
AcDbEntity
  8
hidden
100
AcDbLine
 10
126.0
 20
-108.5
 30
0.0
 11
66.0
 21
-108.5
 31
0.0
  0
LINE
  5
227
330
1ED
100
AcDbEntity
  8
hidden
100
AcDbLine
 10
35.0
 20
-154.5
 30
0.0
 11
35.0
 21
-108.5
 31
0.0
  0
LINE
  5
228
330
1ED
100
AcDbEntity
  8
hidden
100
AcDbLine
 10
181.0
 20
-108.5
 30
0.0
 11
181.0
 21
-157.896
 31
0.0
  0
LINE
  5
229
330
1ED
100
AcDbEntity
  8
hidden
100
AcDbLine
 10
181.0
 20
-108.5
 30
0.0
 11
128.0
 21
-108.5
 31
0.0
  0
LINE
  5
22A
330
1ED
100
AcDbEntity
  8
hidden
100
AcDbLine
 10
165.0
 20
-154.5
 30
0.0
 11
165.0
 21
-108.5
 31
0.0
  0
LINE
  5
22B
330
1ED
100
AcDbEntity
  8
hidden
100
AcDbLine
 10
157.0
 20
-154.5
 30
0.0
 11
165.0
 21
-154.5
 31
0.0
  0
LINE
  5
22C
330
1ED
100
AcDbEntity
  8
hidden
100
AcDbLine
 10
157.0
 20
-154.5
 30
0.0
 11
157.0
 21
-108.5
 31
0.0
  0
LINE
  5
22D
330
1ED
100
AcDbEntity
  8
hidden
100
AcDbLine
 10
100.0
 20
-154.5
 30
0.0
 11
100.0
 21
-108.5
 31
0.0
  0
LINE
  5
22E
330
1ED
100
AcDbEntity
  8
hidden
100
AcDbLine
 10
92.0
 20
-154.5
 30
0.0
 11
100.0
 21
-154.5
 31
0.0
  0
LINE
  5
22F
330
1ED
100
AcDbEntity
  8
hidden
100
AcDbLine
 10
92.0
 20
-154.5
 30
0.0
 11
92.0
 21
-108.5
 31
0.0
  0
LINE
  5
230
330
1ED
100
AcDbEntity
  8
hidden
100
AcDbLine
 10
126.0
 20
-66.5
 30
0.0
 11
126.0
 21
-195.5
 31
0.0
  0
LINE
  5
231
330
1ED
100
AcDbEntity
  8
hidden
100
AcDbLine
 10
128.0
 20
-66.5
 30
0.0
 11
128.0
 21
-195.5
 31
0.0
  0
LINE
  5
232
330
1ED
100
AcDbEntity
  8
hidden
100
AcDbLine
 10
126.0
 20
-148.5
 30
0.0
 11
128.0
 21
-148.5
 31
0.0
  0
LINE
  5
233
330
1ED
100
AcDbEntity
  8
hidden
100
AcDbLine
 10
66.0
 20
-148.5
 30
0.0
 11
64.0
 21
-148.5
 31
0.0
  0
LINE
  5
234
330
1ED
100
AcDbEntity
  8
hidden
100
AcDbLine
 10
64.0
 20
-66.5
 30
0.0
 11
64.0
 21
-195.5
 31
0.0
  0
LINE
  5
235
330
1ED
100
AcDbEntity
  8
hidden
100
AcDbLine
 10
196.0
 20
-66.5
 30
0.0
 11
-4.000000000000004
 21
-66.5
 31
0.0
  0
LINE
  5
236
330
1ED
100
AcDbEntity
  8
hidden
100
AcDbLine
 10
66.0
 20
-66.5
 30
0.0
 11
66.0
 21
-195.5
 31
0.0
  0
LINE
  5
237
330
1ED
100
AcDbEntity
  8
bold
100
AcDbLine
 10
11.0
 20
-157.896
 30
0.0
 11
11.0
 21
-195.5
 31
0.0
  0
LINE
  5
238
330
1ED
100
AcDbEntity
  8
bold
100
AcDbLine
 10
181.0
 20
-195.5
 30
0.0
 11
11.0
 21
-195.5
 31
0.0
  0
LINE
  5
239
330
1ED
100
AcDbEntity
  8
bold
100
AcDbLine
 10
181.0
 20
-157.896
 30
0.0
 11
181.0
 21
-195.5
 31
0.0
  0
ENDBLK
  5
1F0
330
1ED
100
AcDbEntity
  8
0
100
AcDbBlockEnd
  0
BLOCK
  5
23C
330
23A
100
AcDbEntity
  8
0
100
AcDbBlockBegin
  2
11_30712000_0_in_33602_0
 70
     2
 10
0.0
 20
0.0
 30
0.0
  3
11_30712000_0_in_33602_0
  1

  0
ATTDEF
  5
23E
330
23A
100
AcDbEntity
  8
attrib
100
AcDbText
 10
201.0
 20
59.50000000000001
 30
0.0
 40
0.5
  1
30712000
100
AcDbAttributeDefinition
  3

  2
NB
 70
     8
280
     0
  0
ATTDEF
  5
23F
330
23A
100
AcDbEntity
  8
attrib
100
AcDbText
 10
201.0
 20
59.00000000000001
 30
0.0
 40
0.5
  1
Size 1 middle
100
AcDbAttributeDefinition
  3

  2
NN
 70
     8
280
     0
  0
ATTDEF
  5
240
330
23A
100
AcDbEntity
  8
attrib
100
AcDbText
 10
201.0
 20
58.50000000000001
 30
0.0
 40
0.5
  1

100
AcDbAttributeDefinition
  3

  2
NT
 70
     8
280
     0
  0
ATTDEF
  5
241
330
23A
100
AcDbEntity
  8
attrib
100
AcDbText
 10
201.0
 20
58.00000000000001
 30
0.0
 40
0.5
  1
$NBX.
100
AcDbAttributeDefinition
  3

  2
NBSYN
 70
     8
280
     0
  0
ATTDEF
  5
242
330
23A
100
AcDbEntity
  8
attrib
100
AcDbText
 10
201.0
 20
57.50000000000001
 30
0.0
 40
0.5
  1
30712000
100
AcDbAttributeDefinition
  3

  2
LINA
 70
     8
280
     0
  0
ATTDEF
  5
243
330
23A
100
AcDbEntity
  8
attrib
100
AcDbText
 10
201.0
 20
57.00000000000001
 30
0.0
 40
0.5
  1
Wöhner
100
AcDbAttributeDefinition
  3

  2
CATALOG
 70
     8
280
     0
  0
ATTDEF
  5
244
330
23A
100
AcDbEntity
  8
attrib
100
AcDbText
 10
201.0
 20
56.50000000000001
 30
0.0
 40
0.5
  1
30712000
100
AcDbAttributeDefinition
  3

  2
NBX
 70
     8
280
     0
  0
ATTDEF
  5
245
330
23A
100
AcDbEntity
  8
attrib
100
AcDbText
 10
201.0
 20
56.00000000000001
 30
0.0
 40
0.5
  1
30712000
100
AcDbAttributeDefinition
  3

  2
ARTNR
 70
     8
280
     0
  0
ATTDEF
  5
246
330
23A
100
AcDbEntity
  8
attrib
100
AcDbText
 10
201.0
 20
55.50000000000001
 30
0.0
 40
0.5
  1
QUADRON®60Classic
100
AcDbAttributeDefinition
  3

  2
POF
 70
     8
280
     0
  0
ATTDEF
  5
247
330
23A
100
AcDbEntity
  8
attrib
100
AcDbText
 10
201.0
 20
55.00000000000001
 30
0.0
 40
0.5
  1
LTS-2
100
AcDbAttributeDefinition
  3

  2
TYPE
 70
     8
280
     0
  0
ATTDEF
  5
248
330
23A
100
AcDbEntity
  8
attrib
100
AcDbText
 10
201.0
 20
54.50000000000001
 30
0.0
 40
0.5
  1
3
100
AcDbAttributeDefinition
  3

  2
VER
 70
     8
280
     0
  0
ATTDEF
  5
249
330
23A
100
AcDbEntity
  8
attrib
100
AcDbText
 10
201.0
 20
54.00000000000001
 30
0.0
 40
0.5
  1
woehner
100
AcDbAttributeDefinition
  3

  2
COMPANY
 70
     8
280
     0
  0
ATTDEF
  5
24A
330
23A
100
AcDbEntity
  8
attrib
100
AcDbText
 10
201.0
 20
53.50000000000001
 30
0.0
 40
0.5
  1
{$CADENAS_DATA/23d-libs/woehner/sys_60classic/nh_fuse_switch/parts/size1_2_3/size_1_2_3_middle2.prj},164 {VTYP=3D},{NB=30712000},{LINA=30712000},{NN=Size 1 middle},{DATE=26.01.2024 06:39:58},{GEOMDATE=10.01.2023 09:50:00},{VERSION=},{LINEID=970},{WBVAR=},
100
AcDbAttributeDefinition
  3

  2
PSOL_0
 70
     9
280
     0
  0
ATTDEF
  5
24B
330
23A
100
AcDbEntity
  8
attrib
100
AcDbText
 10
201.0
 20
53.00000000000001
 30
0.0
 40
0.5
  1
{WBNUMERIC=}  {NB=30712000},{LINA=30712000},{KT=DUMMY},{NBX=30712000},{ARTNR=30712000},{POF=QUADRON®60Classic},{TYPE=LTS-2},{VER=3}
100
AcDbAttributeDefinition
  3

  2
PSOL_1
 70
     9
280
     0
  0
LINE
  5
24C
330
23A
100
AcDbEntity
  8
hidden
100
AcDbLine
 10
-4.000000000000004
 20
-20.5
 30
0.0
 11
64.0
 21
-20.5
 31
0.0
  0
LINE
  5
24D
330
23A
100
AcDbEntity
  8
hidden
100
AcDbLine
 10
64.0
 20
-18.5
 30
0.0
 11
-4.000000000000004
 21
-18.5
 31
0.0
  0
LINE
  5
24E
330
23A
100
AcDbEntity
  8
hidden
100
AcDbLine
 10
128.0
 20
-20.5
 30
0.0
 11
196.0
 21
-20.5
 31
0.0
  0
LINE
  5
24F
330
23A
100
AcDbEntity
  8
hidden
100
AcDbLine
 10
79.5
 20
-46.2627
 30
0.0
 11
112.5
 21
-46.2627
 31
0.0
  0
LINE
  5
250
330
23A
100
AcDbEntity
  8
hidden
100
AcDbLine
 10
79.5
 20
-34.26269999999999
 30
0.0
 11
79.5
 21
-46.2627
 31
0.0
  0
LINE
  5
251
330
23A
100
AcDbEntity
  8
hidden
100
AcDbLine
 10
112.5
 20
-34.26269999999999
 30
0.0
 11
79.5
 21
-34.26269999999999
 31
0.0
  0
LINE
  5
252
330
23A
100
AcDbEntity
  8
hidden
100
AcDbLine
 10
112.5
 20
-46.2627
 30
0.0
 11
112.5
 21
-34.26269999999999
 31
0.0
  0
LINE
  5
253
330
23A
100
AcDbEntity
  8
hidden
100
AcDbLine
 10
17.0
 20
-18.5
 30
0.0
 11
17.0
 21
-20.5
 31
0.0
  0
LINE
  5
254
330
23A
100
AcDbEntity
  8
hidden
100
AcDbLine
 10
13.0
 20
-18.5
 30
0.0
 11
13.0
 21
-20.5
 31
0.0
  0
LINE
  5
255
330
23A
100
AcDbEntity
  8
hidden
100
AcDbLine
 10
70.0
 20
-18.5
 30
0.0
 11
70.0
 21
-20.5
 31
0.0
  0
LINE
  5
256
330
23A
100
AcDbEntity
  8
hidden
100
AcDbLine
 10
118.0
 20
-18.5
 30
0.0
 11
118.0
 21
-20.5
 31
0.0
  0
LINE
  5
257
330
23A
100
AcDbEntity
  8
hidden
100
AcDbLine
 10
45.0
 20
-18.5
 30
0.0
 11
45.0
 21
-20.5
 31
0.0
  0
LINE
  5
258
330
23A
100
AcDbEntity
  8
hidden
100
AcDbLine
 10
49.0
 20
-18.5
 30
0.0
 11
49.0
 21
-20.5
 31
0.0
  0
LINE
  5
259
330
23A
100
AcDbEntity
  8
hidden
100
AcDbLine
 10
110.0
 20
-18.5
 30
0.0
 11
110.0
 21
-20.5
 31
0.0
  0
LINE
  5
25A
330
23A
100
AcDbEntity
  8
hidden
100
AcDbLine
 10
114.0
 20
-18.5
 30
0.0
 11
114.0
 21
-20.5
 31
0.0
  0
LINE
  5
25B
330
23A
100
AcDbEntity
  8
hidden
100
AcDbLine
 10
82.0
 20
-18.5
 30
0.0
 11
82.0
 21
-20.5
 31
0.0
  0
LINE
  5
25C
330
23A
100
AcDbEntity
  8
hidden
100
AcDbLine
 10
122.0
 20
-18.5
 30
0.0
 11
122.0
 21
-20.5
 31
0.0
  0
LINE
  5
25D
330
23A
100
AcDbEntity
  8
hidden
100
AcDbLine
 10
74.00000000000001
 20
-18.5
 30
0.0
 11
74.00000000000001
 21
-20.5
 31
0.0
  0
LINE
  5
25E
330
23A
100
AcDbEntity
  8
hidden
100
AcDbLine
 10
78.0
 20
-18.5
 30
0.0
 11
78.0
 21
-20.5
 31
0.0
  0
LINE
  5
25F
330
23A
100
AcDbEntity
  8
hidden
100
AcDbLine
 10
128.0
 20
-18.5
 30
0.0
 11
196.0
 21
-18.5
 31
0.0
  0
LINE
  5
260
330
23A
100
AcDbEntity
  8
hidden
100
AcDbLine
 10
147.0
 20
-18.5
 30
0.0
 11
147.0
 21
-20.5
 31
0.0
  0
LINE
  5
261
330
23A
100
AcDbEntity
  8
hidden
100
AcDbLine
 10
143.0
 20
-18.5
 30
0.0
 11
143.0
 21
-20.5
 31
0.0
  0
LINE
  5
262
330
23A
100
AcDbEntity
  8
hidden
100
AcDbLine
 10
175.0
 20
-18.5
 30
0.0
 11
175.0
 21
-20.5
 31
0.0
  0
LINE
  5
263
330
23A
100
AcDbEntity
  8
hidden
100
AcDbLine
 10
179.0
 20
-18.5
 30
0.0
 11
179.0
 21
-20.5
 31
0.0
  0
LINE
  5
264
330
23A
100
AcDbEntity
  8
hidden
100
AcDbLine
 10
126.0
 20
-18.5
 30
0.0
 11
66.0
 21
-18.5
 31
0.0
  0
LINE
  5
265
330
23A
100
AcDbEntity
  8
hidden
100
AcDbLine
 10
194.0
 20
57.5
 30
0.0
 11
128.0
 21
57.5
 31
0.0
  0
LINE
  5
266
330
23A
100
AcDbEntity
  8
hidden
100
AcDbLine
 10
194.0
 20
-18.5
 30
0.0
 11
194.0
 21
57.5
 31
0.0
  0
LINE
  5
267
330
23A
100
AcDbEntity
  8
hidden
100
AcDbLine
 10
126.0
 20
57.5
 30
0.0
 11
66.0
 21
57.5
 31
0.0
  0
LINE
  5
268
330
23A
100
AcDbEntity
  8
hidden
100
AcDbLine
 10
-2.000000000000002
 20
-18.5
 30
0.0
 11
-2.000000000000002
 21
57.5
 31
0.0
  0
LINE
  5
269
330
23A
100
AcDbEntity
  8
hidden
100
AcDbLine
 10
64.0
 20
57.5
 30
0.0
 11
-2.000000000000002
 21
57.5
 31
0.0
  0
LINE
  5
26A
330
23A
100
AcDbEntity
  8
hidden
100
AcDbLine
 10
131.0
 20
-20.5
 30
0.0
 11
131.0
 21
23.5
 31
0.0
  0
LINE
  5
26B
330
23A
100
AcDbEntity
  8
hidden
100
AcDbLine
 10
61.0
 20
23.5
 30
0.0
 11
61.0
 21
-20.5
 31
0.0
  0
LINE
  5
26C
330
23A
100
AcDbEntity
  8
hidden
100
AcDbLine
 10
131.0
 20
23.5
 30
0.0
 11
128.0
 21
23.5
 31
0.0
  0
LINE
  5
26D
330
23A
100
AcDbEntity
  8
hidden
100
AcDbLine
 10
-4.000000000000004
 20
59.50000000000001
 30
0.0
 11
196.0
 21
59.50000000000001
 31
0.0
  0
LINE
  5
26E
330
23A
100
AcDbEntity
  8
hidden
100
AcDbLine
 10
64.0
 20
23.5
 30
0.0
 11
61.0
 21
23.5
 31
0.0
  0
LINE
  5
26F
330
23A
100
AcDbEntity
  8
hidden
100
AcDbLine
 10
196.0
 20
-60.49999999999999
 30
0.0
 11
196.0
 21
59.50000000000001
 31
0.0
  0
LINE
  5
270
330
23A
100
AcDbEntity
  8
hidden
100
AcDbLine
 10
-4.000000000000004
 20
-60.49999999999999
 30
0.0
 11
-4.000000000000004
 21
59.50000000000001
 31
0.0
  0
LINE
  5
271
330
23A
100
AcDbEntity
  8
hidden
100
AcDbLine
 10
66.0
 20
-20.5
 30
0.0
 11
126.0
 21
-20.5
 31
0.0
  0
LINE
  5
272
330
23A
100
AcDbEntity
  8
hidden
100
AcDbLine
 10
59.00000000000001
 20
-18.5
 30
0.0
 11
59.00000000000001
 21
-20.5
 31
0.0
  0
LINE
  5
273
330
23A
100
AcDbEntity
  8
hidden
100
AcDbLine
 10
133.0
 20
-20.5
 30
0.0
 11
133.0
 21
-18.5
 31
0.0
  0
LINE
  5
274
330
23A
100
AcDbEntity
  8
hidden
100
AcDbLine
 10
48.0
 20
-13.50000000000001
 30
0.0
 11
35.0
 21
-13.50000000000001
 31
0.0
  0
LINE
  5
275
330
23A
100
AcDbEntity
  8
hidden
100
AcDbLine
 10
157.0
 20
-13.50000000000001
 30
0.0
 11
144.0
 21
-13.50000000000001
 31
0.0
  0
LINE
  5
276
330
23A
100
AcDbEntity
  8
hidden
100
AcDbLine
 10
92.0
 20
-13.50000000000001
 30
0.0
 11
79.0
 21
-13.50000000000001
 31
0.0
  0
LINE
  5
277
330
23A
100
AcDbEntity
  8
hidden
100
AcDbLine
 10
27.0
 20
-13.50000000000001
 30
0.0
 11
14.0
 21
-13.50000000000001
 31
0.0
  0
LINE
  5
278
330
23A
100
AcDbEntity
  8
hidden
100
AcDbLine
 10
113.0
 20
-13.50000000000001
 30
0.0
 11
100.0
 21
-13.50000000000001
 31
0.0
  0
LINE
  5
279
330
23A
100
AcDbEntity
  8
hidden
100
AcDbLine
 10
178.0
 20
-13.50000000000001
 30
0.0
 11
165.0
 21
-13.50000000000001
 31
0.0
  0
LINE
  5
27A
330
23A
100
AcDbEntity
  8
hidden
100
AcDbLine
 10
64.0
 20
-60.49999999999999
 30
0.0
 11
64.0
 21
59.50000000000001
 31
0.0
  0
LINE
  5
27B
330
23A
100
AcDbEntity
  8
hidden
100
AcDbLine
 10
66.0
 20
-60.49999999999999
 30
0.0
 11
66.0
 21
59.50000000000001
 31
0.0
  0
LINE
  5
27C
330
23A
100
AcDbEntity
  8
hidden
100
AcDbLine
 10
66.0
 20
-3.499999999999996
 30
0.0
 11
64.0
 21
-3.499999999999996
 31
0.0
  0
LINE
  5
27D
330
23A
100
AcDbEntity
  8
hidden
100
AcDbLine
 10
128.0
 20
-60.49999999999999
 30
0.0
 11
128.0
 21
59.50000000000001
 31
0.0
  0
LINE
  5
27E
330
23A
100
AcDbEntity
  8
hidden
100
AcDbLine
 10
126.0
 20
-3.499999999999996
 30
0.0
 11
128.0
 21
-3.499999999999996
 31
0.0
  0
LINE
  5
27F
330
23A
100
AcDbEntity
  8
hidden
100
AcDbLine
 10
126.0
 20
-60.49999999999999
 30
0.0
 11
126.0
 21
59.50000000000001
 31
0.0
  0
LINE
  5
280
330
23A
100
AcDbEntity
  8
hidden
100
AcDbLine
 10
-4.000000000000004
 20
-60.49999999999999
 30
0.0
 11
196.0
 21
-60.49999999999999
 31
0.0
  0
LINE
  5
281
330
23A
100
AcDbEntity
  8
hidden
100
AcDbLine
 10
13.0
 20
19.5
 30
0.0
 11
13.0
 21
50.2179227495056
 31
0.0
  0
LINE
  5
282
330
23A
100
AcDbEntity
  8
hidden
100
AcDbLine
 10
78.0
 20
19.5
 30
0.0
 11
78.0
 21
50.2179227495056
 31
0.0
  0
LINE
  5
283
330
23A
100
AcDbEntity
  8
hidden
100
AcDbLine
 10
143.0
 20
19.5
 30
0.0
 11
143.0
 21
50.2179227495056
 31
0.0
  0
LINE
  5
284
330
23A
100
AcDbEntity
  8
hidden
100
AcDbLine
 10
13.0
 20
19.5
 30
0.0
 11
49.0
 21
19.5
 31
0.0
  0
LINE
  5
285
330
23A
100
AcDbEntity
  8
hidden
100
AcDbLine
 10
49.0
 20
19.5
 30
0.0
 11
49.0
 21
50.2179227495056
 31
0.0
  0
LINE
  5
286
330
23A
100
AcDbEntity
  8
hidden
100
AcDbLine
 10
179.0
 20
19.5
 30
0.0
 11
179.0
 21
50.2179227495056
 31
0.0
  0
LINE
  5
287
330
23A
100
AcDbEntity
  8
hidden
100
AcDbLine
 10
143.0
 20
19.5
 30
0.0
 11
179.0
 21
19.5
 31
0.0
  0
LINE
  5
288
330
23A
100
AcDbEntity
  8
hidden
100
AcDbLine
 10
78.0
 20
19.5
 30
0.0
 11
114.0
 21
19.5
 31
0.0
  0
LINE
  5
289
330
23A
100
AcDbEntity
  8
hidden
100
AcDbLine
 10
114.0
 20
19.5
 30
0.0
 11
114.0
 21
50.2179227495056
 31
0.0
  0
LINE
  5
28A
330
23A
100
AcDbEntity
  8
hidden
100
AcDbLine
 10
14.0
 20
-13.50000000000001
 30
0.0
 11
14.0
 21
-10.5
 31
0.0
  0
LINE
  5
28B
330
23A
100
AcDbEntity
  8
hidden
100
AcDbLine
 10
16.0
 20
-13.50000000000001
 30
0.0
 11
16.0
 21
-10.5
 31
0.0
  0
LINE
  5
28C
330
23A
100
AcDbEntity
  8
hidden
100
AcDbLine
 10
111.0
 20
-13.50000000000001
 30
0.0
 11
111.0
 21
-10.5
 31
0.0
  0
LINE
  5
28D
330
23A
100
AcDbEntity
  8
hidden
100
AcDbLine
 10
113.0
 20
-13.50000000000001
 30
0.0
 11
113.0
 21
-10.5
 31
0.0
  0
LINE
  5
28E
330
23A
100
AcDbEntity
  8
hidden
100
AcDbLine
 10
144.0
 20
-13.50000000000001
 30
0.0
 11
144.0
 21
-10.5
 31
0.0
  0
LINE
  5
28F
330
23A
100
AcDbEntity
  8
hidden
100
AcDbLine
 10
146.0
 20
-13.50000000000001
 30
0.0
 11
146.0
 21
-10.5
 31
0.0
  0
LINE
  5
290
330
23A
100
AcDbEntity
  8
hidden
100
AcDbLine
 10
79.0
 20
-13.50000000000001
 30
0.0
 11
79.0
 21
-10.5
 31
0.0
  0
LINE
  5
291
330
23A
100
AcDbEntity
  8
hidden
100
AcDbLine
 10
81.0
 20
-13.50000000000001
 30
0.0
 11
81.0
 21
-10.5
 31
0.0
  0
LINE
  5
292
330
23A
100
AcDbEntity
  8
hidden
100
AcDbLine
 10
178.0
 20
-13.50000000000001
 30
0.0
 11
178.0
 21
-10.5
 31
0.0
  0
LINE
  5
293
330
23A
100
AcDbEntity
  8
hidden
100
AcDbLine
 10
176.0
 20
-13.50000000000001
 30
0.0
 11
176.0
 21
-10.5
 31
0.0
  0
LINE
  5
294
330
23A
100
AcDbEntity
  8
hidden
100
AcDbLine
 10
48.0
 20
-13.50000000000001
 30
0.0
 11
48.0
 21
-10.5
 31
0.0
  0
LINE
  5
295
330
23A
100
AcDbEntity
  8
hidden
100
AcDbLine
 10
46.0
 20
-13.50000000000001
 30
0.0
 11
46.0
 21
-10.5
 31
0.0
  0
LINE
  5
296
330
23A
100
AcDbEntity
  8
hidden
100
AcDbLine
 10
100.0
 20
14.50000000000001
 30
0.0
 11
100.0
 21
-20.5
 31
0.0
  0
LINE
  5
297
330
23A
100
AcDbEntity
  8
hidden
100
AcDbLine
 10
92.0
 20
14.50000000000001
 30
0.0
 11
92.0
 21
-20.5
 31
0.0
  0
LINE
  5
298
330
23A
100
AcDbEntity
  8
hidden
100
AcDbLine
 10
116.0
 20
-10.5
 30
0.0
 11
116.0
 21
50.50000000000001
 31
0.0
  0
LINE
  5
299
330
23A
100
AcDbEntity
  8
hidden
100
AcDbLine
 10
76.0
 20
-10.5
 30
0.0
 11
76.0
 21
50.50000000000001
 31
0.0
  0
LINE
  5
29A
330
23A
100
AcDbEntity
  8
hidden
100
AcDbLine
 10
116.0
 20
-10.5
 30
0.0
 11
100.0
 21
-10.5
 31
0.0
  0
LINE
  5
29B
330
23A
100
AcDbEntity
  8
hidden
100
AcDbLine
 10
92.0
 20
-10.5
 30
0.0
 11
76.0
 21
-10.5
 31
0.0
  0
LINE
  5
29C
330
23A
100
AcDbEntity
  8
hidden
100
AcDbLine
 10
100.0
 20
14.50000000000001
 30
0.0
 11
92.0
 21
14.50000000000001
 31
0.0
  0
LINE
  5
29D
330
23A
100
AcDbEntity
  8
hidden
100
AcDbLine
 10
181.0
 20
-10.5
 30
0.0
 11
181.0
 21
50.50000000000001
 31
0.0
  0
LINE
  5
29E
330
23A
100
AcDbEntity
  8
hidden
100
AcDbLine
 10
141.0
 20
-10.5
 30
0.0
 11
141.0
 21
50.50000000000001
 31
0.0
  0
LINE
  5
29F
330
23A
100
AcDbEntity
  8
hidden
100
AcDbLine
 10
143.0
 20
50.2179227495056
 30
0.0
 11
179.0
 21
50.2179227495056
 31
0.0
  0
LINE
  5
2A0
330
23A
100
AcDbEntity
  8
hidden
100
AcDbLine
 10
179.0
 20
49.56202087415489
 30
0.0
 11
143.0
 21
49.56202087415489
 31
0.0
  0
LINE
  5
2A1
330
23A
100
AcDbEntity
  8
hidden
100
AcDbLine
 10
143.0
 20
48.77783475222222
 30
0.0
 11
179.0
 21
48.77783475222222
 31
0.0
  0
LINE
  5
2A2
330
23A
100
AcDbEntity
  8
hidden
100
AcDbLine
 10
179.0
 20
47.8563698251445
 30
0.0
 11
143.0
 21
47.8563698251445
 31
0.0
  0
LINE
  5
2A3
330
23A
100
AcDbEntity
  8
hidden
100
AcDbLine
 10
143.0
 20
46.78594368020068
 30
0.0
 11
179.0
 21
46.78594368020068
 31
0.0
  0
LINE
  5
2A4
330
23A
100
AcDbEntity
  8
hidden
100
AcDbLine
 10
179.0
 20
45.55124952998224
 30
0.0
 11
143.0
 21
45.55124952998224
 31
0.0
  0
LINE
  5
2A5
330
23A
100
AcDbEntity
  8
hidden
100
AcDbLine
 10
143.0
 20
44.13189273376377
 30
0.0
 11
179.0
 21
44.13189273376377
 31
0.0
  0
LINE
  5
2A6
330
23A
100
AcDbEntity
  8
hidden
100
AcDbLine
 10
179.0
 20
42.49999627169544
 30
0.0
 11
143.0
 21
42.49999627169544
 31
0.0
  0
LINE
  5
2A7
330
23A
100
AcDbEntity
  8
hidden
100
AcDbLine
 10
143.0
 20
40.61603860184449
 30
0.0
 11
179.0
 21
40.61603860184449
 31
0.0
  0
LINE
  5
2A8
330
23A
100
AcDbEntity
  8
hidden
100
AcDbLine
 10
179.0
 20
38.42101184778944
 30
0.0
 11
143.0
 21
38.42101184778944
 31
0.0
  0
LINE
  5
2A9
330
23A
100
AcDbEntity
  8
hidden
100
AcDbLine
 10
143.0
 20
35.81990488959882
 30
0.0
 11
179.0
 21
35.81990488959882
 31
0.0
  0
LINE
  5
2AA
330
23A
100
AcDbEntity
  8
hidden
100
AcDbLine
 10
179.0
 20
32.64067963837286
 30
0.0
 11
143.0
 21
32.64067963837286
 31
0.0
  0
LINE
  5
2AB
330
23A
100
AcDbEntity
  8
hidden
100
AcDbLine
 10
181.0
 20
50.50000000000001
 30
0.0
 11
141.0
 21
50.50000000000001
 31
0.0
  0
LINE
  5
2AC
330
23A
100
AcDbEntity
  8
hidden
100
AcDbLine
 10
51.0
 20
-10.5
 30
0.0
 11
51.0
 21
50.50000000000001
 31
0.0
  0
LINE
  5
2AD
330
23A
100
AcDbEntity
  8
hidden
100
AcDbLine
 10
13.0
 20
50.2179227495056
 30
0.0
 11
49.0
 21
50.2179227495056
 31
0.0
  0
LINE
  5
2AE
330
23A
100
AcDbEntity
  8
hidden
100
AcDbLine
 10
49.0
 20
49.56202087415489
 30
0.0
 11
13.0
 21
49.56202087415489
 31
0.0
  0
LINE
  5
2AF
330
23A
100
AcDbEntity
  8
hidden
100
AcDbLine
 10
13.0
 20
48.77783475222222
 30
0.0
 11
49.0
 21
48.77783475222222
 31
0.0
  0
LINE
  5
2B0
330
23A
100
AcDbEntity
  8
hidden
100
AcDbLine
 10
49.0
 20
47.8563698251445
 30
0.0
 11
13.0
 21
47.8563698251445
 31
0.0
  0
LINE
  5
2B1
330
23A
100
AcDbEntity
  8
hidden
100
AcDbLine
 10
13.0
 20
46.78594368020068
 30
0.0
 11
49.0
 21
46.78594368020068
 31
0.0
  0
LINE
  5
2B2
330
23A
100
AcDbEntity
  8
hidden
100
AcDbLine
 10
49.0
 20
45.55124952998224
 30
0.0
 11
13.0
 21
45.55124952998224
 31
0.0
  0
LINE
  5
2B3
330
23A
100
AcDbEntity
  8
hidden
100
AcDbLine
 10
13.0
 20
44.13189273376377
 30
0.0
 11
49.0
 21
44.13189273376377
 31
0.0
  0
LINE
  5
2B4
330
23A
100
AcDbEntity
  8
hidden
100
AcDbLine
 10
49.0
 20
42.49999627169544
 30
0.0
 11
13.0
 21
42.49999627169544
 31
0.0
  0
LINE
  5
2B5
330
23A
100
AcDbEntity
  8
hidden
100
AcDbLine
 10
13.0
 20
40.61603860184449
 30
0.0
 11
49.0
 21
40.61603860184449
 31
0.0
  0
LINE
  5
2B6
330
23A
100
AcDbEntity
  8
hidden
100
AcDbLine
 10
49.0
 20
38.42101184778944
 30
0.0
 11
13.0
 21
38.42101184778944
 31
0.0
  0
LINE
  5
2B7
330
23A
100
AcDbEntity
  8
hidden
100
AcDbLine
 10
13.0
 20
35.81990488959882
 30
0.0
 11
49.0
 21
35.81990488959882
 31
0.0
  0
LINE
  5
2B8
330
23A
100
AcDbEntity
  8
hidden
100
AcDbLine
 10
49.0
 20
32.64067963837286
 30
0.0
 11
13.0
 21
32.64067963837286
 31
0.0
  0
LINE
  5
2B9
330
23A
100
AcDbEntity
  8
hidden
100
AcDbLine
 10
11.0
 20
-10.5
 30
0.0
 11
11.0
 21
50.50000000000001
 31
0.0
  0
LINE
  5
2BA
330
23A
100
AcDbEntity
  8
hidden
100
AcDbLine
 10
51.0
 20
50.50000000000001
 30
0.0
 11
11.0
 21
50.50000000000001
 31
0.0
  0
LINE
  5
2BB
330
23A
100
AcDbEntity
  8
hidden
100
AcDbLine
 10
78.0
 20
50.2179227495056
 30
0.0
 11
114.0
 21
50.2179227495056
 31
0.0
  0
LINE
  5
2BC
330
23A
100
AcDbEntity
  8
hidden
100
AcDbLine
 10
114.0
 20
49.56202087415489
 30
0.0
 11
78.0
 21
49.56202087415489
 31
0.0
  0
LINE
  5
2BD
330
23A
100
AcDbEntity
  8
hidden
100
AcDbLine
 10
78.0
 20
48.77783475222222
 30
0.0
 11
114.0
 21
48.77783475222222
 31
0.0
  0
LINE
  5
2BE
330
23A
100
AcDbEntity
  8
hidden
100
AcDbLine
 10
114.0
 20
47.8563698251445
 30
0.0
 11
78.0
 21
47.8563698251445
 31
0.0
  0
LINE
  5
2BF
330
23A
100
AcDbEntity
  8
hidden
100
AcDbLine
 10
78.0
 20
46.78594368020068
 30
0.0
 11
114.0
 21
46.78594368020068
 31
0.0
  0
LINE
  5
2C0
330
23A
100
AcDbEntity
  8
hidden
100
AcDbLine
 10
114.0
 20
45.55124952998224
 30
0.0
 11
78.0
 21
45.55124952998224
 31
0.0
  0
LINE
  5
2C1
330
23A
100
AcDbEntity
  8
hidden
100
AcDbLine
 10
78.0
 20
44.13189273376377
 30
0.0
 11
114.0
 21
44.13189273376377
 31
0.0
  0
LINE
  5
2C2
330
23A
100
AcDbEntity
  8
hidden
100
AcDbLine
 10
114.0
 20
42.49999627169544
 30
0.0
 11
78.0
 21
42.49999627169544
 31
0.0
  0
LINE
  5
2C3
330
23A
100
AcDbEntity
  8
hidden
100
AcDbLine
 10
78.0
 20
40.61603860184449
 30
0.0
 11
114.0
 21
40.61603860184449
 31
0.0
  0
LINE
  5
2C4
330
23A
100
AcDbEntity
  8
hidden
100
AcDbLine
 10
114.0
 20
38.42101184778944
 30
0.0
 11
78.0
 21
38.42101184778944
 31
0.0
  0
LINE
  5
2C5
330
23A
100
AcDbEntity
  8
hidden
100
AcDbLine
 10
78.0
 20
35.81990488959882
 30
0.0
 11
114.0
 21
35.81990488959882
 31
0.0
  0
LINE
  5
2C6
330
23A
100
AcDbEntity
  8
hidden
100
AcDbLine
 10
114.0
 20
32.64067963837286
 30
0.0
 11
78.0
 21
32.64067963837286
 31
0.0
  0
LINE
  5
2C7
330
23A
100
AcDbEntity
  8
hidden
100
AcDbLine
 10
116.0
 20
28.50000000000002
 30
0.0
 11
76.0
 21
28.50000000000002
 31
0.0
  0
LINE
  5
2C8
330
23A
100
AcDbEntity
  8
hidden
100
AcDbLine
 10
116.0
 20
50.50000000000001
 30
0.0
 11
76.0
 21
50.50000000000001
 31
0.0
  0
LINE
  5
2C9
330
23A
100
AcDbEntity
  8
hidden
100
AcDbLine
 10
27.0
 20
14.50000000000001
 30
0.0
 11
27.0
 21
-20.5
 31
0.0
  0
LINE
  5
2CA
330
23A
100
AcDbEntity
  8
hidden
100
AcDbLine
 10
51.0
 20
-10.5
 30
0.0
 11
35.0
 21
-10.5
 31
0.0
  0
LINE
  5
2CB
330
23A
100
AcDbEntity
  8
hidden
100
AcDbLine
 10
35.0
 20
14.50000000000001
 30
0.0
 11
27.0
 21
14.50000000000001
 31
0.0
  0
LINE
  5
2CC
330
23A
100
AcDbEntity
  8
hidden
100
AcDbLine
 10
35.0
 20
14.50000000000001
 30
0.0
 11
35.0
 21
-20.5
 31
0.0
  0
LINE
  5
2CD
330
23A
100
AcDbEntity
  8
hidden
100
AcDbLine
 10
51.0
 20
28.50000000000002
 30
0.0
 11
11.0
 21
28.50000000000002
 31
0.0
  0
LINE
  5
2CE
330
23A
100
AcDbEntity
  8
hidden
100
AcDbLine
 10
27.0
 20
-10.5
 30
0.0
 11
11.0
 21
-10.5
 31
0.0
  0
LINE
  5
2CF
330
23A
100
AcDbEntity
  8
hidden
100
AcDbLine
 10
165.0
 20
14.50000000000001
 30
0.0
 11
157.0
 21
14.50000000000001
 31
0.0
  0
LINE
  5
2D0
330
23A
100
AcDbEntity
  8
hidden
100
AcDbLine
 10
157.0
 20
14.50000000000001
 30
0.0
 11
157.0
 21
-20.5
 31
0.0
  0
LINE
  5
2D1
330
23A
100
AcDbEntity
  8
hidden
100
AcDbLine
 10
165.0
 20
14.50000000000001
 30
0.0
 11
165.0
 21
-20.5
 31
0.0
  0
LINE
  5
2D2
330
23A
100
AcDbEntity
  8
hidden
100
AcDbLine
 10
181.0
 20
-10.5
 30
0.0
 11
165.0
 21
-10.5
 31
0.0
  0
LINE
  5
2D3
330
23A
100
AcDbEntity
  8
hidden
100
AcDbLine
 10
181.0
 20
28.50000000000002
 30
0.0
 11
141.0
 21
28.50000000000002
 31
0.0
  0
LINE
  5
2D4
330
23A
100
AcDbEntity
  8
hidden
100
AcDbLine
 10
157.0
 20
-10.5
 30
0.0
 11
141.0
 21
-10.5
 31
0.0
  0
ENDBLK
  5
23D
330
23A
100
AcDbEntity
  8
0
100
AcDbBlockEnd
  0
BLOCK
  5
2D7
330
2D5
100
AcDbEntity
  8
0
100
AcDbBlockBegin
  2
12_LTS_2_NH_Kontakt2_1_0_in_33602_0
 70
     2
 10
0.0
 20
0.0
 30
0.0
  3
12_LTS_2_NH_Kontakt2_1_0_in_33602_0
  1

  0
ATTDEF
  5
2D9
330
2D5
100
AcDbEntity
  8
attrib
100
AcDbText
 10
184.2
 20
-116.0
 30
0.0
 40
0.5
  1
LTS-2_NH-Kontakt2
100
AcDbAttributeDefinition
  3

  2
NB
 70
     8
280
     0
  0
ATTDEF
  5
2DA
330
2D5
100
AcDbEntity
  8
attrib
100
AcDbText
 10
184.2
 20
-116.5
 30
0.0
 40
0.5
  1
Size 2 contact
100
AcDbAttributeDefinition
  3

  2
NN
 70
     8
280
     0
  0
ATTDEF
  5
2DB
330
2D5
100
AcDbEntity
  8
attrib
100
AcDbText
 10
184.2
 20
-117.0
 30
0.0
 40
0.5
  1

100
AcDbAttributeDefinition
  3

  2
NT
 70
     8
280
     0
  0
ATTDEF
  5
2DC
330
2D5
100
AcDbEntity
  8
attrib
100
AcDbText
 10
184.2
 20
-117.5
 30
0.0
 40
0.5
  1
$NBX.
100
AcDbAttributeDefinition
  3

  2
NBSYN
 70
     8
280
     0
  0
ATTDEF
  5
2DD
330
2D5
100
AcDbEntity
  8
attrib
100
AcDbText
 10
184.2
 20
-118.0
 30
0.0
 40
0.5
  1
LTS-2_NH-Kontakt2
100
AcDbAttributeDefinition
  3

  2
LINA
 70
     8
280
     0
  0
ATTDEF
  5
2DE
330
2D5
100
AcDbEntity
  8
attrib
100
AcDbText
 10
184.2
 20
-118.5
 30
0.0
 40
0.5
  1
Wöhner
100
AcDbAttributeDefinition
  3

  2
CATALOG
 70
     8
280
     0
  0
ATTDEF
  5
2DF
330
2D5
100
AcDbEntity
  8
attrib
100
AcDbText
 10
184.2
 20
-119.0
 30
0.0
 40
0.5
  1
LTS-2_NH-Kontakt2
100
AcDbAttributeDefinition
  3

  2
NBX
 70
     8
280
     0
  0
ATTDEF
  5
2E0
330
2D5
100
AcDbEntity
  8
attrib
100
AcDbText
 10
184.2
 20
-119.5
 30
0.0
 40
0.5
  1
NH-Kontakt2
100
AcDbAttributeDefinition
  3

  2
ARTNR
 70
     8
280
     0
  0
ATTDEF
  5
2E1
330
2D5
100
AcDbEntity
  8
attrib
100
AcDbText
 10
184.2
 20
-120.0
 30
0.0
 40
0.5
  1
QUADRON®60Classic
100
AcDbAttributeDefinition
  3

  2
POF
 70
     8
280
     0
  0
ATTDEF
  5
2E2
330
2D5
100
AcDbEntity
  8
attrib
100
AcDbText
 10
184.2
 20
-120.5
 30
0.0
 40
0.5
  1
LTS-2
100
AcDbAttributeDefinition
  3

  2
TYPE
 70
     8
280
     0
  0
ATTDEF
  5
2E3
330
2D5
100
AcDbEntity
  8
attrib
100
AcDbText
 10
184.2
 20
-121.0
 30
0.0
 40
0.5
  1
2
100
AcDbAttributeDefinition
  3

  2
VER
 70
     8
280
     0
  0
ATTDEF
  5
2E4
330
2D5
100
AcDbEntity
  8
attrib
100
AcDbText
 10
184.2
 20
-121.5
 30
0.0
 40
0.5
  1
woehner
100
AcDbAttributeDefinition
  3

  2
COMPANY
 70
     8
280
     0
  0
ATTDEF
  5
2E5
330
2D5
100
AcDbEntity
  8
attrib
100
AcDbText
 10
184.2
 20
-122.0
 30
0.0
 40
0.5
  1
{$CADENAS_DATA/23d-libs/woehner/sys_60classic/nh_fuse_switch/parts/size1_2_3/size2_3_contact.prj},183 {VTYP=3D},{NB=LTS-2_NH-Kontakt2},{LINA=LTS-2_NH-Kontakt2},{NN=Size 2 contact},{DATE=26.01.2024 06:39:58},{GEOMDATE=14.09.2023 07:31:24},{VERSION=},{LINEI
100
AcDbAttributeDefinition
  3

  2
PSOL_0
 70
     9
280
     0
  0
ATTDEF
  5
2E6
330
2D5
100
AcDbEntity
  8
attrib
100
AcDbText
 10
184.2
 20
-122.5
 30
0.0
 40
0.5
  1
D=970},{WBVAR=},{WBNUMERIC=}  {NB=LTS-2_NH-Kontakt2},{LINA=LTS-2_NH-Kontakt2},{KT=DUMMY},{NBX=LTS-2_NH-Kontakt2},{ARTNR=NH-Kontakt2},{POF=QUADRON®60Classic},{TYPE=LTS-2},{VER=2}
100
AcDbAttributeDefinition
  3

  2
PSOL_1
 70
     9
280
     0
  0
LINE
  5
2E7
330
2D5
100
AcDbEntity
  8
hidden
100
AcDbLine
 10
175.0
 20
-184.0
 30
0.0
 11
177.0
 21
-184.0
 31
0.0
  0
CIRCLE
  5
2E8
330
2D5
100
AcDbEntity
  8
hidden
100
AcDbCircle
 10
161.0
 20
-129.0
 30
0.0
 40
1.5
  0
LINE
  5
2E9
330
2D5
100
AcDbEntity
  8
hidden
100
AcDbLine
 10
177.0
 20
-176.0
 30
0.0
 11
175.0
 21
-176.0
 31
0.0
  0
LINE
  5
2EA
330
2D5
100
AcDbEntity
  8
hidden
100
AcDbLine
 10
177.0
 20
-188.0
 30
0.0
 11
145.0
 21
-188.0
 31
0.0
  0
LINE
  5
2EB
330
2D5
100
AcDbEntity
  8
hidden
100
AcDbLine
 10
145.0
 20
-188.0
 30
0.0
 11
145.0
 21
-184.0
 31
0.0
  0
ARC
  5
2EC
330
2D5
100
AcDbEntity
  8
hidden
100
AcDbCircle
 10
175.0
 20
-180.0
 30
0.0
 40
4.0
100
AcDbArc
 50
89.99999999999957
 51
270.0000000000004
  0
LINE
  5
2ED
330
2D5
100
AcDbEntity
  8
hidden
100
AcDbLine
 10
147.0
 20
-176.0
 30
0.0
 11
145.0
 21
-176.0
 31
0.0
  0
ARC
  5
2EE
330
2D5
100
AcDbEntity
  8
hidden
100
AcDbCircle
 10
147.0
 20
-180.0
 30
0.0
 40
4.0
100
AcDbArc
 50
270.0
 51
90.0
  0
LINE
  5
2EF
330
2D5
100
AcDbEntity
  8
hidden
100
AcDbLine
 10
177.0
 20
-184.0
 30
0.0
 11
177.0
 21
-188.0
 31
0.0
  0
LINE
  5
2F0
330
2D5
100
AcDbEntity
  8
hidden
100
AcDbLine
 10
145.0
 20
-176.0
 30
0.0
 11
145.0
 21
-116.0
 31
0.0
  0
LINE
  5
2F1
330
2D5
100
AcDbEntity
  8
hidden
100
AcDbLine
 10
145.0
 20
-184.0
 30
0.0
 11
147.0
 21
-184.0
 31
0.0
  0
LINE
  5
2F2
330
2D5
100
AcDbEntity
  8
hidden
100
AcDbLine
 10
177.0
 20
-116.0
 30
0.0
 11
177.0
 21
-176.0
 31
0.0
  0
LINE
  5
2F3
330
2D5
100
AcDbEntity
  8
hidden
100
AcDbLine
 10
143.0
 20
-116.0
 30
0.0
 11
143.0
 21
-148.0
 31
0.0
  0
LINE
  5
2F4
330
2D5
100
AcDbEntity
  8
hidden
100
AcDbLine
 10
143.9184855887923
 20
-116.0
 30
0.0
 11
143.9184855887923
 21
-148.0
 31
0.0
  0
LINE
  5
2F5
330
2D5
100
AcDbEntity
  8
hidden
100
AcDbLine
 10
178.0815144112077
 20
-116.0
 30
0.0
 11
178.0815144112077
 21
-148.0
 31
0.0
  0
LINE
  5
2F6
330
2D5
100
AcDbEntity
  8
hidden
100
AcDbLine
 10
155.0815144112077
 20
-116.0
 30
0.0
 11
155.0815144112077
 21
-148.0
 31
0.0
  0
LINE
  5
2F7
330
2D5
100
AcDbEntity
  8
hidden
100
AcDbLine
 10
179.0
 20
-116.0
 30
0.0
 11
143.0
 21
-116.0
 31
0.0
  0
LINE
  5
2F8
330
2D5
100
AcDbEntity
  8
hidden
100
AcDbLine
 10
166.9184855887923
 20
-116.0
 30
0.0
 11
166.9184855887923
 21
-148.0
 31
0.0
  0
LINE
  5
2F9
330
2D5
100
AcDbEntity
  8
hidden
100
AcDbLine
 10
143.0
 20
-148.0
 30
0.0
 11
158.0
 21
-148.0
 31
0.0
  0
LINE
  5
2FA
330
2D5
100
AcDbEntity
  8
hidden
100
AcDbLine
 10
158.0
 20
-116.0
 30
0.0
 11
158.0
 21
-148.0
 31
0.0
  0
LINE
  5
2FB
330
2D5
100
AcDbEntity
  8
hidden
100
AcDbLine
 10
156.0
 20
-116.0
 30
0.0
 11
156.0
 21
-148.0
 31
0.0
  0
LINE
  5
2FC
330
2D5
100
AcDbEntity
  8
hidden
100
AcDbLine
 10
164.0
 20
-148.0
 30
0.0
 11
179.0
 21
-148.0
 31
0.0
  0
LINE
  5
2FD
330
2D5
100
AcDbEntity
  8
hidden
100
AcDbLine
 10
166.0
 20
-116.0
 30
0.0
 11
166.0
 21
-148.0
 31
0.0
  0
LINE
  5
2FE
330
2D5
100
AcDbEntity
  8
hidden
100
AcDbLine
 10
164.0
 20
-116.0
 30
0.0
 11
164.0
 21
-148.0
 31
0.0
  0
LINE
  5
301
330
2D5
100
AcDbEntity
  8
center
100
AcDbLine
 10
159.425
 20
-129.0
 30
0.0
 11
162.575
 21
-129.0
 31
0.0
  0
LINE
  5
302
330
2D5
100
AcDbEntity
  8
center
100
AcDbLine
 10
161.0
 20
-130.575
 30
0.0
 11
161.0
 21
-127.425
 31
0.0
  0
LINE
  5
303
330
2D5
100
AcDbEntity
  8
center
100
AcDbLine
 10
170.8
 20
-180.0
 30
0.0
 11
179.2
 21
-180.0
 31
0.0
  0
LINE
  5
304
330
2D5
100
AcDbEntity
  8
center
100
AcDbLine
 10
175.0
 20
-184.2
 30
0.0
 11
175.0
 21
-175.8
 31
0.0
  0
LINE
  5
305
330
2D5
100
AcDbEntity
  8
center
100
AcDbLine
 10
142.8
 20
-180.0
 30
0.0
 11
151.2
 21
-180.0
 31
0.0
  0
LINE
  5
306
330
2D5
100
AcDbEntity
  8
center
100
AcDbLine
 10
147.0
 20
-184.2
 30
0.0
 11
147.0
 21
-175.8
 31
0.0
  0
ENDBLK
  5
2D8
330
2D5
100
AcDbEntity
  8
0
100
AcDbBlockEnd
  0
BLOCK
  5
309
330
307
100
AcDbEntity
  8
0
100
AcDbBlockBegin
  2
13_LTS_2_NH_Kontakt2_2_0_in_33602_0
 70
     2
 10
0.0
 20
0.0
 30
0.0
  3
13_LTS_2_NH_Kontakt2_2_0_in_33602_0
  1

  0
ATTDEF
  5
30B
330
307
100
AcDbEntity
  8
attrib
100
AcDbText
 10
119.2
 20
-116.0
 30
0.0
 40
0.5
  1
LTS-2_NH-Kontakt2
100
AcDbAttributeDefinition
  3

  2
NB
 70
     8
280
     0
  0
ATTDEF
  5
30C
330
307
100
AcDbEntity
  8
attrib
100
AcDbText
 10
119.2
 20
-116.5
 30
0.0
 40
0.5
  1
Size 2 contact
100
AcDbAttributeDefinition
  3

  2
NN
 70
     8
280
     0
  0
ATTDEF
  5
30D
330
307
100
AcDbEntity
  8
attrib
100
AcDbText
 10
119.2
 20
-117.0
 30
0.0
 40
0.5
  1

100
AcDbAttributeDefinition
  3

  2
NT
 70
     8
280
     0
  0
ATTDEF
  5
30E
330
307
100
AcDbEntity
  8
attrib
100
AcDbText
 10
119.2
 20
-117.5
 30
0.0
 40
0.5
  1
$NBX.
100
AcDbAttributeDefinition
  3

  2
NBSYN
 70
     8
280
     0
  0
ATTDEF
  5
30F
330
307
100
AcDbEntity
  8
attrib
100
AcDbText
 10
119.2
 20
-118.0
 30
0.0
 40
0.5
  1
LTS-2_NH-Kontakt2
100
AcDbAttributeDefinition
  3

  2
LINA
 70
     8
280
     0
  0
ATTDEF
  5
310
330
307
100
AcDbEntity
  8
attrib
100
AcDbText
 10
119.2
 20
-118.5
 30
0.0
 40
0.5
  1
Wöhner
100
AcDbAttributeDefinition
  3

  2
CATALOG
 70
     8
280
     0
  0
ATTDEF
  5
311
330
307
100
AcDbEntity
  8
attrib
100
AcDbText
 10
119.2
 20
-119.0
 30
0.0
 40
0.5
  1
LTS-2_NH-Kontakt2
100
AcDbAttributeDefinition
  3

  2
NBX
 70
     8
280
     0
  0
ATTDEF
  5
312
330
307
100
AcDbEntity
  8
attrib
100
AcDbText
 10
119.2
 20
-119.5
 30
0.0
 40
0.5
  1
NH-Kontakt2
100
AcDbAttributeDefinition
  3

  2
ARTNR
 70
     8
280
     0
  0
ATTDEF
  5
313
330
307
100
AcDbEntity
  8
attrib
100
AcDbText
 10
119.2
 20
-120.0
 30
0.0
 40
0.5
  1
QUADRON®60Classic
100
AcDbAttributeDefinition
  3

  2
POF
 70
     8
280
     0
  0
ATTDEF
  5
314
330
307
100
AcDbEntity
  8
attrib
100
AcDbText
 10
119.2
 20
-120.5
 30
0.0
 40
0.5
  1
LTS-2
100
AcDbAttributeDefinition
  3

  2
TYPE
 70
     8
280
     0
  0
ATTDEF
  5
315
330
307
100
AcDbEntity
  8
attrib
100
AcDbText
 10
119.2
 20
-121.0
 30
0.0
 40
0.5
  1
2
100
AcDbAttributeDefinition
  3

  2
VER
 70
     8
280
     0
  0
ATTDEF
  5
316
330
307
100
AcDbEntity
  8
attrib
100
AcDbText
 10
119.2
 20
-121.5
 30
0.0
 40
0.5
  1
woehner
100
AcDbAttributeDefinition
  3

  2
COMPANY
 70
     8
280
     0
  0
ATTDEF
  5
317
330
307
100
AcDbEntity
  8
attrib
100
AcDbText
 10
119.2
 20
-122.0
 30
0.0
 40
0.5
  1
{$CADENAS_DATA/23d-libs/woehner/sys_60classic/nh_fuse_switch/parts/size1_2_3/size2_3_contact.prj},183 {VTYP=3D},{NB=LTS-2_NH-Kontakt2},{LINA=LTS-2_NH-Kontakt2},{NN=Size 2 contact},{DATE=26.01.2024 06:39:58},{GEOMDATE=14.09.2023 07:31:24},{VERSION=},{LINEI
100
AcDbAttributeDefinition
  3

  2
PSOL_0
 70
     9
280
     0
  0
ATTDEF
  5
318
330
307
100
AcDbEntity
  8
attrib
100
AcDbText
 10
119.2
 20
-122.5
 30
0.0
 40
0.5
  1
D=970},{WBVAR=},{WBNUMERIC=}  {NB=LTS-2_NH-Kontakt2},{LINA=LTS-2_NH-Kontakt2},{KT=DUMMY},{NBX=LTS-2_NH-Kontakt2},{ARTNR=NH-Kontakt2},{POF=QUADRON®60Classic},{TYPE=LTS-2},{VER=2}
100
AcDbAttributeDefinition
  3

  2
PSOL_1
 70
     9
280
     0
  0
LINE
  5
319
330
307
100
AcDbEntity
  8
hidden
100
AcDbLine
 10
82.0
 20
-176.0
 30
0.0
 11
80.0
 21
-176.0
 31
0.0
  0
ARC
  5
31A
330
307
100
AcDbEntity
  8
hidden
100
AcDbCircle
 10
110.0
 20
-180.0
 30
0.0
 40
4.0
100
AcDbArc
 50
90.0
 51
270.0
  0
LINE
  5
31B
330
307
100
AcDbEntity
  8
hidden
100
AcDbLine
 10
80.0
 20
-184.0
 30
0.0
 11
82.0
 21
-184.0
 31
0.0
  0
LINE
  5
31C
330
307
100
AcDbEntity
  8
hidden
100
AcDbLine
 10
112.0
 20
-176.0
 30
0.0
 11
110.0
 21
-176.0
 31
0.0
  0
CIRCLE
  5
31D
330
307
100
AcDbEntity
  8
hidden
100
AcDbCircle
 10
96.0
 20
-129.0
 30
0.0
 40
1.5
  0
ARC
  5
31E
330
307
100
AcDbEntity
  8
hidden
100
AcDbCircle
 10
82.0
 20
-180.0
 30
0.0
 40
4.0
100
AcDbArc
 50
270.0
 51
90.0
  0
LINE
  5
31F
330
307
100
AcDbEntity
  8
hidden
100
AcDbLine
 10
112.0
 20
-184.0
 30
0.0
 11
112.0
 21
-188.0
 31
0.0
  0
LINE
  5
320
330
307
100
AcDbEntity
  8
hidden
100
AcDbLine
 10
80.0
 20
-188.0
 30
0.0
 11
80.0
 21
-184.0
 31
0.0
  0
LINE
  5
321
330
307
100
AcDbEntity
  8
hidden
100
AcDbLine
 10
112.0
 20
-188.0
 30
0.0
 11
80.0
 21
-188.0
 31
0.0
  0
LINE
  5
322
330
307
100
AcDbEntity
  8
hidden
100
AcDbLine
 10
110.0
 20
-184.0
 30
0.0
 11
112.0
 21
-184.0
 31
0.0
  0
LINE
  5
323
330
307
100
AcDbEntity
  8
hidden
100
AcDbLine
 10
80.0
 20
-176.0
 30
0.0
 11
80.0
 21
-116.0
 31
0.0
  0
LINE
  5
324
330
307
100
AcDbEntity
  8
hidden
100
AcDbLine
 10
112.0
 20
-116.0
 30
0.0
 11
112.0
 21
-176.0
 31
0.0
  0
LINE
  5
325
330
307
100
AcDbEntity
  8
hidden
100
AcDbLine
 10
78.0
 20
-116.0
 30
0.0
 11
78.0
 21
-148.0
 31
0.0
  0
LINE
  5
326
330
307
100
AcDbEntity
  8
hidden
100
AcDbLine
 10
114.0
 20
-116.0
 30
0.0
 11
114.0
 21
-148.0
 31
0.0
  0
LINE
  5
327
330
307
100
AcDbEntity
  8
hidden
100
AcDbLine
 10
78.9184855887923
 20
-116.0
 30
0.0
 11
78.9184855887923
 21
-148.0
 31
0.0
  0
LINE
  5
328
330
307
100
AcDbEntity
  8
hidden
100
AcDbLine
 10
113.0815144112077
 20
-116.0
 30
0.0
 11
113.0815144112077
 21
-148.0
 31
0.0
  0
LINE
  5
329
330
307
100
AcDbEntity
  8
hidden
100
AcDbLine
 10
90.0815144112077
 20
-116.0
 30
0.0
 11
90.0815144112077
 21
-148.0
 31
0.0
  0
LINE
  5
32A
330
307
100
AcDbEntity
  8
hidden
100
AcDbLine
 10
114.0
 20
-116.0
 30
0.0
 11
78.0
 21
-116.0
 31
0.0
  0
LINE
  5
32B
330
307
100
AcDbEntity
  8
hidden
100
AcDbLine
 10
101.9184855887923
 20
-116.0
 30
0.0
 11
101.9184855887923
 21
-148.0
 31
0.0
  0
LINE
  5
32C
330
307
100
AcDbEntity
  8
hidden
100
AcDbLine
 10
99.0
 20
-148.0
 30
0.0
 11
114.0
 21
-148.0
 31
0.0
  0
LINE
  5
32D
330
307
100
AcDbEntity
  8
hidden
100
AcDbLine
 10
101.0
 20
-116.0
 30
0.0
 11
101.0
 21
-148.0
 31
0.0
  0
LINE
  5
32E
330
307
100
AcDbEntity
  8
hidden
100
AcDbLine
 10
99.0
 20
-116.0
 30
0.0
 11
99.0
 21
-148.0
 31
0.0
  0
LINE
  5
32F
330
307
100
AcDbEntity
  8
hidden
100
AcDbLine
 10
78.0
 20
-148.0
 30
0.0
 11
93.0
 21
-148.0
 31
0.0
  0
LINE
  5
330
330
307
100
AcDbEntity
  8
hidden
100
AcDbLine
 10
93.0
 20
-116.0
 30
0.0
 11
93.0
 21
-148.0
 31
0.0
  0
LINE
  5
331
330
307
100
AcDbEntity
  8
hidden
100
AcDbLine
 10
91.0
 20
-116.0
 30
0.0
 11
91.0
 21
-148.0
 31
0.0
  0
LINE
  5
332
330
307
100
AcDbEntity
  8
center
100
AcDbLine
 10
94.425
 20
-129.0
 30
0.0
 11
97.575
 21
-129.0
 31
0.0
  0
LINE
  5
333
330
307
100
AcDbEntity
  8
center
100
AcDbLine
 10
96.0
 20
-130.575
 30
0.0
 11
96.0
 21
-127.425
 31
0.0
  0
LINE
  5
334
330
307
100
AcDbEntity
  8
center
100
AcDbLine
 10
77.8
 20
-180.0
 30
0.0
 11
86.2
 21
-180.0
 31
0.0
  0
LINE
  5
335
330
307
100
AcDbEntity
  8
center
100
AcDbLine
 10
82.0
 20
-184.2
 30
0.0
 11
82.0
 21
-175.8
 31
0.0
  0
LINE
  5
336
330
307
100
AcDbEntity
  8
center
100
AcDbLine
 10
105.8
 20
-180.0
 30
0.0
 11
114.2
 21
-180.0
 31
0.0
  0
LINE
  5
337
330
307
100
AcDbEntity
  8
center
100
AcDbLine
 10
110.0
 20
-184.2
 30
0.0
 11
110.0
 21
-175.8
 31
0.0
  0
ENDBLK
  5
30A
330
307
100
AcDbEntity
  8
0
100
AcDbBlockEnd
  0
BLOCK
  5
33A
330
338
100
AcDbEntity
  8
0
100
AcDbBlockBegin
  2
14_LTS_2_NH_Kontakt2_3_0_in_33602_0
 70
     2
 10
0.0
 20
0.0
 30
0.0
  3
14_LTS_2_NH_Kontakt2_3_0_in_33602_0
  1

  0
ATTDEF
  5
33C
330
338
100
AcDbEntity
  8
attrib
100
AcDbText
 10
54.19999999999996
 20
-116.0
 30
0.0
 40
0.5
  1
LTS-2_NH-Kontakt2
100
AcDbAttributeDefinition
  3

  2
NB
 70
     8
280
     0
  0
ATTDEF
  5
33D
330
338
100
AcDbEntity
  8
attrib
100
AcDbText
 10
54.19999999999996
 20
-116.5
 30
0.0
 40
0.5
  1
Size 2 contact
100
AcDbAttributeDefinition
  3

  2
NN
 70
     8
280
     0
  0
ATTDEF
  5
33E
330
338
100
AcDbEntity
  8
attrib
100
AcDbText
 10
54.19999999999996
 20
-117.0
 30
0.0
 40
0.5
  1

100
AcDbAttributeDefinition
  3

  2
NT
 70
     8
280
     0
  0
ATTDEF
  5
33F
330
338
100
AcDbEntity
  8
attrib
100
AcDbText
 10
54.19999999999996
 20
-117.5
 30
0.0
 40
0.5
  1
$NBX.
100
AcDbAttributeDefinition
  3

  2
NBSYN
 70
     8
280
     0
  0
ATTDEF
  5
340
330
338
100
AcDbEntity
  8
attrib
100
AcDbText
 10
54.19999999999996
 20
-118.0
 30
0.0
 40
0.5
  1
LTS-2_NH-Kontakt2
100
AcDbAttributeDefinition
  3

  2
LINA
 70
     8
280
     0
  0
ATTDEF
  5
341
330
338
100
AcDbEntity
  8
attrib
100
AcDbText
 10
54.19999999999996
 20
-118.5
 30
0.0
 40
0.5
  1
Wöhner
100
AcDbAttributeDefinition
  3

  2
CATALOG
 70
     8
280
     0
  0
ATTDEF
  5
342
330
338
100
AcDbEntity
  8
attrib
100
AcDbText
 10
54.19999999999996
 20
-119.0
 30
0.0
 40
0.5
  1
LTS-2_NH-Kontakt2
100
AcDbAttributeDefinition
  3

  2
NBX
 70
     8
280
     0
  0
ATTDEF
  5
343
330
338
100
AcDbEntity
  8
attrib
100
AcDbText
 10
54.19999999999996
 20
-119.5
 30
0.0
 40
0.5
  1
NH-Kontakt2
100
AcDbAttributeDefinition
  3

  2
ARTNR
 70
     8
280
     0
  0
ATTDEF
  5
344
330
338
100
AcDbEntity
  8
attrib
100
AcDbText
 10
54.19999999999996
 20
-120.0
 30
0.0
 40
0.5
  1
QUADRON®60Classic
100
AcDbAttributeDefinition
  3

  2
POF
 70
     8
280
     0
  0
ATTDEF
  5
345
330
338
100
AcDbEntity
  8
attrib
100
AcDbText
 10
54.19999999999996
 20
-120.5
 30
0.0
 40
0.5
  1
LTS-2
100
AcDbAttributeDefinition
  3

  2
TYPE
 70
     8
280
     0
  0
ATTDEF
  5
346
330
338
100
AcDbEntity
  8
attrib
100
AcDbText
 10
54.19999999999996
 20
-121.0
 30
0.0
 40
0.5
  1
2
100
AcDbAttributeDefinition
  3

  2
VER
 70
     8
280
     0
  0
ATTDEF
  5
347
330
338
100
AcDbEntity
  8
attrib
100
AcDbText
 10
54.19999999999996
 20
-121.5
 30
0.0
 40
0.5
  1
woehner
100
AcDbAttributeDefinition
  3

  2
COMPANY
 70
     8
280
     0
  0
ATTDEF
  5
348
330
338
100
AcDbEntity
  8
attrib
100
AcDbText
 10
54.19999999999996
 20
-122.0
 30
0.0
 40
0.5
  1
{$CADENAS_DATA/23d-libs/woehner/sys_60classic/nh_fuse_switch/parts/size1_2_3/size2_3_contact.prj},183 {VTYP=3D},{NB=LTS-2_NH-Kontakt2},{LINA=LTS-2_NH-Kontakt2},{NN=Size 2 contact},{DATE=26.01.2024 06:39:58},{GEOMDATE=14.09.2023 07:31:24},{VERSION=},{LINEI
100
AcDbAttributeDefinition
  3

  2
PSOL_0
 70
     9
280
     0
  0
ATTDEF
  5
349
330
338
100
AcDbEntity
  8
attrib
100
AcDbText
 10
54.19999999999996
 20
-122.5
 30
0.0
 40
0.5
  1
D=970},{WBVAR=},{WBNUMERIC=}  {NB=LTS-2_NH-Kontakt2},{LINA=LTS-2_NH-Kontakt2},{KT=DUMMY},{NBX=LTS-2_NH-Kontakt2},{ARTNR=NH-Kontakt2},{POF=QUADRON®60Classic},{TYPE=LTS-2},{VER=2}
100
AcDbAttributeDefinition
  3

  2
PSOL_1
 70
     9
280
     0
  0
LINE
  5
34A
330
338
100
AcDbEntity
  8
hidden
100
AcDbLine
 10
47.0
 20
-188.0
 30
0.0
 11
15.0
 21
-188.0
 31
0.0
  0
LINE
  5
34B
330
338
100
AcDbEntity
  8
hidden
100
AcDbLine
 10
15.0
 20
-188.0
 30
0.0
 11
15.0
 21
-184.0
 31
0.0
  0
LINE
  5
34C
330
338
100
AcDbEntity
  8
hidden
100
AcDbLine
 10
15.0
 20
-184.0
 30
0.0
 11
16.99999999999999
 21
-184.0
 31
0.0
  0
LINE
  5
34D
330
338
100
AcDbEntity
  8
hidden
100
AcDbLine
 10
47.0
 20
-184.0
 30
0.0
 11
47.0
 21
-188.0
 31
0.0
  0
ARC
  5
34E
330
338
100
AcDbEntity
  8
hidden
100
AcDbCircle
 10
16.99999999999999
 20
-180.0
 30
0.0
 40
4.0
100
AcDbArc
 50
270.0
 51
90.0
  0
LINE
  5
34F
330
338
100
AcDbEntity
  8
hidden
100
AcDbLine
 10
16.99999999999999
 20
-176.0
 30
0.0
 11
15.0
 21
-176.0
 31
0.0
  0
CIRCLE
  5
350
330
338
100
AcDbEntity
  8
hidden
100
AcDbCircle
 10
31.0
 20
-129.0
 30
0.0
 40
1.5
  0
LINE
  5
351
330
338
100
AcDbEntity
  8
hidden
100
AcDbLine
 10
45.0
 20
-184.0
 30
0.0
 11
47.0
 21
-184.0
 31
0.0
  0
ARC
  5
352
330
338
100
AcDbEntity
  8
hidden
100
AcDbCircle
 10
45.0
 20
-180.0
 30
0.0
 40
4.0
100
AcDbArc
 50
90.0
 51
270.0
  0
LINE
  5
353
330
338
100
AcDbEntity
  8
hidden
100
AcDbLine
 10
47.0
 20
-176.0
 30
0.0
 11
45.0
 21
-176.0
 31
0.0
  0
LINE
  5
354
330
338
100
AcDbEntity
  8
hidden
100
AcDbLine
 10
15.0
 20
-176.0
 30
0.0
 11
15.0
 21
-116.0
 31
0.0
  0
LINE
  5
355
330
338
100
AcDbEntity
  8
hidden
100
AcDbLine
 10
47.0
 20
-116.0
 30
0.0
 11
47.0
 21
-176.0
 31
0.0
  0
LINE
  5
356
330
338
100
AcDbEntity
  8
hidden
100
AcDbLine
 10
49.0
 20
-116.0
 30
0.0
 11
49.0
 21
-148.0
 31
0.0
  0
LINE
  5
357
330
338
100
AcDbEntity
  8
hidden
100
AcDbLine
 10
13.91848558879228
 20
-116.0
 30
0.0
 11
13.91848558879228
 21
-148.0
 31
0.0
  0
LINE
  5
358
330
338
100
AcDbEntity
  8
hidden
100
AcDbLine
 10
48.08151441120771
 20
-116.0
 30
0.0
 11
48.08151441120771
 21
-148.0
 31
0.0
  0
LINE
  5
359
330
338
100
AcDbEntity
  8
hidden
100
AcDbLine
 10
36.91848558879228
 20
-116.0
 30
0.0
 11
36.91848558879228
 21
-148.0
 31
0.0
  0
LINE
  5
35A
330
338
100
AcDbEntity
  8
hidden
100
AcDbLine
 10
25.08151441120771
 20
-116.0
 30
0.0
 11
25.08151441120771
 21
-148.0
 31
0.0
  0
LINE
  5
35B
330
338
100
AcDbEntity
  8
hidden
100
AcDbLine
 10
33.99999999999999
 20
-148.0
 30
0.0
 11
49.0
 21
-148.0
 31
0.0
  0
LINE
  5
35C
330
338
100
AcDbEntity
  8
hidden
100
AcDbLine
 10
36.0
 20
-116.0
 30
0.0
 11
36.0
 21
-148.0
 31
0.0
  0
LINE
  5
35D
330
338
100
AcDbEntity
  8
hidden
100
AcDbLine
 10
12.99999999999999
 20
-116.0
 30
0.0
 11
49.0
 21
-116.0
 31
0.0
  0
LINE
  5
35E
330
338
100
AcDbEntity
  8
hidden
100
AcDbLine
 10
33.99999999999999
 20
-116.0
 30
0.0
 11
33.99999999999999
 21
-148.0
 31
0.0
  0
LINE
  5
35F
330
338
100
AcDbEntity
  8
hidden
100
AcDbLine
 10
12.99999999999999
 20
-148.0
 30
0.0
 11
27.99999999999999
 21
-148.0
 31
0.0
  0
LINE
  5
360
330
338
100
AcDbEntity
  8
hidden
100
AcDbLine
 10
27.99999999999999
 20
-116.0
 30
0.0
 11
27.99999999999999
 21
-148.0
 31
0.0
  0
LINE
  5
361
330
338
100
AcDbEntity
  8
hidden
100
AcDbLine
 10
26.0
 20
-116.0
 30
0.0
 11
26.0
 21
-148.0
 31
0.0
  0
LINE
  5
362
330
338
100
AcDbEntity
  8
center
100
AcDbLine
 10
29.425
 20
-129.0
 30
0.0
 11
32.575
 21
-129.0
 31
0.0
  0
LINE
  5
363
330
338
100
AcDbEntity
  8
center
100
AcDbLine
 10
31.0
 20
-130.575
 30
0.0
 11
31.0
 21
-127.425
 31
0.0
  0
LINE
  5
364
330
338
100
AcDbEntity
  8
center
100
AcDbLine
 10
12.80000000000004
 20
-180.0
 30
0.0
 11
21.19999999999999
 21
-180.0
 31
0.0
  0
LINE
  5
365
330
338
100
AcDbEntity
  8
center
100
AcDbLine
 10
17.00000000000001
 20
-184.2
 30
0.0
 11
17.00000000000001
 21
-175.8
 31
0.0
  0
LINE
  5
366
330
338
100
AcDbEntity
  8
center
100
AcDbLine
 10
40.8
 20
-180.0
 30
0.0
 11
49.19999999999996
 21
-180.0
 31
0.0
  0
LINE
  5
367
330
338
100
AcDbEntity
  8
center
100
AcDbLine
 10
44.99999999999998
 20
-184.2
 30
0.0
 11
44.99999999999998
 21
-175.8
 31
0.0
  0
ENDBLK
  5
33B
330
338
100
AcDbEntity
  8
0
100
AcDbBlockEnd
  0
BLOCK
  5
36A
330
368
100
AcDbEntity
  8
0
100
AcDbBlockBegin
  2
15_LTS_2_NH_Kontakt2_4_0_in_33602_0
 70
     2
 10
0.0
 20
0.0
 30
0.0
  3
15_LTS_2_NH_Kontakt2_4_0_in_33602_0
  1

  0
ATTDEF
  5
36C
330
368
100
AcDbEntity
  8
attrib
100
AcDbText
 10
184.2
 20
52.00000000000001
 30
0.0
 40
0.5
  1
LTS-2_NH-Kontakt2
100
AcDbAttributeDefinition
  3

  2
NB
 70
     8
280
     0
  0
ATTDEF
  5
36D
330
368
100
AcDbEntity
  8
attrib
100
AcDbText
 10
184.2
 20
51.50000000000001
 30
0.0
 40
0.5
  1
Size 2 contact
100
AcDbAttributeDefinition
  3

  2
NN
 70
     8
280
     0
  0
ATTDEF
  5
36E
330
368
100
AcDbEntity
  8
attrib
100
AcDbText
 10
184.2
 20
51.00000000000001
 30
0.0
 40
0.5
  1

100
AcDbAttributeDefinition
  3

  2
NT
 70
     8
280
     0
  0
ATTDEF
  5
36F
330
368
100
AcDbEntity
  8
attrib
100
AcDbText
 10
184.2
 20
50.50000000000001
 30
0.0
 40
0.5
  1
$NBX.
100
AcDbAttributeDefinition
  3

  2
NBSYN
 70
     8
280
     0
  0
ATTDEF
  5
370
330
368
100
AcDbEntity
  8
attrib
100
AcDbText
 10
184.2
 20
50.00000000000001
 30
0.0
 40
0.5
  1
LTS-2_NH-Kontakt2
100
AcDbAttributeDefinition
  3

  2
LINA
 70
     8
280
     0
  0
ATTDEF
  5
371
330
368
100
AcDbEntity
  8
attrib
100
AcDbText
 10
184.2
 20
49.50000000000001
 30
0.0
 40
0.5
  1
Wöhner
100
AcDbAttributeDefinition
  3

  2
CATALOG
 70
     8
280
     0
  0
ATTDEF
  5
372
330
368
100
AcDbEntity
  8
attrib
100
AcDbText
 10
184.2
 20
49.00000000000001
 30
0.0
 40
0.5
  1
LTS-2_NH-Kontakt2
100
AcDbAttributeDefinition
  3

  2
NBX
 70
     8
280
     0
  0
ATTDEF
  5
373
330
368
100
AcDbEntity
  8
attrib
100
AcDbText
 10
184.2
 20
48.50000000000001
 30
0.0
 40
0.5
  1
NH-Kontakt2
100
AcDbAttributeDefinition
  3

  2
ARTNR
 70
     8
280
     0
  0
ATTDEF
  5
374
330
368
100
AcDbEntity
  8
attrib
100
AcDbText
 10
184.2
 20
48.00000000000001
 30
0.0
 40
0.5
  1
QUADRON®60Classic
100
AcDbAttributeDefinition
  3

  2
POF
 70
     8
280
     0
  0
ATTDEF
  5
375
330
368
100
AcDbEntity
  8
attrib
100
AcDbText
 10
184.2
 20
47.50000000000001
 30
0.0
 40
0.5
  1
LTS-2
100
AcDbAttributeDefinition
  3

  2
TYPE
 70
     8
280
     0
  0
ATTDEF
  5
376
330
368
100
AcDbEntity
  8
attrib
100
AcDbText
 10
184.2
 20
47.00000000000001
 30
0.0
 40
0.5
  1
2
100
AcDbAttributeDefinition
  3

  2
VER
 70
     8
280
     0
  0
ATTDEF
  5
377
330
368
100
AcDbEntity
  8
attrib
100
AcDbText
 10
184.2
 20
46.50000000000001
 30
0.0
 40
0.5
  1
woehner
100
AcDbAttributeDefinition
  3

  2
COMPANY
 70
     8
280
     0
  0
ATTDEF
  5
378
330
368
100
AcDbEntity
  8
attrib
100
AcDbText
 10
184.2
 20
46.00000000000001
 30
0.0
 40
0.5
  1
{$CADENAS_DATA/23d-libs/woehner/sys_60classic/nh_fuse_switch/parts/size1_2_3/size2_3_contact.prj},183 {VTYP=3D},{NB=LTS-2_NH-Kontakt2},{LINA=LTS-2_NH-Kontakt2},{NN=Size 2 contact},{DATE=26.01.2024 06:39:58},{GEOMDATE=14.09.2023 07:31:24},{VERSION=},{LINEI
100
AcDbAttributeDefinition
  3

  2
PSOL_0
 70
     9
280
     0
  0
ATTDEF
  5
379
330
368
100
AcDbEntity
  8
attrib
100
AcDbText
 10
184.2
 20
45.50000000000001
 30
0.0
 40
0.5
  1
D=970},{WBVAR=},{WBNUMERIC=}  {NB=LTS-2_NH-Kontakt2},{LINA=LTS-2_NH-Kontakt2},{KT=DUMMY},{NBX=LTS-2_NH-Kontakt2},{ARTNR=NH-Kontakt2},{POF=QUADRON®60Classic},{TYPE=LTS-2},{VER=2}
100
AcDbAttributeDefinition
  3

  2
PSOL_1
 70
     9
280
     0
  0
ARC
  5
37A
330
368
100
AcDbEntity
  8
hidden
100
AcDbCircle
 10
147.0
 20
44.0
 30
0.0
 40
3.999999999999993
100
AcDbArc
 50
270.0
 51
90.0
  0
LINE
  5
37B
330
368
100
AcDbEntity
  8
hidden
100
AcDbLine
 10
147.0
 20
48.0
 30
0.0
 11
145.0
 21
48.0
 31
0.0
  0
CIRCLE
  5
37C
330
368
100
AcDbEntity
  8
hidden
100
AcDbCircle
 10
161.0
 20
-6.999999999999999
 30
0.0
 40
1.5
  0
CIRCLE
  5
37D
330
368
100
AcDbEntity
  8
hidden
100
AcDbCircle
 10
161.0
 20
37.00000000000001
 30
0.0
 40
5.0
  0
LINE
  5
37E
330
368
100
AcDbEntity
  8
hidden
100
AcDbLine
 10
175.0
 20
40.00000000000001
 30
0.0
 11
177.0
 21
40.00000000000001
 31
0.0
  0
LINE
  5
37F
330
368
100
AcDbEntity
  8
hidden
100
AcDbLine
 10
145.0
 20
52.00000000000001
 30
0.0
 11
177.0
 21
52.00000000000001
 31
0.0
  0
LINE
  5
380
330
368
100
AcDbEntity
  8
hidden
100
AcDbLine
 10
145.0
 20
48.0
 30
0.0
 11
145.0
 21
52.00000000000001
 31
0.0
  0
LINE
  5
381
330
368
100
AcDbEntity
  8
hidden
100
AcDbLine
 10
145.0
 20
40.00000000000001
 30
0.0
 11
147.0
 21
40.00000000000001
 31
0.0
  0
ARC
  5
382
330
368
100
AcDbEntity
  8
hidden
100
AcDbCircle
 10
175.0
 20
44.0
 30
0.0
 40
4.0
100
AcDbArc
 50
89.99999999999957
 51
270.0000000000004
  0
LINE
  5
383
330
368
100
AcDbEntity
  8
hidden
100
AcDbLine
 10
177.0
 20
48.0
 30
0.0
 11
175.0
 21
48.0
 31
0.0
  0
LINE
  5
384
330
368
100
AcDbEntity
  8
hidden
100
AcDbLine
 10
177.0
 20
52.00000000000001
 30
0.0
 11
177.0
 21
48.0
 31
0.0
  0
LINE
  5
385
330
368
100
AcDbEntity
  8
hidden
100
AcDbLine
 10
177.0
 20
-20.0
 30
0.0
 11
177.0
 21
40.00000000000001
 31
0.0
  0
LINE
  5
386
330
368
100
AcDbEntity
  8
hidden
100
AcDbLine
 10
145.0
 20
-20.0
 30
0.0
 11
145.0
 21
40.00000000000001
 31
0.0
  0
LINE
  5
387
330
368
100
AcDbEntity
  8
hidden
100
AcDbLine
 10
143.0
 20
-18.5
 30
0.0
 11
143.0
 21
12.0
 31
0.0
  0
LINE
  5
388
330
368
100
AcDbEntity
  8
hidden
100
AcDbLine
 10
179.0
 20
-18.5
 30
0.0
 11
179.0
 21
12.0
 31
0.0
  0
LINE
  5
389
330
368
100
AcDbEntity
  8
hidden
100
AcDbLine
 10
178.0815144112077
 20
-20.0
 30
0.0
 11
178.0815144112077
 21
12.0
 31
0.0
  0
LINE
  5
38A
330
368
100
AcDbEntity
  8
hidden
100
AcDbLine
 10
143.9184855887923
 20
-20.0
 30
0.0
 11
143.9184855887923
 21
12.0
 31
0.0
  0
LINE
  5
38B
330
368
100
AcDbEntity
  8
hidden
100
AcDbLine
 10
155.0815144112077
 20
-20.0
 30
0.0
 11
155.0815144112077
 21
12.0
 31
0.0
  0
LINE
  5
38C
330
368
100
AcDbEntity
  8
hidden
100
AcDbLine
 10
143.0
 20
-20.0
 30
0.0
 11
179.0
 21
-20.0
 31
0.0
  0
LINE
  5
38D
330
368
100
AcDbEntity
  8
hidden
100
AcDbLine
 10
166.9184855887923
 20
-20.0
 30
0.0
 11
166.9184855887923
 21
12.0
 31
0.0
  0
LINE
  5
38E
330
368
100
AcDbEntity
  8
hidden
100
AcDbLine
 10
158.0
 20
12.0
 30
0.0
 11
143.0
 21
12.0
 31
0.0
  0
LINE
  5
38F
330
368
100
AcDbEntity
  8
hidden
100
AcDbLine
 10
156.0
 20
-20.0
 30
0.0
 11
156.0
 21
12.0
 31
0.0
  0
LINE
  5
390
330
368
100
AcDbEntity
  8
hidden
100
AcDbLine
 10
158.0
 20
-20.0
 30
0.0
 11
158.0
 21
12.0
 31
0.0
  0
LINE
  5
391
330
368
100
AcDbEntity
  8
hidden
100
AcDbLine
 10
179.0
 20
12.0
 30
0.0
 11
164.0
 21
12.0
 31
0.0
  0
LINE
  5
392
330
368
100
AcDbEntity
  8
hidden
100
AcDbLine
 10
164.0
 20
-20.0
 30
0.0
 11
164.0
 21
12.0
 31
0.0
  0
LINE
  5
393
330
368
100
AcDbEntity
  8
hidden
100
AcDbLine
 10
166.0
 20
-20.0
 30
0.0
 11
166.0
 21
12.0
 31
0.0
  0
LINE
  5
394
330
368
100
AcDbEntity
  8
center
100
AcDbLine
 10
159.425
 20
-6.999999999999999
 30
0.0
 11
162.575
 21
-6.999999999999999
 31
0.0
  0
LINE
  5
395
330
368
100
AcDbEntity
  8
center
100
AcDbLine
 10
161.0
 20
-8.575
 30
0.0
 11
161.0
 21
-5.424999999999999
 31
0.0
  0
LINE
  5
396
330
368
100
AcDbEntity
  8
center
100
AcDbLine
 10
142.8
 20
44.0
 30
0.0
 11
151.2
 21
44.0
 31
0.0
  0
LINE
  5
397
330
368
100
AcDbEntity
  8
center
100
AcDbLine
 10
147.0
 20
39.79999999999997
 30
0.0
 11
147.0
 21
48.20000000000003
 31
0.0
  0
LINE
  5
398
330
368
100
AcDbEntity
  8
center
100
AcDbLine
 10
170.8
 20
44.0
 30
0.0
 11
179.2
 21
44.0
 31
0.0
  0
LINE
  5
399
330
368
100
AcDbEntity
  8
center
100
AcDbLine
 10
175.0
 20
39.8
 30
0.0
 11
175.0
 21
48.2
 31
0.0
  0
ENDBLK
  5
36B
330
368
100
AcDbEntity
  8
0
100
AcDbBlockEnd
  0
BLOCK
  5
39C
330
39A
100
AcDbEntity
  8
0
100
AcDbBlockBegin
  2
16_LTS_2_NH_Kontakt2_5_0_in_33602_0
 70
     2
 10
0.0
 20
0.0
 30
0.0
  3
16_LTS_2_NH_Kontakt2_5_0_in_33602_0
  1

  0
ATTDEF
  5
39E
330
39A
100
AcDbEntity
  8
attrib
100
AcDbText
 10
119.2
 20
52.00000000000001
 30
0.0
 40
0.5
  1
LTS-2_NH-Kontakt2
100
AcDbAttributeDefinition
  3

  2
NB
 70
     8
280
     0
  0
ATTDEF
  5
39F
330
39A
100
AcDbEntity
  8
attrib
100
AcDbText
 10
119.2
 20
51.50000000000001
 30
0.0
 40
0.5
  1
Size 2 contact
100
AcDbAttributeDefinition
  3

  2
NN
 70
     8
280
     0
  0
ATTDEF
  5
3A0
330
39A
100
AcDbEntity
  8
attrib
100
AcDbText
 10
119.2
 20
51.00000000000001
 30
0.0
 40
0.5
  1

100
AcDbAttributeDefinition
  3

  2
NT
 70
     8
280
     0
  0
ATTDEF
  5
3A1
330
39A
100
AcDbEntity
  8
attrib
100
AcDbText
 10
119.2
 20
50.50000000000001
 30
0.0
 40
0.5
  1
$NBX.
100
AcDbAttributeDefinition
  3

  2
NBSYN
 70
     8
280
     0
  0
ATTDEF
  5
3A2
330
39A
100
AcDbEntity
  8
attrib
100
AcDbText
 10
119.2
 20
50.00000000000001
 30
0.0
 40
0.5
  1
LTS-2_NH-Kontakt2
100
AcDbAttributeDefinition
  3

  2
LINA
 70
     8
280
     0
  0
ATTDEF
  5
3A3
330
39A
100
AcDbEntity
  8
attrib
100
AcDbText
 10
119.2
 20
49.50000000000001
 30
0.0
 40
0.5
  1
Wöhner
100
AcDbAttributeDefinition
  3

  2
CATALOG
 70
     8
280
     0
  0
ATTDEF
  5
3A4
330
39A
100
AcDbEntity
  8
attrib
100
AcDbText
 10
119.2
 20
49.00000000000001
 30
0.0
 40
0.5
  1
LTS-2_NH-Kontakt2
100
AcDbAttributeDefinition
  3

  2
NBX
 70
     8
280
     0
  0
ATTDEF
  5
3A5
330
39A
100
AcDbEntity
  8
attrib
100
AcDbText
 10
119.2
 20
48.50000000000001
 30
0.0
 40
0.5
  1
NH-Kontakt2
100
AcDbAttributeDefinition
  3

  2
ARTNR
 70
     8
280
     0
  0
ATTDEF
  5
3A6
330
39A
100
AcDbEntity
  8
attrib
100
AcDbText
 10
119.2
 20
48.00000000000001
 30
0.0
 40
0.5
  1
QUADRON®60Classic
100
AcDbAttributeDefinition
  3

  2
POF
 70
     8
280
     0
  0
ATTDEF
  5
3A7
330
39A
100
AcDbEntity
  8
attrib
100
AcDbText
 10
119.2
 20
47.50000000000001
 30
0.0
 40
0.5
  1
LTS-2
100
AcDbAttributeDefinition
  3

  2
TYPE
 70
     8
280
     0
  0
ATTDEF
  5
3A8
330
39A
100
AcDbEntity
  8
attrib
100
AcDbText
 10
119.2
 20
47.00000000000001
 30
0.0
 40
0.5
  1
2
100
AcDbAttributeDefinition
  3

  2
VER
 70
     8
280
     0
  0
ATTDEF
  5
3A9
330
39A
100
AcDbEntity
  8
attrib
100
AcDbText
 10
119.2
 20
46.50000000000001
 30
0.0
 40
0.5
  1
woehner
100
AcDbAttributeDefinition
  3

  2
COMPANY
 70
     8
280
     0
  0
ATTDEF
  5
3AA
330
39A
100
AcDbEntity
  8
attrib
100
AcDbText
 10
119.2
 20
46.00000000000001
 30
0.0
 40
0.5
  1
{$CADENAS_DATA/23d-libs/woehner/sys_60classic/nh_fuse_switch/parts/size1_2_3/size2_3_contact.prj},183 {VTYP=3D},{NB=LTS-2_NH-Kontakt2},{LINA=LTS-2_NH-Kontakt2},{NN=Size 2 contact},{DATE=26.01.2024 06:39:58},{GEOMDATE=14.09.2023 07:31:24},{VERSION=},{LINEI
100
AcDbAttributeDefinition
  3

  2
PSOL_0
 70
     9
280
     0
  0
ATTDEF
  5
3AB
330
39A
100
AcDbEntity
  8
attrib
100
AcDbText
 10
119.2
 20
45.50000000000001
 30
0.0
 40
0.5
  1
D=970},{WBVAR=},{WBNUMERIC=}  {NB=LTS-2_NH-Kontakt2},{LINA=LTS-2_NH-Kontakt2},{KT=DUMMY},{NBX=LTS-2_NH-Kontakt2},{ARTNR=NH-Kontakt2},{POF=QUADRON®60Classic},{TYPE=LTS-2},{VER=2}
100
AcDbAttributeDefinition
  3

  2
PSOL_1
 70
     9
280
     0
  0
LINE
  5
3AC
330
39A
100
AcDbEntity
  8
hidden
100
AcDbLine
 10
110.0
 20
40.00000000000001
 30
0.0
 11
112.0
 21
40.00000000000001
 31
0.0
  0
ARC
  5
3AD
330
39A
100
AcDbEntity
  8
hidden
100
AcDbCircle
 10
110.0
 20
44.0
 30
0.0
 40
4.0
100
AcDbArc
 50
90.0
 51
270.0
  0
LINE
  5
3AE
330
39A
100
AcDbEntity
  8
hidden
100
AcDbLine
 10
80.0
 20
40.00000000000001
 30
0.0
 11
82.0
 21
40.00000000000001
 31
0.0
  0
LINE
  5
3AF
330
39A
100
AcDbEntity
  8
hidden
100
AcDbLine
 10
82.0
 20
48.0
 30
0.0
 11
80.0
 21
48.0
 31
0.0
  0
ARC
  5
3B0
330
39A
100
AcDbEntity
  8
hidden
100
AcDbCircle
 10
82.0
 20
44.0
 30
0.0
 40
3.999999999999993
100
AcDbArc
 50
270.0
 51
90.0
  0
CIRCLE
  5
3B1
330
39A
100
AcDbEntity
  8
hidden
100
AcDbCircle
 10
96.0
 20
37.00000000000001
 30
0.0
 40
5.0
  0
LINE
  5
3B2
330
39A
100
AcDbEntity
  8
hidden
100
AcDbLine
 10
80.0
 20
48.0
 30
0.0
 11
80.0
 21
52.00000000000001
 31
0.0
  0
LINE
  5
3B3
330
39A
100
AcDbEntity
  8
hidden
100
AcDbLine
 10
80.0
 20
52.00000000000001
 30
0.0
 11
112.0
 21
52.00000000000001
 31
0.0
  0
LINE
  5
3B4
330
39A
100
AcDbEntity
  8
hidden
100
AcDbLine
 10
112.0
 20
48.0
 30
0.0
 11
110.0
 21
48.0
 31
0.0
  0
LINE
  5
3B5
330
39A
100
AcDbEntity
  8
hidden
100
AcDbLine
 10
112.0
 20
52.00000000000001
 30
0.0
 11
112.0
 21
48.0
 31
0.0
  0
CIRCLE
  5
3B6
330
39A
100
AcDbEntity
  8
hidden
100
AcDbCircle
 10
96.0
 20
-6.999999999999999
 30
0.0
 40
1.5
  0
LINE
  5
3B7
330
39A
100
AcDbEntity
  8
hidden
100
AcDbLine
 10
80.0
 20
-20.0
 30
0.0
 11
80.0
 21
40.00000000000001
 31
0.0
  0
LINE
  5
3B8
330
39A
100
AcDbEntity
  8
hidden
100
AcDbLine
 10
112.0
 20
-20.0
 30
0.0
 11
112.0
 21
40.00000000000001
 31
0.0
  0
LINE
  5
3B9
330
39A
100
AcDbEntity
  8
hidden
100
AcDbLine
 10
78.0
 20
-18.5
 30
0.0
 11
78.0
 21
12.0
 31
0.0
  0
LINE
  5
3BA
330
39A
100
AcDbEntity
  8
hidden
100
AcDbLine
 10
114.0
 20
-18.5
 30
0.0
 11
114.0
 21
12.0
 31
0.0
  0
LINE
  5
3BB
330
39A
100
AcDbEntity
  8
hidden
100
AcDbLine
 10
113.0815144112077
 20
-20.0
 30
0.0
 11
113.0815144112077
 21
12.0
 31
0.0
  0
LINE
  5
3BC
330
39A
100
AcDbEntity
  8
hidden
100
AcDbLine
 10
78.9184855887923
 20
-20.0
 30
0.0
 11
78.9184855887923
 21
12.0
 31
0.0
  0
LINE
  5
3BD
330
39A
100
AcDbEntity
  8
hidden
100
AcDbLine
 10
90.08151441120772
 20
-20.0
 30
0.0
 11
90.08151441120772
 21
12.0
 31
0.0
  0
LINE
  5
3BE
330
39A
100
AcDbEntity
  8
hidden
100
AcDbLine
 10
78.0
 20
-20.0
 30
0.0
 11
114.0
 21
-20.0
 31
0.0
  0
LINE
  5
3BF
330
39A
100
AcDbEntity
  8
hidden
100
AcDbLine
 10
101.9184855887923
 20
-20.0
 30
0.0
 11
101.9184855887923
 21
12.0
 31
0.0
  0
LINE
  5
3C0
330
39A
100
AcDbEntity
  8
hidden
100
AcDbLine
 10
91.0
 20
-20.0
 30
0.0
 11
91.0
 21
12.0
 31
0.0
  0
LINE
  5
3C1
330
39A
100
AcDbEntity
  8
hidden
100
AcDbLine
 10
93.0
 20
12.0
 30
0.0
 11
78.0
 21
12.0
 31
0.0
  0
LINE
  5
3C2
330
39A
100
AcDbEntity
  8
hidden
100
AcDbLine
 10
93.0
 20
-20.0
 30
0.0
 11
93.0
 21
12.0
 31
0.0
  0
LINE
  5
3C3
330
39A
100
AcDbEntity
  8
hidden
100
AcDbLine
 10
101.0
 20
-20.0
 30
0.0
 11
101.0
 21
12.0
 31
0.0
  0
LINE
  5
3C4
330
39A
100
AcDbEntity
  8
hidden
100
AcDbLine
 10
114.0
 20
12.0
 30
0.0
 11
99.0
 21
12.0
 31
0.0
  0
LINE
  5
3C5
330
39A
100
AcDbEntity
  8
hidden
100
AcDbLine
 10
99.0
 20
-20.0
 30
0.0
 11
99.0
 21
12.0
 31
0.0
  0
LINE
  5
3C6
330
39A
100
AcDbEntity
  8
center
100
AcDbLine
 10
94.425
 20
-6.999999999999999
 30
0.0
 11
97.575
 21
-6.999999999999999
 31
0.0
  0
LINE
  5
3C7
330
39A
100
AcDbEntity
  8
center
100
AcDbLine
 10
96.0
 20
-8.575
 30
0.0
 11
96.0
 21
-5.424999999999999
 31
0.0
  0
LINE
  5
3C8
330
39A
100
AcDbEntity
  8
center
100
AcDbLine
 10
77.79999999999997
 20
44.0
 30
0.0
 11
86.2
 21
44.0
 31
0.0
  0
LINE
  5
3C9
330
39A
100
AcDbEntity
  8
center
100
AcDbLine
 10
81.99999999999999
 20
39.79999999999998
 30
0.0
 11
81.99999999999999
 21
48.20000000000002
 31
0.0
  0
LINE
  5
3CA
330
39A
100
AcDbEntity
  8
center
100
AcDbLine
 10
105.8
 20
44.00000000000001
 30
0.0
 11
114.2
 21
44.00000000000001
 31
0.0
  0
LINE
  5
3CB
330
39A
100
AcDbEntity
  8
center
100
AcDbLine
 10
110.0
 20
39.79999999999999
 30
0.0
 11
110.0
 21
48.20000000000002
 31
0.0
  0
ENDBLK
  5
39D
330
39A
100
AcDbEntity
  8
0
100
AcDbBlockEnd
  0
BLOCK
  5
3CE
330
3CC
100
AcDbEntity
  8
0
100
AcDbBlockBegin
  2
17_LTS_2_NH_Kontakt2_6_0_in_33602_0
 70
     2
 10
0.0
 20
0.0
 30
0.0
  3
17_LTS_2_NH_Kontakt2_6_0_in_33602_0
  1

  0
ATTDEF
  5
3D0
330
3CC
100
AcDbEntity
  8
attrib
100
AcDbText
 10
54.2
 20
52.00000000000001
 30
0.0
 40
0.5
  1
LTS-2_NH-Kontakt2
100
AcDbAttributeDefinition
  3

  2
NB
 70
     8
280
     0
  0
ATTDEF
  5
3D1
330
3CC
100
AcDbEntity
  8
attrib
100
AcDbText
 10
54.2
 20
51.50000000000001
 30
0.0
 40
0.5
  1
Size 2 contact
100
AcDbAttributeDefinition
  3

  2
NN
 70
     8
280
     0
  0
ATTDEF
  5
3D2
330
3CC
100
AcDbEntity
  8
attrib
100
AcDbText
 10
54.2
 20
51.00000000000001
 30
0.0
 40
0.5
  1

100
AcDbAttributeDefinition
  3

  2
NT
 70
     8
280
     0
  0
ATTDEF
  5
3D3
330
3CC
100
AcDbEntity
  8
attrib
100
AcDbText
 10
54.2
 20
50.50000000000001
 30
0.0
 40
0.5
  1
$NBX.
100
AcDbAttributeDefinition
  3

  2
NBSYN
 70
     8
280
     0
  0
ATTDEF
  5
3D4
330
3CC
100
AcDbEntity
  8
attrib
100
AcDbText
 10
54.2
 20
50.00000000000001
 30
0.0
 40
0.5
  1
LTS-2_NH-Kontakt2
100
AcDbAttributeDefinition
  3

  2
LINA
 70
     8
280
     0
  0
ATTDEF
  5
3D5
330
3CC
100
AcDbEntity
  8
attrib
100
AcDbText
 10
54.2
 20
49.50000000000001
 30
0.0
 40
0.5
  1
Wöhner
100
AcDbAttributeDefinition
  3

  2
CATALOG
 70
     8
280
     0
  0
ATTDEF
  5
3D6
330
3CC
100
AcDbEntity
  8
attrib
100
AcDbText
 10
54.2
 20
49.00000000000001
 30
0.0
 40
0.5
  1
LTS-2_NH-Kontakt2
100
AcDbAttributeDefinition
  3

  2
NBX
 70
     8
280
     0
  0
ATTDEF
  5
3D7
330
3CC
100
AcDbEntity
  8
attrib
100
AcDbText
 10
54.2
 20
48.50000000000001
 30
0.0
 40
0.5
  1
NH-Kontakt2
100
AcDbAttributeDefinition
  3

  2
ARTNR
 70
     8
280
     0
  0
ATTDEF
  5
3D8
330
3CC
100
AcDbEntity
  8
attrib
100
AcDbText
 10
54.2
 20
48.00000000000001
 30
0.0
 40
0.5
  1
QUADRON®60Classic
100
AcDbAttributeDefinition
  3

  2
POF
 70
     8
280
     0
  0
ATTDEF
  5
3D9
330
3CC
100
AcDbEntity
  8
attrib
100
AcDbText
 10
54.2
 20
47.50000000000001
 30
0.0
 40
0.5
  1
LTS-2
100
AcDbAttributeDefinition
  3

  2
TYPE
 70
     8
280
     0
  0
ATTDEF
  5
3DA
330
3CC
100
AcDbEntity
  8
attrib
100
AcDbText
 10
54.2
 20
47.00000000000001
 30
0.0
 40
0.5
  1
2
100
AcDbAttributeDefinition
  3

  2
VER
 70
     8
280
     0
  0
ATTDEF
  5
3DB
330
3CC
100
AcDbEntity
  8
attrib
100
AcDbText
 10
54.2
 20
46.50000000000001
 30
0.0
 40
0.5
  1
woehner
100
AcDbAttributeDefinition
  3

  2
COMPANY
 70
     8
280
     0
  0
ATTDEF
  5
3DC
330
3CC
100
AcDbEntity
  8
attrib
100
AcDbText
 10
54.2
 20
46.00000000000001
 30
0.0
 40
0.5
  1
{$CADENAS_DATA/23d-libs/woehner/sys_60classic/nh_fuse_switch/parts/size1_2_3/size2_3_contact.prj},183 {VTYP=3D},{NB=LTS-2_NH-Kontakt2},{LINA=LTS-2_NH-Kontakt2},{NN=Size 2 contact},{DATE=26.01.2024 06:39:58},{GEOMDATE=14.09.2023 07:31:24},{VERSION=},{LINEI
100
AcDbAttributeDefinition
  3

  2
PSOL_0
 70
     9
280
     0
  0
ATTDEF
  5
3DD
330
3CC
100
AcDbEntity
  8
attrib
100
AcDbText
 10
54.2
 20
45.50000000000001
 30
0.0
 40
0.5
  1
D=970},{WBVAR=},{WBNUMERIC=}  {NB=LTS-2_NH-Kontakt2},{LINA=LTS-2_NH-Kontakt2},{KT=DUMMY},{NBX=LTS-2_NH-Kontakt2},{ARTNR=NH-Kontakt2},{POF=QUADRON®60Classic},{TYPE=LTS-2},{VER=2}
100
AcDbAttributeDefinition
  3

  2
PSOL_1
 70
     9
280
     0
  0
LINE
  5
3DE
330
3CC
100
AcDbEntity
  8
hidden
100
AcDbLine
 10
15.0
 20
40.00000000000001
 30
0.0
 11
16.99999999999999
 21
40.00000000000001
 31
0.0
  0
CIRCLE
  5
3DF
330
3CC
100
AcDbEntity
  8
hidden
100
AcDbCircle
 10
31.0
 20
37.00000000000001
 30
0.0
 40
5.0
  0
LINE
  5
3E0
330
3CC
100
AcDbEntity
  8
hidden
100
AcDbLine
 10
15.0
 20
48.0
 30
0.0
 11
15.0
 21
52.00000000000001
 31
0.0
  0
ARC
  5
3E1
330
3CC
100
AcDbEntity
  8
hidden
100
AcDbCircle
 10
44.99999999999999
 20
44.0
 30
0.0
 40
4.0
100
AcDbArc
 50
89.9999999999999
 51
270.0000000000001
  0
LINE
  5
3E2
330
3CC
100
AcDbEntity
  8
hidden
100
AcDbLine
 10
16.99999999999999
 20
48.0
 30
0.0
 11
15.0
 21
48.0
 31
0.0
  0
LINE
  5
3E3
330
3CC
100
AcDbEntity
  8
hidden
100
AcDbLine
 10
45.0
 20
40.00000000000001
 30
0.0
 11
47.0
 21
40.00000000000001
 31
0.0
  0
CIRCLE
  5
3E4
330
3CC
100
AcDbEntity
  8
hidden
100
AcDbCircle
 10
31.0
 20
-6.999999999999999
 30
0.0
 40
1.5
  0
ARC
  5
3E5
330
3CC
100
AcDbEntity
  8
hidden
100
AcDbCircle
 10
16.99999999999999
 20
44.0
 30
0.0
 40
3.999999999999993
100
AcDbArc
 50
270.0
 51
90.0
  0
LINE
  5
3E6
330
3CC
100
AcDbEntity
  8
hidden
100
AcDbLine
 10
47.0
 20
52.00000000000001
 30
0.0
 11
47.0
 21
48.0
 31
0.0
  0
LINE
  5
3E7
330
3CC
100
AcDbEntity
  8
hidden
100
AcDbLine
 10
47.0
 20
48.0
 30
0.0
 11
45.0
 21
48.0
 31
0.0
  0
LINE
  5
3E8
330
3CC
100
AcDbEntity
  8
hidden
100
AcDbLine
 10
15.0
 20
52.00000000000001
 30
0.0
 11
47.0
 21
52.00000000000001
 31
0.0
  0
LINE
  5
3E9
330
3CC
100
AcDbEntity
  8
hidden
100
AcDbLine
 10
47.0
 20
-20.0
 30
0.0
 11
47.0
 21
40.00000000000001
 31
0.0
  0
LINE
  5
3EA
330
3CC
100
AcDbEntity
  8
hidden
100
AcDbLine
 10
15.0
 20
-20.0
 30
0.0
 11
15.0
 21
40.00000000000001
 31
0.0
  0
LINE
  5
3EB
330
3CC
100
AcDbEntity
  8
hidden
100
AcDbLine
 10
49.0
 20
-18.5
 30
0.0
 11
49.0
 21
12.0
 31
0.0
  0
LINE
  5
3EC
330
3CC
100
AcDbEntity
  8
hidden
100
AcDbLine
 10
12.99999999999999
 20
-18.5
 30
0.0
 11
12.99999999999999
 21
12.0
 31
0.0
  0
LINE
  5
3ED
330
3CC
100
AcDbEntity
  8
hidden
100
AcDbLine
 10
48.08151441120771
 20
-20.0
 30
0.0
 11
48.08151441120771
 21
12.0
 31
0.0
  0
LINE
  5
3EE
330
3CC
100
AcDbEntity
  8
hidden
100
AcDbLine
 10
13.91848558879228
 20
-20.0
 30
0.0
 11
13.91848558879228
 21
12.0
 31
0.0
  0
LINE
  5
3EF
330
3CC
100
AcDbEntity
  8
hidden
100
AcDbLine
 10
36.91848558879228
 20
-20.0
 30
0.0
 11
36.91848558879228
 21
12.0
 31
0.0
  0
LINE
  5
3F0
330
3CC
100
AcDbEntity
  8
hidden
100
AcDbLine
 10
25.08151441120771
 20
-20.0
 30
0.0
 11
25.08151441120771
 21
12.0
 31
0.0
  0
LINE
  5
3F1
330
3CC
100
AcDbEntity
  8
hidden
100
AcDbLine
 10
26.0
 20
-20.0
 30
0.0
 11
26.0
 21
12.0
 31
0.0
  0
LINE
  5
3F2
330
3CC
100
AcDbEntity
  8
hidden
100
AcDbLine
 10
28.0
 20
12.0
 30
0.0
 11
12.99999999999999
 21
12.0
 31
0.0
  0
LINE
  5
3F3
330
3CC
100
AcDbEntity
  8
hidden
100
AcDbLine
 10
49.0
 20
-20.0
 30
0.0
 11
12.99999999999999
 21
-20.0
 31
0.0
  0
LINE
  5
3F4
330
3CC
100
AcDbEntity
  8
hidden
100
AcDbLine
 10
28.0
 20
-20.0
 30
0.0
 11
28.0
 21
12.0
 31
0.0
  0
LINE
  5
3F5
330
3CC
100
AcDbEntity
  8
hidden
100
AcDbLine
 10
49.0
 20
12.0
 30
0.0
 11
34.0
 21
12.0
 31
0.0
  0
LINE
  5
3F6
330
3CC
100
AcDbEntity
  8
hidden
100
AcDbLine
 10
34.0
 20
-20.0
 30
0.0
 11
34.0
 21
12.0
 31
0.0
  0
LINE
  5
3F7
330
3CC
100
AcDbEntity
  8
hidden
100
AcDbLine
 10
36.0
 20
-20.0
 30
0.0
 11
36.0
 21
12.0
 31
0.0
  0
LINE
  5
3F8
330
3CC
100
AcDbEntity
  8
center
100
AcDbLine
 10
29.425
 20
-6.999999999999999
 30
0.0
 11
32.575
 21
-6.999999999999999
 31
0.0
  0
LINE
  5
3F9
330
3CC
100
AcDbEntity
  8
center
100
AcDbLine
 10
31.0
 20
-8.575
 30
0.0
 11
31.0
 21
-5.424999999999999
 31
0.0
  0
LINE
  5
3FA
330
3CC
100
AcDbEntity
  8
center
100
AcDbLine
 10
12.8
 20
44.0
 30
0.0
 11
21.19999999999999
 21
44.0
 31
0.0
  0
LINE
  5
3FB
330
3CC
100
AcDbEntity
  8
center
100
AcDbLine
 10
17.0
 20
39.8
 30
0.0
 11
17.0
 21
48.2
 31
0.0
  0
LINE
  5
3FC
330
3CC
100
AcDbEntity
  8
center
100
AcDbLine
 10
40.79999999999999
 20
44.00000000000001
 30
0.0
 11
49.2
 21
44.00000000000001
 31
0.0
  0
LINE
  5
3FD
330
3CC
100
AcDbEntity
  8
center
100
AcDbLine
 10
44.99999999999999
 20
39.8
 30
0.0
 11
44.99999999999999
 21
48.20000000000001
 31
0.0
  0
ENDBLK
  5
3CF
330
3CC
100
AcDbEntity
  8
0
100
AcDbBlockEnd
  0
BLOCK
  5
400
330
3FE
100
AcDbEntity
  8
0
100
AcDbBlockBegin
  2
18_309690004_0_in_33602_0
 70
     2
 10
0.0
 20
0.0
 30
0.0
  3
18_309690004_0_in_33602_0
  1

  0
ATTDEF
  5
402
330
3FE
100
AcDbEntity
  8
attrib
100
AcDbText
 10
206.0
 20
59.50000000000001
 30
0.0
 40
0.5
  1
309690004
100
AcDbAttributeDefinition
  3

  2
NB
 70
     8
280
     0
  0
ATTDEF
  5
403
330
3FE
100
AcDbEntity
  8
attrib
100
AcDbText
 10
206.0
 20
59.00000000000001
 30
0.0
 40
0.5
  1
Size 2 middle
100
AcDbAttributeDefinition
  3

  2
NN
 70
     8
280
     0
  0
ATTDEF
  5
404
330
3FE
100
AcDbEntity
  8
attrib
100
AcDbText
 10
206.0
 20
58.50000000000001
 30
0.0
 40
0.5
  1

100
AcDbAttributeDefinition
  3

  2
NT
 70
     8
280
     0
  0
ATTDEF
  5
405
330
3FE
100
AcDbEntity
  8
attrib
100
AcDbText
 10
206.0
 20
58.00000000000001
 30
0.0
 40
0.5
  1
$NBX.$PRIO.
100
AcDbAttributeDefinition
  3

  2
NBSYN
 70
     8
280
     0
  0
ATTDEF
  5
406
330
3FE
100
AcDbEntity
  8
attrib
100
AcDbText
 10
206.0
 20
57.50000000000001
 30
0.0
 40
0.5
  1
309690004
100
AcDbAttributeDefinition
  3

  2
LINA
 70
     8
280
     0
  0
ATTDEF
  5
407
330
3FE
100
AcDbEntity
  8
attrib
100
AcDbText
 10
206.0
 20
57.00000000000001
 30
0.0
 40
0.5
  1
Wöhner
100
AcDbAttributeDefinition
  3

  2
CATALOG
 70
     8
280
     0
  0
ATTDEF
  5
408
330
3FE
100
AcDbEntity
  8
attrib
100
AcDbText
 10
206.0
 20
56.50000000000001
 30
0.0
 40
0.5
  1
30969000
100
AcDbAttributeDefinition
  3

  2
NBX
 70
     8
280
     0
  0
ATTDEF
  5
409
330
3FE
100
AcDbEntity
  8
attrib
100
AcDbText
 10
206.0
 20
56.00000000000001
 30
0.0
 40
0.5
  1
30969000
100
AcDbAttributeDefinition
  3

  2
ARTNR
 70
     8
280
     0
  0
ATTDEF
  5
40A
330
3FE
100
AcDbEntity
  8
attrib
100
AcDbText
 10
206.0
 20
55.50000000000001
 30
0.0
 40
0.5
  1
QUADRON®60Classic
100
AcDbAttributeDefinition
  3

  2
POF
 70
     8
280
     0
  0
ATTDEF
  5
40B
330
3FE
100
AcDbEntity
  8
attrib
100
AcDbText
 10
206.0
 20
55.00000000000001
 30
0.0
 40
0.5
  1
LTS-2
100
AcDbAttributeDefinition
  3

  2
TYPE
 70
     8
280
     0
  0
ATTDEF
  5
40C
330
3FE
100
AcDbEntity
  8
attrib
100
AcDbText
 10
206.0
 20
54.50000000000001
 30
0.0
 40
0.5
  1
3
100
AcDbAttributeDefinition
  3

  2
VER
 70
     8
280
     0
  0
ATTDEF
  5
40D
330
3FE
100
AcDbEntity
  8
attrib
100
AcDbText
 10
206.0
 20
54.00000000000001
 30
0.0
 40
0.5
  1
203
100
AcDbAttributeDefinition
  3

  2
D
 70
     8
280
     0
  0
ATTDEF
  5
40E
330
3FE
100
AcDbEntity
  8
attrib
100
AcDbText
 10
206.0
 20
53.50000000000001
 30
0.0
 40
0.5
  1
4
100
AcDbAttributeDefinition
  3

  2
PRIO
 70
     8
280
     0
  0
ATTDEF
  5
40F
330
3FE
100
AcDbEntity
  8
attrib
100
AcDbText
 10
206.0
 20
53.00000000000001
 30
0.0
 40
0.5
  1
woehner
100
AcDbAttributeDefinition
  3

  2
COMPANY
 70
     8
280
     0
  0
ATTDEF
  5
410
330
3FE
100
AcDbEntity
  8
attrib
100
AcDbText
 10
206.0
 20
52.50000000000001
 30
0.0
 40
0.5
  1
{$CADENAS_DATA/23d-libs/woehner/sys_60classic/nh_fuse_switch/parts/size1_2_3/size_1_2_3_middle1.prj},187 {VTYP=3D},{NB=309690004},{LINA=309690004},{NN=Size 2 middle},{DATE=26.01.2024 07:04:31},{GEOMDATE=03.10.2023 07:36:42},{VERSION=v231003074218},{LINEID
100
AcDbAttributeDefinition
  3

  2
PSOL_0
 70
     9
280
     0
  0
ATTDEF
  5
411
330
3FE
100
AcDbEntity
  8
attrib
100
AcDbText
 10
206.0
 20
52.00000000000001
 30
0.0
 40
0.5
  1
=970},{WBVAR=PRIO},{WBNUMERIC=PRIO}  {NB=309690004},{LINA=309690004},{KT=DUMMY},{NBX=30969000},{ARTNR=30969000},{POF=QUADRON®60Classic},{TYPE=LTS-2},{VER=3},{D=203},{PRIO=4}
100
AcDbAttributeDefinition
  3

  2
PSOL_1
 70
     9
280
     0
  0
LINE
  5
412
330
3FE
100
AcDbEntity
  8
hidden
100
AcDbLine
 10
181.0
 20
-195.5
 30
0.0
 11
183.0
 21
-195.5
 31
0.0
  0
LINE
  5
413
330
3FE
100
AcDbEntity
  8
hidden
100
AcDbLine
 10
8.999999999999995
 20
-195.5
 30
0.0
 11
11.0
 21
-195.5
 31
0.0
  0
LINE
  5
414
330
3FE
100
AcDbEntity
  8
hidden
100
AcDbLine
 10
85.0
 20
-173.0
 30
0.0
 11
85.0
 21
-195.5
 31
0.0
  0
LINE
  5
415
330
3FE
100
AcDbEntity
  8
hidden
100
AcDbLine
 10
20.0
 20
-173.0
 30
0.0
 11
20.0
 21
-195.5
 31
0.0
  0
ARC
  5
416
330
3FE
100
AcDbEntity
  8
hidden
100
AcDbCircle
 10
31.00000000000001
 20
-173.0
 30
0.0
 40
10.99999999999999
100
AcDbArc
 50
359.9999999999998
 51
180.0000000000002
  0
LINE
  5
417
330
3FE
100
AcDbEntity
  8
hidden
100
AcDbLine
 10
42.0
 20
-195.5
 30
0.0
 11
42.0
 21
-173.0
 31
0.0
  0
ARC
  5
418
330
3FE
100
AcDbEntity
  8
hidden
100
AcDbCircle
 10
96.0
 20
-173.0
 30
0.0
 40
11.0
100
AcDbArc
 50
359.9999999999998
 51
180.0000000000002
  0
LINE
  5
419
330
3FE
100
AcDbEntity
  8
hidden
100
AcDbLine
 10
107.0
 20
-195.5
 30
0.0
 11
107.0
 21
-173.0
 31
0.0
  0
LINE
  5
41A
330
3FE
100
AcDbEntity
  8
hidden
100
AcDbLine
 10
150.0
 20
-173.0
 30
0.0
 11
150.0
 21
-195.5
 31
0.0
  0
ARC
  5
41B
330
3FE
100
AcDbEntity
  8
hidden
100
AcDbCircle
 10
161.0
 20
-173.0
 30
0.0
 40
11.0
100
AcDbArc
 50
0.0
 51
180.0
  0
LINE
  5
41C
330
3FE
100
AcDbEntity
  8
hidden
100
AcDbLine
 10
172.0
 20
-195.5
 30
0.0
 11
172.0
 21
-173.0
 31
0.0
  0
CIRCLE
  5
41D
330
3FE
100
AcDbEntity
  8
hidden
100
AcDbCircle
 10
31.0
 20
-43.0
 30
0.0
 40
5.5
  0
CIRCLE
  5
41E
330
3FE
100
AcDbEntity
  8
hidden
100
AcDbCircle
 10
161.0
 20
-68.0
 30
0.0
 40
5.5
  0
CIRCLE
  5
41F
330
3FE
100
AcDbEntity
  8
hidden
100
AcDbCircle
 10
31.0
 20
-68.0
 30
0.0
 40
5.5
  0
CIRCLE
  5
420
330
3FE
100
AcDbEntity
  8
hidden
100
AcDbCircle
 10
161.0
 20
-93.0
 30
0.0
 40
5.5
  0
CIRCLE
  5
421
330
3FE
100
AcDbEntity
  8
hidden
100
AcDbCircle
 10
31.0
 20
-93.0
 30
0.0
 40
5.5
  0
CIRCLE
  5
422
330
3FE
100
AcDbEntity
  8
hidden
100
AcDbCircle
 10
161.0
 20
-43.0
 30
0.0
 40
5.5
  0
LINE
  5
423
330
3FE
100
AcDbEntity
  8
hidden
100
AcDbLine
 10
-8.000000000000007
 20
59.50000000000001
 30
0.0
 11
-4.000000000000004
 21
59.50000000000001
 31
0.0
  0
LINE
  5
424
330
3FE
100
AcDbEntity
  8
hidden
100
AcDbLine
 10
196.0
 20
59.50000000000001
 30
0.0
 11
200.0
 21
59.50000000000001
 31
0.0
  0
ARC
  5
425
330
3FE
100
AcDbEntity
  8
hidden
100
AcDbCircle
 10
31.0
 20
37.0
 30
0.0
 40
11.0
100
AcDbArc
 50
180.0
 51
0.000000000000037
  0
LINE
  5
426
330
3FE
100
AcDbEntity
  8
hidden
100
AcDbLine
 10
20.0
 20
59.50000000000001
 30
0.0
 11
20.0
 21
37.00000000000001
 31
0.0
  0
LINE
  5
427
330
3FE
100
AcDbEntity
  8
hidden
100
AcDbLine
 10
172.0
 20
37.00000000000001
 30
0.0
 11
172.0
 21
59.50000000000001
 31
0.0
  0
ARC
  5
428
330
3FE
100
AcDbEntity
  8
hidden
100
AcDbCircle
 10
161.0
 20
37.00000000000001
 30
0.0
 40
11.0
100
AcDbArc
 50
180.0
 51
0.0
  0
LINE
  5
429
330
3FE
100
AcDbEntity
  8
hidden
100
AcDbLine
 10
107.0
 20
37.00000000000001
 30
0.0
 11
107.0
 21
59.50000000000001
 31
0.0
  0
ARC
  5
42A
330
3FE
100
AcDbEntity
  8
hidden
100
AcDbCircle
 10
96.0
 20
37.00000000000001
 30
0.0
 40
11.0
100
AcDbArc
 50
180.0
 51
0.0
  0
LINE
  5
42B
330
3FE
100
AcDbEntity
  8
hidden
100
AcDbLine
 10
85.0
 20
59.50000000000001
 30
0.0
 11
85.0
 21
37.00000000000001
 31
0.0
  0
LINE
  5
42C
330
3FE
100
AcDbEntity
  8
hidden
100
AcDbLine
 10
197.0
 20
24.5
 30
0.0
 11
-5.000000000000004
 21
24.5
 31
0.0
  0
LINE
  5
42D
330
3FE
100
AcDbEntity
  8
hidden
100
AcDbLine
 10
-5.000000000000004
 20
-24.5
 30
0.0
 11
197.0
 21
-24.5
 31
0.0
  0
LINE
  5
42E
330
3FE
100
AcDbEntity
  8
hidden
100
AcDbLine
 10
11.0
 20
-160.5
 30
0.0
 11
181.0
 21
-160.5
 31
0.0
  0
LINE
  5
42F
330
3FE
100
AcDbEntity
  8
hidden
100
AcDbLine
 10
197.0
 20
-35.5
 30
0.0
 11
200.0
 21
-35.5
 31
0.0
  0
LINE
  5
430
330
3FE
100
AcDbEntity
  8
hidden
100
AcDbLine
 10
-8.000000000000007
 20
-35.5
 30
0.0
 11
-5.000000000000004
 21
-35.5
 31
0.0
  0
LINE
  5
431
330
3FE
100
AcDbEntity
  8
hidden
100
AcDbLine
 10
-8.000000000000007
 20
-195.5
 30
0.0
 11
-8.000000000000007
 21
-157.896
 31
0.0
  0
LINE
  5
432
330
3FE
100
AcDbEntity
  8
hidden
100
AcDbLine
 10
-8.000000000000007
 20
-90.5
 30
0.0
 11
-5.000000000000004
 21
-90.5
 31
0.0
  0
LINE
  5
433
330
3FE
100
AcDbEntity
  8
hidden
100
AcDbLine
 10
200.0
 20
-195.5
 30
0.0
 11
200.0
 21
-157.896
 31
0.0
  0
LINE
  5
434
330
3FE
100
AcDbEntity
  8
hidden
100
AcDbLine
 10
197.0
 20
-90.5
 30
0.0
 11
200.0
 21
-90.5
 31
0.0
  0
LINE
  5
435
330
3FE
100
AcDbEntity
  8
hidden
100
AcDbLine
 10
4.000000000000004
 20
-111.5
 30
0.0
 11
4.000000000000004
 21
-157.896
 31
0.0
  0
LINE
  5
436
330
3FE
100
AcDbEntity
  8
hidden
100
AcDbLine
 10
8.000000000000007
 20
-157.896
 30
0.0
 11
8.000000000000007
 21
-111.5
 31
0.0
  0
LINE
  5
437
330
3FE
100
AcDbEntity
  8
hidden
100
AcDbLine
 10
197.0
 20
-157.896
 30
0.0
 11
197.0
 21
59.50000000000001
 31
0.0
  0
LINE
  5
438
330
3FE
100
AcDbEntity
  8
hidden
100
AcDbLine
 10
188.0
 20
-157.896
 30
0.0
 11
188.0
 21
-111.5
 31
0.0
  0
LINE
  5
439
330
3FE
100
AcDbEntity
  8
hidden
100
AcDbLine
 10
184.0
 20
-111.5
 30
0.0
 11
184.0
 21
-157.896
 31
0.0
  0
LINE
  5
43A
330
3FE
100
AcDbEntity
  8
hidden
100
AcDbLine
 10
188.0
 20
-111.5
 30
0.0
 11
4.000000000000004
 21
-111.5
 31
0.0
  0
LINE
  5
43B
330
3FE
100
AcDbEntity
  8
hidden
100
AcDbLine
 10
-5.000000000000004
 20
-157.896
 30
0.0
 11
-5.000000000000004
 21
59.50000000000001
 31
0.0
  0
LINE
  5
43C
330
3FE
100
AcDbEntity
  8
center
100
AcDbLine
 10
25.225
 20
-43.0
 30
0.0
 11
36.775
 21
-43.0
 31
0.0
  0
LINE
  5
43D
330
3FE
100
AcDbEntity
  8
center
100
AcDbLine
 10
31.0
 20
-48.775
 30
0.0
 11
31.0
 21
-37.225
 31
0.0
  0
LINE
  5
43E
330
3FE
100
AcDbEntity
  8
center
100
AcDbLine
 10
155.225
 20
-68.0
 30
0.0
 11
166.775
 21
-68.0
 31
0.0
  0
LINE
  5
43F
330
3FE
100
AcDbEntity
  8
center
100
AcDbLine
 10
161.0
 20
-73.775
 30
0.0
 11
161.0
 21
-62.225
 31
0.0
  0
LINE
  5
440
330
3FE
100
AcDbEntity
  8
center
100
AcDbLine
 10
25.225
 20
-68.0
 30
0.0
 11
36.775
 21
-68.0
 31
0.0
  0
LINE
  5
441
330
3FE
100
AcDbEntity
  8
center
100
AcDbLine
 10
31.0
 20
-73.775
 30
0.0
 11
31.0
 21
-62.225
 31
0.0
  0
LINE
  5
442
330
3FE
100
AcDbEntity
  8
center
100
AcDbLine
 10
155.225
 20
-93.0
 30
0.0
 11
166.775
 21
-93.0
 31
0.0
  0
LINE
  5
443
330
3FE
100
AcDbEntity
  8
center
100
AcDbLine
 10
161.0
 20
-98.775
 30
0.0
 11
161.0
 21
-87.225
 31
0.0
  0
LINE
  5
444
330
3FE
100
AcDbEntity
  8
center
100
AcDbLine
 10
25.225
 20
-93.0
 30
0.0
 11
36.775
 21
-93.0
 31
0.0
  0
LINE
  5
445
330
3FE
100
AcDbEntity
  8
center
100
AcDbLine
 10
31.0
 20
-98.775
 30
0.0
 11
31.0
 21
-87.225
 31
0.0
  0
LINE
  5
446
330
3FE
100
AcDbEntity
  8
center
100
AcDbLine
 10
155.225
 20
-43.0
 30
0.0
 11
166.775
 21
-43.0
 31
0.0
  0
LINE
  5
447
330
3FE
100
AcDbEntity
  8
center
100
AcDbLine
 10
161.0
 20
-48.775
 30
0.0
 11
161.0
 21
-37.225
 31
0.0
  0
LINE
  5
448
330
3FE
100
AcDbEntity
  8
center
100
AcDbLine
 10
84.45000000000006
 20
36.99999999999995
 30
0.0
 11
107.5499999999999
 21
36.99999999999995
 31
0.0
  0
LINE
  5
449
330
3FE
100
AcDbEntity
  8
center
100
AcDbLine
 10
96.0
 20
25.45000000000001
 30
0.0
 11
96.0
 21
48.54999999999989
 31
0.0
  0
LINE
  5
44A
330
3FE
100
AcDbEntity
  8
center
100
AcDbLine
 10
84.45
 20
-173.0
 30
0.0
 11
107.55
 21
-173.0
 31
0.0
  0
LINE
  5
44B
330
3FE
100
AcDbEntity
  8
center
100
AcDbLine
 10
96.0
 20
-184.55
 30
0.0
 11
96.0
 21
-161.45
 31
0.0
  0
LINE
  5
44C
330
3FE
100
AcDbEntity
  8
center
100
AcDbLine
 10
19.45
 20
37.00000000000001
 30
0.0
 11
42.55
 21
37.00000000000001
 31
0.0
  0
LINE
  5
44D
330
3FE
100
AcDbEntity
  8
center
100
AcDbLine
 10
31.0
 20
25.45000000000001
 30
0.0
 11
31.0
 21
48.55
 31
0.0
  0
LINE
  5
44E
330
3FE
100
AcDbEntity
  8
center
100
AcDbLine
 10
149.45
 20
36.99999999999995
 30
0.0
 11
172.55
 21
36.99999999999995
 31
0.0
  0
LINE
  5
44F
330
3FE
100
AcDbEntity
  8
center
100
AcDbLine
 10
161.0
 20
25.45000000000001
 30
0.0
 11
161.0
 21
48.5499999999999
 31
0.0
  0
LINE
  5
450
330
3FE
100
AcDbEntity
  8
center
100
AcDbLine
 10
19.44999999999998
 20
-173.0
 30
0.0
 11
42.55000000000004
 21
-173.0
 31
0.0
  0
LINE
  5
451
330
3FE
100
AcDbEntity
  8
center
100
AcDbLine
 10
31.00000000000001
 20
-184.5500000000001
 30
0.0
 11
31.00000000000001
 21
-161.45
 31
0.0
  0
LINE
  5
452
330
3FE
100
AcDbEntity
  8
center
100
AcDbLine
 10
149.45
 20
-173.0
 30
0.0
 11
172.55
 21
-173.0
 31
0.0
  0
LINE
  5
453
330
3FE
100
AcDbEntity
  8
center
100
AcDbLine
 10
161.0
 20
-184.55
 30
0.0
 11
161.0
 21
-161.45
 31
0.0
  0
LINE
  5
454
330
3FE
100
AcDbEntity
  8
bold
100
AcDbLine
 10
-8.999999999999995
 20
-195.5
 30
0.0
 11
8.999999999999995
 21
-195.5
 31
0.0
  0
LINE
  5
455
330
3FE
100
AcDbEntity
  8
bold
100
AcDbLine
 10
181.0
 20
-160.5
 30
0.0
 11
184.0
 21
-160.5
 31
0.0
  0
LINE
  5
456
330
3FE
100
AcDbEntity
  8
bold
100
AcDbLine
 10
8.000000000000007
 20
-160.5
 30
0.0
 11
11.0
 21
-160.5
 31
0.0
  0
LINE
  5
457
330
3FE
100
AcDbEntity
  8
bold
100
AcDbLine
 10
4.000000000000004
 20
-157.896
 30
0.0
 11
4.000000000000004
 21
-195.5
 31
0.0
  0
LINE
  5
458
330
3FE
100
AcDbEntity
  8
bold
100
AcDbLine
 10
8.000000000000007
 20
-195.5
 30
0.0
 11
8.000000000000007
 21
-157.896
 31
0.0
  0
LINE
  5
459
330
3FE
100
AcDbEntity
  8
bold
100
AcDbLine
 10
183.0
 20
-195.5
 30
0.0
 11
201.0
 21
-195.5
 31
0.0
  0
LINE
  5
45A
330
3FE
100
AcDbEntity
  8
bold
100
AcDbLine
 10
197.0
 20
-195.5
 30
0.0
 11
197.0
 21
-157.896
 31
0.0
  0
LINE
  5
45B
330
3FE
100
AcDbEntity
  8
bold
100
AcDbLine
 10
200.0
 20
59.50000000000001
 30
0.0
 11
201.0
 21
59.50000000000001
 31
0.0
  0
LINE
  5
45C
330
3FE
100
AcDbEntity
  8
bold
100
AcDbLine
 10
201.0
 20
-195.5
 30
0.0
 11
201.0
 21
59.50000000000001
 31
0.0
  0
LINE
  5
45D
330
3FE
100
AcDbEntity
  8
bold
100
AcDbLine
 10
188.0
 20
-195.5
 30
0.0
 11
188.0
 21
-157.896
 31
0.0
  0
LINE
  5
45E
330
3FE
100
AcDbEntity
  8
bold
100
AcDbLine
 10
184.0
 20
-157.896
 30
0.0
 11
184.0
 21
-195.5
 31
0.0
  0
LINE
  5
45F
330
3FE
100
AcDbEntity
  8
bold
100
AcDbLine
 10
-8.999999999999995
 20
59.50000000000001
 30
0.0
 11
-8.000000000000007
 21
59.50000000000001
 31
0.0
  0
LINE
  5
460
330
3FE
100
AcDbEntity
  8
bold
100
AcDbLine
 10
-8.999999999999995
 20
-195.5
 30
0.0
 11
-8.999999999999995
 21
59.50000000000001
 31
0.0
  0
LINE
  5
461
330
3FE
100
AcDbEntity
  8
bold
100
AcDbLine
 10
-5.000000000000004
 20
-195.5
 30
0.0
 11
-5.000000000000004
 21
-157.896
 31
0.0
  0
ENDBLK
  5
401
330
3FE
100
AcDbEntity
  8
0
100
AcDbBlockEnd
  0
BLOCK
  5
464
330
462
100
AcDbEntity
  8
0
100
AcDbBlockBegin
  2
19_77010000_79693000_0_in_33602_0
 70
     2
 10
0.0
 20
0.0
 30
0.0
  3
19_77010000_79693000_0_in_33602_0
  1

  0
ATTDEF
  5
466
330
462
100
AcDbEntity
  8
attrib
100
AcDbText
 10
197.0
 20
49.0
 30
0.0
 40
0.5
  1
77010000+79693000
100
AcDbAttributeDefinition
  3

  2
NB
 70
     8
280
     0
  0
ATTDEF
  5
467
330
462
100
AcDbEntity
  8
attrib
100
AcDbText
 10
197.0
 20
48.5
 30
0.0
 40
0.5
  1
Size 2 adapter
100
AcDbAttributeDefinition
  3

  2
NN
 70
     8
280
     0
  0
ATTDEF
  5
468
330
462
100
AcDbEntity
  8
attrib
100
AcDbText
 10
197.0
 20
48.0
 30
0.0
 40
0.5
  1

100
AcDbAttributeDefinition
  3

  2
NT
 70
     8
280
     0
  0
ATTDEF
  5
469
330
462
100
AcDbEntity
  8
attrib
100
AcDbText
 10
197.0
 20
47.5
 30
0.0
 40
0.5
  1
$NBX.
100
AcDbAttributeDefinition
  3

  2
NBSYN
 70
     8
280
     0
  0
ATTDEF
  5
46A
330
462
100
AcDbEntity
  8
attrib
100
AcDbText
 10
197.0
 20
47.0
 30
0.0
 40
0.5
  1
77010000+79693000
100
AcDbAttributeDefinition
  3

  2
LINA
 70
     8
280
     0
  0
ATTDEF
  5
46B
330
462
100
AcDbEntity
  8
attrib
100
AcDbText
 10
197.0
 20
46.5
 30
0.0
 40
0.5
  1
Wöhner
100
AcDbAttributeDefinition
  3

  2
CATALOG
 70
     8
280
     0
  0
ATTDEF
  5
46C
330
462
100
AcDbEntity
  8
attrib
100
AcDbText
 10
197.0
 20
46.0
 30
0.0
 40
0.5
  1
77010000+79693000
100
AcDbAttributeDefinition
  3

  2
NBX
 70
     8
280
     0
  0
ATTDEF
  5
46D
330
462
100
AcDbEntity
  8
attrib
100
AcDbText
 10
197.0
 20
45.5
 30
0.0
 40
0.5
  1
77010000+79693000
100
AcDbAttributeDefinition
  3

  2
ARTNR
 70
     8
280
     0
  0
ATTDEF
  5
46E
330
462
100
AcDbEntity
  8
attrib
100
AcDbText
 10
197.0
 20
45.0
 30
0.0
 40
0.5
  1
QUADRON®60Classic
100
AcDbAttributeDefinition
  3

  2
POF
 70
     8
280
     0
  0
ATTDEF
  5
46F
330
462
100
AcDbEntity
  8
attrib
100
AcDbText
 10
197.0
 20
44.5
 30
0.0
 40
0.5
  1
LTS-2
100
AcDbAttributeDefinition
  3

  2
TYPE
 70
     8
280
     0
  0
ATTDEF
  5
470
330
462
100
AcDbEntity
  8
attrib
100
AcDbText
 10
197.0
 20
44.0
 30
0.0
 40
0.5
  1
31
100
AcDbAttributeDefinition
  3

  2
VER
 70
     8
280
     0
  0
ATTDEF
  5
471
330
462
100
AcDbEntity
  8
attrib
100
AcDbText
 10
197.0
 20
43.5
 30
0.0
 40
0.5
  1
woehner
100
AcDbAttributeDefinition
  3

  2
COMPANY
 70
     8
280
     0
  0
ATTDEF
  5
472
330
462
100
AcDbEntity
  8
attrib
100
AcDbText
 10
197.0
 20
43.0
 30
0.0
 40
0.5
  1
{$CADENAS_DATA/23d-libs/woehner/sys_60classic/nh_fuse_switch/parts/size1_2_3/size_1_2_3_adapter.prj},197 {VTYP=3D},{NB=77010000+79693000},{LINA=77010000+79693000},{NN=Size 2 adapter},{DATE=26.01.2024 06:39:58},{GEOMDATE=02.10.2023 11:44:00},{VERSION=v2310
100
AcDbAttributeDefinition
  3

  2
PSOL_0
 70
     9
280
     0
  0
ATTDEF
  5
473
330
462
100
AcDbEntity
  8
attrib
100
AcDbText
 10
197.0
 20
42.5
 30
0.0
 40
0.5
  1
02115156},{LINEID=1000},{WBVAR=},{WBNUMERIC=}  {NB=77010000+79693000},{LINA=77010000+79693000},{KT=DUMMY},{NBX=77010000+79693000},{ARTNR=77010000+79693000},{POF=QUADRON®60Classic},{TYPE=LTS-2},{VER=31}
100
AcDbAttributeDefinition
  3

  2
PSOL_1
 70
     9
280
     0
  0
LINE
  5
474
330
462
100
AcDbEntity
  8
hidden
100
AcDbLine
 10
117.0
 20
-72.0
 30
0.0
 11
117.0
 21
-60.0
 31
0.0
  0
LINE
  5
475
330
462
100
AcDbEntity
  8
hidden
100
AcDbLine
 10
75.0
 20
-72.0
 30
0.0
 11
75.0
 21
-60.0
 31
0.0
  0
LINE
  5
476
330
462
100
AcDbEntity
  8
hidden
100
AcDbLine
 10
75.0
 20
-72.0
 30
0.0
 11
117.0
 21
-72.0
 31
0.0
  0
LINE
  5
477
330
462
100
AcDbEntity
  8
hidden
100
AcDbLine
 10
52.00000000000001
 20
-12.0
 30
0.0
 11
52.00000000000001
 21
14.0
 31
0.0
  0
LINE
  5
478
330
462
100
AcDbEntity
  8
hidden
100
AcDbLine
 10
10.00000000000001
 20
-12.0
 30
0.0
 11
10.00000000000001
 21
14.0
 31
0.0
  0
LINE
  5
479
330
462
100
AcDbEntity
  8
hidden
100
AcDbLine
 10
10.00000000000001
 20
-12.0
 30
0.0
 11
52.00000000000001
 21
-12.0
 31
0.0
  0
LINE
  5
47A
330
462
100
AcDbEntity
  8
hidden
100
AcDbLine
 10
140.0
 20
-132.0
 30
0.0
 11
140.0
 21
-120.0
 31
0.0
  0
LINE
  5
47B
330
462
100
AcDbEntity
  8
hidden
100
AcDbLine
 10
182.0
 20
-132.0
 30
0.0
 11
182.0
 21
-120.0
 31
0.0
  0
LINE
  5
47C
330
462
100
AcDbEntity
  8
hidden
100
AcDbLine
 10
140.0
 20
-132.0
 30
0.0
 11
182.0
 21
-132.0
 31
0.0
  0
LINE
  5
47D
330
462
100
AcDbEntity
  8
hidden
100
AcDbLine
 10
182.0
 20
-12.0
 30
0.0
 11
182.0
 21
14.0
 31
0.0
  0
LINE
  5
47E
330
462
100
AcDbEntity
  8
hidden
100
AcDbLine
 10
182.0
 20
-12.0
 30
0.0
 11
192.0
 21
-12.0
 31
0.0
  0
LINE
  5
47F
330
462
100
AcDbEntity
  8
hidden
100
AcDbLine
 10
9.999999999999995
 20
-132.0
 30
0.0
 11
9.999999999999995
 21
-120.0
 31
0.0
  0
LINE
  5
480
330
462
100
AcDbEntity
  8
hidden
100
AcDbLine
 10
9.999999999999995
 20
-132.0
 30
0.0
 11
0.0
 21
-132.0
 31
0.0
  0
LINE
  5
481
330
462
100
AcDbEntity
  8
hidden
100
AcDbLine
 10
9.000000000000007
 20
-91.00000000000001
 30
0.0
 11
3.000000000000003
 21
-91.00000000000001
 31
0.0
  0
LINE
  5
482
330
462
100
AcDbEntity
  8
hidden
100
AcDbLine
 10
183.0
 20
-91.00000000000001
 30
0.0
 11
189.0
 21
-91.00000000000001
 31
0.0
  0
LINE
  5
483
330
462
100
AcDbEntity
  8
hidden
100
AcDbLine
 10
9.000000000000007
 20
-86.0
 30
0.0
 11
3.000000000000003
 21
-86.0
 31
0.0
  0
LINE
  5
484
330
462
100
AcDbEntity
  8
hidden
100
AcDbLine
 10
183.0
 20
-86.0
 30
0.0
 11
189.0
 21
-86.0
 31
0.0
  0
LINE
  5
485
330
462
100
AcDbEntity
  8
hidden
100
AcDbLine
 10
183.0
 20
-81.0
 30
0.0
 11
189.0
 21
-81.0
 31
0.0
  0
LINE
  5
486
330
462
100
AcDbEntity
  8
hidden
100
AcDbLine
 10
9.000000000000007
 20
-81.0
 30
0.0
 11
3.000000000000003
 21
-81.0
 31
0.0
  0
LINE
  5
487
330
462
100
AcDbEntity
  8
hidden
100
AcDbLine
 10
9.000000000000007
 20
-76.0
 30
0.0
 11
3.000000000000003
 21
-76.0
 31
0.0
  0
LINE
  5
488
330
462
100
AcDbEntity
  8
hidden
100
AcDbLine
 10
183.0
 20
-76.0
 30
0.0
 11
189.0
 21
-76.0
 31
0.0
  0
LINE
  5
489
330
462
100
AcDbEntity
  8
hidden
100
AcDbLine
 10
16.0
 20
-0.0307264439294783
 30
0.0
 11
46.0
 21
-0.0307264439294783
 31
0.0
  0
LINE
  5
48A
330
462
100
AcDbEntity
  8
hidden
100
AcDbLine
 10
16.0
 20
-11.96387355607053
 30
0.0
 11
46.0
 21
-11.96387355607053
 31
0.0
  0
LINE
  5
48B
330
462
100
AcDbEntity
  8
hidden
100
AcDbLine
 10
46.0
 20
-10.5
 30
0.0
 11
46.0
 21
-0.0307264439294783
 31
0.0
  0
LINE
  5
48C
330
462
100
AcDbEntity
  8
hidden
100
AcDbLine
 10
16.0
 20
-10.5
 30
0.0
 11
16.0
 21
-0.0307264439294783
 31
0.0
  0
LINE
  5
48D
330
462
100
AcDbEntity
  8
hidden
100
AcDbLine
 10
9.000000000000007
 20
-103.0
 30
0.0
 11
9.000000000000007
 21
-73.0
 31
0.0
  0
LINE
  5
48E
330
462
100
AcDbEntity
  8
hidden
100
AcDbLine
 10
9.000000000000007
 20
-73.0
 30
0.0
 11
3.000000000000003
 21
-73.0
 31
0.0
  0
LINE
  5
48F
330
462
100
AcDbEntity
  8
hidden
100
AcDbLine
 10
182.0
 20
0.0
 30
0.0
 11
192.0
 21
0.0
 31
0.0
  0
LINE
  5
490
330
462
100
AcDbEntity
  8
hidden
100
AcDbLine
 10
183.0
 20
-103.0
 30
0.0
 11
189.0
 21
-103.0
 31
0.0
  0
LINE
  5
491
330
462
100
AcDbEntity
  8
hidden
100
AcDbLine
 10
9.999999999999995
 20
-106.0
 30
0.0
 11
0.0
 21
-106.0
 31
0.0
  0
LINE
  5
492
330
462
100
AcDbEntity
  8
hidden
100
AcDbLine
 10
111.0
 20
-71.96387355607051
 30
0.0
 11
111.0
 21
-60.03072644392948
 31
0.0
  0
LINE
  5
493
330
462
100
AcDbEntity
  8
hidden
100
AcDbLine
 10
81.0
 20
-71.96387355607051
 30
0.0
 11
81.0
 21
-60.03072644392948
 31
0.0
  0
LINE
  5
494
330
462
100
AcDbEntity
  8
hidden
100
AcDbLine
 10
81.0
 20
-60.03072644392948
 30
0.0
 11
111.0
 21
-60.03072644392948
 31
0.0
  0
LINE
  5
495
330
462
100
AcDbEntity
  8
hidden
100
AcDbLine
 10
81.0
 20
-71.96387355607051
 30
0.0
 11
111.0
 21
-71.96387355607051
 31
0.0
  0
LINE
  5
496
330
462
100
AcDbEntity
  8
hidden
100
AcDbLine
 10
3.000000000000003
 20
-103.0
 30
0.0
 11
3.000000000000003
 21
-73.0
 31
0.0
  0
LINE
  5
497
330
462
100
AcDbEntity
  8
hidden
100
AcDbLine
 10
183.0
 20
-103.0
 30
0.0
 11
183.0
 21
-73.0
 31
0.0
  0
LINE
  5
498
330
462
100
AcDbEntity
  8
hidden
100
AcDbLine
 10
140.0
 20
-106.0
 30
0.0
 11
182.0
 21
-106.0
 31
0.0
  0
LINE
  5
499
330
462
100
AcDbEntity
  8
hidden
100
AcDbLine
 10
182.0
 20
-118.0
 30
0.0
 11
182.0
 21
-106.0
 31
0.0
  0
LINE
  5
49A
330
462
100
AcDbEntity
  8
hidden
100
AcDbLine
 10
140.0
 20
-118.0
 30
0.0
 11
140.0
 21
-106.0
 31
0.0
  0
LINE
  5
49B
330
462
100
AcDbEntity
  8
hidden
100
AcDbLine
 10
10.00000000000001
 20
0.0
 30
0.0
 11
52.00000000000001
 21
0.0
 31
0.0
  0
LINE
  5
49C
330
462
100
AcDbEntity
  8
hidden
100
AcDbLine
 10
9.999999999999995
 20
-118.0
 30
0.0
 11
9.999999999999995
 21
-106.0
 31
0.0
  0
LINE
  5
49D
330
462
100
AcDbEntity
  8
hidden
100
AcDbLine
 10
9.000000000000007
 20
-103.0
 30
0.0
 11
3.000000000000003
 21
-103.0
 31
0.0
  0
LINE
  5
49E
330
462
100
AcDbEntity
  8
hidden
100
AcDbLine
 10
75.0
 20
-46.0
 30
0.0
 11
117.0
 21
-46.0
 31
0.0
  0
LINE
  5
49F
330
462
100
AcDbEntity
  8
hidden
100
AcDbLine
 10
117.0
 20
-57.99999999999999
 30
0.0
 11
117.0
 21
-46.0
 31
0.0
  0
LINE
  5
4A0
330
462
100
AcDbEntity
  8
hidden
100
AcDbLine
 10
75.0
 20
-57.99999999999999
 30
0.0
 11
75.0
 21
-46.0
 31
0.0
  0
LINE
  5
4A1
330
462
100
AcDbEntity
  8
hidden
100
AcDbLine
 10
0.0
 20
-57.99999999999999
 30
0.0
 11
75.0
 21
-57.99999999999999
 31
0.0
  0
LINE
  5
4A2
330
462
100
AcDbEntity
  8
hidden
100
AcDbLine
 10
182.0
 20
-118.0
 30
0.0
 11
192.0
 21
-118.0
 31
0.0
  0
LINE
  5
4A3
330
462
100
AcDbEntity
  8
hidden
100
AcDbLine
 10
117.0
 20
-57.99999999999999
 30
0.0
 11
192.0
 21
-57.99999999999999
 31
0.0
  0
LINE
  5
4A4
330
462
100
AcDbEntity
  8
hidden
100
AcDbLine
 10
10.00000000000001
 20
14.0
 30
0.0
 11
52.00000000000001
 21
14.0
 31
0.0
  0
LINE
  5
4A5
330
462
100
AcDbEntity
  8
hidden
100
AcDbLine
 10
182.0
 20
14.0
 30
0.0
 11
192.0
 21
14.0
 31
0.0
  0
LINE
  5
4A6
330
462
100
AcDbEntity
  8
hidden
100
AcDbLine
 10
146.0
 20
-131.9638735560705
 30
0.0
 11
176.0
 21
-131.9638735560705
 31
0.0
  0
LINE
  5
4A7
330
462
100
AcDbEntity
  8
hidden
100
AcDbLine
 10
146.0
 20
-120.0307264439295
 30
0.0
 11
176.0
 21
-120.0307264439295
 31
0.0
  0
LINE
  5
4A8
330
462
100
AcDbEntity
  8
hidden
100
AcDbLine
 10
176.0
 20
-131.9638735560705
 30
0.0
 11
176.0
 21
-120.0307264439295
 31
0.0
  0
LINE
  5
4A9
330
462
100
AcDbEntity
  8
hidden
100
AcDbLine
 10
146.0
 20
-131.9638735560705
 30
0.0
 11
146.0
 21
-120.0307264439295
 31
0.0
  0
LINE
  5
4AA
330
462
100
AcDbEntity
  8
hidden
100
AcDbLine
 10
0.0
 20
-120.0
 30
0.0
 11
192.0
 21
-120.0
 31
0.0
  0
LINE
  5
4AB
330
462
100
AcDbEntity
  8
hidden
100
AcDbLine
 10
189.0
 20
-103.0
 30
0.0
 11
189.0
 21
-73.0
 31
0.0
  0
LINE
  5
4AC
330
462
100
AcDbEntity
  8
hidden
100
AcDbLine
 10
0.0
 20
-60.0
 30
0.0
 11
192.0
 21
-60.0
 31
0.0
  0
LINE
  5
4AD
330
462
100
AcDbEntity
  8
hidden
100
AcDbLine
 10
9.999999999999995
 20
-118.0
 30
0.0
 11
140.0
 21
-118.0
 31
0.0
  0
LINE
  5
4AE
330
462
100
AcDbEntity
  8
hidden
100
AcDbLine
 10
183.0
 20
-73.0
 30
0.0
 11
189.0
 21
-73.0
 31
0.0
  0
LINE
  5
4AF
330
462
100
AcDbEntity
  8
hidden
100
AcDbLine
 10
0.0
 20
-185.0
 30
0.0
 11
0.0
 21
49.0
 31
0.0
  0
LINE
  5
4B0
330
462
100
AcDbEntity
  8
hidden
100
AcDbLine
 10
0.0
 20
49.0
 30
0.0
 11
192.0
 21
49.0
 31
0.0
  0
LINE
  5
4B1
330
462
100
AcDbEntity
  8
hidden
100
AcDbLine
 10
192.0
 20
-185.0
 30
0.0
 11
192.0
 21
49.0
 31
0.0
  0
LINE
  5
4B2
330
462
100
AcDbEntity
  8
hidden
100
AcDbLine
 10
183.0
 20
-185.0
 30
0.0
 11
192.0
 21
-185.0
 31
0.0
  0
LINE
  5
4B3
330
462
100
AcDbEntity
  8
hidden
100
AcDbLine
 10
118.0
 20
-185.0
 30
0.0
 11
139.0
 21
-185.0
 31
0.0
  0
LINE
  5
4B4
330
462
100
AcDbEntity
  8
hidden
100
AcDbLine
 10
52.99999999999999
 20
-185.0
 30
0.0
 11
74.00000000000001
 21
-185.0
 31
0.0
  0
LINE
  5
4B5
330
462
100
AcDbEntity
  8
hidden
100
AcDbLine
 10
0.0
 20
-185.0
 30
0.0
 11
8.999999999999995
 21
-185.0
 31
0.0
  0
ENDBLK
  5
465
330
462
100
AcDbEntity
  8
0
100
AcDbBlockEnd
  0
BLOCK
  5
4BA
330
4B9
100
AcDbEntity
  8
0
100
AcDbBlockBegin
  2
*D20
 70
     1
 10
0.0
 20
0.0
 30
0.0
  3
*D20
  1

  0
LINE
  5
4BC
330
4B9
100
AcDbEntity
  8
dimension
 62
     0
370
    -2
100
AcDbLine
 10
201.0
 20
-195.5
 30
0.0
 11
201.0
 21
-265.3333333333333
 31
0.0
  0
LINE
  5
4BD
330
4B9
100
AcDbEntity
  8
dimension
 62
     0
370
    -2
100
AcDbLine
 10
-9.0
 20
-195.5
 30
0.0
 11
-9.0
 21
-265.3333333333333
 31
0.0
  0
LINE
  5
4BE
330
4B9
100
AcDbEntity
  8
dimension
 62
     0
370
    -2
100
AcDbLine
 10
194.3333333333333
 20
-265.3333333333333
 30
0.0
 11
-2.333333333333333
 21
-265.3333333333333
 31
0.0
  0
SOLID
  5
4BF
330
4B9
100
AcDbEntity
  8
dimension
 62
     0
100
AcDbTrace
 10
194.3333333333333
 20
-266.4444444444444
 30
0.0
 11
194.3333333333333
 21
-264.2222222222222
 31
0.0
 12
201.0
 22
-265.3333333333333
 32
0.0
 13
201.0
 23
-265.3333333333333
 33
0.0
  0
SOLID
  5
4C0
330
4B9
100
AcDbEntity
  8
dimension
 62
     0
100
AcDbTrace
 10
-2.333333333333333
 20
-264.2222222222222
 30
0.0
 11
-2.333333333333333
 21
-266.4444444444444
 31
0.0
 12
-9.0
 22
-265.3333333333333
 32
0.0
 13
-9.0
 23
-265.3333333333333
 33
0.0
  0
MTEXT
  5
4C1
330
4B9
100
AcDbEntity
  8
dimension
 62
     0
100
AcDbMText
 10
96.0
 20
-260.0
 30
0.0
 40
6.666666666666667
 41
0.0
 46
0.0
 71
     5
 72
     1
  1
210
 73
     1
 44
1.0
  0
POINT
  5
4C2
330
4B9
100
AcDbEntity
  8
Defpoints
 62
     0
100
AcDbPoint
 10
201.0
 20
-195.5
 30
0.0
  0
POINT
  5
4C3
330
4B9
100
AcDbEntity
  8
Defpoints
 62
     0
100
AcDbPoint
 10
-9.0
 20
-195.5
 30
0.0
  0
POINT
  5
4C4
330
4B9
100
AcDbEntity
  8
Defpoints
 62
     0
100
AcDbPoint
 10
-9.0
 20
-265.3333333333333
 30
0.0
  0
ENDBLK
  5
4BB
330
4B9
100
AcDbEntity
  8
0
100
AcDbBlockEnd
  0
BLOCK
  5
4C7
330
4C6
100
AcDbEntity
  8
0
100
AcDbBlockBegin
  2
*D21
 70
     1
 10
0.0
 20
0.0
 30
0.0
  3
*D21
  1

  0
LINE
  5
4C9
330
4C6
100
AcDbEntity
  8
dimension
 62
     0
370
    -2
100
AcDbLine
 10
31.0
 20
-187.0
 30
0.0
 11
31.0
 21
-235.3333333333333
 31
0.0
  0
LINE
  5
4CA
330
4C6
100
AcDbEntity
  8
dimension
 62
     0
370
    -2
100
AcDbLine
 10
96.0
 20
-187.0
 30
0.0
 11
96.0
 21
-235.3333333333333
 31
0.0
  0
LINE
  5
4CB
330
4C6
100
AcDbEntity
  8
dimension
 62
     0
370
    -2
100
AcDbLine
 10
37.66666666666666
 20
-235.3333333333333
 30
0.0
 11
89.33333333333333
 21
-235.3333333333333
 31
0.0
  0
SOLID
  5
4CC
330
4C6
100
AcDbEntity
  8
dimension
 62
     0
100
AcDbTrace
 10
37.66666666666666
 20
-234.2222222222222
 30
0.0
 11
37.66666666666666
 21
-236.4444444444445
 31
0.0
 12
31.0
 22
-235.3333333333333
 32
0.0
 13
31.0
 23
-235.3333333333333
 33
0.0
  0
SOLID
  5
4CD
330
4C6
100
AcDbEntity
  8
dimension
 62
     0
100
AcDbTrace
 10
89.33333333333333
 20
-236.4444444444445
 30
0.0
 11
89.33333333333333
 21
-234.2222222222222
 31
0.0
 12
96.0
 22
-235.3333333333333
 32
0.0
 13
96.0
 23
-235.3333333333333
 33
0.0
  0
MTEXT
  5
4CE
330
4C6
100
AcDbEntity
  8
dimension
 62
     0
100
AcDbMText
 10
63.5
 20
-230.0
 30
0.0
 40
6.666666666666667
 41
0.0
 46
0.0
 71
     5
 72
     1
  1
65
 73
     1
 44
1.0
  0
POINT
  5
4CF
330
4C6
100
AcDbEntity
  8
Defpoints
 62
     0
100
AcDbPoint
 10
31.0
 20
-187.0
 30
0.0
  0
POINT
  5
4D0
330
4C6
100
AcDbEntity
  8
Defpoints
 62
     0
100
AcDbPoint
 10
96.0
 20
-187.0
 30
0.0
  0
POINT
  5
4D1
330
4C6
100
AcDbEntity
  8
Defpoints
 62
     0
100
AcDbPoint
 10
96.0
 20
-235.3333333333333
 30
0.0
  0
ENDBLK
  5
4C8
330
4C6
100
AcDbEntity
  8
0
100
AcDbBlockEnd
  0
BLOCK
  5
4D4
330
4D3
100
AcDbEntity
  8
0
100
AcDbBlockBegin
  2
*D22
 70
     1
 10
0.0
 20
0.0
 30
0.0
  3
*D22
  1

  0
LINE
  5
4D6
330
4D3
100
AcDbEntity
  8
dimension
 62
     0
370
    -2
100
AcDbLine
 10
161.0
 20
-187.0
 30
0.0
 11
161.0
 21
-235.3333333333333
 31
0.0
  0
LINE
  5
4D7
330
4D3
100
AcDbEntity
  8
dimension
 62
     0
370
    -2
100
AcDbLine
 10
96.0
 20
-187.0
 30
0.0
 11
96.0
 21
-235.3333333333333
 31
0.0
  0
LINE
  5
4D8
330
4D3
100
AcDbEntity
  8
dimension
 62
     0
370
    -2
100
AcDbLine
 10
154.3333333333333
 20
-235.3333333333333
 30
0.0
 11
102.6666666666667
 21
-235.3333333333333
 31
0.0
  0
SOLID
  5
4D9
330
4D3
100
AcDbEntity
  8
dimension
 62
     0
100
AcDbTrace
 10
154.3333333333333
 20
-236.4444444444445
 30
0.0
 11
154.3333333333333
 21
-234.2222222222222
 31
0.0
 12
161.0
 22
-235.3333333333333
 32
0.0
 13
161.0
 23
-235.3333333333333
 33
0.0
  0
SOLID
  5
4DA
330
4D3
100
AcDbEntity
  8
dimension
 62
     0
100
AcDbTrace
 10
102.6666666666667
 20
-234.2222222222222
 30
0.0
 11
102.6666666666667
 21
-236.4444444444445
 31
0.0
 12
96.0
 22
-235.3333333333333
 32
0.0
 13
96.0
 23
-235.3333333333333
 33
0.0
  0
MTEXT
  5
4DB
330
4D3
100
AcDbEntity
  8
dimension
 62
     0
100
AcDbMText
 10
128.5
 20
-230.0
 30
0.0
 40
6.666666666666667
 41
0.0
 46
0.0
 71
     5
 72
     1
  1
65
 73
     1
 44
1.0
  0
POINT
  5
4DC
330
4D3
100
AcDbEntity
  8
Defpoints
 62
     0
100
AcDbPoint
 10
161.0
 20
-187.0
 30
0.0
  0
POINT
  5
4DD
330
4D3
100
AcDbEntity
  8
Defpoints
 62
     0
100
AcDbPoint
 10
96.0
 20
-187.0
 30
0.0
  0
POINT
  5
4DE
330
4D3
100
AcDbEntity
  8
Defpoints
 62
     0
100
AcDbPoint
 10
96.0
 20
-235.3333333333333
 30
0.0
  0
ENDBLK
  5
4D5
330
4D3
100
AcDbEntity
  8
0
100
AcDbBlockEnd
  0
ENDSEC
  0
SECTION
  2
ENTITIES
  0
ATTDEF
  5
5F
330
1F
100
AcDbEntity
  8
attrib
100
AcDbText
 10
206.0
 20
92.10399999999998
 30
0.0
 40
0.5
  1
33602
100
AcDbAttributeDefinition
  3

  2
NB
 70
     8
280
     0
  0
ATTDEF
  5
60
330
1F
100
AcDbEntity
  8
attrib
100
AcDbText
 10
206.0
 20
91.60399999999998
 30
0.0
 40
0.5
  1
Size 2
100
AcDbAttributeDefinition
  3

  2
NN
 70
     8
280
     0
  0
ATTDEF
  5
61
330
1F
100
AcDbEntity
  8
attrib
100
AcDbText
 10
206.0
 20
91.10399999999998
 30
0.0
 40
0.5
  1

100
AcDbAttributeDefinition
  3

  2
NT
 70
     8
280
     0
  0
ATTDEF
  5
62
330
1F
100
AcDbEntity
  8
attrib
100
AcDbText
 10
206.0
 20
90.60399999999998
 30
0.0
 40
0.5
  1
$ARTNR.
100
AcDbAttributeDefinition
  3

  2
NBSYN
 70
     8
280
     0
  0
ATTDEF
  5
63
330
1F
100
AcDbEntity
  8
attrib
100
AcDbText
 10
206.0
 20
90.10399999999998
 30
0.0
 40
0.5
  1
33602000
100
AcDbAttributeDefinition
  3

  2
LINA
 70
     8
280
     0
  0
ATTDEF
  5
64
330
1F
100
AcDbEntity
  8
attrib
100
AcDbText
 10
206.0
 20
89.60399999999998
 30
0.0
 40
0.5
  1
Wöhner
100
AcDbAttributeDefinition
  3

  2
CATALOG
 70
     8
280
     0
  0
ATTDEF
  5
65
330
1F
100
AcDbEntity
  8
attrib
100
AcDbText
 10
206.0
 20
89.10399999999998
 30
0.0
 40
0.5
  1
33602
100
AcDbAttributeDefinition
  3

  2
ARTNR
 70
     8
280
     0
  0
ATTDEF
  5
66
330
1F
100
AcDbEntity
  8
attrib
100
AcDbText
 10
206.0
 20
88.60399999999998
 30
0.0
 40
0.5
  1
12, 20, 30 x 10  and section busbars
100
AcDbAttributeDefinition
  3

  2
BUSB
 70
     8
280
     0
  0
ATTDEF
  5
67
330
1F
100
AcDbEntity
  8
attrib
100
AcDbText
 10
206.0
 20
88.10399999999998
 30
0.0
 40
0.5
  1
QUADRON®60Classic
100
AcDbAttributeDefinition
  3

  2
POF
 70
     8
280
     0
  0
ATTDEF
  5
68
330
1F
100
AcDbEntity
  8
attrib
100
AcDbText
 10
206.0
 20
87.60399999999998
 30
0.0
 40
0.5
  1
LTS-2
100
AcDbAttributeDefinition
  3

  2
TYPE
 70
     8
280
     0
  0
ATTDEF
  5
69
330
1F
100
AcDbEntity
  8
attrib
100
AcDbText
 10
206.0
 20
87.10399999999998
 30
0.0
 40
0.5
  1
1
100
AcDbAttributeDefinition
  3

  2
QNT
 70
     8
280
     0
  0
ATTDEF
  5
6A
330
1F
100
AcDbEntity
  8
attrib
100
AcDbText
 10
206.0
 20
86.60399999999998
 30
0.0
 40
0.5
  1
210
100
AcDbAttributeDefinition
  3

  2
W
 70
     8
280
     0
  0
ATTDEF
  5
6B
330
1F
100
AcDbEntity
  8
attrib
100
AcDbText
 10
206.0
 20
86.10399999999998
 30
0.0
 40
0.5
  1
288
100
AcDbAttributeDefinition
  3

  2
H
 70
     8
280
     0
  0
ATTDEF
  5
6C
330
1F
100
AcDbEntity
  8
attrib
100
AcDbText
 10
206.0
 20
85.60399999999998
 30
0.0
 40
0.5
  1
145
100
AcDbAttributeDefinition
  3

  2
D
 70
     8
280
     0
  0
ATTDEF
  5
6D
330
1F
100
AcDbEntity
  8
attrib
100
AcDbText
 10
206.0
 20
85.10399999999998
 30
0.0
 40
0.5
  1
IP30
100
AcDbAttributeDefinition
  3

  2
IPRF
 70
     8
280
     0
  0
ATTDEF
  5
6E
330
1F
100
AcDbEntity
  8
attrib
100
AcDbText
 10
206.0
 20
84.60399999999998
 30
0.0
 40
0.5
  1
Product link
100
AcDbAttributeDefinition
  3

  2
LINK
 70
     8
280
     0
  0
ATTDEF
  5
6F
330
1F
100
AcDbEntity
  8
attrib
100
AcDbText
 10
206.0
 20
84.10399999999998
 30
0.0
 40
0.5
  1
woehner
100
AcDbAttributeDefinition
  3

  2
COMPANY
 70
     8
280
     0
  0
ATTDEF
  5
70
330
1F
100
AcDbEntity
  8
attrib
100
AcDbText
 10
206.0
 20
83.60399999999998
 30
0.0
 40
0.5
  1
{$CADENAS_DATA/23d-libs/woehner/sys_60classic/nh_fuse_switch/size2_asmtab.prj},180 {VTYP=3D},{STYP=ASSTAB},{NB=33602},{LINA=33602000},{NN=Gr.2},{DATE=26.01.2024 06:39:58},{GEOMDATE=02.10.2023 12:58:40},{VERSION=v231002115156},{LINEID=1100},{WBVAR=},{WBNUM
100
AcDbAttributeDefinition
  3

  2
PSOL_0
 70
     9
280
     0
  0
ATTDEF
  5
71
330
1F
100
AcDbEntity
  8
attrib
100
AcDbText
 10
206.0
 20
83.10399999999998
 30
0.0
 40
0.5
  1
ERIC=}  {NB=33602},{LINA=33602000},{KT=DUMMY},{BOM=33602000},{ARTNR=33602},{BUSB=12, 20, 30 x 10  and section busbars},{BE=NH fuse switch-disconnector size 2, 400 A},{POF=QUADRON®60Classic},{TYPE=LTS-2},{QNT=1},{W=210},{H=288},{D=145},{CONCA=Screw connect
100
AcDbAttributeDefinition
  3

  2
PSOL_1
 70
     9
280
     0
  0
ATTDEF
  5
72
330
1F
100
AcDbEntity
  8
attrib
100
AcDbText
 10
206.0
 20
82.60399999999998
 30
0.0
 40
0.5
  1
ion},{BUSIN=},{IPR=},{IPRF=IP30},{SEARCH=},{EDZ=},{IODD=},{DIST=10.0},{LINK=Product link},{LINKX=https://www.woehner.de/de/produkte/33602.html},{VER=2},{PPATH=parts/size1_2_3/size1_2_3_asmtpl.prj},{VERX=3},{AAO677=Wöhner},{MANUFACTURER_URL=www.woehner.de}
100
AcDbAttributeDefinition
  3

  2
PSOL_2
 70
     9
280
     0
  0
ATTDEF
  5
73
330
1F
100
AcDbEntity
  8
attrib
100
AcDbText
 10
206.0
 20
82.10399999999998
 30
0.0
 40
0.5
  1
,{AAQ326=www.woehner.de/de/produkte/33602.html },{AAO676=33602},{TC=LTS-2},{EAN=4021267336035},{CTN=85361090},{AAU731=QUADRON®60Classic},{DESCRIPTION_LONG=NH fuse switch-disconnector size 2, 400 A, screw M10, connection top or bottom},{DESCRIPTION_SHORT=N
100
AcDbAttributeDefinition
  3

  2
PSOL_3
 70
     9
280
     0
  0
ATTDEF
  5
74
330
1F
100
AcDbEntity
  8
attrib
100
AcDbText
 10
206.0
 20
81.60399999999998
 30
0.0
 40
0.5
  1
H fuse switch-disconnector size 2, 400 A},{AAT080=3},{BAH005=690}
100
AcDbAttributeDefinition
  3

  2
PSOL_4
 70
     9
280
     0
  0
INSERT
  5
76
330
1F
100
AcDbEntity
  8
0
100
AcDbBlockReference
  2
1_80242000_1_0_in_33602_0
 10
0.0
 20
0.0
 30
0.0
  0
INSERT
  5
95
330
1F
100
AcDbEntity
  8
0
100
AcDbBlockReference
  2
2_80242000_2_0_in_33602_0
 10
0.0
 20
0.0
 30
0.0
  0
INSERT
  5
B2
330
1F
100
AcDbEntity
  8
0
100
AcDbBlockReference
  2
3_80242000_3_0_in_33602_0
 10
0.0
 20
0.0
 30
0.0
  0
INSERT
  5
CF
330
1F
100
AcDbEntity
  8
0
100
AcDbBlockReference
  2
4_80239000_1_0_in_33602_0
 10
0.0
 20
0.0
 30
0.0
  0
INSERT
  5
EC
330
1F
100
AcDbEntity
  8
0
100
AcDbBlockReference
  2
5_80239000_2_0_in_33602_0
 10
0.0
 20
0.0
 30
0.0
  0
INSERT
  5
109
330
1F
100
AcDbEntity
  8
0
100
AcDbBlockReference
  2
6_80239000_3_0_in_33602_0
 10
0.0
 20
0.0
 30
0.0
  0
INSERT
  5
126
330
1F
100
AcDbEntity
  8
0
100
AcDbBlockReference
  2
7_79138000_0_in_33602_0
 10
0.0
 20
0.0
 30
0.0
  0
INSERT
  5
15C
330
1F
100
AcDbEntity
  8
0
100
AcDbBlockReference
  2
8_79203000_0_in_33602_0
 10
0.0
 20
0.0
 30
0.0
  0
INSERT
  5
19C
330
1F
100
AcDbEntity
  8
0
100
AcDbBlockReference
  2
9_30860000_0_in_33602_0
 10
0.0
 20
0.0
 30
0.0
  0
INSERT
  5
1EE
330
1F
100
AcDbEntity
  8
0
100
AcDbBlockReference
  2
10_79115000_0_in_33602_0
 10
0.0
 20
0.0
 30
0.0
  0
INSERT
  5
23B
330
1F
100
AcDbEntity
  8
0
100
AcDbBlockReference
  2
11_30712000_0_in_33602_0
 10
0.0
 20
0.0
 30
0.0
  0
INSERT
  5
2D6
330
1F
100
AcDbEntity
  8
0
100
AcDbBlockReference
  2
12_LTS_2_NH_Kontakt2_1_0_in_33602_0
 10
0.0
 20
0.0
 30
0.0
  0
INSERT
  5
308
330
1F
100
AcDbEntity
  8
0
100
AcDbBlockReference
  2
13_LTS_2_NH_Kontakt2_2_0_in_33602_0
 10
0.0
 20
0.0
 30
0.0
  0
INSERT
  5
339
330
1F
100
AcDbEntity
  8
0
100
AcDbBlockReference
  2
14_LTS_2_NH_Kontakt2_3_0_in_33602_0
 10
0.0
 20
0.0
 30
0.0
  0
INSERT
  5
369
330
1F
100
AcDbEntity
  8
0
100
AcDbBlockReference
  2
15_LTS_2_NH_Kontakt2_4_0_in_33602_0
 10
0.0
 20
0.0
 30
0.0
  0
INSERT
  5
39B
330
1F
100
AcDbEntity
  8
0
100
AcDbBlockReference
  2
16_LTS_2_NH_Kontakt2_5_0_in_33602_0
 10
0.0
 20
0.0
 30
0.0
  0
INSERT
  5
3CD
330
1F
100
AcDbEntity
  8
0
100
AcDbBlockReference
  2
17_LTS_2_NH_Kontakt2_6_0_in_33602_0
 10
0.0
 20
0.0
 30
0.0
  0
INSERT
  5
3FF
330
1F
100
AcDbEntity
  8
0
100
AcDbBlockReference
  2
18_309690004_0_in_33602_0
 10
0.0
 20
0.0
 30
0.0
  0
INSERT
  5
463
330
1F
100
AcDbEntity
  8
0
100
AcDbBlockReference
  2
19_77010000_79693000_0_in_33602_0
 10
0.0
 20
0.0
 30
0.0
  0
DIMENSION
  5
4B7
330
1F
100
AcDbEntity
  8
dimension
100
AcDbDimension
280
     0
  2
*D20
 10
-9.0
 20
-265.3333333333333
 30
0.0
 11
96.0
 21
-265.3333333333333
 31
0.0
 70
   160
  1
210
 71
     5
 42
210.0
 73
     0
 74
     0
 75
     0
  3
ISO-25
100
AcDbAlignedDimension
 13
201.0
 23
-195.5
 33
0.0
 14
-9.0
 24
-195.5
 34
0.0
100
AcDbRotatedDimension
1001
ACAD
1000
DSTYLE
1002
{
1070
   147
1040
2.0
1070
    42
1040
0.0
1070
    44
1040
0.0
1070
    41
1040
6.666666666666667
1070
   140
1040
6.666666666666667
1002
}
  0
DIMENSION
  5
4C5
330
1F
100
AcDbEntity
  8
dimension
100
AcDbDimension
280
     0
  2
*D21
 10
96.0
 20
-235.3333333333333
 30
0.0
 11
63.5
 21
-235.3333333333333
 31
0.0
 70
   160
  1
65
 71
     5
 42
65.0
 73
     0
 74
     0
 75
     0
  3
ISO-25
100
AcDbAlignedDimension
 13
31.0
 23
-187.0
 33
0.0
 14
96.0
 24
-187.0
 34
0.0
100
AcDbRotatedDimension
1001
ACAD
1000
DSTYLE
1002
{
1070
   147
1040
2.0
1070
    42
1040
0.0
1070
    44
1040
0.0
1070
    41
1040
6.666666666666667
1070
   140
1040
6.666666666666667
1002
}
  0
DIMENSION
  5
4D2
330
1F
100
AcDbEntity
  8
dimension
100
AcDbDimension
280
     0
  2
*D22
 10
96.0
 20
-235.3333333333333
 30
0.0
 11
128.5
 21
-235.3333333333333
 31
0.0
 70
   160
  1
65
 71
     5
 42
65.0
 73
     0
 74
     0
 75
     0
  3
ISO-25
100
AcDbAlignedDimension
 13
161.0
 23
-187.0
 33
0.0
 14
96.0
 24
-187.0
 34
0.0
100
AcDbRotatedDimension
1001
ACAD
1000
DSTYLE
1002
{
1070
   147
1040
2.0
1070
    42
1040
0.0
1070
    44
1040
0.0
1070
    41
1040
6.666666666666667
1070
   140
1040
6.666666666666667
1002
}
  0
POINT
  5
4E0
330
1F
100
AcDbEntity
  8
connection
100
AcDbPoint
 10
96.0
 20
37.0
 30
0.0
  0
POINT
  5
4E1
330
1F
100
AcDbEntity
  8
connection
100
AcDbPoint
 10
31.0
 20
37.0
 30
0.0
  0
POINT
  5
4E2
330
1F
100
AcDbEntity
  8
connection
100
AcDbPoint
 10
161.0
 20
-173.0
 30
0.0
  0
POINT
  5
4E3
330
1F
100
AcDbEntity
  8
connection
100
AcDbPoint
 10
96.0
 20
-173.0
 30
0.0
  0
POINT
  5
4E4
330
1F
100
AcDbEntity
  8
connection
100
AcDbPoint
 10
31.0
 20
-173.0
 30
0.0
  0
POINT
  5
4E5
330
1F
100
AcDbEntity
  8
connection
100
AcDbPoint
 10
96.0
 20
66.0
 30
0.0
  0
POINT
  5
4E6
330
1F
100
AcDbEntity
  8
connection
100
AcDbPoint
 10
96.0
 20
-202.0
 30
0.0
  0
POINT
  5
4E7
330
1F
100
AcDbEntity
  8
connection
100
AcDbPoint
 10
96.0
 20
-157.896
 30
0.0
  0
POINT
  5
4E8
330
1F
100
AcDbEntity
  8
connection
100
AcDbPoint
 10
96.0
 20
-37.76100000000001
 30
0.0
  0
POINT
  5
4E9
330
1F
100
AcDbEntity
  8
connection
100
AcDbPoint
 10
96.0
 20
-23.89600000000002
 30
0.0
  0
POINT
  5
4EA
330
1F
100
AcDbEntity
  8
connection
100
AcDbPoint
 10
96.0
 20
-195.5
 30
0.0
  0
POINT
  5
4EB
330
1F
100
AcDbEntity
  8
connection
100
AcDbPoint
 10
96.0
 20
-157.896
 30
0.0
  0
POINT
  5
4EC
330
1F
100
AcDbEntity
  8
connection
100
AcDbPoint
 10
96.0
 20
59.5
 30
0.0
  0
POINT
  5
4ED
330
1F
100
AcDbEntity
  8
connection
100
AcDbPoint
 10
161.0
 20
-129.0
 30
0.0
  0
POINT
  5
4EE
330
1F
100
AcDbEntity
  8
connection
100
AcDbPoint
 10
161.0
 20
-173.0
 30
0.0
  0
POINT
  5
4EF
330
1F
100
AcDbEntity
  8
connection
100
AcDbPoint
 10
161.0
 20
-173.0
 30
0.0
  0
POINT
  5
4F0
330
1F
100
AcDbEntity
  8
connection
100
AcDbPoint
 10
96.0
 20
-129.0
 30
0.0
  0
POINT
  5
4F1
330
1F
100
AcDbEntity
  8
connection
100
AcDbPoint
 10
96.0
 20
-173.0
 30
0.0
  0
POINT
  5
4F2
330
1F
100
AcDbEntity
  8
connection
100
AcDbPoint
 10
96.0
 20
-173.0
 30
0.0
  0
POINT
  5
4F3
330
1F
100
AcDbEntity
  8
connection
100
AcDbPoint
 10
31.0
 20
-129.0
 30
0.0
  0
POINT
  5
4F4
330
1F
100
AcDbEntity
  8
connection
100
AcDbPoint
 10
31.0
 20
-173.0
 30
0.0
  0
POINT
  5
4F5
330
1F
100
AcDbEntity
  8
connection
100
AcDbPoint
 10
31.0
 20
-173.0
 30
0.0
  0
POINT
  5
4F6
330
1F
100
AcDbEntity
  8
connection
100
AcDbPoint
 10
161.0
 20
-7.0
 30
0.0
  0
POINT
  5
4F7
330
1F
100
AcDbEntity
  8
connection
100
AcDbPoint
 10
161.0
 20
37.0
 30
0.0
  0
POINT
  5
4F8
330
1F
100
AcDbEntity
  8
connection
100
AcDbPoint
 10
161.0
 20
37.0
 30
0.0
  0
POINT
  5
4F9
330
1F
100
AcDbEntity
  8
connection
100
AcDbPoint
 10
96.0
 20
-7.0
 30
0.0
  0
POINT
  5
4FA
330
1F
100
AcDbEntity
  8
connection
100
AcDbPoint
 10
96.0
 20
37.0
 30
0.0
  0
POINT
  5
4FB
330
1F
100
AcDbEntity
  8
connection
100
AcDbPoint
 10
96.0
 20
37.0
 30
0.0
  0
POINT
  5
4FC
330
1F
100
AcDbEntity
  8
connection
100
AcDbPoint
 10
31.0
 20
-7.0
 30
0.0
  0
POINT
  5
4FD
330
1F
100
AcDbEntity
  8
connection
100
AcDbPoint
 10
31.0
 20
37.0
 30
0.0
  0
POINT
  5
4FE
330
1F
100
AcDbEntity
  8
connection
100
AcDbPoint
 10
31.0
 20
37.0
 30
0.0
  0
POINT
  5
4FF
330
1F
100
AcDbEntity
  8
connection
100
AcDbPoint
 10
31.0
 20
-43.0
 30
0.0
  0
POINT
  5
500
330
1F
100
AcDbEntity
  8
connection
100
AcDbPoint
 10
161.0
 20
-43.0
 30
0.0
  0
POINT
  5
501
330
1F
100
AcDbEntity
  8
connection
100
AcDbPoint
 10
31.0
 20
-93.0
 30
0.0
  0
POINT
  5
502
330
1F
100
AcDbEntity
  8
connection
100
AcDbPoint
 10
161.0
 20
-93.0
 30
0.0
  0
POINT
  5
503
330
1F
100
AcDbEntity
  8
connection
100
AcDbPoint
 10
31.0
 20
-68.0
 30
0.0
  0
POINT
  5
504
330
1F
100
AcDbEntity
  8
connection
100
AcDbPoint
 10
161.0
 20
-68.0
 30
0.0
  0
POINT
  5
505
330
1F
100
AcDbEntity
  8
connection
100
AcDbPoint
 10
31.0
 20
37.0
 30
0.0
  0
POINT
  5
506
330
1F
100
AcDbEntity
  8
connection
100
AcDbPoint
 10
93.0
 20
-120.76
 30
0.0
  0
POINT
  5
507
330
1F
100
AcDbEntity
  8
connection
100
AcDbPoint
 10
96.0
 20
37.0
 30
0.0
  0
POINT
  5
508
330
1F
100
AcDbEntity
  8
connection
100
AcDbPoint
 10
161.0
 20
37.0
 30
0.0
  0
POINT
  5
509
330
1F
100
AcDbEntity
  8
connection
100
AcDbPoint
 10
31.0
 20
-173.0
 30
0.0
  0
POINT
  5
50A
330
1F
100
AcDbEntity
  8
connection
100
AcDbPoint
 10
96.0
 20
-173.0
 30
0.0
  0
POINT
  5
50B
330
1F
100
AcDbEntity
  8
connection
100
AcDbPoint
 10
161.0
 20
-173.0
 30
0.0
  0
POINT
  5
50C
330
1F
100
AcDbEntity
  8
connection
100
AcDbPoint
 10
82.5
 20
-120.76
 30
0.0
  0
POINT
  5
50D
330
1F
100
AcDbEntity
  8
connection
100
AcDbPoint
 10
86.0
 20
-120.76
 30
0.0
  0
POINT
  5
50E
330
1F
100
AcDbEntity
  8
connection
100
AcDbPoint
 10
89.5
 20
-120.76
 30
0.0
  0
POINT
  5
50F
330
1F
100
AcDbEntity
  8
connection
100
AcDbPoint
 10
96.0
 20
-202.0
 30
0.0
  0
POINT
  5
510
330
1F
100
AcDbEntity
  8
connection
100
AcDbPoint
 10
96.0
 20
66.0
 30
0.0
  0
POINT
  5
511
330
1F
100
AcDbEntity
  8
connection
100
AcDbPoint
 10
31.0
 20
-7.0
 30
0.0
  0
POINT
  5
512
330
1F
100
AcDbEntity
  8
connection
100
AcDbPoint
 10
96.0
 20
-7.0
 30
0.0
  0
POINT
  5
513
330
1F
100
AcDbEntity
  8
connection
100
AcDbPoint
 10
161.0
 20
-7.0
 30
0.0
  0
POINT
  5
514
330
1F
100
AcDbEntity
  8
connection
100
AcDbPoint
 10
31.0
 20
-129.0
 30
0.0
  0
POINT
  5
515
330
1F
100
AcDbEntity
  8
connection
100
AcDbPoint
 10
96.0
 20
-129.0
 30
0.0
  0
POINT
  5
516
330
1F
100
AcDbEntity
  8
connection
100
AcDbPoint
 10
161.0
 20
-129.0
 30
0.0
  0
POINT
  5
517
330
1F
100
AcDbEntity
  8
connection
100
AcDbPoint
 10
96.0
 20
59.5
 30
0.0
  0
POINT
  5
518
330
1F
100
AcDbEntity
  8
connection
100
AcDbPoint
 10
96.0
 20
-195.5
 30
0.0
  0
POINT
  5
519
330
1F
100
AcDbEntity
  8
connection
100
AcDbPoint
 10
31.0
 20
-173.0
 30
0.0
  0
POINT
  5
51A
330
1F
100
AcDbEntity
  8
connection
100
AcDbPoint
 10
96.0
 20
-173.0
 30
0.0
  0
POINT
  5
51B
330
1F
100
AcDbEntity
  8
connection
100
AcDbPoint
 10
161.0
 20
-173.0
 30
0.0
  0
POINT
  5
51C
330
1F
100
AcDbEntity
  8
connection
100
AcDbPoint
 10
31.0
 20
37.0
 30
0.0
  0
POINT
  5
51D
330
1F
100
AcDbEntity
  8
connection
100
AcDbPoint
 10
96.0
 20
37.0
 30
0.0
  0
POINT
  5
51E
330
1F
100
AcDbEntity
  8
connection
100
AcDbPoint
 10
161.0
 20
37.0
 30
0.0
  0
POINT
  5
51F
330
1F
100
AcDbEntity
  8
connection
100
AcDbPoint
 10
201.0
 20
59.5
 30
0.0
  0
POINT
  5
520
330
1F
100
AcDbEntity
  8
connection
100
AcDbPoint
 10
96.0
 20
59.5
 30
0.0
  0
POINT
  5
521
330
1F
100
AcDbEntity
  8
connection
100
AcDbPoint
 10
96.0
 20
-68.0
 30
0.0
  0
POINT
  5
522
330
1F
100
AcDbEntity
  8
connection
100
AcDbPoint
 10
-9.0
 20
-202.0
 30
0.0
  0
POINT
  5
523
330
1F
100
AcDbEntity
  8
connection
100
AcDbPoint
 10
0.0
 20
0.0
 30
0.0
  0
POINT
  5
524
330
1F
100
AcDbEntity
  8
connection
100
AcDbPoint
 10
96.0
 20
59.5
 30
0.0
  0
POINT
  5
525
330
1F
100
AcDbEntity
  8
connection
100
AcDbPoint
 10
96.0
 20
49.0
 30
0.0
  0
ENDSEC
  0
SECTION
  2
OBJECTS
  0
DICTIONARY
  5
C
330
0
100
AcDbDictionary
281
     1
  3
ACAD_DETAILVIEWSTYLE
350
52D
  3
ACAD_GROUP
350
D
  3
ACAD_LAYOUT
350
1A
  3
ACAD_MATERIAL
350
43
  3
ACAD_MLEADERSTYLE
350
5B
  3
ACAD_MLINESTYLE
350
17
  3
ACAD_PLOTSETTINGS
350
19
  3
ACAD_PLOTSTYLENAME
350
E
  3
ACAD_SCALELIST
350
47
  3
ACAD_SECTIONVIEWSTYLE
350
52E
  3
ACAD_TABLESTYLE
350
59
  3
ACAD_VISUALSTYLE
350
2A
  3
ACDB_RECOMPOSE_DATA
350
52A
  3
AcDbVariableDictionary
350
526
  0
SUN
  5
5D
330
29
100
AcDbSun
 90
        1
290
     0
 63
     7
421
 16777215
 40
1.0
291
     1
 91
  2455826
 92
 54000000
292
     0
 70
     2
 71
   256
280
     1
  0
DICTIONARY
  5
52D
102
{ACAD_REACTORS
330
C
102
}
330
C
100
AcDbDictionary
281
     1
  0
DICTIONARY
  5
D
102
{ACAD_REACTORS
330
C
102
}
330
C
100
AcDbDictionary
281
     1
  0
DICTIONARY
  5
1A
102
{ACAD_REACTORS
330
C
102
}
330
C
100
AcDbDictionary
281
     1
  3
Layout1
350
1E
  3
Layout2
350
26
  3
Model
350
22
  0
DICTIONARY
  5
43
102
{ACAD_REACTORS
330
C
102
}
330
C
100
AcDbDictionary
281
     1
  3
ByBlock
350
45
  3
ByLayer
350
44
  3
Global
350
46
  0
DICTIONARY
  5
5B
102
{ACAD_REACTORS
330
C
102
}
330
C
100
AcDbDictionary
281
     1
  3
Standard
350
5C
  0
DICTIONARY
  5
17
102
{ACAD_REACTORS
330
C
102
}
330
C
100
AcDbDictionary
281
     1
  3
Standard
350
18
  0
DICTIONARY
  5
19
102
{ACAD_REACTORS
330
C
102
}
330
C
100
AcDbDictionary
281
     1
  0
ACDBDICTIONARYWDFLT
  5
E
102
{ACAD_REACTORS
330
C
102
}
330
C
100
AcDbDictionary
281
     1
  3
Normal
350
F
100
AcDbDictionaryWithDefault
340
F
  0
DICTIONARY
  5
47
102
{ACAD_REACTORS
330
C
102
}
330
C
100
AcDbDictionary
281
     1
  3
A0
350
48
  3
A1
350
49
  3
A2
350
4A
  3
A3
350
4B
  3
A4
350
4C
  3
A5
350
4D
  3
A6
350
4E
  3
A7
350
4F
  3
A8
350
50
  3
A9
350
51
  3
B0
350
52
  3
B1
350
53
  3
B2
350
54
  3
B3
350
55
  3
B4
350
56
  3
B5
350
57
  3
B6
350
58
  0
DICTIONARY
  5
52E
102
{ACAD_REACTORS
330
C
102
}
330
C
100
AcDbDictionary
281
     1
  0
DICTIONARY
  5
59
102
{ACAD_REACTORS
330
C
102
}
330
C
100
AcDbDictionary
281
     1
  3
Standard
350
5A
  0
DICTIONARY
  5
2A
102
{ACAD_REACTORS
330
C
102
}
330
C
100
AcDbDictionary
281
     1
  3
2dWireframe
350
2F
  3
Basic
350
32
  3
Brighten
350
36
  3
ColorChange
350
3A
  3
Conceptual
350
34
  3
Dim
350
35
  3
EdgeColorOff
350
3D
  3
Facepattern
350
39
  3
Flat
350
2B
  3
FlatWithEdges
350
2C
  3
Gouraud
350
2D
  3
GouraudWithEdges
350
2E
  3
Hidden
350
31
  3
JitterOff
350
3B
  3
Linepattern
350
38
  3
OverhangOff
350
3C
  3
Realistic
350
33
  3
Shaded
350
42
  3
Shaded with edges
350
41
  3
Shades of Gray
350
3E
  3
Sketchy
350
3F
  3
Thicken
350
37
  3
Wireframe
350
30
  3
X-Ray
350
40
  0
XRECORD
  5
52A
102
{ACAD_REACTORS
330
C
102
}
330
C
100
AcDbXrecord
280
     1
 90
        1
330
5A
  0
DICTIONARY
  5
526
102
{ACAD_REACTORS
330
C
102
}
330
C
100
AcDbDictionary
281
     1
  3
CANNOSCALE
350
527
  3
CENTEREXE
350
52F
  3
CENTERLTYPEFILE
350
530
  3
CMLEADERSTYLE
350
52C
  3
CTABLESTYLE
350
52B
  0
LAYOUT
  5
1E
102
{ACAD_REACTORS
330
1A
102
}
330
1A
100
AcDbPlotSettings
  1

  2
none_device
  4

  6

 40
0.0
 41
0.0
 42
0.0
 43
0.0
 44
0.0
 45
0.0
 46
0.0
 47
0.0
 48
0.0
 49
0.0
140
0.0
141
0.0
142
1.0
143
1.0
 70
   688
 72
     1
 73
     0
 74
     5
  7

 75
    16
 76
     0
 77
     2
 78
   300
147
1.0
148
0.0
149
0.0
100
AcDbLayout
  1
Layout1
 70
     1
 71
     1
 10
0.0
 20
0.0
 11
420.0
 21
297.0
 12
0.0
 22
0.0
 32
0.0
 14
1.000000000000000E+20
 24
1.000000000000000E+20
 34
1.000000000000000E+20
 15
-1.000000000000000E+20
 25
-1.000000000000000E+20
 35
-1.000000000000000E+20
146
0.0
 13
0.0
 23
0.0
 33
0.0
 16
1.0
 26
0.0
 36
0.0
 17
0.0
 27
1.0
 37
0.0
 76
     0
330
1B
  0
LAYOUT
  5
26
102
{ACAD_REACTORS
330
1A
102
}
330
1A
100
AcDbPlotSettings
  1

  2
none_device
  4

  6

 40
0.0
 41
0.0
 42
0.0
 43
0.0
 44
0.0
 45
0.0
 46
0.0
 47
0.0
 48
0.0
 49
0.0
140
0.0
141
0.0
142
1.0
143
1.0
 70
   688
 72
     1
 73
     0
 74
     5
  7

 75
    16
 76
     0
 77
     2
 78
   300
147
1.0
148
0.0
149
0.0
100
AcDbLayout
  1
Layout2
 70
     1
 71
     2
 10
0.0
 20
0.0
 11
0.0
 21
0.0
 12
0.0
 22
0.0
 32
0.0
 14
0.0
 24
0.0
 34
0.0
 15
0.0
 25
0.0
 35
0.0
146
0.0
 13
0.0
 23
0.0
 33
0.0
 16
1.0
 26
0.0
 36
0.0
 17
0.0
 27
1.0
 37
0.0
 76
     0
330
23
  0
LAYOUT
  5
22
102
{ACAD_REACTORS
330
1A
102
}
330
1A
100
AcDbPlotSettings
  1

  2
none_device
  4
Letter_(8.50_x_11.00_Inches)
  6

 40
6.35
 41
6.35
 42
6.35000508
 43
6.35000508
 44
215.9
 45
279.4
 46
0.0
 47
0.0
 48
0.0
 49
0.0
140
0.0
141
0.0
142
1.0
143
1.0
 70
  1712
 72
     1
 73
     0
 74
     0
  7

 75
     0
 76
     0
 77
     2
 78
   300
147
1.0
148
0.0
149
0.0
100
AcDbLayout
  1
Model
 70
     1
 71
     0
 10
0.0
 20
0.0
 11
420.0
 21
297.0
 12
0.0
 22
0.0
 32
0.0
 14
-9.0
 24
-266.4444444444444
 34
0.0
 15
209.452380952381
 25
92.60399999999998
 35
0.0
146
0.0
 13
0.0
 23
0.0
 33
0.0
 16
1.0
 26
0.0
 36
0.0
 17
0.0
 27
1.0
 37
0.0
 76
     0
330
1F
331
29
  0
MATERIAL
  5
45
102
{ACAD_REACTORS
330
43
102
}
330
43
100
AcDbMaterial
  1
ByBlock
 72
     1
 94
      127
  0
MATERIAL
  5
44
102
{ACAD_REACTORS
330
43
102
}
330
43
100
AcDbMaterial
  1
ByLayer
 72
     1
 94
      127
  0
MATERIAL
  5
46
102
{ACAD_REACTORS
330
43
102
}
330
43
100
AcDbMaterial
  1
Global
 72
     1
 94
      127
  0
MLEADERSTYLE
  5
5C
102
{ACAD_REACTORS
330
5B
102
}
330
5B
100
AcDbMLeaderStyle
179
     2
170
     2
171
     1
172
     0
 90
        2
 40
0.0
 41
0.0
173
     1
 91
-1056964608
340
14
 92
       -2
290
     1
 42
2.0
291
     1
 43
8.0
  3
Standard
341
0
 44
4.0
300

342
11
174
     1
178
     6
175
     1
176
     0
 93
-1056964608
 45
4.0
292
     0
297
     0
 46
4.0
343
0
 94
-1056964608
 47
1.0
 49
1.0
140
1.0
293
     1
141
0.0
294
     1
177
     0
142
1.0
295
     0
296
     0
143
3.75
271
     0
272
     9
273
     9
298
     0
  0
MLINESTYLE
  5
18
102
{ACAD_REACTORS
330
17
102
}
330
17
100
AcDbMlineStyle
  2
Standard
 70
     0
  3

 62
   256
 51
90.0
 52
90.0
 71
     2
 49
0.5
 62
   256
  6
BYLAYER
 49
-0.5
 62
   256
  6
BYLAYER
  0
ACDBPLACEHOLDER
  5
F
102
{ACAD_REACTORS
330
E
102
}
330
E
  0
SCALE
  5
48
102
{ACAD_REACTORS
330
47
102
}
330
47
100
AcDbScale
 70
     0
300
1:1
140
1.0
141
1.0
290
     1
  0
SCALE
  5
49
102
{ACAD_REACTORS
330
47
102
}
330
47
100
AcDbScale
 70
     0
300
1:2
140
1.0
141
2.0
290
     0
  0
SCALE
  5
4A
102
{ACAD_REACTORS
330
47
102
}
330
47
100
AcDbScale
 70
     0
300
1:4
140
1.0
141
4.0
290
     0
  0
SCALE
  5
4B
102
{ACAD_REACTORS
330
47
102
}
330
47
100
AcDbScale
 70
     0
300
1:5
140
1.0
141
5.0
290
     0
  0
SCALE
  5
4C
102
{ACAD_REACTORS
330
47
102
}
330
47
100
AcDbScale
 70
     0
300
1:8
140
1.0
141
8.0
290
     0
  0
SCALE
  5
4D
102
{ACAD_REACTORS
330
47
102
}
330
47
100
AcDbScale
 70
     0
300
1:10
140
1.0
141
10.0
290
     0
  0
SCALE
  5
4E
102
{ACAD_REACTORS
330
47
102
}
330
47
100
AcDbScale
 70
     0
300
1:16
140
1.0
141
16.0
290
     0
  0
SCALE
  5
4F
102
{ACAD_REACTORS
330
47
102
}
330
47
100
AcDbScale
 70
     0
300
1:20
140
1.0
141
20.0
290
     0
  0
SCALE
  5
50
102
{ACAD_REACTORS
330
47
102
}
330
47
100
AcDbScale
 70
     0
300
1:30
140
1.0
141
30.0
290
     0
  0
SCALE
  5
51
102
{ACAD_REACTORS
330
47
102
}
330
47
100
AcDbScale
 70
     0
300
1:40
140
1.0
141
40.0
290
     0
  0
SCALE
  5
52
102
{ACAD_REACTORS
330
47
102
}
330
47
100
AcDbScale
 70
     0
300
1:50
140
1.0
141
50.0
290
     0
  0
SCALE
  5
53
102
{ACAD_REACTORS
330
47
102
}
330
47
100
AcDbScale
 70
     0
300
1:100
140
1.0
141
100.0
290
     0
  0
SCALE
  5
54
102
{ACAD_REACTORS
330
47
102
}
330
47
100
AcDbScale
 70
     0
300
2:1
140
2.0
141
1.0
290
     0
  0
SCALE
  5
55
102
{ACAD_REACTORS
330
47
102
}
330
47
100
AcDbScale
 70
     0
300
4:1
140
4.0
141
1.0
290
     0
  0
SCALE
  5
56
102
{ACAD_REACTORS
330
47
102
}
330
47
100
AcDbScale
 70
     0
300
8:1
140
8.0
141
1.0
290
     0
  0
SCALE
  5
57
102
{ACAD_REACTORS
330
47
102
}
330
47
100
AcDbScale
 70
     0
300
10:1
140
10.0
141
1.0
290
     0
  0
SCALE
  5
58
102
{ACAD_REACTORS
330
47
102
}
330
47
100
AcDbScale
 70
     0
300
100:1
140
100.0
141
1.0
290
     0
  0
TABLESTYLE
  5
5A
102
{ACAD_REACTORS
330
59
102
}
102
{ACAD_XDICTIONARY
360
528
102
}
330
59
100
AcDbTableStyle
  3
Standard
 70
     0
 71
     0
 40
0.06
 41
0.06
280
     0
281
     0
  7
Standard
140
4.5
170
     2
 62
     0
 63
   257
283
     0
 90
        4
 91
        0
  1

274
    -2
284
     1
 64
     0
275
    -2
285
     1
 65
     0
276
    -2
286
     1
 66
     0
277
    -2
287
     1
 67
     0
278
    -2
288
     1
 68
     0
279
    -2
289
     1
 69
     0
  7
Standard
140
6.0
170
     5
 62
     0
 63
   257
283
     0
 90
        4
 91
        0
  1

274
    -2
284
     1
 64
     0
275
    -2
285
     1
 65
     0
276
    -2
286
     1
 66
     0
277
    -2
287
     1
 67
     0
278
    -2
288
     1
 68
     0
279
    -2
289
     1
 69
     0
  7
Standard
140
4.5
170
     5
 62
     0
 63
   257
283
     0
 90
        4
 91
        0
  1

274
    -2
284
     1
 64
     0
275
    -2
285
     1
 65
     0
276
    -2
286
     1
 66
     0
277
    -2
287
     1
 67
     0
278
    -2
288
     1
 68
     0
279
    -2
289
     1
 69
     0
  0
VISUALSTYLE
  5
2F
102
{ACAD_REACTORS
330
2A
102
}
330
2A
100
AcDbVisualStyle
  2
2dWireframe
 70
     4
177
     3
291
     0
 70
    58
 90
        0
176
     1
 90
        2
176
     1
 90
        0
176
     1
 90
        0
176
     1
 40
0.6
176
     1
 40
30.0
176
     1
 62
     7
420
 16777215
176
     1
 90
        1
176
     1
 90
        4
176
     1
 62
     7
176
     1
 62
   257
176
     1
 90
        1
176
     1
 90
        1
176
     1
 40
1.0
176
     1
 90
        0
176
     1
 62
   257
176
     1
 40
1.0
176
     1
 90
        1
176
     1
 90
        6
176
     1
 90
        2
176
     1
 62
     7
176
     1
 90
        5
176
     1
 90
        0
176
     1
 90
        0
176
     1
290
     0
176
     1
 90
        1
176
     1
 40
0.0
176
     1
 90
        0
176
     1
290
     1
176
     1
290
     1
176
     1
290
     0
176
     1
290
     0
176
     1
290
     0
176
     1
290
     0
176
     1
290
     0
176
     1
290
     0
176
     1
290
     0
176
     1
 90
       50
176
     1
 40
0.0
176
     1
 40
1.0
176
     1
 90
        0
176
     1
 62
    18
420
        0
176
     1
 90
       50
176
     1
 90
        3
176
     1
 62
     5
420
      255
176
     1
290
     0
176
     1
 90
       50
176
     1
 90
       50
176
     1
 90
       50
176
     1
290
     0
176
     1
 90
       50
176
     1
 62
   256
176
     0
 40
1.0
176
     0
 90
        2
176
     1
  1
strokes_ogs.tif
176
     1
290
     0
176
     1
 40
1.0
176
     1
 40
1.0
176
     1
  0
VISUALSTYLE
  5
32
102
{ACAD_REACTORS
330
2A
102
}
330
2A
100
AcDbVisualStyle
  2
Basic
 70
     7
177
     3
291
     1
 70
    58
 90
        1
176
     1
 90
        0
176
     1
 90
        1
176
     1
 90
        0
176
     1
 40
0.6
176
     1
 40
30.0
176
     1
 62
     7
420
 16777215
176
     1
 90
        0
176
     1
 90
        4
176
     1
 62
     7
176
     1
 62
   257
176
     1
 90
        1
176
     1
 90
        1
176
     1
 40
1.0
176
     1
 90
        8
176
     1
 62
     7
176
     1
 40
1.0
176
     1
 90
        1
176
     1
 90
        6
176
     1
 90
        2
176
     1
 62
     7
176
     1
 90
        5
176
     1
 90
        0
176
     1
 90
        0
176
     1
290
     0
176
     1
 90
        1
176
     1
 40
0.0
176
     1
 90
        0
176
     1
290
     0
176
     1
290
     1
176
     1
290
     1
176
     1
290
     0
176
     1
290
     0
176
     1
290
     0
176
     1
290
     0
176
     1
290
     0
176
     1
290
     0
176
     1
 90
       50
176
     1
 40
0.0
176
     1
 40
1.0
176
     1
 90
        0
176
     1
 62
    18
420
        0
176
     1
 90
       50
176
     1
 90
        3
176
     1
 62
     5
420
      255
176
     1
290
     0
176
     1
 90
       50
176
     1
 90
       50
176
     1
 90
       50
176
     1
290
     0
176
     1
 90
       50
176
     1
 62
   256
176
     0
 40
1.0
176
     0
 90
        2
176
     1
  1
strokes_ogs.tif
176
     1
290
     0
176
     1
 40
1.0
176
     1
 40
1.0
176
     1
  0
VISUALSTYLE
  5
36
102
{ACAD_REACTORS
330
2A
102
}
330
2A
100
AcDbVisualStyle
  2
Brighten
 70
    12
177
     3
291
     1
 70
    58
 90
        2
176
     1
 90
        2
176
     1
 90
        0
176
     1
 90
        0
176
     1
 40
0.6
176
     1
 40
30.0
176
     1
 62
     7
420
 16777215
176
     1
 90
        1
176
     1
 90
        4
176
     1
 62
     7
176
     1
 62
   257
176
     1
 90
        1
176
     1
 90
        1
176
     1
 40
1.0
176
     1
 90
        8
176
     1
 62
     7
176
     1
 40
1.0
176
     1
 90
        1
176
     1
 90
        6
176
     1
 90
        2
176
     1
 62
     7
176
     1
 90
        5
176
     1
 90
        0
176
     1
 90
        0
176
     1
290
     0
176
     1
 90
        1
176
     1
 40
50.0
176
     1
 90
        0
176
     1
290
     0
176
     1
290
     1
176
     1
290
     1
176
     1
290
     0
176
     1
290
     0
176
     1
290
     0
176
     1
290
     0
176
     1
290
     0
176
     1
290
     0
176
     1
 90
       50
176
     1
 40
0.0
176
     1
 40
1.0
176
     1
 90
        0
176
     1
 62
    18
420
        0
176
     1
 90
       50
176
     1
 90
        3
176
     1
 62
     5
420
      255
176
     1
290
     0
176
     1
 90
       50
176
     1
 90
       50
176
     1
 90
       50
176
     1
290
     0
176
     1
 90
       50
176
     1
 62
   256
176
     0
 40
1.0
176
     0
 90
        2
176
     1
  1
strokes_ogs.tif
176
     1
290
     0
176
     1
 40
1.0
176
     1
 40
1.0
176
     1
  0
VISUALSTYLE
  5
3A
102
{ACAD_REACTORS
330
2A
102
}
330
2A
100
AcDbVisualStyle
  2
ColorChange
 70
    16
177
     3
291
     1
 70
    58
 90
        2
176
     1
 90
        2
176
     1
 90
        3
176
     1
 90
        0
176
     1
 40
0.6
176
     1
 40
30.0
176
     1
 62
     8
420
  8421504
176
     1
 90
        1
176
     1
 90
        4
176
     1
 62
     7
176
     1
 62
   257
176
     1
 90
        1
176
     1
 90
        1
176
     1
 40
1.0
176
     1
 90
        8
176
     1
 62
     8
420
  8421504
176
     1
 40
1.0
176
     1
 90
        1
176
     1
 90
        6
176
     1
 90
        2
176
     1
 62
     7
176
     1
 90
        5
176
     1
 90
        0
176
     1
 90
        0
176
     1
290
     0
176
     1
 90
        1
176
     1
 40
0.0
176
     1
 90
        0
176
     1
290
     0
176
     1
290
     1
176
     1
290
     1
176
     1
290
     0
176
     1
290
     0
176
     1
290
     0
176
     1
290
     0
176
     1
290
     0
176
     1
290
     0
176
     1
 90
       50
176
     1
 40
0.0
176
     1
 40
1.0
176
     1
 90
        0
176
     1
 62
    18
420
        0
176
     1
 90
       50
176
     1
 90
        3
176
     1
 62
     5
420
      255
176
     1
290
     0
176
     1
 90
       50
176
     1
 90
       50
176
     1
 90
       50
176
     1
290
     0
176
     1
 90
       50
176
     1
 62
   256
176
     0
 40
1.0
176
     0
 90
        2
176
     1
  1
strokes_ogs.tif
176
     1
290
     0
176
     1
 40
1.0
176
     1
 40
1.0
176
     1
  0
VISUALSTYLE
  5
34
102
{ACAD_REACTORS
330
2A
102
}
330
2A
100
AcDbVisualStyle
  2
Conceptual
 70
     9
177
     3
291
     0
 70
    58
 90
        3
176
     1
 90
        2
176
     1
 90
        0
176
     1
 90
        0
176
     1
 40
0.6
176
     1
 40
30.0
176
     1
 62
     7
420
 16777215
176
     1
 90
        2
176
     1
 90
        2
176
     1
 62
     7
176
     1
 62
   257
176
     1
 90
        1
176
     1
 90
        1
176
     1
 40
179.0
176
     1
 90
        8
176
     1
 62
     7
176
     1
 40
1.0
176
     1
 90
        1
176
     1
 90
        6
176
     1
 90
        2
176
     1
 62
     7
176
     1
 90
        3
176
     1
 90
        0
176
     1
 90
        0
176
     1
290
     0
176
     1
 90
        1
176
     1
 40
0.0
176
     1
 90
        0
176
     1
290
     0
176
     1
290
     1
176
     1
290
     1
176
     1
290
     0
176
     1
290
     0
176
     1
290
     0
176
     1
290
     0
176
     1
290
     0
176
     1
290
     0
176
     1
 90
       50
176
     1
 40
0.0
176
     1
 40
1.0
176
     1
 90
        0
176
     1
 62
    18
420
        0
176
     1
 90
       50
176
     1
 90
        3
176
     1
 62
     5
420
      255
176
     1
290
     0
176
     1
 90
       50
176
     1
 90
       50
176
     1
 90
       50
176
     1
290
     0
176
     1
 90
       50
176
     1
 62
   256
176
     0
 40
1.0
176
     0
 90
        2
176
     1
  1
strokes_ogs.tif
176
     1
290
     0
176
     1
 40
1.0
176
     1
 40
1.0
176
     1
  0
VISUALSTYLE
  5
35
102
{ACAD_REACTORS
330
2A
102
}
330
2A
100
AcDbVisualStyle
  2
Dim
 70
    11
177
     3
291
     1
 70
    58
 90
        2
176
     1
 90
        2
176
     1
 90
        0
176
     1
 90
        0
176
     1
 40
0.6
176
     1
 40
30.0
176
     1
 62
     7
420
 16777215
176
     1
 90
        1
176
     1
 90
        4
176
     1
 62
     7
176
     1
 62
   257
176
     1
 90
        1
176
     1
 90
        1
176
     1
 40
1.0
176
     1
 90
        8
176
     1
 62
     7
176
     1
 40
1.0
176
     1
 90
        1
176
     1
 90
        6
176
     1
 90
        2
176
     1
 62
     7
176
     1
 90
        5
176
     1
 90
        0
176
     1
 90
        0
176
     1
290
     0
176
     1
 90
        1
176
     1
 40
-50.0
176
     1
 90
        0
176
     1
290
     0
176
     1
290
     1
176
     1
290
     1
176
     1
290
     0
176
     1
290
     0
176
     1
290
     0
176
     1
290
     0
176
     1
290
     0
176
     1
290
     0
176
     1
 90
       50
176
     1
 40
0.0
176
     1
 40
1.0
176
     1
 90
        0
176
     1
 62
    18
420
        0
176
     1
 90
       50
176
     1
 90
        3
176
     1
 62
     5
420
      255
176
     1
290
     0
176
     1
 90
       50
176
     1
 90
       50
176
     1
 90
       50
176
     1
290
     0
176
     1
 90
       50
176
     1
 62
   256
176
     0
 40
1.0
176
     0
 90
        2
176
     1
  1
strokes_ogs.tif
176
     1
290
     0
176
     1
 40
1.0
176
     1
 40
1.0
176
     1
  0
VISUALSTYLE
  5
3D
102
{ACAD_REACTORS
330
2A
102
}
330
2A
100
AcDbVisualStyle
  2
EdgeColorOff
 70
    22
177
     3
291
     1
 70
    58
 90
        2
176
     0
 90
        2
176
     0
 90
        0
176
     0
 90
        0
176
     0
 40
0.6
176
     0
 40
30.0
176
     0
 62
     7
420
 16777215
176
     0
 90
        1
176
     0
 90
        4
176
     0
 62
     7
176
     0
 62
   257
176
     0
 90
        1
176
     0
 90
        1
176
     0
 40
1.0
176
     0
 90
        8
176
     2
 62
     7
176
     0
 40
1.0
176
     0
 90
        1
176
     0
 90
        6
176
     0
 90
        2
176
     0
 62
     7
176
     0
 90
        5
176
     0
 90
        0
176
     0
 90
        0
176
     0
290
     0
176
     0
 90
        1
176
     0
 40
0.0
176
     0
 90
        0
176
     0
290
     0
176
     0
290
     1
176
     0
290
     1
176
     0
290
     0
176
     0
290
     0
176
     0
290
     0
176
     0
290
     0
176
     0
290
     0
176
     0
290
     0
176
     0
 90
       50
176
     0
 40
0.0
176
     0
 40
1.0
176
     0
 90
        0
176
     0
 62
    18
420
        0
176
     0
 90
       50
176
     0
 90
        3
176
     0
 62
     5
420
      255
176
     0
290
     0
176
     0
 90
       50
176
     0
 90
       50
176
     0
 90
       50
176
     0
290
     0
176
     0
 90
       50
176
     0
 62
   256
176
     0
 40
1.0
176
     0
 90
        2
176
     0
  1
strokes_ogs.tif
176
     0
290
     0
176
     0
 40
1.0
176
     0
 40
1.0
176
     0
  0
VISUALSTYLE
  5
39
102
{ACAD_REACTORS
330
2A
102
}
330
2A
100
AcDbVisualStyle
  2
Facepattern
 70
    15
177
     3
291
     1
 70
    58
 90
        2
176
     1
 90
        2
176
     1
 90
        0
176
     1
 90
        0
176
     1
 40
0.6
176
     1
 40
30.0
176
     1
 62
     7
420
 16777215
176
     1
 90
        1
176
     1
 90
        4
176
     1
 62
     7
176
     1
 62
   257
176
     1
 90
        1
176
     1
 90
        1
176
     1
 40
1.0
176
     1
 90
        8
176
     1
 62
     7
176
     1
 40
1.0
176
     1
 90
        1
176
     1
 90
        6
176
     1
 90
        2
176
     1
 62
     7
176
     1
 90
        5
176
     1
 90
        0
176
     1
 90
        0
176
     1
290
     0
176
     1
 90
        1
176
     1
 40
0.0
176
     1
 90
        0
176
     1
290
     0
176
     1
290
     1
176
     1
290
     1
176
     1
290
     0
176
     1
290
     0
176
     1
290
     0
176
     1
290
     0
176
     1
290
     0
176
     1
290
     0
176
     1
 90
       50
176
     1
 40
0.0
176
     1
 40
1.0
176
     1
 90
        0
176
     1
 62
    18
420
        0
176
     1
 90
       50
176
     1
 90
        3
176
     1
 62
     5
420
      255
176
     1
290
     0
176
     1
 90
       50
176
     1
 90
       50
176
     1
 90
       50
176
     1
290
     0
176
     1
 90
       50
176
     1
 62
   256
176
     0
 40
1.0
176
     0
 90
        2
176
     1
  1
strokes_ogs.tif
176
     1
290
     0
176
     1
 40
1.0
176
     1
 40
1.0
176
     1
  0
VISUALSTYLE
  5
2B
102
{ACAD_REACTORS
330
2A
102
}
330
2A
100
AcDbVisualStyle
  2
Flat
 70
     0
177
     3
291
     1
 70
    58
 90
        2
176
     1
 90
        1
176
     1
 90
        1
176
     1
 90
        2
176
     1
 40
0.6
176
     1
 40
30.0
176
     1
 62
     7
420
 16777215
176
     1
 90
        0
176
     1
 90
        0
176
     1
 62
     7
176
     1
 62
   257
176
     1
 90
        1
176
     1
 90
        1
176
     1
 40
1.0
176
     1
 90
        8
176
     1
 62
     7
176
     1
 40
1.0
176
     1
 90
        1
176
     1
 90
        6
176
     1
 90
        2
176
     1
 62
     7
176
     1
 90
        5
176
     1
 90
        0
176
     1
 90
        0
176
     1
290
     0
176
     1
 90
       13
176
     1
 40
0.0
176
     1
 90
        0
176
     1
290
     0
176
     1
290
     1
176
     1
290
     1
176
     1
290
     0
176
     1
290
     0
176
     1
290
     0
176
     1
290
     0
176
     1
290
     0
176
     1
290
     0
176
     1
 90
       50
176
     1
 40
0.0
176
     1
 40
1.0
176
     1
 90
        0
176
     1
 62
    18
420
        0
176
     1
 90
       50
176
     1
 90
        3
176
     1
 62
     5
420
      255
176
     1
290
     0
176
     1
 90
       50
176
     1
 90
       50
176
     1
 90
       50
176
     1
290
     0
176
     1
 90
       50
176
     1
 62
   256
176
     0
 40
1.0
176
     0
 90
        2
176
     1
  1
strokes_ogs.tif
176
     1
290
     0
176
     1
 40
1.0
176
     1
 40
1.0
176
     1
  0
VISUALSTYLE
  5
2C
102
{ACAD_REACTORS
330
2A
102
}
330
2A
100
AcDbVisualStyle
  2
FlatWithEdges
 70
     1
177
     3
291
     1
 70
    58
 90
        2
176
     1
 90
        1
176
     1
 90
        1
176
     1
 90
        2
176
     1
 40
0.6
176
     1
 40
30.0
176
     1
 62
     7
420
 16777215
176
     1
 90
        1
176
     1
 90
        0
176
     1
 62
     7
176
     1
 62
   257
176
     1
 90
        1
176
     1
 90
        1
176
     1
 40
1.0
176
     1
 90
        0
176
     1
 62
   257
176
     1
 40
1.0
176
     1
 90
        1
176
     1
 90
        6
176
     1
 90
        2
176
     1
 62
     7
176
     1
 90
        5
176
     1
 90
        0
176
     1
 90
        0
176
     1
290
     0
176
     1
 90
       13
176
     1
 40
0.0
176
     1
 90
        0
176
     1
290
     0
176
     1
290
     1
176
     1
290
     1
176
     1
290
     0
176
     1
290
     0
176
     1
290
     0
176
     1
290
     0
176
     1
290
     0
176
     1
290
     0
176
     1
 90
       50
176
     1
 40
0.0
176
     1
 40
1.0
176
     1
 90
        0
176
     1
 62
    18
420
        0
176
     1
 90
       50
176
     1
 90
        3
176
     1
 62
     5
420
      255
176
     1
290
     0
176
     1
 90
       50
176
     1
 90
       50
176
     1
 90
       50
176
     1
290
     0
176
     1
 90
       50
176
     1
 62
   256
176
     0
 40
1.0
176
     0
 90
        2
176
     1
  1
strokes_ogs.tif
176
     1
290
     0
176
     1
 40
1.0
176
     1
 40
1.0
176
     1
  0
VISUALSTYLE
  5
2D
102
{ACAD_REACTORS
330
2A
102
}
330
2A
100
AcDbVisualStyle
  2
Gouraud
 70
     2
177
     3
291
     1
 70
    58
 90
        2
176
     1
 90
        2
176
     1
 90
        1
176
     1
 90
        2
176
     1
 40
0.6
176
     1
 40
30.0
176
     1
 62
     7
420
 16777215
176
     1
 90
        0
176
     1
 90
        0
176
     1
 62
     7
176
     1
 62
   257
176
     1
 90
        1
176
     1
 90
        1
176
     1
 40
1.0
176
     1
 90
        0
176
     1
 62
     7
176
     1
 40
1.0
176
     1
 90
        1
176
     1
 90
        6
176
     1
 90
        2
176
     1
 62
     7
176
     1
 90
        5
176
     1
 90
        0
176
     1
 90
        0
176
     1
290
     0
176
     1
 90
       13
176
     1
 40
0.0
176
     1
 90
        0
176
     1
290
     0
176
     1
290
     1
176
     1
290
     1
176
     1
290
     0
176
     1
290
     0
176
     1
290
     0
176
     1
290
     0
176
     1
290
     0
176
     1
290
     0
176
     1
 90
       50
176
     1
 40
0.0
176
     1
 40
1.0
176
     1
 90
        0
176
     1
 62
    18
420
        0
176
     1
 90
       50
176
     1
 90
        3
176
     1
 62
     5
420
      255
176
     1
290
     0
176
     1
 90
       50
176
     1
 90
       50
176
     1
 90
       50
176
     1
290
     0
176
     1
 90
       50
176
     1
 62
   256
176
     0
 40
1.0
176
     0
 90
        2
176
     1
  1
strokes_ogs.tif
176
     1
290
     0
176
     1
 40
1.0
176
     1
 40
1.0
176
     1
  0
VISUALSTYLE
  5
2E
102
{ACAD_REACTORS
330
2A
102
}
330
2A
100
AcDbVisualStyle
  2
GouraudWithEdges
 70
     3
177
     3
291
     1
 70
    58
 90
        2
176
     1
 90
        2
176
     1
 90
        1
176
     1
 90
        2
176
     1
 40
0.6
176
     1
 40
30.0
176
     1
 62
     7
420
 16777215
176
     1
 90
        1
176
     1
 90
        0
176
     1
 62
     7
176
     1
 62
   257
176
     1
 90
        1
176
     1
 90
        1
176
     1
 40
1.0
176
     1
 90
        0
176
     1
 62
   257
176
     1
 40
1.0
176
     1
 90
        1
176
     1
 90
        6
176
     1
 90
        2
176
     1
 62
     7
176
     1
 90
        5
176
     1
 90
        0
176
     1
 90
        0
176
     1
290
     0
176
     1
 90
       13
176
     1
 40
0.0
176
     1
 90
        0
176
     1
290
     0
176
     1
290
     1
176
     1
290
     1
176
     1
290
     0
176
     1
290
     0
176
     1
290
     0
176
     1
290
     0
176
     1
290
     0
176
     1
290
     0
176
     1
 90
       50
176
     1
 40
0.0
176
     1
 40
1.0
176
     1
 90
        0
176
     1
 62
    18
420
        0
176
     1
 90
       50
176
     1
 90
        3
176
     1
 62
     5
420
      255
176
     1
290
     0
176
     1
 90
       50
176
     1
 90
       50
176
     1
 90
       50
176
     1
290
     0
176
     1
 90
       50
176
     1
 62
   256
176
     0
 40
1.0
176
     0
 90
        2
176
     1
  1
strokes_ogs.tif
176
     1
290
     0
176
     1
 40
1.0
176
     1
 40
1.0
176
     1
  0
VISUALSTYLE
  5
31
102
{ACAD_REACTORS
330
2A
102
}
330
2A
100
AcDbVisualStyle
  2
Hidden
 70
     6
177
     3
291
     0
 70
    58
 90
        1
176
     1
 90
        2
176
     1
 90
        2
176
     1
 90
        0
176
     1
 40
0.6
176
     1
 40
30.0
176
     1
 62
     7
420
 16777215
176
     1
 90
        2
176
     1
 90
        2
176
     1
 62
     7
176
     1
 62
   257
176
     1
 90
        2
176
     1
 90
        1
176
     1
 40
40.0
176
     1
 90
        0
176
     1
 62
   257
176
     1
 40
1.0
176
     1
 90
        1
176
     1
 90
        6
176
     1
 90
        2
176
     1
 62
     7
176
     1
 90
        3
176
     1
 90
        0
176
     1
 90
        0
176
     1
290
     0
176
     1
 90
        1
176
     1
 40
0.0
176
     1
 90
        0
176
     1
290
     0
176
     1
290
     1
176
     1
290
     1
176
     1
290
     0
176
     1
290
     0
176
     1
290
     0
176
     1
290
     0
176
     1
290
     0
176
     1
290
     0
176
     1
 90
       50
176
     1
 40
0.0
176
     1
 40
1.0
176
     1
 90
        0
176
     1
 62
    18
420
        0
176
     1
 90
       50
176
     1
 90
        3
176
     1
 62
     5
420
      255
176
     1
290
     0
176
     1
 90
       50
176
     1
 90
       50
176
     1
 90
       50
176
     1
290
     0
176
     1
 90
       50
176
     1
 62
   256
176
     0
 40
1.0
176
     0
 90
        2
176
     1
  1
strokes_ogs.tif
176
     1
290
     0
176
     1
 40
1.0
176
     1
 40
1.0
176
     1
  0
VISUALSTYLE
  5
3B
102
{ACAD_REACTORS
330
2A
102
}
330
2A
100
AcDbVisualStyle
  2
JitterOff
 70
    20
177
     3
291
     1
 70
    58
 90
        2
176
     0
 90
        2
176
     0
 90
        0
176
     0
 90
        0
176
     0
 40
0.6
176
     0
 40
30.0
176
     0
 62
     7
420
 16777215
176
     0
 90
        1
176
     0
 90
        4
176
     0
 62
     7
176
     0
 62
   257
176
     0
 90
        1
176
     0
 90
        1
176
     0
 40
1.0
176
     0
 90
       10
176
     2
 62
     7
176
     0
 40
1.0
176
     0
 90
        1
176
     0
 90
        6
176
     0
 90
        2
176
     0
 62
     7
176
     0
 90
        5
176
     0
 90
        0
176
     0
 90
        0
176
     0
290
     0
176
     0
 90
        1
176
     0
 40
0.0
176
     0
 90
        0
176
     0
290
     0
176
     0
290
     1
176
     0
290
     1
176
     0
290
     0
176
     0
290
     0
176
     0
290
     0
176
     0
290
     0
176
     0
290
     0
176
     0
290
     0
176
     0
 90
       50
176
     0
 40
0.0
176
     0
 40
1.0
176
     0
 90
        0
176
     0
 62
    18
420
        0
176
     0
 90
       50
176
     0
 90
        3
176
     0
 62
     5
420
      255
176
     0
290
     0
176
     0
 90
       50
176
     0
 90
       50
176
     0
 90
       50
176
     0
290
     0
176
     0
 90
       50
176
     0
 62
   256
176
     0
 40
1.0
176
     0
 90
        2
176
     0
  1
strokes_ogs.tif
176
     0
290
     0
176
     0
 40
1.0
176
     0
 40
1.0
176
     0
  0
VISUALSTYLE
  5
38
102
{ACAD_REACTORS
330
2A
102
}
330
2A
100
AcDbVisualStyle
  2
Linepattern
 70
    14
177
     3
291
     1
 70
    58
 90
        2
176
     1
 90
        2
176
     1
 90
        0
176
     1
 90
        0
176
     1
 40
0.6
176
     1
 40
30.0
176
     1
 62
     7
420
 16777215
176
     1
 90
        1
176
     1
 90
        4
176
     1
 62
     7
176
     1
 62
   257
176
     1
 90
        7
176
     1
 90
        7
176
     1
 40
1.0
176
     1
 90
        8
176
     1
 62
     7
176
     1
 40
1.0
176
     1
 90
        1
176
     1
 90
        6
176
     1
 90
        2
176
     1
 62
     7
176
     1
 90
        5
176
     1
 90
        0
176
     1
 90
        0
176
     1
290
     0
176
     1
 90
        1
176
     1
 40
0.0
176
     1
 90
        0
176
     1
290
     0
176
     1
290
     1
176
     1
290
     1
176
     1
290
     0
176
     1
290
     0
176
     1
290
     0
176
     1
290
     0
176
     1
290
     0
176
     1
290
     0
176
     1
 90
       50
176
     1
 40
0.0
176
     1
 40
1.0
176
     1
 90
        0
176
     1
 62
    18
420
        0
176
     1
 90
       50
176
     1
 90
        3
176
     1
 62
     5
420
      255
176
     1
290
     0
176
     1
 90
       50
176
     1
 90
       50
176
     1
 90
       50
176
     1
290
     0
176
     1
 90
       50
176
     1
 62
   256
176
     0
 40
1.0
176
     0
 90
        2
176
     1
  1
strokes_ogs.tif
176
     1
290
     0
176
     1
 40
1.0
176
     1
 40
1.0
176
     1
  0
VISUALSTYLE
  5
3C
102
{ACAD_REACTORS
330
2A
102
}
330
2A
100
AcDbVisualStyle
  2
OverhangOff
 70
    21
177
     3
291
     1
 70
    58
 90
        2
176
     0
 90
        2
176
     0
 90
        0
176
     0
 90
        0
176
     0
 40
0.6
176
     0
 40
30.0
176
     0
 62
     7
420
 16777215
176
     0
 90
        1
176
     0
 90
        4
176
     0
 62
     7
176
     0
 62
   257
176
     0
 90
        1
176
     0
 90
        1
176
     0
 40
1.0
176
     0
 90
        9
176
     2
 62
     7
176
     0
 40
1.0
176
     0
 90
        1
176
     0
 90
        6
176
     0
 90
        2
176
     0
 62
     7
176
     0
 90
        5
176
     0
 90
        0
176
     0
 90
        0
176
     0
290
     0
176
     0
 90
        1
176
     0
 40
0.0
176
     0
 90
        0
176
     0
290
     0
176
     0
290
     1
176
     0
290
     1
176
     0
290
     0
176
     0
290
     0
176
     0
290
     0
176
     0
290
     0
176
     0
290
     0
176
     0
290
     0
176
     0
 90
       50
176
     0
 40
0.0
176
     0
 40
1.0
176
     0
 90
        0
176
     0
 62
    18
420
        0
176
     0
 90
       50
176
     0
 90
        3
176
     0
 62
     5
420
      255
176
     0
290
     0
176
     0
 90
       50
176
     0
 90
       50
176
     0
 90
       50
176
     0
290
     0
176
     0
 90
       50
176
     0
 62
   256
176
     0
 40
1.0
176
     0
 90
        2
176
     0
  1
strokes_ogs.tif
176
     0
290
     0
176
     0
 40
1.0
176
     0
 40
1.0
176
     0
  0
VISUALSTYLE
  5
33
102
{ACAD_REACTORS
330
2A
102
}
330
2A
100
AcDbVisualStyle
  2
Realistic
 70
     8
177
     3
291
     0
 70
    58
 90
        2
176
     1
 90
        3
176
     1
 90
        0
176
     1
 90
        2
176
     1
 40
0.6
176
     1
 40
30.0
176
     1
 62
     7
420
 16777215
176
     1
 90
        0
176
     1
 90
        0
176
     1
 62
     7
176
     1
 62
   257
176
     1
 90
        1
176
     1
 90
        1
176
     1
 40
1.0
176
     1
 90
        8
176
     1
 62
   257
176
     1
 40
1.0
176
     1
 90
        1
176
     1
 90
        6
176
     1
 90
        2
176
     1
 62
     7
176
     1
 90
        3
176
     1
 90
        0
176
     1
 90
        0
176
     1
290
     0
176
     1
 90
       13
176
     1
 40
0.0
176
     1
 90
        0
176
     1
290
     0
176
     1
290
     1
176
     1
290
     1
176
     1
290
     0
176
     1
290
     0
176
     1
290
     0
176
     1
290
     0
176
     1
290
     0
176
     1
290
     0
176
     1
 90
       50
176
     1
 40
0.0
176
     1
 40
1.0
176
     1
 90
        0
176
     1
 62
    18
420
        0
176
     1
 90
       50
176
     1
 90
        3
176
     1
 62
     5
420
      255
176
     1
290
     0
176
     1
 90
       50
176
     1
 90
       50
176
     1
 90
       50
176
     1
290
     0
176
     1
 90
       50
176
     1
 62
   256
176
     0
 40
1.0
176
     0
 90
        2
176
     1
  1
strokes_ogs.tif
176
     1
290
     0
176
     1
 40
1.0
176
     1
 40
1.0
176
     1
  0
VISUALSTYLE
  5
42
102
{ACAD_REACTORS
330
2A
102
}
330
2A
100
AcDbVisualStyle
  2
Shaded
 70
    27
177
     3
291
     0
 70
    58
 90
        2
176
     1
 90
        2
176
     1
 90
        1
176
     1
 90
        2
176
     1
 40
0.6
176
     1
 40
30.0
176
     1
 62
     7
420
 16777215
176
     1
 90
        0
176
     1
 90
        4
176
     1
 62
     7
176
     1
 62
   257
176
     1
 90
        1
176
     1
 90
        1
176
     1
 40
1.0
176
     1
 90
        8
176
     1
 62
   257
176
     1
 40
1.0
176
     1
 90
        1
176
     1
 90
        6
176
     1
 90
        2
176
     1
 62
     8
420
  7895160
176
     1
 90
        3
176
     1
 90
        0
176
     1
 90
        0
176
     1
290
     0
176
     1
 90
        5
176
     1
 40
0.0
176
     1
 90
        0
176
     1
290
     0
176
     1
290
     1
176
     1
290
     1
176
     1
290
     0
176
     1
290
     0
176
     1
290
     0
176
     1
290
     0
176
     1
290
     0
176
     1
290
     0
176
     1
 90
       50
176
     1
 40
0.0
176
     1
 40
1.0
176
     1
 90
        0
176
     1
 62
    18
420
        0
176
     1
 90
       50
176
     1
 90
        3
176
     1
 62
     5
420
      255
176
     1
290
     0
176
     1
 90
       50
176
     1
 90
       50
176
     1
 90
       50
176
     1
290
     0
176
     1
 90
       50
176
     1
 62
   256
176
     0
 40
1.0
176
     0
 90
        2
176
     1
  1
strokes_ogs.tif
176
     1
290
     0
176
     1
 40
1.0
176
     1
 40
1.0
176
     1
  0
VISUALSTYLE
  5
41
102
{ACAD_REACTORS
330
2A
102
}
330
2A
100
AcDbVisualStyle
  2
Shaded with edges
 70
    26
177
     3
291
     0
 70
    58
 90
        2
176
     1
 90
        2
176
     1
 90
        1
176
     1
 90
        2
176
     1
 40
0.6
176
     1
 40
30.0
176
     1
 62
     7
420
 16777215
176
     1
 90
        1
176
     1
 90
       10
176
     1
 62
     7
176
     1
 62
   257
176
     1
 90
        2
176
     1
 90
        1
176
     1
 40
1.0
176
     1
 90
        8
176
     1
 62
   257
176
     1
 40
1.0
176
     1
 90
        1
176
     1
 90
        6
176
     1
 90
        2
176
     1
 62
     7
176
     1
 90
        3
176
     1
 90
        0
176
     1
 90
        0
176
     1
290
     0
176
     1
 90
        5
176
     1
 40
0.0
176
     1
 90
        0
176
     1
290
     0
176
     1
290
     1
176
     1
290
     1
176
     1
290
     0
176
     1
290
     0
176
     1
290
     0
176
     1
290
     0
176
     1
290
     0
176
     1
290
     0
176
     1
 90
       50
176
     1
 40
0.0
176
     1
 40
1.0
176
     1
 90
        0
176
     1
 62
    18
420
        0
176
     1
 90
       50
176
     1
 90
        3
176
     1
 62
     5
420
      255
176
     1
290
     0
176
     1
 90
       50
176
     1
 90
       50
176
     1
 90
       50
176
     1
290
     0
176
     1
 90
       50
176
     1
 62
   256
176
     0
 40
1.0
176
     0
 90
        2
176
     1
  1
strokes_ogs.tif
176
     1
290
     0
176
     1
 40
1.0
176
     1
 40
1.0
176
     1
  0
VISUALSTYLE
  5
3E
102
{ACAD_REACTORS
330
2A
102
}
330
2A
100
AcDbVisualStyle
  2
Shades of Gray
 70
    23
177
     3
291
     0
 70
    58
 90
        2
176
     1
 90
        2
176
     1
 90
        3
176
     1
 90
        0
176
     1
 40
0.6
176
     1
 40
30.0
176
     1
 62
     7
420
 16777215
176
     1
 90
        2
176
     1
 90
        2
176
     1
 62
     7
176
     1
 62
     7
176
     1
 90
        1
176
     1
 90
        1
176
     1
 40
40.0
176
     1
 90
        8
176
     1
 62
     7
176
     1
 40
1.0
176
     1
 90
        1
176
     1
 90
        6
176
     1
 90
        2
176
     1
 62
     7
176
     1
 90
        3
176
     1
 90
        0
176
     1
 90
        0
176
     1
290
     0
176
     1
 90
        1
176
     1
 40
0.0
176
     1
 90
        0
176
     1
290
     0
176
     1
290
     1
176
     1
290
     1
176
     1
290
     0
176
     1
290
     0
176
     1
290
     0
176
     1
290
     0
176
     1
290
     0
176
     1
290
     0
176
     1
 90
       50
176
     1
 40
0.0
176
     1
 40
1.0
176
     1
 90
        0
176
     1
 62
    18
420
        0
176
     1
 90
       50
176
     1
 90
        3
176
     1
 62
     5
420
      255
176
     1
290
     0
176
     1
 90
       50
176
     1
 90
       50
176
     1
 90
       50
176
     1
290
     0
176
     1
 90
       50
176
     1
 62
   256
176
     0
 40
1.0
176
     0
 90
        2
176
     1
  1
strokes_ogs.tif
176
     1
290
     0
176
     1
 40
1.0
176
     1
 40
1.0
176
     1
  0
VISUALSTYLE
  5
3F
102
{ACAD_REACTORS
330
2A
102
}
330
2A
100
AcDbVisualStyle
  2
Sketchy
 70
    24
177
     3
291
     0
 70
    58
 90
        1
176
     1
 90
        2
176
     1
 90
        2
176
     1
 90
        0
176
     1
 40
0.6
176
     1
 40
30.0
176
     1
 62
     7
420
 16777215
176
     1
 90
        2
176
     1
 90
        2
176
     1
 62
     7
176
     1
 62
     7
176
     1
 90
        1
176
     1
 90
        1
176
     1
 40
40.0
176
     1
 90
       11
176
     1
 62
     7
176
     1
 40
1.0
176
     1
 90
        1
176
     1
 90
        6
176
     1
 90
        2
176
     1
 62
     7
176
     1
 90
        6
176
     1
 90
        0
176
     1
 90
        0
176
     1
290
     0
176
     1
 90
        1
176
     1
 40
0.0
176
     1
 90
        0
176
     1
290
     0
176
     1
290
     1
176
     1
290
     1
176
     1
290
     0
176
     1
290
     0
176
     1
290
     0
176
     1
290
     0
176
     1
290
     0
176
     1
290
     0
176
     1
 90
       50
176
     1
 40
0.0
176
     1
 40
1.0
176
     1
 90
        0
176
     1
 62
    18
420
        0
176
     1
 90
       50
176
     1
 90
        3
176
     1
 62
     5
420
      255
176
     1
290
     0
176
     1
 90
       50
176
     1
 90
       50
176
     1
 90
       50
176
     1
290
     0
176
     1
 90
       50
176
     1
 62
   256
176
     0
 40
1.0
176
     0
 90
        2
176
     1
  1
strokes_ogs.tif
176
     1
290
     0
176
     1
 40
1.0
176
     1
 40
1.0
176
     1
  0
VISUALSTYLE
  5
37
102
{ACAD_REACTORS
330
2A
102
}
330
2A
100
AcDbVisualStyle
  2
Thicken
 70
    13
177
     3
291
     1
 70
    58
 90
        2
176
     1
 90
        2
176
     1
 90
        0
176
     1
 90
        0
176
     1
 40
0.6
176
     1
 40
30.0
176
     1
 62
     7
420
 16777215
176
     1
 90
        1
176
     1
 90
        4
176
     1
 62
     7
176
     1
 62
   257
176
     1
 90
        1
176
     1
 90
        1
176
     1
 40
1.0
176
     1
 90
       12
176
     1
 62
     7
176
     1
 40
1.0
176
     1
 90
        1
176
     1
 90
        6
176
     1
 90
        2
176
     1
 62
     7
176
     1
 90
        5
176
     1
 90
        0
176
     1
 90
        0
176
     1
290
     0
176
     1
 90
        1
176
     1
 40
0.0
176
     1
 90
        0
176
     1
290
     0
176
     1
290
     1
176
     1
290
     1
176
     1
290
     0
176
     1
290
     0
176
     1
290
     0
176
     1
290
     0
176
     1
290
     0
176
     1
290
     0
176
     1
 90
       50
176
     1
 40
0.0
176
     1
 40
1.0
176
     1
 90
        0
176
     1
 62
    18
420
        0
176
     1
 90
       50
176
     1
 90
        3
176
     1
 62
     5
420
      255
176
     1
290
     0
176
     1
 90
       50
176
     1
 90
       50
176
     1
 90
       50
176
     1
290
     0
176
     1
 90
       50
176
     1
 62
   256
176
     0
 40
1.0
176
     0
 90
        2
176
     1
  1
strokes_ogs.tif
176
     1
290
     0
176
     1
 40
1.0
176
     1
 40
1.0
176
     1
  0
VISUALSTYLE
  5
30
102
{ACAD_REACTORS
330
2A
102
}
330
2A
100
AcDbVisualStyle
  2
Wireframe
 70
     5
177
     3
291
     0
 70
    58
 90
        0
176
     1
 90
        2
176
     1
 90
        0
176
     1
 90
        0
176
     1
 40
0.6
176
     1
 40
30.0
176
     1
 62
     7
420
 16777215
176
     1
 90
        1
176
     1
 90
        4
176
     1
 62
     7
176
     1
 62
   257
176
     1
 90
        1
176
     1
 90
        1
176
     1
 40
1.0
176
     1
 90
        0
176
     1
 62
   257
176
     1
 40
1.0
176
     1
 90
        1
176
     1
 90
        6
176
     1
 90
        2
176
     1
 62
     7
176
     1
 90
        3
176
     1
 90
        0
176
     1
 90
        0
176
     1
290
     0
176
     1
 90
        1
176
     1
 40
0.0
176
     1
 90
        0
176
     1
290
     0
176
     1
290
     1
176
     1
290
     1
176
     1
290
     0
176
     1
290
     0
176
     1
290
     0
176
     1
290
     0
176
     1
290
     0
176
     1
290
     0
176
     1
 90
       50
176
     1
 40
0.0
176
     1
 40
1.0
176
     1
 90
        0
176
     1
 62
    18
420
        0
176
     1
 90
       50
176
     1
 90
        3
176
     1
 62
     5
420
      255
176
     1
290
     0
176
     1
 90
       50
176
     1
 90
       50
176
     1
 90
       50
176
     1
290
     0
176
     1
 90
       50
176
     1
 62
   256
176
     0
 40
1.0
176
     0
 90
        2
176
     1
  1
strokes_ogs.tif
176
     1
290
     0
176
     1
 40
1.0
176
     1
 40
1.0
176
     1
  0
VISUALSTYLE
  5
40
102
{ACAD_REACTORS
330
2A
102
}
330
2A
100
AcDbVisualStyle
  2
X-Ray
 70
    25
177
     3
291
     0
 70
    58
 90
        2
176
     1
 90
        2
176
     1
 90
        1
176
     1
 90
        1
176
     1
 40
0.5
176
     1
 40
30.0
176
     1
 62
     7
420
 16777215
176
     1
 90
        1
176
     1
 90
        0
176
     1
 62
     7
176
     1
 62
   257
176
     1
 90
        1
176
     1
 90
        1
176
     1
 40
1.0
176
     1
 90
        8
176
     1
 62
     7
176
     1
 40
1.0
176
     1
 90
        1
176
     1
 90
        6
176
     1
 90
        2
176
     1
 62
     7
176
     1
 90
        3
176
     1
 90
        0
176
     1
 90
        0
176
     1
290
     0
176
     1
 90
       13
176
     1
 40
0.0
176
     1
 90
        0
176
     1
290
     0
176
     1
290
     1
176
     1
290
     1
176
     1
290
     0
176
     1
290
     0
176
     1
290
     0
176
     1
290
     0
176
     1
290
     0
176
     1
290
     0
176
     1
 90
       50
176
     1
 40
0.0
176
     1
 40
1.0
176
     1
 90
        0
176
     1
 62
    18
420
        0
176
     1
 90
       50
176
     1
 90
        3
176
     1
 62
     5
420
      255
176
     1
290
     0
176
     1
 90
       50
176
     1
 90
       50
176
     1
 90
       50
176
     1
290
     0
176
     1
 90
       50
176
     1
 62
   256
176
     0
 40
1.0
176
     0
 90
        2
176
     1
  1
strokes_ogs.tif
176
     1
290
     0
176
     1
 40
1.0
176
     1
 40
1.0
176
     1
  0
DICTIONARYVAR
  5
527
102
{ACAD_REACTORS
330
526
102
}
330
526
100
DictionaryVariables
280
     0
  1
1:1
  0
DICTIONARYVAR
  5
52F
102
{ACAD_REACTORS
330
526
102
}
330
526
100
DictionaryVariables
280
     0
  1
3.500000
  0
DICTIONARYVAR
  5
530
102
{ACAD_REACTORS
330
526
102
}
330
526
100
DictionaryVariables
280
     0
  1
acadiso.lin
  0
DICTIONARYVAR
  5
52C
102
{ACAD_REACTORS
330
526
102
}
330
526
100
DictionaryVariables
280
     0
  1
Standard
  0
DICTIONARYVAR
  5
52B
102
{ACAD_REACTORS
330
526
102
}
330
526
100
DictionaryVariables
280
     0
  1
Standard
  0
DICTIONARY
  5
528
330
5A
100
AcDbDictionary
280
     1
281
     1
  3
ACAD_ROUNDTRIP_2008_TABLESTYLE_CELLSTYLEMAP
360
529
  0
CELLSTYLEMAP
  5
529
102
{ACAD_REACTORS
330
528
102
}
330
528
100
AcDbCellStyleMap
 90
        3
300
CELLSTYLE
  1
TABLEFORMAT_BEGIN
 90
        5
170
     1
 91
        0
 92
    32768
 62
   257
 93
        1
300
CONTENTFORMAT
  1
CONTENTFORMAT_BEGIN
 90
        0
 91
        0
 92
        4
 93
        0
300

 40
0.0
140
1.0
 94
        5
 62
     0
340
11
144
6.0
309
CONTENTFORMAT_END
171
     1
301
MARGIN
  1
CELLMARGIN_BEGIN
 40
1.5
 40
1.5
 40
1.5
 40
1.5
 40
1.5
 40
1.5
309
CELLMARGIN_END
 94
        6
 95
        1
302
GRIDFORMAT
  1
GRIDFORMAT_BEGIN
 90
        0
 91
        1
 62
     0
 92
       -2
340
14
 93
        0
 40
0.045
309
GRIDFORMAT_END
 95
        2
302
GRIDFORMAT
  1
GRIDFORMAT_BEGIN
 90
        0
 91
        1
 62
     0
 92
       -2
340
14
 93
        0
 40
0.045
309
GRIDFORMAT_END
 95
        4
302
GRIDFORMAT
  1
GRIDFORMAT_BEGIN
 90
        0
 91
        1
 62
     0
 92
       -2
340
14
 93
        0
 40
0.045
309
GRIDFORMAT_END
 95
        8
302
GRIDFORMAT
  1
GRIDFORMAT_BEGIN
 90
        0
 91
        1
 62
     0
 92
       -2
340
14
 93
        0
 40
0.045
309
GRIDFORMAT_END
 95
       16
302
GRIDFORMAT
  1
GRIDFORMAT_BEGIN
 90
        0
 91
        1
 62
     0
 92
       -2
340
14
 93
        0
 40
0.045
309
GRIDFORMAT_END
 95
       32
302
GRIDFORMAT
  1
GRIDFORMAT_BEGIN
 90
        0
 91
        1
 62
     0
 92
       -2
340
14
 93
        0
 40
0.045
309
GRIDFORMAT_END
309
TABLEFORMAT_END
  1
CELLSTYLE_BEGIN
 90
        1
 91
        1
300
_TITLE
309
CELLSTYLE_END
300
CELLSTYLE
  1
TABLEFORMAT_BEGIN
 90
        5
170
     1
 91
        0
 92
        0
 62
   257
 93
        1
300
CONTENTFORMAT
  1
CONTENTFORMAT_BEGIN
 90
        0
 91
        0
 92
        4
 93
        0
300

 40
0.0
140
1.0
 94
        5
 62
     0
340
11
144
4.5
309
CONTENTFORMAT_END
171
     1
301
MARGIN
  1
CELLMARGIN_BEGIN
 40
1.5
 40
1.5
 40
1.5
 40
1.5
 40
1.5
 40
1.5
309
CELLMARGIN_END
 94
        6
 95
        1
302
GRIDFORMAT
  1
GRIDFORMAT_BEGIN
 90
        0
 91
        1
 62
     0
 92
       -2
340
14
 93
        0
 40
0.045
309
GRIDFORMAT_END
 95
        2
302
GRIDFORMAT
  1
GRIDFORMAT_BEGIN
 90
        0
 91
        1
 62
     0
 92
       -2
340
14
 93
        0
 40
0.045
309
GRIDFORMAT_END
 95
        4
302
GRIDFORMAT
  1
GRIDFORMAT_BEGIN
 90
        0
 91
        1
 62
     0
 92
       -2
340
14
 93
        0
 40
0.045
309
GRIDFORMAT_END
 95
        8
302
GRIDFORMAT
  1
GRIDFORMAT_BEGIN
 90
        0
 91
        1
 62
     0
 92
       -2
340
14
 93
        0
 40
0.045
309
GRIDFORMAT_END
 95
       16
302
GRIDFORMAT
  1
GRIDFORMAT_BEGIN
 90
        0
 91
        1
 62
     0
 92
       -2
340
14
 93
        0
 40
0.045
309
GRIDFORMAT_END
 95
       32
302
GRIDFORMAT
  1
GRIDFORMAT_BEGIN
 90
        0
 91
        1
 62
     0
 92
       -2
340
14
 93
        0
 40
0.045
309
GRIDFORMAT_END
309
TABLEFORMAT_END
  1
CELLSTYLE_BEGIN
 90
        2
 91
        1
300
_HEADER
309
CELLSTYLE_END
300
CELLSTYLE
  1
TABLEFORMAT_BEGIN
 90
        5
170
     1
 91
        0
 92
        0
 62
   257
 93
        1
300
CONTENTFORMAT
  1
CONTENTFORMAT_BEGIN
 90
        0
 91
        0
 92
        4
 93
        0
300

 40
0.0
140
1.0
 94
        2
 62
     0
340
11
144
4.5
309
CONTENTFORMAT_END
171
     1
301
MARGIN
  1
CELLMARGIN_BEGIN
 40
1.5
 40
1.5
 40
1.5
 40
1.5
 40
1.5
 40
1.5
309
CELLMARGIN_END
 94
        6
 95
        1
302
GRIDFORMAT
  1
GRIDFORMAT_BEGIN
 90
        0
 91
        1
 62
     0
 92
       -2
340
14
 93
        0
 40
0.045
309
GRIDFORMAT_END
 95
        2
302
GRIDFORMAT
  1
GRIDFORMAT_BEGIN
 90
        0
 91
        1
 62
     0
 92
       -2
340
14
 93
        0
 40
0.045
309
GRIDFORMAT_END
 95
        4
302
GRIDFORMAT
  1
GRIDFORMAT_BEGIN
 90
        0
 91
        1
 62
     0
 92
       -2
340
14
 93
        0
 40
0.045
309
GRIDFORMAT_END
 95
        8
302
GRIDFORMAT
  1
GRIDFORMAT_BEGIN
 90
        0
 91
        1
 62
     0
 92
       -2
340
14
 93
        0
 40
0.045
309
GRIDFORMAT_END
 95
       16
302
GRIDFORMAT
  1
GRIDFORMAT_BEGIN
 90
        0
 91
        1
 62
     0
 92
       -2
340
14
 93
        0
 40
0.045
309
GRIDFORMAT_END
 95
       32
302
GRIDFORMAT
  1
GRIDFORMAT_BEGIN
 90
        0
 91
        1
 62
     0
 92
       -2
340
14
 93
        0
 40
0.045
309
GRIDFORMAT_END
309
TABLEFORMAT_END
  1
CELLSTYLE_BEGIN
 90
        3
 91
        2
300
_DATA
309
CELLSTYLE_END
  0
ENDSEC
  0
EOF
