  0
SECTION
  2
HEADER
  9
$ACADVER
  1
AC1027
  9
$ACADMAINTVER
 70
   105
  9
$DWGCODEPAGE
  3
ANSI_1252
  9
$COMMENTS
  1
File was created by Cadenas
  9
$LASTSAVEDBY
  1
psAdmin
  9
$CUSTOMPROPERTYTAG
  1
NB
  9
$CUSTOMPROPERTY
  1
33801
  9
$CUSTOMPROPERTYTAG
  1
NN
  9
$CUSTOMPROPERTY
  1
Size 000
  9
$CUSTOMPROPERTYTAG
  1
NT
  9
$CUSTOMPROPERTY
  1

  9
$CUSTOMPROPERTYTAG
  1
NBSYN
  9
$CUSTOMPROPERTY
  1
$ARTNR.
  9
$CUSTOMPROPERTYTAG
  1
LINA
  9
$CUSTOMPROPERTY
  1
33801000A
  9
$CUSTOMPROPERTYTAG
  1
CATALOG
  9
$CUSTOMPROPERTY
  1
Wöhner
  9
$CUSTOMPROPERTYTAG
  1
ARTNR
  9
$CUSTOMPROPERTY
  1
33801
  9
$CUSTOMPROPERTYTAG
  1
BUSB
  9
$CUSTOMPROPERTY
  1
12 x 5, 10
  9
$CUSTOMPROPERTYTAG
  1
POF
  9
$CUSTOMPROPERTY
  1
QUADRON®30Compact
  9
$CUSTOMPROPERTYTAG
  1
TYPE
  9
$CUSTOMPROPERTY
  1
QU-NH000
  9
$CUSTOMPROPERTYTAG
  1
QNT
  9
$CUSTOMPROPERTY
  1
1
  9
$CUSTOMPROPERTYTAG
  1
W
  9
$CUSTOMPROPERTY
  1
49
  9
$CUSTOMPROPERTYTAG
  1
H
  9
$CUSTOMPROPERTY
  1
175
  9
$CUSTOMPROPERTYTAG
  1
D
  9
$CUSTOMPROPERTY
  1
127
  9
$CUSTOMPROPERTYTAG
  1
CONCA
  9
$CUSTOMPROPERTY
  1
Box terminal
  9
$CUSTOMPROPERTYTAG
  1
IPRF
  9
$CUSTOMPROPERTY
  1
IP30
  9
$CUSTOMPROPERTYTAG
  1
LINK
  9
$CUSTOMPROPERTY
  1
Product link
  9
$CUSTOMPROPERTYTAG
  1
COMPANY
  9
$CUSTOMPROPERTY
  1
woehner
  9
$REQUIREDVERSIONS
160
                 0
  9
$INSBASE
 10
0.0
 20
0.0
 30
0.0
  9
$EXTMIN
 10
-28.0
 20
-205.6666666666667
 30
0.0
  9
$EXTMAX
 10
59.05238095238097
 20
34.0
 30
0.0
  9
$LIMMIN
 10
0.0
 20
0.0
  9
$LIMMAX
 10
420.0
 20
297.0
  9
$ORTHOMODE
 70
     0
  9
$REGENMODE
 70
     1
  9
$FILLMODE
 70
     1
  9
$QTEXTMODE
 70
     0
  9
$MIRRTEXT
 70
     1
  9
$LTSCALE
 40
1.0
  9
$ATTMODE
 70
     1
  9
$TEXTSIZE
 40
2.5
  9
$TRACEWID
 40
1.0
  9
$TEXTSTYLE
  7
Standard
  9
$CLAYER
  8
0
  9
$CELTYPE
  6
ByLayer
  9
$CECOLOR
 62
   256
  9
$CELTSCALE
 40
1.0
  9
$DISPSILH
 70
     0
  9
$DIMSCALE
 40
1.0
  9
$DIMASZ
 40
2.5
  9
$DIMEXO
 40
0.625
  9
$DIMDLI
 40
3.75
  9
$DIMRND
 40
0.0
  9
$DIMDLE
 40
0.0
  9
$DIMEXE
 40
1.25
  9
$DIMTP
 40
0.0
  9
$DIMTM
 40
0.0
  9
$DIMTXT
 40
2.5
  9
$DIMCEN
 40
2.5
  9
$DIMTSZ
 40
0.0
  9
$DIMTOL
 70
     0
  9
$DIMLIM
 70
     0
  9
$DIMTIH
 70
     0
  9
$DIMTOH
 70
     0
  9
$DIMSE1
 70
     0
  9
$DIMSE2
 70
     0
  9
$DIMTAD
 70
     1
  9
$DIMZIN
 70
     8
  9
$DIMBLK
  1

  9
$DIMASO
 70
     1
  9
$DIMSHO
 70
     1
  9
$DIMPOST
  1

  9
$DIMAPOST
  1

  9
$DIMALT
 70
     0
  9
$DIMALTD
 70
     3
  9
$DIMALTF
 40
0.03937007874016
  9
$DIMLFAC
 40
1.0
  9
$DIMTOFL
 70
     1
  9
$DIMTVP
 40
0.0
  9
$DIMTIX
 70
     0
  9
$DIMSOXD
 70
     0
  9
$DIMSAH
 70
     0
  9
$DIMBLK1
  1

  9
$DIMBLK2
  1

  9
$DIMSTYLE
  2
ISO-25
  9
$DIMCLRD
 70
     0
  9
$DIMCLRE
 70
     0
  9
$DIMCLRT
 70
     0
  9
$DIMTFAC
 40
1.0
  9
$DIMGAP
 40
0.625
  9
$DIMJUST
 70
     0
  9
$DIMSD1
 70
     0
  9
$DIMSD2
 70
     0
  9
$DIMTOLJ
 70
     0
  9
$DIMTZIN
 70
     8
  9
$DIMALTZ
 70
     0
  9
$DIMALTTZ
 70
     0
  9
$DIMUPT
 70
     0
  9
$DIMDEC
 70
     2
  9
$DIMTDEC
 70
     2
  9
$DIMALTU
 70
     2
  9
$DIMALTTD
 70
     3
  9
$DIMTXSTY
  7
Standard
  9
$DIMAUNIT
 70
     0
  9
$DIMADEC
 70
     0
  9
$DIMALTRND
 40
0.0
  9
$DIMAZIN
 70
     0
  9
$DIMDSEP
 70
    44
  9
$DIMATFIT
 70
     3
  9
$DIMFRAC
 70
     0
  9
$DIMLDRBLK
  1

  9
$DIMLUNIT
 70
     2
  9
$DIMLWD
 70
    -2
  9
$DIMLWE
 70
    -2
  9
$DIMTMOVE
 70
     0
  9
$DIMFXL
 40
1.0
  9
$DIMFXLON
 70
     0
  9
$DIMJOGANG
 40
0.7853981633974483
  9
$DIMTFILL
 70
     0
  9
$DIMTFILLCLR
 70
     0
  9
$DIMARCSYM
 70
     0
  9
$DIMLTYPE
  6

  9
$DIMLTEX1
  6

  9
$DIMLTEX2
  6

  9
$DIMTXTDIRECTION
 70
     0
  9
$LUNITS
 70
     2
  9
$LUPREC
 70
     4
  9
$SKETCHINC
 40
1.0
  9
$FILLETRAD
 40
10.0
  9
$AUNITS
 70
     0
  9
$AUPREC
 70
     0
  9
$MENU
  1
.
  9
$ELEVATION
 40
0.0
  9
$PELEVATION
 40
0.0
  9
$THICKNESS
 40
0.0
  9
$LIMCHECK
 70
     0
  9
$CHAMFERA
 40
0.0
  9
$CHAMFERB
 40
0.0
  9
$CHAMFERC
 40
0.0
  9
$CHAMFERD
 40
0.0
  9
$SKPOLY
 70
     0
  9
$TDCREATE
 40
2460299.563863206
  9
$TDUCREATE
 40
2460299.522196539
  9
$TDUPDATE
 40
2460299.563863924
  9
$TDUUPDATE
 40
2460299.522197257
  9
$TDINDWG
 40
0.0000000116
  9
$TDUSRTIMER
 40
0.0000000116
  9
$USRTIMER
 70
     1
  9
$ANGBASE
 50
0.0
  9
$ANGDIR
 70
     0
  9
$PDMODE
 70
     0
  9
$PDSIZE
 40
0.0
  9
$PLINEWID
 40
0.0
  9
$SPLFRAME
 70
     0
  9
$SPLINETYPE
 70
     6
  9
$SPLINESEGS
 70
     8
  9
$HANDSEED
  5
3D6
  9
$SURFTAB1
 70
     6
  9
$SURFTAB2
 70
     6
  9
$SURFTYPE
 70
     6
  9
$SURFU
 70
     6
  9
$SURFV
 70
     6
  9
$UCSBASE
  2

  9
$UCSNAME
  2

  9
$UCSORG
 10
0.0
 20
0.0
 30
0.0
  9
$UCSXDIR
 10
1.0
 20
0.0
 30
0.0
  9
$UCSYDIR
 10
0.0
 20
1.0
 30
0.0
  9
$UCSORTHOREF
  2

  9
$UCSORTHOVIEW
 70
     0
  9
$UCSORGTOP
 10
0.0
 20
0.0
 30
0.0
  9
$UCSORGBOTTOM
 10
0.0
 20
0.0
 30
0.0
  9
$UCSORGLEFT
 10
0.0
 20
0.0
 30
0.0
  9
$UCSORGRIGHT
 10
0.0
 20
0.0
 30
0.0
  9
$UCSORGFRONT
 10
0.0
 20
0.0
 30
0.0
  9
$UCSORGBACK
 10
0.0
 20
0.0
 30
0.0
  9
$PUCSBASE
  2

  9
$PUCSNAME
  2

  9
$PUCSORG
 10
0.0
 20
0.0
 30
0.0
  9
$PUCSXDIR
 10
1.0
 20
0.0
 30
0.0
  9
$PUCSYDIR
 10
0.0
 20
1.0
 30
0.0
  9
$PUCSORTHOREF
  2

  9
$PUCSORTHOVIEW
 70
     0
  9
$PUCSORGTOP
 10
0.0
 20
0.0
 30
0.0
  9
$PUCSORGBOTTOM
 10
0.0
 20
0.0
 30
0.0
  9
$PUCSORGLEFT
 10
0.0
 20
0.0
 30
0.0
  9
$PUCSORGRIGHT
 10
0.0
 20
0.0
 30
0.0
  9
$PUCSORGFRONT
 10
0.0
 20
0.0
 30
0.0
  9
$PUCSORGBACK
 10
0.0
 20
0.0
 30
0.0
  9
$USERI1
 70
     0
  9
$USERI2
 70
     0
  9
$USERI3
 70
     0
  9
$USERI4
 70
     0
  9
$USERI5
 70
     0
  9
$USERR1
 40
0.0
  9
$USERR2
 40
0.0
  9
$USERR3
 40
0.0
  9
$USERR4
 40
0.0
  9
$USERR5
 40
0.0
  9
$WORLDVIEW
 70
     1
  9
$SHADEDGE
 70
     3
  9
$SHADEDIF
 70
    70
  9
$TILEMODE
 70
     1
  9
$MAXACTVP
 70
    64
  9
$PINSBASE
 10
0.0
 20
0.0
 30
0.0
  9
$PLIMCHECK
 70
     0
  9
$PEXTMIN
 10
1.000000000000000E+20
 20
1.000000000000000E+20
 30
1.000000000000000E+20
  9
$PEXTMAX
 10
-1.000000000000000E+20
 20
-1.000000000000000E+20
 30
-1.000000000000000E+20
  9
$PLIMMIN
 10
0.0
 20
0.0
  9
$PLIMMAX
 10
420.0
 20
297.0
  9
$UNITMODE
 70
     0
  9
$VISRETAIN
 70
     1
  9
$PLINEGEN
 70
     0
  9
$PSLTSCALE
 70
     1
  9
$TREEDEPTH
 70
  3020
  9
$CMLSTYLE
  2
Standard
  9
$CMLJUST
 70
     0
  9
$CMLSCALE
 40
20.0
  9
$PROXYGRAPHICS
 70
     1
  9
$MEASUREMENT
 70
     1
  9
$CELWEIGHT
370
    -1
  9
$ENDCAPS
280
     0
  9
$JOINSTYLE
280
     0
  9
$LWDISPLAY
290
     0
  9
$INSUNITS
 70
     4
  9
$HYPERLINKBASE
  1

  9
$STYLESHEET
  1

  9
$XEDIT
290
     1
  9
$CEPSNTYPE
380
     0
  9
$PSTYLEMODE
290
     1
  9
$FINGERPRINTGUID
  2
{75e480e0-3c68-46b8-a2e8-aef08625d9d8}
  9
$VERSIONGUID
  2
{FAEB1C32-E019-11D5-929B-00C0DF256EC4}
  9
$EXTNAMES
290
     1
  9
$PSVPSCALE
 40
0.0
  9
$OLESTARTUP
290
     0
  9
$SORTENTS
280
   127
  9
$INDEXCTL
280
     0
  9
$HIDETEXT
280
     1
  9
$XCLIPFRAME
280
     2
  9
$HALOGAP
280
     0
  9
$OBSCOLOR
 70
   257
  9
$OBSLTYPE
280
     0
  9
$INTERSECTIONDISPLAY
280
     0
  9
$INTERSECTIONCOLOR
 70
   257
  9
$DIMASSOC
280
     2
  9
$PROJECTNAME
  1

  9
$CAMERADISPLAY
290
     0
  9
$LENSLENGTH
 40
50.0
  9
$CAMERAHEIGHT
 40
0.0
  9
$STEPSPERSEC
 40
2.0
  9
$STEPSIZE
 40
6.0
  9
$3DDWFPREC
 40
2.0
  9
$PSOLWIDTH
 40
5.0
  9
$PSOLHEIGHT
 40
80.0
  9
$LOFTANG1
 40
1.570796326794897
  9
$LOFTANG2
 40
1.570796326794897
  9
$LOFTMAG1
 40
0.0
  9
$LOFTMAG2
 40
0.0
  9
$LOFTPARAM
 70
     7
  9
$LOFTNORMALS
280
     1
  9
$LATITUDE
 40
37.795
  9
$LONGITUDE
 40
-122.394
  9
$NORTHDIRECTION
 40
0.0
  9
$TIMEZONE
 70
 -8000
  9
$LIGHTGLYPHDISPLAY
280
     1
  9
$TILEMODELIGHTSYNCH
280
     1
  9
$CMATERIAL
347
44
  9
$SOLIDHIST
280
     0
  9
$SHOWHIST
280
     1
  9
$DWFFRAME
280
     2
  9
$DGNFRAME
280
     2
  9
$REALWORLDSCALE
290
     1
  9
$INTERFERECOLOR
 62
   256
  9
$CSHADOW
280
     0
  9
$SHADOWPLANELOCATION
 40
0.0
  0
ENDSEC
  0
SECTION
  2
CLASSES
  0
CLASS
  1
ACDBDICTIONARYWDFLT
  2
AcDbDictionaryWithDefault
  3
ObjectDBX Classes
 90
        0
 91
        3
280
     0
281
     0
  0
CLASS
  1
VISUALSTYLE
  2
AcDbVisualStyle
  3
ObjectDBX Classes
 90
     4095
 91
        3
280
     0
281
     0
  0
CLASS
  1
MATERIAL
  2
AcDbMaterial
  3
ObjectDBX Classes
 90
     1153
 91
        3
280
     0
281
     0
  0
CLASS
  1
SCALE
  2
AcDbScale
  3
ObjectDBX Classes
 90
     1153
 91
        3
280
     0
281
     0
  0
CLASS
  1
TABLESTYLE
  2
AcDbTableStyle
  3
ObjectDBX Classes
 90
     4095
 91
        3
280
     0
281
     0
  0
CLASS
  1
MLEADERSTYLE
  2
AcDbMLeaderStyle
  3
ACDB_MLEADERSTYLE_CLASS
 90
     4095
 91
        3
280
     0
281
     0
  0
CLASS
  1
SUN
  2
AcDbSun
  3
SCENEOE
 90
     1153
 91
        3
280
     0
281
     0
  0
CLASS
  1
DICTIONARYVAR
  2
AcDbDictionaryVar
  3
ObjectDBX Classes
 90
        0
 91
        3
280
     0
281
     0
  0
CLASS
  1
CELLSTYLEMAP
  2
AcDbCellStyleMap
  3
ObjectDBX Classes
 90
     1152
 91
        3
280
     0
281
     0
  0
ENDSEC
  0
SECTION
  2
TABLES
  0
TABLE
  2
VPORT
  5
8
330
0
100
AcDbSymbolTable
 70
     1
  0
VPORT
  5
29
330
8
100
AcDbSymbolTableRecord
100
AcDbViewportTableRecord
  2
*Active
 70
     0
 10
0.0
 20
0.0
 11
1.0
 21
1.0
 12
15.52619047619049
 22
-85.83333333333331
 13
0.0
 23
0.0
 14
10.0
 24
10.0
 15
10.0
 25
10.0
 16
0.0
 26
0.0
 36
1.0
 17
0.0
 27
0.0
 37
0.0
 40
244.46
 41
0.3632227299821182
 42
50.0
 43
0.0
 44
0.0
 50
0.0
 51
0.0
 71
     0
 72
   100
 73
     1
 74
     3
 75
     0
 76
     0
 77
     0
 78
     0
281
     0
 65
     1
110
0.0
120
0.0
130
0.0
111
1.0
121
0.0
131
0.0
112
0.0
122
1.0
132
0.0
 79
     0
146
0.0
348
2F
 60
     3
 61
     5
292
     1
282
     1
141
0.0
142
0.0
 63
   250
361
5D
  0
ENDTAB
  0
TABLE
  2
LTYPE
  5
5
330
0
100
AcDbSymbolTable
 70
     3
  0
LTYPE
  5
14
330
5
100
AcDbSymbolTableRecord
100
AcDbLinetypeTableRecord
  2
ByBlock
 70
     0
  3

 72
    65
 73
     0
 40
0.0
  0
LTYPE
  5
15
330
5
100
AcDbSymbolTableRecord
100
AcDbLinetypeTableRecord
  2
ByLayer
 70
     0
  3

 72
    65
 73
     0
 40
0.0
  0
LTYPE
  5
16
330
5
100
AcDbSymbolTableRecord
100
AcDbLinetypeTableRecord
  2
Continuous
 70
     0
  3
Solid line
 72
    65
 73
     0
 40
0.0
  0
LTYPE
  5
84
330
5
100
AcDbSymbolTableRecord
100
AcDbLinetypeTableRecord
  2
Dashed
 70
     0
  3

 72
    65
 73
     2
 40
2.0
 49
1.0
 74
     0
 49
-1.0
 74
     0
  0
LTYPE
  5
199
330
5
100
AcDbSymbolTableRecord
100
AcDbLinetypeTableRecord
  2
Center
 70
     0
  3

 72
    65
 73
     4
 40
1.5
 49
0.45
 74
     0
 49
-0.5
 74
     0
 49
0.05
 74
     0
 49
-0.5
 74
     0
  0
ENDTAB
  0
TABLE
  2
LAYER
  5
2
330
0
100
AcDbSymbolTable
 70
     9
  0
LAYER
  5
10
330
2
100
AcDbSymbolTableRecord
100
AcDbLayerTableRecord
  2
0
 70
     0
 62
     7
  6
Continuous
370
    -3
390
F
347
46
348
0
  0
LAYER
  5
5E
330
2
100
AcDbSymbolTableRecord
100
AcDbLayerTableRecord
  2
attrib
 70
     0
 62
    -2
  6
Continuous
370
    35
390
F
347
46
348
0
  0
LAYER
  5
85
330
2
100
AcDbSymbolTableRecord
100
AcDbLayerTableRecord
  2
hidden
 70
     0
 62
    -6
  6
Dashed
370
    25
390
F
347
46
348
0
  0
LAYER
  5
19A
330
2
100
AcDbSymbolTableRecord
100
AcDbLayerTableRecord
  2
center
 70
     0
 62
    -7
  6
Center
370
    25
390
F
347
46
348
0
  0
LAYER
  5
19D
330
2
100
AcDbSymbolTableRecord
100
AcDbLayerTableRecord
  2
bold
 70
     0
 62
     7
  6
Continuous
370
    50
390
F
347
46
348
0
  0
LAYER
  5
1A4
330
2
100
AcDbSymbolTableRecord
100
AcDbLayerTableRecord
  2
light
 70
     0
 62
    -3
  6
Continuous
370
    25
390
F
347
46
348
0
  0
LAYER
  5
375
330
2
100
AcDbSymbolTableRecord
100
AcDbLayerTableRecord
  2
dimension
 70
     0
 62
    -5
  6
Continuous
370
    25
390
F
347
46
348
0
  0
LAYER
  5
377
330
2
100
AcDbSymbolTableRecord
100
AcDbLayerTableRecord
  2
Defpoints
 70
     0
 62
     7
  6
Continuous
290
     0
370
    -3
390
F
347
46
348
0
  0
LAYER
  5
3B0
330
2
100
AcDbSymbolTableRecord
100
AcDbLayerTableRecord
  2
connection
 70
     0
 62
    -7
  6
Continuous
370
    50
390
F
347
46
348
0
  0
ENDTAB
  0
TABLE
  2
STYLE
  5
3
330
0
100
AcDbSymbolTable
 70
     1
  0
STYLE
  5
11
330
3
100
AcDbSymbolTableRecord
100
AcDbTextStyleTableRecord
  2
Standard
 70
     0
 40
0.0
 41
1.0
 50
0.0
 71
     0
 42
2.5
  3
txt
  4

  0
ENDTAB
  0
TABLE
  2
VIEW
  5
6
330
0
100
AcDbSymbolTable
 70
     0
  0
ENDTAB
  0
TABLE
  2
UCS
  5
7
330
0
100
AcDbSymbolTable
 70
     0
  0
ENDTAB
  0
TABLE
  2
APPID
  5
9
330
0
100
AcDbSymbolTable
 70
     1
  0
APPID
  5
12
330
9
100
AcDbSymbolTableRecord
100
AcDbRegAppTableRecord
  2
ACAD
 70
     0
  0
ENDTAB
  0
TABLE
  2
DIMSTYLE
  5
A
330
0
100
AcDbSymbolTable
 70
     1
100
AcDbDimStyleTable
  0
DIMSTYLE
105
27
102
{ACAD_REACTORS
330
376
330
384
330
393
330
3A2
102
}
330
A
100
AcDbSymbolTableRecord
100
AcDbDimStyleTableRecord
  2
ISO-25
 70
     0
 41
2.5
 42
0.625
 43
3.75
 44
1.25
 73
     0
 74
     0
 77
     1
 78
     8
140
2.5
141
2.5
143
0.03937007874016
147
0.625
171
     3
172
     1
178
     0
271
     2
272
     2
274
     3
278
    44
283
     0
284
     8
340
11
  0
ENDTAB
  0
TABLE
  2
BLOCK_RECORD
  5
1
330
0
100
AcDbSymbolTable
 70
    14
  0
BLOCK_RECORD
  5
1F
330
1
100
AcDbSymbolTableRecord
100
AcDbBlockTableRecord
  2
*Model_Space
340
22
 70
     0
280
     1
281
     0
  0
BLOCK_RECORD
  5
1B
330
1
100
AcDbSymbolTableRecord
100
AcDbBlockTableRecord
  2
*Paper_Space
340
1E
 70
     0
280
     1
281
     0
  0
BLOCK_RECORD
  5
23
330
1
100
AcDbSymbolTableRecord
100
AcDbBlockTableRecord
  2
*Paper_Space0
340
26
 70
     0
280
     1
281
     0
  0
BLOCK_RECORD
  5
74
330
1
100
AcDbSymbolTableRecord
100
AcDbBlockTableRecord
  2
1_77009ACrossBoardSnap_in_1_0_in_33801_0
340
0
102
{BLKREFS
331
75
102
}
 70
     0
280
     1
281
     0
  0
BLOCK_RECORD
  5
8D
330
1
100
AcDbSymbolTableRecord
100
AcDbBlockTableRecord
  2
2_77009ACrossBoardSnap_in_2_0_in_33801_0
340
0
102
{BLKREFS
331
8E
102
}
 70
     0
280
     1
281
     0
  0
BLOCK_RECORD
  5
A4
330
1
100
AcDbSymbolTableRecord
100
AcDbBlockTableRecord
  2
3_77009ACrossBoardSnap_in_3_0_in_33801_0
340
0
102
{BLKREFS
331
A5
102
}
 70
     0
280
     1
281
     0
  0
BLOCK_RECORD
  5
BB
330
1
100
AcDbSymbolTableRecord
100
AcDbBlockTableRecord
  2
4_77009ACrossBoardSnap_in_4_0_in_33801_0
340
0
102
{BLKREFS
331
BC
102
}
 70
     0
280
     1
281
     0
  0
BLOCK_RECORD
  5
D2
330
1
100
AcDbSymbolTableRecord
100
AcDbBlockTableRecord
  2
5_77009ACrossBoardSnap_in_Box_1_0_in_33801_0
340
0
102
{BLKREFS
331
D3
102
}
 70
     0
280
     1
281
     0
  0
BLOCK_RECORD
  5
F6
330
1
100
AcDbSymbolTableRecord
100
AcDbBlockTableRecord
  2
6_77009ACrossBoardSnap_in_Box_2_0_in_33801_0
340
0
102
{BLKREFS
331
F7
102
}
 70
     0
280
     1
281
     0
  0
BLOCK_RECORD
  5
11A
330
1
100
AcDbSymbolTableRecord
100
AcDbBlockTableRecord
  2
7_Cover_0_in_33801_0
340
0
102
{BLKREFS
331
11B
102
}
 70
     0
280
     1
281
     0
  0
BLOCK_RECORD
  5
1E4
330
1
100
AcDbSymbolTableRecord
100
AcDbBlockTableRecord
  2
8_Housing_0_in_33801_0
340
0
102
{BLKREFS
331
1E5
102
}
 70
     0
280
     1
281
     0
  0
BLOCK_RECORD
  5
303
330
1
100
AcDbSymbolTableRecord
100
AcDbBlockTableRecord
  2
9_32619_old_0_in_33801_0
340
0
102
{BLKREFS
331
304
102
}
 70
     0
280
     1
281
     0
  0
BLOCK_RECORD
  5
378
330
1
100
AcDbSymbolTableRecord
100
AcDbBlockTableRecord
  2
*D10
340
0
 70
     0
280
     1
281
     0
  0
BLOCK_RECORD
  5
385
330
1
100
AcDbSymbolTableRecord
100
AcDbBlockTableRecord
  2
*D11
340
0
 70
     0
280
     1
281
     0
  0
BLOCK_RECORD
  5
394
330
1
100
AcDbSymbolTableRecord
100
AcDbBlockTableRecord
  2
*D12
340
0
 70
     0
280
     1
281
     0
  0
BLOCK_RECORD
  5
3A3
330
1
100
AcDbSymbolTableRecord
100
AcDbBlockTableRecord
  2
*D13
340
0
 70
     0
280
     1
281
     0
  0
ENDTAB
  0
ENDSEC
  0
SECTION
  2
BLOCKS
  0
BLOCK
  5
20
330
1F
100
AcDbEntity
  8
0
100
AcDbBlockBegin
  2
*Model_Space
 70
     2
 10
0.0
 20
0.0
 30
0.0
  3
*Model_Space
  1

  0
ENDBLK
  5
21
330
1F
100
AcDbEntity
  8
0
100
AcDbBlockEnd
  0
BLOCK
  5
1C
330
1B
100
AcDbEntity
 67
     1
  8
0
100
AcDbBlockBegin
  2
*Paper_Space
 70
     0
 10
0.0
 20
0.0
 30
0.0
  3
*Paper_Space
  1

  0
ENDBLK
  5
1D
330
1B
100
AcDbEntity
 67
     1
  8
0
100
AcDbBlockEnd
  0
BLOCK
  5
24
330
23
100
AcDbEntity
  8
0
100
AcDbBlockBegin
  2
*Paper_Space0
 70
     0
 10
0.0
 20
0.0
 30
0.0
  3
*Paper_Space0
  1

  0
ENDBLK
  5
25
330
23
100
AcDbEntity
  8
0
100
AcDbBlockEnd
  0
BLOCK
  5
76
330
74
100
AcDbEntity
  8
0
100
AcDbBlockBegin
  2
1_77009ACrossBoardSnap_in_1_0_in_33801_0
 70
     2
 10
0.0
 20
0.0
 30
0.0
  3
1_77009ACrossBoardSnap_in_1_0_in_33801_0
  1

  0
ATTDEF
  5
78
330
74
100
AcDbEntity
  8
attrib
100
AcDbText
 10
17.25000000000002
 20
-94.4
 30
0.0
 40
0.5
  1
77009ACrossBoardSnap-in
100
AcDbAttributeDefinition
  3

  2
NB
 70
     8
280
     0
  0
ATTDEF
  5
79
330
74
100
AcDbEntity
  8
attrib
100
AcDbText
 10
17.25000000000002
 20
-94.9
 30
0.0
 40
0.5
  1
32668 Snap-in
100
AcDbAttributeDefinition
  3

  2
NN
 70
     8
280
     0
  0
ATTDEF
  5
7A
330
74
100
AcDbEntity
  8
attrib
100
AcDbText
 10
17.25000000000002
 20
-95.4
 30
0.0
 40
0.5
  1

100
AcDbAttributeDefinition
  3

  2
NT
 70
     8
280
     0
  0
ATTDEF
  5
7B
330
74
100
AcDbEntity
  8
attrib
100
AcDbText
 10
17.25000000000002
 20
-95.9
 30
0.0
 40
0.5
  1
$ARTNR.$SYSTEM.$MODEL.
100
AcDbAttributeDefinition
  3

  2
NBSYN
 70
     8
280
     0
  0
ATTDEF
  5
7C
330
74
100
AcDbEntity
  8
attrib
100
AcDbText
 10
17.25000000000002
 20
-96.4
 30
0.0
 40
0.5
  1
77009A
100
AcDbAttributeDefinition
  3

  2
LINA
 70
     8
280
     0
  0
ATTDEF
  5
7D
330
74
100
AcDbEntity
  8
attrib
100
AcDbText
 10
17.25000000000002
 20
-96.9
 30
0.0
 40
0.5
  1
Wöhner
100
AcDbAttributeDefinition
  3

  2
CATALOG
 70
     8
280
     0
  0
ATTDEF
  5
7E
330
74
100
AcDbEntity
  8
attrib
100
AcDbText
 10
17.25000000000002
 20
-97.4
 30
0.0
 40
0.5
  1
77009A
100
AcDbAttributeDefinition
  3

  2
ARTNR
 70
     8
280
     0
  0
ATTDEF
  5
7F
330
74
100
AcDbEntity
  8
attrib
100
AcDbText
 10
17.25000000000002
 20
-97.9
 30
0.0
 40
0.5
  1
CrossBoard
100
AcDbAttributeDefinition
  3

  2
SYSTEM
 70
     8
280
     0
  0
ATTDEF
  5
80
330
74
100
AcDbEntity
  8
attrib
100
AcDbText
 10
17.25000000000002
 20
-98.4
 30
0.0
 40
0.5
  1
Snap-in
100
AcDbAttributeDefinition
  3

  2
MODEL
 70
     8
280
     0
  0
ATTDEF
  5
81
330
74
100
AcDbEntity
  8
attrib
100
AcDbText
 10
17.25000000000002
 20
-98.9
 30
0.0
 40
0.5
  1
woehner
100
AcDbAttributeDefinition
  3

  2
COMPANY
 70
     8
280
     0
  0
ATTDEF
  5
82
330
74
100
AcDbEntity
  8
attrib
100
AcDbText
 10
17.25000000000002
 20
-99.4
 30
0.0
 40
0.5
  1
{$CADENAS_DATA/23d-libs/woehner/sys_crossboard/parts/32668_snap_in.prj},176 {VTYP=3D},{NB=77009ACrossBoardSnap-in},{LINA=77009A},{NN=32668 Snap-in},{DATE=18.11.2022 09:04:08},{GEOMDATE=26.01.2022 13:21:00},{VERSION=},{LINEID=10},{WBVAR=},{WBNUMERIC=}  {NB
100
AcDbAttributeDefinition
  3

  2
PSOL_0
 70
     9
280
     0
  0
ATTDEF
  5
83
330
74
100
AcDbEntity
  8
attrib
100
AcDbText
 10
17.25000000000002
 20
-99.9
 30
0.0
 40
0.5
  1
=77009ACrossBoardSnap-in},{LINA=77009A},{KT=DUMMY},{ARTNR=77009A},{SYSTEM=CrossBoard},{MODEL=Snap-in}
100
AcDbAttributeDefinition
  3

  2
PSOL_1
 70
     9
280
     0
  0
LINE
  5
86
330
74
100
AcDbEntity
  8
hidden
100
AcDbLine
 10
12.25000000000002
 20
-97.143
 30
0.0
 11
10.25000000000002
 21
-97.143
 31
0.0
  0
LINE
  5
87
330
74
100
AcDbEntity
  8
hidden
100
AcDbLine
 10
12.25000000000002
 20
-98.40000000000002
 30
0.0
 11
10.25000000000002
 21
-98.40000000000002
 31
0.0
  0
LINE
  5
88
330
74
100
AcDbEntity
  8
hidden
100
AcDbLine
 10
10.25000000000002
 20
-94.4
 30
0.0
 11
10.25000000000002
 21
-100.9
 31
0.0
  0
LINE
  5
89
330
74
100
AcDbEntity
  8
hidden
100
AcDbLine
 10
12.25000000000002
 20
-94.4
 30
0.0
 11
12.25000000000002
 21
-100.9
 31
0.0
  0
LINE
  5
8A
330
74
100
AcDbEntity
  8
hidden
100
AcDbLine
 10
12.25000000000002
 20
-100.9
 30
0.0
 11
10.25000000000002
 21
-100.9
 31
0.0
  0
LINE
  5
8B
330
74
100
AcDbEntity
  8
hidden
100
AcDbLine
 10
12.25000000000002
 20
-98.90000000000002
 30
0.0
 11
10.25000000000002
 21
-98.90000000000002
 31
0.0
  0
LINE
  5
8C
330
74
100
AcDbEntity
  8
hidden
100
AcDbLine
 10
12.25000000000002
 20
-94.4
 30
0.0
 11
10.25000000000002
 21
-94.4
 31
0.0
  0
ENDBLK
  5
77
330
74
100
AcDbEntity
  8
0
100
AcDbBlockEnd
  0
BLOCK
  5
8F
330
8D
100
AcDbEntity
  8
0
100
AcDbBlockBegin
  2
2_77009ACrossBoardSnap_in_2_0_in_33801_0
 70
     2
 10
0.0
 20
0.0
 30
0.0
  3
2_77009ACrossBoardSnap_in_2_0_in_33801_0
  1

  0
ATTDEF
  5
91
330
8D
100
AcDbEntity
  8
attrib
100
AcDbText
 10
17.25000000000002
 20
-36.5
 30
0.0
 40
0.5
  1
77009ACrossBoardSnap-in
100
AcDbAttributeDefinition
  3

  2
NB
 70
     8
280
     0
  0
ATTDEF
  5
92
330
8D
100
AcDbEntity
  8
attrib
100
AcDbText
 10
17.25000000000002
 20
-37.0
 30
0.0
 40
0.5
  1
32668 Snap-in
100
AcDbAttributeDefinition
  3

  2
NN
 70
     8
280
     0
  0
ATTDEF
  5
93
330
8D
100
AcDbEntity
  8
attrib
100
AcDbText
 10
17.25000000000002
 20
-37.5
 30
0.0
 40
0.5
  1

100
AcDbAttributeDefinition
  3

  2
NT
 70
     8
280
     0
  0
ATTDEF
  5
94
330
8D
100
AcDbEntity
  8
attrib
100
AcDbText
 10
17.25000000000002
 20
-38.0
 30
0.0
 40
0.5
  1
$ARTNR.$SYSTEM.$MODEL.
100
AcDbAttributeDefinition
  3

  2
NBSYN
 70
     8
280
     0
  0
ATTDEF
  5
95
330
8D
100
AcDbEntity
  8
attrib
100
AcDbText
 10
17.25000000000002
 20
-38.5
 30
0.0
 40
0.5
  1
77009A
100
AcDbAttributeDefinition
  3

  2
LINA
 70
     8
280
     0
  0
ATTDEF
  5
96
330
8D
100
AcDbEntity
  8
attrib
100
AcDbText
 10
17.25000000000002
 20
-39.0
 30
0.0
 40
0.5
  1
Wöhner
100
AcDbAttributeDefinition
  3

  2
CATALOG
 70
     8
280
     0
  0
ATTDEF
  5
97
330
8D
100
AcDbEntity
  8
attrib
100
AcDbText
 10
17.25000000000002
 20
-39.5
 30
0.0
 40
0.5
  1
77009A
100
AcDbAttributeDefinition
  3

  2
ARTNR
 70
     8
280
     0
  0
ATTDEF
  5
98
330
8D
100
AcDbEntity
  8
attrib
100
AcDbText
 10
17.25000000000002
 20
-40.0
 30
0.0
 40
0.5
  1
CrossBoard
100
AcDbAttributeDefinition
  3

  2
SYSTEM
 70
     8
280
     0
  0
ATTDEF
  5
99
330
8D
100
AcDbEntity
  8
attrib
100
AcDbText
 10
17.25000000000002
 20
-40.5
 30
0.0
 40
0.5
  1
Snap-in
100
AcDbAttributeDefinition
  3

  2
MODEL
 70
     8
280
     0
  0
ATTDEF
  5
9A
330
8D
100
AcDbEntity
  8
attrib
100
AcDbText
 10
17.25000000000002
 20
-41.0
 30
0.0
 40
0.5
  1
woehner
100
AcDbAttributeDefinition
  3

  2
COMPANY
 70
     8
280
     0
  0
ATTDEF
  5
9B
330
8D
100
AcDbEntity
  8
attrib
100
AcDbText
 10
17.25000000000002
 20
-41.5
 30
0.0
 40
0.5
  1
{$CADENAS_DATA/23d-libs/woehner/sys_crossboard/parts/32668_snap_in.prj},176 {VTYP=3D},{NB=77009ACrossBoardSnap-in},{LINA=77009A},{NN=32668 Snap-in},{DATE=18.11.2022 09:04:08},{GEOMDATE=26.01.2022 13:21:00},{VERSION=},{LINEID=10},{WBVAR=},{WBNUMERIC=}  {NB
100
AcDbAttributeDefinition
  3

  2
PSOL_0
 70
     9
280
     0
  0
ATTDEF
  5
9C
330
8D
100
AcDbEntity
  8
attrib
100
AcDbText
 10
17.25000000000002
 20
-42.0
 30
0.0
 40
0.5
  1
=77009ACrossBoardSnap-in},{LINA=77009A},{KT=DUMMY},{ARTNR=77009A},{SYSTEM=CrossBoard},{MODEL=Snap-in}
100
AcDbAttributeDefinition
  3

  2
PSOL_1
 70
     9
280
     0
  0
LINE
  5
9D
330
8D
100
AcDbEntity
  8
hidden
100
AcDbLine
 10
12.25000000000002
 20
-39.243
 30
0.0
 11
10.25000000000002
 21
-39.243
 31
0.0
  0
LINE
  5
9E
330
8D
100
AcDbEntity
  8
hidden
100
AcDbLine
 10
12.25000000000002
 20
-40.5
 30
0.0
 11
10.25000000000002
 21
-40.5
 31
0.0
  0
LINE
  5
9F
330
8D
100
AcDbEntity
  8
hidden
100
AcDbLine
 10
12.25000000000002
 20
-36.5
 30
0.0
 11
12.25000000000002
 21
-43.0
 31
0.0
  0
LINE
  5
A0
330
8D
100
AcDbEntity
  8
hidden
100
AcDbLine
 10
10.25000000000002
 20
-36.5
 30
0.0
 11
10.25000000000002
 21
-43.0
 31
0.0
  0
LINE
  5
A1
330
8D
100
AcDbEntity
  8
hidden
100
AcDbLine
 10
12.25000000000002
 20
-43.0
 30
0.0
 11
10.25000000000002
 21
-43.0
 31
0.0
  0
LINE
  5
A2
330
8D
100
AcDbEntity
  8
hidden
100
AcDbLine
 10
12.25000000000002
 20
-41.0
 30
0.0
 11
10.25000000000002
 21
-41.0
 31
0.0
  0
LINE
  5
A3
330
8D
100
AcDbEntity
  8
hidden
100
AcDbLine
 10
12.25000000000002
 20
-36.5
 30
0.0
 11
10.25000000000002
 21
-36.5
 31
0.0
  0
ENDBLK
  5
90
330
8D
100
AcDbEntity
  8
0
100
AcDbBlockEnd
  0
BLOCK
  5
A6
330
A4
100
AcDbEntity
  8
0
100
AcDbBlockBegin
  2
3_77009ACrossBoardSnap_in_3_0_in_33801_0
 70
     2
 10
0.0
 20
0.0
 30
0.0
  3
3_77009ACrossBoardSnap_in_3_0_in_33801_0
  1

  0
ATTDEF
  5
A8
330
A4
100
AcDbEntity
  8
attrib
100
AcDbText
 10
39.75000000000002
 20
-94.4
 30
0.0
 40
0.5
  1
77009ACrossBoardSnap-in
100
AcDbAttributeDefinition
  3

  2
NB
 70
     8
280
     0
  0
ATTDEF
  5
A9
330
A4
100
AcDbEntity
  8
attrib
100
AcDbText
 10
39.75000000000002
 20
-94.9
 30
0.0
 40
0.5
  1
32668 Snap-in
100
AcDbAttributeDefinition
  3

  2
NN
 70
     8
280
     0
  0
ATTDEF
  5
AA
330
A4
100
AcDbEntity
  8
attrib
100
AcDbText
 10
39.75000000000002
 20
-95.4
 30
0.0
 40
0.5
  1

100
AcDbAttributeDefinition
  3

  2
NT
 70
     8
280
     0
  0
ATTDEF
  5
AB
330
A4
100
AcDbEntity
  8
attrib
100
AcDbText
 10
39.75000000000002
 20
-95.9
 30
0.0
 40
0.5
  1
$ARTNR.$SYSTEM.$MODEL.
100
AcDbAttributeDefinition
  3

  2
NBSYN
 70
     8
280
     0
  0
ATTDEF
  5
AC
330
A4
100
AcDbEntity
  8
attrib
100
AcDbText
 10
39.75000000000002
 20
-96.4
 30
0.0
 40
0.5
  1
77009A
100
AcDbAttributeDefinition
  3

  2
LINA
 70
     8
280
     0
  0
ATTDEF
  5
AD
330
A4
100
AcDbEntity
  8
attrib
100
AcDbText
 10
39.75000000000002
 20
-96.9
 30
0.0
 40
0.5
  1
Wöhner
100
AcDbAttributeDefinition
  3

  2
CATALOG
 70
     8
280
     0
  0
ATTDEF
  5
AE
330
A4
100
AcDbEntity
  8
attrib
100
AcDbText
 10
39.75000000000002
 20
-97.4
 30
0.0
 40
0.5
  1
77009A
100
AcDbAttributeDefinition
  3

  2
ARTNR
 70
     8
280
     0
  0
ATTDEF
  5
AF
330
A4
100
AcDbEntity
  8
attrib
100
AcDbText
 10
39.75000000000002
 20
-97.9
 30
0.0
 40
0.5
  1
CrossBoard
100
AcDbAttributeDefinition
  3

  2
SYSTEM
 70
     8
280
     0
  0
ATTDEF
  5
B0
330
A4
100
AcDbEntity
  8
attrib
100
AcDbText
 10
39.75000000000002
 20
-98.4
 30
0.0
 40
0.5
  1
Snap-in
100
AcDbAttributeDefinition
  3

  2
MODEL
 70
     8
280
     0
  0
ATTDEF
  5
B1
330
A4
100
AcDbEntity
  8
attrib
100
AcDbText
 10
39.75000000000002
 20
-98.9
 30
0.0
 40
0.5
  1
woehner
100
AcDbAttributeDefinition
  3

  2
COMPANY
 70
     8
280
     0
  0
ATTDEF
  5
B2
330
A4
100
AcDbEntity
  8
attrib
100
AcDbText
 10
39.75000000000002
 20
-99.4
 30
0.0
 40
0.5
  1
{$CADENAS_DATA/23d-libs/woehner/sys_crossboard/parts/32668_snap_in.prj},176 {VTYP=3D},{NB=77009ACrossBoardSnap-in},{LINA=77009A},{NN=32668 Snap-in},{DATE=18.11.2022 09:04:08},{GEOMDATE=26.01.2022 13:21:00},{VERSION=},{LINEID=10},{WBVAR=},{WBNUMERIC=}  {NB
100
AcDbAttributeDefinition
  3

  2
PSOL_0
 70
     9
280
     0
  0
ATTDEF
  5
B3
330
A4
100
AcDbEntity
  8
attrib
100
AcDbText
 10
39.75000000000002
 20
-99.9
 30
0.0
 40
0.5
  1
=77009ACrossBoardSnap-in},{LINA=77009A},{KT=DUMMY},{ARTNR=77009A},{SYSTEM=CrossBoard},{MODEL=Snap-in}
100
AcDbAttributeDefinition
  3

  2
PSOL_1
 70
     9
280
     0
  0
LINE
  5
B4
330
A4
100
AcDbEntity
  8
hidden
100
AcDbLine
 10
34.75000000000002
 20
-97.143
 30
0.0
 11
32.75000000000002
 21
-97.143
 31
0.0
  0
LINE
  5
B5
330
A4
100
AcDbEntity
  8
hidden
100
AcDbLine
 10
34.75000000000002
 20
-98.40000000000002
 30
0.0
 11
32.75000000000002
 21
-98.40000000000002
 31
0.0
  0
LINE
  5
B6
330
A4
100
AcDbEntity
  8
hidden
100
AcDbLine
 10
34.75000000000002
 20
-94.4
 30
0.0
 11
34.75000000000002
 21
-100.9
 31
0.0
  0
LINE
  5
B7
330
A4
100
AcDbEntity
  8
hidden
100
AcDbLine
 10
32.75000000000002
 20
-94.4
 30
0.0
 11
32.75000000000002
 21
-100.9
 31
0.0
  0
LINE
  5
B8
330
A4
100
AcDbEntity
  8
hidden
100
AcDbLine
 10
34.75000000000002
 20
-100.9
 30
0.0
 11
32.75000000000002
 21
-100.9
 31
0.0
  0
LINE
  5
B9
330
A4
100
AcDbEntity
  8
hidden
100
AcDbLine
 10
34.75000000000002
 20
-94.4
 30
0.0
 11
32.75000000000002
 21
-94.4
 31
0.0
  0
LINE
  5
BA
330
A4
100
AcDbEntity
  8
hidden
100
AcDbLine
 10
34.75000000000002
 20
-98.90000000000002
 30
0.0
 11
32.75000000000002
 21
-98.90000000000002
 31
0.0
  0
ENDBLK
  5
A7
330
A4
100
AcDbEntity
  8
0
100
AcDbBlockEnd
  0
BLOCK
  5
BD
330
BB
100
AcDbEntity
  8
0
100
AcDbBlockBegin
  2
4_77009ACrossBoardSnap_in_4_0_in_33801_0
 70
     2
 10
0.0
 20
0.0
 30
0.0
  3
4_77009ACrossBoardSnap_in_4_0_in_33801_0
  1

  0
ATTDEF
  5
BF
330
BB
100
AcDbEntity
  8
attrib
100
AcDbText
 10
39.75000000000002
 20
-36.5
 30
0.0
 40
0.5
  1
77009ACrossBoardSnap-in
100
AcDbAttributeDefinition
  3

  2
NB
 70
     8
280
     0
  0
ATTDEF
  5
C0
330
BB
100
AcDbEntity
  8
attrib
100
AcDbText
 10
39.75000000000002
 20
-37.0
 30
0.0
 40
0.5
  1
32668 Snap-in
100
AcDbAttributeDefinition
  3

  2
NN
 70
     8
280
     0
  0
ATTDEF
  5
C1
330
BB
100
AcDbEntity
  8
attrib
100
AcDbText
 10
39.75000000000002
 20
-37.5
 30
0.0
 40
0.5
  1

100
AcDbAttributeDefinition
  3

  2
NT
 70
     8
280
     0
  0
ATTDEF
  5
C2
330
BB
100
AcDbEntity
  8
attrib
100
AcDbText
 10
39.75000000000002
 20
-38.0
 30
0.0
 40
0.5
  1
$ARTNR.$SYSTEM.$MODEL.
100
AcDbAttributeDefinition
  3

  2
NBSYN
 70
     8
280
     0
  0
ATTDEF
  5
C3
330
BB
100
AcDbEntity
  8
attrib
100
AcDbText
 10
39.75000000000002
 20
-38.5
 30
0.0
 40
0.5
  1
77009A
100
AcDbAttributeDefinition
  3

  2
LINA
 70
     8
280
     0
  0
ATTDEF
  5
C4
330
BB
100
AcDbEntity
  8
attrib
100
AcDbText
 10
39.75000000000002
 20
-39.0
 30
0.0
 40
0.5
  1
Wöhner
100
AcDbAttributeDefinition
  3

  2
CATALOG
 70
     8
280
     0
  0
ATTDEF
  5
C5
330
BB
100
AcDbEntity
  8
attrib
100
AcDbText
 10
39.75000000000002
 20
-39.5
 30
0.0
 40
0.5
  1
77009A
100
AcDbAttributeDefinition
  3

  2
ARTNR
 70
     8
280
     0
  0
ATTDEF
  5
C6
330
BB
100
AcDbEntity
  8
attrib
100
AcDbText
 10
39.75000000000002
 20
-40.0
 30
0.0
 40
0.5
  1
CrossBoard
100
AcDbAttributeDefinition
  3

  2
SYSTEM
 70
     8
280
     0
  0
ATTDEF
  5
C7
330
BB
100
AcDbEntity
  8
attrib
100
AcDbText
 10
39.75000000000002
 20
-40.5
 30
0.0
 40
0.5
  1
Snap-in
100
AcDbAttributeDefinition
  3

  2
MODEL
 70
     8
280
     0
  0
ATTDEF
  5
C8
330
BB
100
AcDbEntity
  8
attrib
100
AcDbText
 10
39.75000000000002
 20
-41.0
 30
0.0
 40
0.5
  1
woehner
100
AcDbAttributeDefinition
  3

  2
COMPANY
 70
     8
280
     0
  0
ATTDEF
  5
C9
330
BB
100
AcDbEntity
  8
attrib
100
AcDbText
 10
39.75000000000002
 20
-41.5
 30
0.0
 40
0.5
  1
{$CADENAS_DATA/23d-libs/woehner/sys_crossboard/parts/32668_snap_in.prj},176 {VTYP=3D},{NB=77009ACrossBoardSnap-in},{LINA=77009A},{NN=32668 Snap-in},{DATE=18.11.2022 09:04:08},{GEOMDATE=26.01.2022 13:21:00},{VERSION=},{LINEID=10},{WBVAR=},{WBNUMERIC=}  {NB
100
AcDbAttributeDefinition
  3

  2
PSOL_0
 70
     9
280
     0
  0
ATTDEF
  5
CA
330
BB
100
AcDbEntity
  8
attrib
100
AcDbText
 10
39.75000000000002
 20
-42.0
 30
0.0
 40
0.5
  1
=77009ACrossBoardSnap-in},{LINA=77009A},{KT=DUMMY},{ARTNR=77009A},{SYSTEM=CrossBoard},{MODEL=Snap-in}
100
AcDbAttributeDefinition
  3

  2
PSOL_1
 70
     9
280
     0
  0
LINE
  5
CB
330
BB
100
AcDbEntity
  8
hidden
100
AcDbLine
 10
34.75000000000002
 20
-39.243
 30
0.0
 11
32.75000000000002
 21
-39.243
 31
0.0
  0
LINE
  5
CC
330
BB
100
AcDbEntity
  8
hidden
100
AcDbLine
 10
34.75000000000002
 20
-40.5
 30
0.0
 11
32.75000000000002
 21
-40.5
 31
0.0
  0
LINE
  5
CD
330
BB
100
AcDbEntity
  8
hidden
100
AcDbLine
 10
34.75000000000002
 20
-36.5
 30
0.0
 11
34.75000000000002
 21
-43.0
 31
0.0
  0
LINE
  5
CE
330
BB
100
AcDbEntity
  8
hidden
100
AcDbLine
 10
32.75000000000002
 20
-36.5
 30
0.0
 11
32.75000000000002
 21
-43.0
 31
0.0
  0
LINE
  5
CF
330
BB
100
AcDbEntity
  8
hidden
100
AcDbLine
 10
34.75000000000002
 20
-43.0
 30
0.0
 11
32.75000000000002
 21
-43.0
 31
0.0
  0
LINE
  5
D0
330
BB
100
AcDbEntity
  8
hidden
100
AcDbLine
 10
34.75000000000002
 20
-41.0
 30
0.0
 11
32.75000000000002
 21
-41.0
 31
0.0
  0
LINE
  5
D1
330
BB
100
AcDbEntity
  8
hidden
100
AcDbLine
 10
34.75000000000002
 20
-36.5
 30
0.0
 11
32.75000000000002
 21
-36.5
 31
0.0
  0
ENDBLK
  5
BE
330
BB
100
AcDbEntity
  8
0
100
AcDbBlockEnd
  0
BLOCK
  5
D4
330
D2
100
AcDbEntity
  8
0
100
AcDbBlockBegin
  2
5_77009ACrossBoardSnap_in_Box_1_0_in_33801_0
 70
     2
 10
0.0
 20
0.0
 30
0.0
  3
5_77009ACrossBoardSnap_in_Box_1_0_in_33801_0
  1

  0
ATTDEF
  5
D6
330
D2
100
AcDbEntity
  8
attrib
100
AcDbText
 10
27.00000000000002
 20
13.69999999999999
 30
0.0
 40
0.5
  1
77009ACrossBoardSnap-in Box
100
AcDbAttributeDefinition
  3

  2
NB
 70
     8
280
     0
  0
ATTDEF
  5
D7
330
D2
100
AcDbEntity
  8
attrib
100
AcDbText
 10
27.00000000000002
 20
13.19999999999999
 30
0.0
 40
0.5
  1
32668 Snap-in Box
100
AcDbAttributeDefinition
  3

  2
NN
 70
     8
280
     0
  0
ATTDEF
  5
D8
330
D2
100
AcDbEntity
  8
attrib
100
AcDbText
 10
27.00000000000002
 20
12.69999999999999
 30
0.0
 40
0.5
  1

100
AcDbAttributeDefinition
  3

  2
NT
 70
     8
280
     0
  0
ATTDEF
  5
D9
330
D2
100
AcDbEntity
  8
attrib
100
AcDbText
 10
27.00000000000002
 20
12.19999999999999
 30
0.0
 40
0.5
  1
$ARTNR.$SYSTEM.$MODEL.
100
AcDbAttributeDefinition
  3

  2
NBSYN
 70
     8
280
     0
  0
ATTDEF
  5
DA
330
D2
100
AcDbEntity
  8
attrib
100
AcDbText
 10
27.00000000000002
 20
11.69999999999999
 30
0.0
 40
0.5
  1
77009A
100
AcDbAttributeDefinition
  3

  2
LINA
 70
     8
280
     0
  0
ATTDEF
  5
DB
330
D2
100
AcDbEntity
  8
attrib
100
AcDbText
 10
27.00000000000002
 20
11.19999999999999
 30
0.0
 40
0.5
  1
Wöhner
100
AcDbAttributeDefinition
  3

  2
CATALOG
 70
     8
280
     0
  0
ATTDEF
  5
DC
330
D2
100
AcDbEntity
  8
attrib
100
AcDbText
 10
27.00000000000002
 20
10.69999999999999
 30
0.0
 40
0.5
  1
77009A
100
AcDbAttributeDefinition
  3

  2
ARTNR
 70
     8
280
     0
  0
ATTDEF
  5
DD
330
D2
100
AcDbEntity
  8
attrib
100
AcDbText
 10
27.00000000000002
 20
10.19999999999999
 30
0.0
 40
0.5
  1
CrossBoard
100
AcDbAttributeDefinition
  3

  2
SYSTEM
 70
     8
280
     0
  0
ATTDEF
  5
DE
330
D2
100
AcDbEntity
  8
attrib
100
AcDbText
 10
27.00000000000002
 20
9.699999999999989
 30
0.0
 40
0.5
  1
Snap-in Box
100
AcDbAttributeDefinition
  3

  2
MODEL
 70
     8
280
     0
  0
ATTDEF
  5
DF
330
D2
100
AcDbEntity
  8
attrib
100
AcDbText
 10
27.00000000000002
 20
9.199999999999989
 30
0.0
 40
0.5
  1
woehner
100
AcDbAttributeDefinition
  3

  2
COMPANY
 70
     8
280
     0
  0
ATTDEF
  5
E0
330
D2
100
AcDbEntity
  8
attrib
100
AcDbText
 10
27.00000000000002
 20
8.699999999999989
 30
0.0
 40
0.5
  1
{$CADENAS_DATA/23d-libs/woehner/sys_crossboard/parts/32668_snap_in_box.prj},184 {VTYP=3D},{NB=77009ACrossBoardSnap-in Box},{LINA=77009A},{NN=32668 Snap-in Box},{DATE=18.11.2022 09:04:08},{GEOMDATE=04.04.2022 06:08:00},{VERSION=},{LINEID=10},{WBVAR=},{WBNU
100
AcDbAttributeDefinition
  3

  2
PSOL_0
 70
     9
280
     0
  0
ATTDEF
  5
E1
330
D2
100
AcDbEntity
  8
attrib
100
AcDbText
 10
27.00000000000002
 20
8.199999999999989
 30
0.0
 40
0.5
  1
MERIC=}  {NB=77009ACrossBoardSnap-in Box},{LINA=77009A},{KT=DUMMY},{ARTNR=77009A},{SYSTEM=CrossBoard},{MODEL=Snap-in Box}
100
AcDbAttributeDefinition
  3

  2
PSOL_1
 70
     9
280
     0
  0
LINE
  5
E2
330
D2
100
AcDbEntity
  8
hidden
100
AcDbLine
 10
9.000000000000021
 20
7.199999999999988
 30
0.0
 11
9.000000000000021
 21
13.69999999999999
 31
0.0
  0
LINE
  5
E3
330
D2
100
AcDbEntity
  8
hidden
100
AcDbLine
 10
21.50000000000002
 20
13.69999999999999
 30
0.0
 11
21.50000000000002
 21
7.199999999999988
 31
0.0
  0
LINE
  5
E4
330
D2
100
AcDbEntity
  8
hidden
100
AcDbLine
 10
22.00000000000002
 20
13.19999999999999
 30
0.0
 11
8.500000000000023
 21
13.19999999999999
 31
0.0
  0
LINE
  5
E5
330
D2
100
AcDbEntity
  8
hidden
100
AcDbLine
 10
8.500000000000021
 20
7.199999999999988
 30
0.0
 11
22.00000000000002
 21
7.199999999999988
 31
0.0
  0
ARC
  5
E6
330
D2
100
AcDbEntity
  8
hidden
100
AcDbCircle
 10
9.000000000000027
 20
8.199999999999992
 30
0.0
 40
0.5000000000000053
100
AcDbArc
 50
180.0000000000004
 51
269.9999999999994
  0
ARC
  5
E7
330
D2
100
AcDbEntity
  8
hidden
100
AcDbCircle
 10
21.50000000000002
 20
8.19999999999999
 30
0.0
 40
0.5000000000000027
100
AcDbArc
 50
270.0
 51
359.9999999999998
  0
ARC
  5
E8
330
D2
100
AcDbEntity
  8
hidden
100
AcDbCircle
 10
11.00000000000003
 20
11.69999999999998
 30
0.0
 40
0.5000000000000071
100
AcDbArc
 50
90.00000000000102
 51
179.9999999999991
  0
LINE
  5
E9
330
D2
100
AcDbEntity
  8
hidden
100
AcDbLine
 10
10.50000000000002
 20
11.69999999999999
 30
0.0
 11
10.50000000000002
 21
10.19999999999999
 31
0.0
  0
ARC
  5
EA
330
D2
100
AcDbEntity
  8
hidden
100
AcDbCircle
 10
19.50000000000002
 20
10.19999999999999
 30
0.0
 40
0.4999999999999964
100
AcDbArc
 50
270.0000000000004
 51
0.0000000000004071
  0
LINE
  5
EB
330
D2
100
AcDbEntity
  8
hidden
100
AcDbLine
 10
21.50000000000002
 20
7.699999999999988
 30
0.0
 11
9.000000000000021
 21
7.699999999999988
 31
0.0
  0
ARC
  5
EC
330
D2
100
AcDbEntity
  8
hidden
100
AcDbCircle
 10
21.50000000000002
 20
13.19999999999999
 30
0.0
 40
0.5
100
AcDbArc
 50
0.0000000000002036
 51
90.0
  0
LINE
  5
ED
330
D2
100
AcDbEntity
  8
hidden
100
AcDbLine
 10
11.00000000000002
 20
9.699999999999989
 30
0.0
 11
19.50000000000002
 21
9.699999999999989
 31
0.0
  0
ARC
  5
EE
330
D2
100
AcDbEntity
  8
hidden
100
AcDbCircle
 10
11.00000000000002
 20
10.19999999999999
 30
0.0
 40
0.5
100
AcDbArc
 50
179.9999999999998
 51
269.9999999999998
  0
LINE
  5
EF
330
D2
100
AcDbEntity
  8
hidden
100
AcDbLine
 10
8.500000000000021
 20
11.15000000000002
 30
0.0
 11
8.500000000000021
 21
7.199999999999988
 31
0.0
  0
ARC
  5
F0
330
D2
100
AcDbEntity
  8
hidden
100
AcDbCircle
 10
19.50000000000002
 20
11.69999999999999
 30
0.0
 40
0.5
100
AcDbArc
 50
359.9999999999996
 51
89.99999999999957
  0
LINE
  5
F1
330
D2
100
AcDbEntity
  8
hidden
100
AcDbLine
 10
20.00000000000002
 20
10.19999999999999
 30
0.0
 11
20.00000000000002
 21
11.69999999999999
 31
0.0
  0
LINE
  5
F2
330
D2
100
AcDbEntity
  8
hidden
100
AcDbLine
 10
19.50000000000002
 20
12.19999999999999
 30
0.0
 11
11.00000000000002
 21
12.19999999999999
 31
0.0
  0
LINE
  5
F3
330
D2
100
AcDbEntity
  8
hidden
100
AcDbLine
 10
22.00000000000002
 20
7.199999999999988
 30
0.0
 11
22.00000000000002
 21
13.19999999999999
 31
0.0
  0
LINE
  5
F4
330
D2
100
AcDbEntity
  8
hidden
100
AcDbLine
 10
21.50000000000002
 20
13.69999999999999
 30
0.0
 11
9.000000000000021
 21
13.69999999999999
 31
0.0
  0
ARC
  5
F5
330
D2
100
AcDbEntity
  8
hidden
100
AcDbCircle
 10
9.000000000000023
 20
13.19999999999999
 30
0.0
 40
0.4999999999999982
100
AcDbArc
 50
90.0000000000002
 51
180.0000000000002
  0
ENDBLK
  5
D5
330
D2
100
AcDbEntity
  8
0
100
AcDbBlockEnd
  0
BLOCK
  5
F8
330
F6
100
AcDbEntity
  8
0
100
AcDbBlockBegin
  2
6_77009ACrossBoardSnap_in_Box_2_0_in_33801_0
 70
     2
 10
0.0
 20
0.0
 30
0.0
  3
6_77009ACrossBoardSnap_in_Box_2_0_in_33801_0
  1

  0
ATTDEF
  5
FA
330
F6
100
AcDbEntity
  8
attrib
100
AcDbText
 10
41.50000000000003
 20
13.69999999999999
 30
0.0
 40
0.5
  1
77009ACrossBoardSnap-in Box
100
AcDbAttributeDefinition
  3

  2
NB
 70
     8
280
     0
  0
ATTDEF
  5
FB
330
F6
100
AcDbEntity
  8
attrib
100
AcDbText
 10
41.50000000000003
 20
13.19999999999999
 30
0.0
 40
0.5
  1
32668 Snap-in Box
100
AcDbAttributeDefinition
  3

  2
NN
 70
     8
280
     0
  0
ATTDEF
  5
FC
330
F6
100
AcDbEntity
  8
attrib
100
AcDbText
 10
41.50000000000003
 20
12.69999999999999
 30
0.0
 40
0.5
  1

100
AcDbAttributeDefinition
  3

  2
NT
 70
     8
280
     0
  0
ATTDEF
  5
FD
330
F6
100
AcDbEntity
  8
attrib
100
AcDbText
 10
41.50000000000003
 20
12.19999999999999
 30
0.0
 40
0.5
  1
$ARTNR.$SYSTEM.$MODEL.
100
AcDbAttributeDefinition
  3

  2
NBSYN
 70
     8
280
     0
  0
ATTDEF
  5
FE
330
F6
100
AcDbEntity
  8
attrib
100
AcDbText
 10
41.50000000000003
 20
11.69999999999999
 30
0.0
 40
0.5
  1
77009A
100
AcDbAttributeDefinition
  3

  2
LINA
 70
     8
280
     0
  0
ATTDEF
  5
FF
330
F6
100
AcDbEntity
  8
attrib
100
AcDbText
 10
41.50000000000003
 20
11.19999999999999
 30
0.0
 40
0.5
  1
Wöhner
100
AcDbAttributeDefinition
  3

  2
CATALOG
 70
     8
280
     0
  0
ATTDEF
  5
100
330
F6
100
AcDbEntity
  8
attrib
100
AcDbText
 10
41.50000000000003
 20
10.69999999999999
 30
0.0
 40
0.5
  1
77009A
100
AcDbAttributeDefinition
  3

  2
ARTNR
 70
     8
280
     0
  0
ATTDEF
  5
101
330
F6
100
AcDbEntity
  8
attrib
100
AcDbText
 10
41.50000000000003
 20
10.19999999999999
 30
0.0
 40
0.5
  1
CrossBoard
100
AcDbAttributeDefinition
  3

  2
SYSTEM
 70
     8
280
     0
  0
ATTDEF
  5
102
330
F6
100
AcDbEntity
  8
attrib
100
AcDbText
 10
41.50000000000003
 20
9.699999999999989
 30
0.0
 40
0.5
  1
Snap-in Box
100
AcDbAttributeDefinition
  3

  2
MODEL
 70
     8
280
     0
  0
ATTDEF
  5
103
330
F6
100
AcDbEntity
  8
attrib
100
AcDbText
 10
41.50000000000003
 20
9.199999999999989
 30
0.0
 40
0.5
  1
woehner
100
AcDbAttributeDefinition
  3

  2
COMPANY
 70
     8
280
     0
  0
ATTDEF
  5
104
330
F6
100
AcDbEntity
  8
attrib
100
AcDbText
 10
41.50000000000003
 20
8.699999999999989
 30
0.0
 40
0.5
  1
{$CADENAS_DATA/23d-libs/woehner/sys_crossboard/parts/32668_snap_in_box.prj},184 {VTYP=3D},{NB=77009ACrossBoardSnap-in Box},{LINA=77009A},{NN=32668 Snap-in Box},{DATE=18.11.2022 09:04:08},{GEOMDATE=04.04.2022 06:08:00},{VERSION=},{LINEID=10},{WBVAR=},{WBNU
100
AcDbAttributeDefinition
  3

  2
PSOL_0
 70
     9
280
     0
  0
ATTDEF
  5
105
330
F6
100
AcDbEntity
  8
attrib
100
AcDbText
 10
41.50000000000003
 20
8.199999999999989
 30
0.0
 40
0.5
  1
MERIC=}  {NB=77009ACrossBoardSnap-in Box},{LINA=77009A},{KT=DUMMY},{ARTNR=77009A},{SYSTEM=CrossBoard},{MODEL=Snap-in Box}
100
AcDbAttributeDefinition
  3

  2
PSOL_1
 70
     9
280
     0
  0
LINE
  5
106
330
F6
100
AcDbEntity
  8
hidden
100
AcDbLine
 10
36.00000000000003
 20
13.69999999999999
 30
0.0
 11
36.00000000000003
 21
7.199999999999988
 31
0.0
  0
LINE
  5
107
330
F6
100
AcDbEntity
  8
hidden
100
AcDbLine
 10
36.50000000000003
 20
13.19999999999999
 30
0.0
 11
23.00000000000002
 21
13.19999999999999
 31
0.0
  0
LINE
  5
108
330
F6
100
AcDbEntity
  8
hidden
100
AcDbLine
 10
23.50000000000002
 20
7.199999999999988
 30
0.0
 11
23.50000000000002
 21
13.69999999999999
 31
0.0
  0
LINE
  5
109
330
F6
100
AcDbEntity
  8
hidden
100
AcDbLine
 10
23.00000000000002
 20
7.199999999999988
 30
0.0
 11
36.50000000000003
 21
7.199999999999988
 31
0.0
  0
LINE
  5
10A
330
F6
100
AcDbEntity
  8
hidden
100
AcDbLine
 10
36.50000000000003
 20
7.199999999999988
 30
0.0
 11
36.50000000000003
 21
13.19999999999999
 31
0.0
  0
ARC
  5
10B
330
F6
100
AcDbEntity
  8
hidden
100
AcDbCircle
 10
23.50000000000002
 20
13.19999999999999
 30
0.0
 40
0.4999999999999947
100
AcDbArc
 50
89.99999999999957
 51
180.0000000000006
  0
ARC
  5
10C
330
F6
100
AcDbEntity
  8
hidden
100
AcDbCircle
 10
36.00000000000001
 20
8.200000000000001
 30
0.0
 40
0.5000000000000133
100
AcDbArc
 50
270.0000000000015
 51
359.9999999999986
  0
LINE
  5
10D
330
F6
100
AcDbEntity
  8
hidden
100
AcDbLine
 10
34.50000000000002
 20
10.19999999999999
 30
0.0
 11
34.50000000000002
 21
11.69999999999999
 31
0.0
  0
ARC
  5
10E
330
F6
100
AcDbEntity
  8
hidden
100
AcDbCircle
 10
25.50000000000002
 20
10.19999999999999
 30
0.0
 40
0.5
100
AcDbArc
 50
180.0000000000002
 51
270.0
  0
ARC
  5
10F
330
F6
100
AcDbEntity
  8
hidden
100
AcDbCircle
 10
25.50000000000003
 20
11.69999999999998
 30
0.0
 40
0.5000000000000089
100
AcDbArc
 50
90.00000000000082
 51
179.999999999999
  0
LINE
  5
110
330
F6
100
AcDbEntity
  8
hidden
100
AcDbLine
 10
34.00000000000002
 20
12.19999999999999
 30
0.0
 11
25.50000000000002
 21
12.19999999999999
 31
0.0
  0
ARC
  5
111
330
F6
100
AcDbEntity
  8
hidden
100
AcDbCircle
 10
34.00000000000003
 20
11.7
 30
0.0
 40
0.4999999999999929
100
AcDbArc
 50
359.9999999999987
 51
90.00000000000082
  0
ARC
  5
112
330
F6
100
AcDbEntity
  8
hidden
100
AcDbCircle
 10
34.00000000000003
 20
10.19999999999998
 30
0.0
 40
0.4999999999999893
100
AcDbArc
 50
269.9999999999992
 51
0.0000000000012213
  0
LINE
  5
113
330
F6
100
AcDbEntity
  8
hidden
100
AcDbLine
 10
25.50000000000002
 20
9.699999999999989
 30
0.0
 11
34.00000000000002
 21
9.699999999999989
 31
0.0
  0
LINE
  5
114
330
F6
100
AcDbEntity
  8
hidden
100
AcDbLine
 10
25.00000000000002
 20
11.69999999999999
 30
0.0
 11
25.00000000000002
 21
10.19999999999999
 31
0.0
  0
LINE
  5
115
330
F6
100
AcDbEntity
  8
hidden
100
AcDbLine
 10
36.00000000000003
 20
7.699999999999988
 30
0.0
 11
23.50000000000002
 21
7.699999999999988
 31
0.0
  0
ARC
  5
116
330
F6
100
AcDbEntity
  8
hidden
100
AcDbCircle
 10
36.00000000000001
 20
13.19999999999997
 30
0.0
 40
0.5000000000000142
100
AcDbArc
 50
0.0000000000016284
 51
89.99999999999837
  0
LINE
  5
117
330
F6
100
AcDbEntity
  8
hidden
100
AcDbLine
 10
36.00000000000003
 20
13.69999999999999
 30
0.0
 11
23.50000000000002
 21
13.69999999999999
 31
0.0
  0
LINE
  5
118
330
F6
100
AcDbEntity
  8
hidden
100
AcDbLine
 10
23.00000000000002
 20
13.19999999999999
 30
0.0
 11
23.00000000000002
 21
7.199999999999988
 31
0.0
  0
ARC
  5
119
330
F6
100
AcDbEntity
  8
hidden
100
AcDbCircle
 10
23.50000000000002
 20
8.199999999999983
 30
0.0
 40
0.4999999999999929
100
AcDbArc
 50
179.9999999999994
 51
270.0000000000004
  0
ENDBLK
  5
F9
330
F6
100
AcDbEntity
  8
0
100
AcDbBlockEnd
  0
BLOCK
  5
11C
330
11A
100
AcDbEntity
  8
0
100
AcDbBlockBegin
  2
7_Cover_0_in_33801_0
 70
     2
 10
0.0
 20
0.0
 30
0.0
  3
7_Cover_0_in_33801_0
  1

  0
ATTDEF
  5
11E
330
11A
100
AcDbEntity
  8
attrib
100
AcDbText
 10
54.81250000000002
 20
14.00000000000001
 30
0.0
 40
0.5
  1
Cover
100
AcDbAttributeDefinition
  3

  2
NB
 70
     8
280
     0
  0
ATTDEF
  5
11F
330
11A
100
AcDbEntity
  8
attrib
100
AcDbText
 10
54.81250000000002
 20
13.50000000000001
 30
0.0
 40
0.5
  1
33800 Cover
100
AcDbAttributeDefinition
  3

  2
NN
 70
     8
280
     0
  0
ATTDEF
  5
120
330
11A
100
AcDbEntity
  8
attrib
100
AcDbText
 10
54.81250000000002
 20
13.00000000000001
 30
0.0
 40
0.5
  1
NH fuse switch-disconnector size 000, 125 A
100
AcDbAttributeDefinition
  3

  2
NT
 70
     8
280
     0
  0
ATTDEF
  5
121
330
11A
100
AcDbEntity
  8
attrib
100
AcDbText
 10
54.81250000000002
 20
12.50000000000001
 30
0.0
 40
0.5
  1
$MODEL.
100
AcDbAttributeDefinition
  3

  2
NBSYN
 70
     8
280
     0
  0
ATTDEF
  5
122
330
11A
100
AcDbEntity
  8
attrib
100
AcDbText
 10
54.81250000000002
 20
12.00000000000001
 30
0.0
 40
0.5
  1
Cover
100
AcDbAttributeDefinition
  3

  2
LINA
 70
     8
280
     0
  0
ATTDEF
  5
123
330
11A
100
AcDbEntity
  8
attrib
100
AcDbText
 10
54.81250000000002
 20
11.50000000000001
 30
0.0
 40
0.5
  1
Wöhner
100
AcDbAttributeDefinition
  3

  2
CATALOG
 70
     8
280
     0
  0
ATTDEF
  5
124
330
11A
100
AcDbEntity
  8
attrib
100
AcDbText
 10
54.81250000000002
 20
11.00000000000001
 30
0.0
 40
0.5
  1
QUADRON®
100
AcDbAttributeDefinition
  3

  2
SYSTEM
 70
     8
280
     0
  0
ATTDEF
  5
125
330
11A
100
AcDbEntity
  8
attrib
100
AcDbText
 10
54.81250000000002
 20
10.50000000000001
 30
0.0
 40
0.5
  1
Cover
100
AcDbAttributeDefinition
  3

  2
MODEL
 70
     8
280
     0
  0
ATTDEF
  5
126
330
11A
100
AcDbEntity
  8
attrib
100
AcDbText
 10
54.81250000000002
 20
10.00000000000001
 30
0.0
 40
0.5
  1
woehner
100
AcDbAttributeDefinition
  3

  2
COMPANY
 70
     8
280
     0
  0
ATTDEF
  5
127
330
11A
100
AcDbEntity
  8
attrib
100
AcDbText
 10
54.81250000000002
 20
9.500000000000012
 30
0.0
 40
0.5
  1
{$CADENAS_DATA/23d-libs/woehner/sys_crossboard/nh_fuse_sw_disc/parts/33800_cover.prj},155 {VTYP=3D},{NB=Cover},{LINA=Cover},{NN=33800 Cover},{DATE=09.03.2023 07:16:49},{GEOMDATE=13.01.2023 10:41:00},{VERSION=},{LINEID=10},{WBVAR=},{WBNUMERIC=}  {NB=Cover}
100
AcDbAttributeDefinition
  3

  2
PSOL_0
 70
     9
280
     0
  0
ATTDEF
  5
128
330
11A
100
AcDbEntity
  8
attrib
100
AcDbText
 10
54.81250000000002
 20
9.000000000000012
 30
0.0
 40
0.5
  1
,{LINA=Cover},{KT=DUMMY},{SYSTEM=QUADRON},{MODEL=Cover}
100
AcDbAttributeDefinition
  3

  2
PSOL_1
 70
     9
280
     0
  0
LINE
  5
129
330
11A
100
AcDbEntity
  8
hidden
100
AcDbLine
 10
48.00000000000002
 20
-126.0623746302531
 30
0.0
 11
49.50000000000002
 21
-126.0623746302531
 31
0.0
  0
LINE
  5
12A
330
11A
100
AcDbEntity
  8
hidden
100
AcDbLine
 10
0.0000000000000208
 20
-126.0623746302531
 30
0.0
 11
1.400000000000019
 21
-126.0623746302531
 31
0.0
  0
LINE
  5
12B
330
11A
100
AcDbEntity
  8
hidden
100
AcDbLine
 10
1.400000000000019
 20
-71.69999999999999
 30
0.0
 11
1.400000000000019
 21
-80.36414712864706
 31
0.0
  0
LINE
  5
12C
330
11A
100
AcDbEntity
  8
hidden
100
AcDbLine
 10
0.0000000000000208
 20
-110.1
 30
0.0
 11
1.400000000000019
 21
-110.1
 31
0.0
  0
LINE
  5
12D
330
11A
100
AcDbEntity
  8
hidden
100
AcDbLine
 10
0.0000000000000208
 20
-111.2
 30
0.0
 11
1.400000000000019
 21
-111.2
 31
0.0
  0
LINE
  5
12E
330
11A
100
AcDbEntity
  8
hidden
100
AcDbLine
 10
48.00000000000002
 20
-93.6
 30
0.0
 11
49.50000000000002
 21
-93.6
 31
0.0
  0
LINE
  5
12F
330
11A
100
AcDbEntity
  8
hidden
100
AcDbLine
 10
49.50000000000002
 20
-92.5
 30
0.0
 11
48.00000000000002
 21
-92.5
 31
0.0
  0
LINE
  5
130
330
11A
100
AcDbEntity
  8
hidden
100
AcDbLine
 10
0.0000000000000208
 20
-93.6
 30
0.0
 11
1.400000000000019
 21
-93.6
 31
0.0
  0
LINE
  5
131
330
11A
100
AcDbEntity
  8
hidden
100
AcDbLine
 10
1.400000000000019
 20
-92.5
 30
0.0
 11
0.0000000000000208
 21
-92.5
 31
0.0
  0
LINE
  5
132
330
11A
100
AcDbEntity
  8
hidden
100
AcDbLine
 10
48.00000000000002
 20
-110.1
 30
0.0
 11
49.50000000000002
 21
-110.1
 31
0.0
  0
LINE
  5
133
330
11A
100
AcDbEntity
  8
hidden
100
AcDbLine
 10
48.00000000000002
 20
-111.2
 30
0.0
 11
49.50000000000002
 21
-111.2
 31
0.0
  0
LINE
  5
134
330
11A
100
AcDbEntity
  8
hidden
100
AcDbLine
 10
6.500000000000023
 20
12.50000000000001
 30
0.0
 11
6.500000000000023
 21
-73.19999999999999
 31
0.0
  0
LINE
  5
135
330
11A
100
AcDbEntity
  8
hidden
100
AcDbLine
 10
43.00000000000002
 20
12.50000000000001
 30
0.0
 11
6.500000000000023
 21
12.50000000000001
 31
0.0
  0
LINE
  5
136
330
11A
100
AcDbEntity
  8
hidden
100
AcDbLine
 10
43.25000000000002
 20
-69.6
 30
0.0
 11
44.35000000000003
 21
-69.6
 31
0.0
  0
LINE
  5
137
330
11A
100
AcDbEntity
  8
hidden
100
AcDbLine
 10
44.35000000000003
 20
-62.39999999999998
 30
0.0
 11
43.25000000000002
 21
-62.39999999999998
 31
0.0
  0
LINE
  5
138
330
11A
100
AcDbEntity
  8
hidden
100
AcDbLine
 10
43.25000000000002
 20
-69.6
 30
0.0
 11
43.25000000000002
 21
-62.39999999999998
 31
0.0
  0
LINE
  5
139
330
11A
100
AcDbEntity
  8
hidden
100
AcDbLine
 10
6.25000000000002
 20
-62.39999999999998
 30
0.0
 11
5.150000000000019
 21
-62.39999999999998
 31
0.0
  0
LINE
  5
13A
330
11A
100
AcDbEntity
  8
hidden
100
AcDbLine
 10
5.150000000000019
 20
-69.6
 30
0.0
 11
6.25000000000002
 21
-69.6
 31
0.0
  0
LINE
  5
13B
330
11A
100
AcDbEntity
  8
hidden
100
AcDbLine
 10
6.25000000000002
 20
-69.6
 30
0.0
 11
6.25000000000002
 21
-62.39999999999998
 31
0.0
  0
LINE
  5
13C
330
11A
100
AcDbEntity
  8
hidden
100
AcDbLine
 10
0.0000000000000208
 20
-129.0
 30
0.0
 11
1.400000000000019
 21
-129.0
 31
0.0
  0
LINE
  5
13D
330
11A
100
AcDbEntity
  8
hidden
100
AcDbLine
 10
48.00000000000002
 20
-129.0
 30
0.0
 11
49.50000000000002
 21
-129.0
 31
0.0
  0
LINE
  5
13E
330
11A
100
AcDbEntity
  8
hidden
100
AcDbLine
 10
47.25000000000002
 20
-73.74999999999999
 30
0.0
 11
49.50000000000002
 21
-73.74999999999999
 31
0.0
  0
LINE
  5
13F
330
11A
100
AcDbEntity
  8
hidden
100
AcDbLine
 10
47.25000000000002
 20
-73.74999999999999
 30
0.0
 11
47.25000000000002
 21
-71.69999999999999
 31
0.0
  0
LINE
  5
140
330
11A
100
AcDbEntity
  8
hidden
100
AcDbLine
 10
0.0000000000000208
 20
-73.74999999999999
 30
0.0
 11
2.250000000000023
 21
-73.74999999999999
 31
0.0
  0
LINE
  5
141
330
11A
100
AcDbEntity
  8
hidden
100
AcDbLine
 10
2.250000000000023
 20
-73.74999999999999
 30
0.0
 11
2.250000000000023
 21
-71.69999999999999
 31
0.0
  0
LINE
  5
142
330
11A
100
AcDbEntity
  8
hidden
100
AcDbLine
 10
46.00000000000003
 20
-150.0
 30
0.0
 11
46.00000000000002
 21
-148.5
 31
0.0
  0
LINE
  5
143
330
11A
100
AcDbEntity
  8
hidden
100
AcDbLine
 10
3.50000000000002
 20
-150.0
 30
0.0
 11
3.50000000000002
 21
-148.5
 31
0.0
  0
LINE
  5
144
330
11A
100
AcDbEntity
  8
hidden
100
AcDbLine
 10
5.150000000000019
 20
14.00000000000001
 30
0.0
 11
44.35000000000002
 21
14.00000000000001
 31
0.0
  0
LINE
  5
145
330
11A
100
AcDbEntity
  8
hidden
100
AcDbLine
 10
43.00000000000002
 20
-75.69999999999999
 30
0.0
 11
45.20844557755574
 21
-75.69999999999999
 31
0.0
  0
LINE
  5
146
330
11A
100
AcDbEntity
  8
hidden
100
AcDbLine
 10
4.291103545549054
 20
-75.69999999999999
 30
0.0
 11
6.40000000000002
 21
-75.69999999999999
 31
0.0
  0
LINE
  5
147
330
11A
100
AcDbEntity
  8
hidden
100
AcDbLine
 10
6.40000000000002
 20
-75.69999999999999
 30
0.0
 11
6.40000000000002
 21
-73.19999999999999
 31
0.0
  0
LINE
  5
148
330
11A
100
AcDbEntity
  8
hidden
100
AcDbLine
 10
6.40000000000002
 20
-73.19999999999999
 30
0.0
 11
43.00000000000002
 21
-73.19999999999997
 31
0.0
  0
LINE
  5
149
330
11A
100
AcDbEntity
  8
hidden
100
AcDbLine
 10
43.00000000000002
 20
12.50000000000001
 30
0.0
 11
43.00000000000002
 21
-75.69999999999999
 31
0.0
  0
LINE
  5
14A
330
11A
100
AcDbEntity
  8
hidden
100
AcDbLine
 10
1.400000000000019
 20
-148.5
 30
0.0
 11
1.400000000000026
 21
-80.55769161735965
 31
0.0
  0
LINE
  5
14B
330
11A
100
AcDbEntity
  8
hidden
100
AcDbLine
 10
18.15000000000002
 20
7.000000000000006
 30
0.0
 11
18.15000000000002
 21
3.400000000000014
 31
0.0
  0
LINE
  5
14C
330
11A
100
AcDbEntity
  8
hidden
100
AcDbLine
 10
27.85000000000002
 20
-43.29999999999998
 30
0.0
 11
31.35000000000002
 21
-43.29999999999998
 31
0.0
  0
LINE
  5
14D
330
11A
100
AcDbEntity
  8
hidden
100
AcDbLine
 10
21.65000000000002
 20
-43.29999999999998
 30
0.0
 11
21.65000000000002
 21
-54.29999999999999
 31
0.0
  0
LINE
  5
14E
330
11A
100
AcDbEntity
  8
hidden
100
AcDbLine
 10
21.65000000000002
 20
-54.29999999999999
 30
0.0
 11
27.85000000000002
 21
-54.29999999999999
 31
0.0
  0
LINE
  5
14F
330
11A
100
AcDbEntity
  8
hidden
100
AcDbLine
 10
27.85000000000002
 20
-54.29999999999999
 30
0.0
 11
27.85000000000002
 21
-43.29999999999998
 31
0.0
  0
LINE
  5
150
330
11A
100
AcDbEntity
  8
hidden
100
AcDbLine
 10
31.35000000000002
 20
-8.299999999999974
 30
0.0
 11
18.15000000000002
 21
-8.300000000000002
 31
0.0
  0
LINE
  5
151
330
11A
100
AcDbEntity
  8
hidden
100
AcDbLine
 10
31.35000000000002
 20
-43.29999999999998
 30
0.0
 11
31.35000000000002
 21
-8.299999999999974
 31
0.0
  0
LINE
  5
152
330
11A
100
AcDbEntity
  8
hidden
100
AcDbLine
 10
21.65000000000002
 20
-0.099999999999989
 30
0.0
 11
21.65000000000002
 21
-6.800000000000001
 31
0.0
  0
LINE
  5
153
330
11A
100
AcDbEntity
  8
hidden
100
AcDbLine
 10
21.65000000000002
 20
-6.800000000000001
 30
0.0
 11
27.85000000000002
 21
-6.800000000000001
 31
0.0
  0
LINE
  5
154
330
11A
100
AcDbEntity
  8
hidden
100
AcDbLine
 10
27.85000000000002
 20
-0.099999999999989
 30
0.0
 11
31.35000000000002
 21
3.400000000000014
 31
0.0
  0
LINE
  5
155
330
11A
100
AcDbEntity
  8
hidden
100
AcDbLine
 10
27.85000000000002
 20
-6.800000000000001
 30
0.0
 11
27.85000000000002
 21
-0.099999999999989
 31
0.0
  0
LINE
  5
156
330
11A
100
AcDbEntity
  8
hidden
100
AcDbLine
 10
31.35000000000002
 20
7.000000000000006
 30
0.0
 11
18.15000000000002
 21
7.000000000000006
 31
0.0
  0
LINE
  5
157
330
11A
100
AcDbEntity
  8
hidden
100
AcDbLine
 10
18.15000000000002
 20
-43.29999999999998
 30
0.0
 11
21.65000000000002
 21
-43.29999999999998
 31
0.0
  0
LINE
  5
158
330
11A
100
AcDbEntity
  8
hidden
100
AcDbLine
 10
18.15000000000002
 20
-8.300000000000002
 30
0.0
 11
18.15000000000002
 21
-43.29999999999998
 31
0.0
  0
LINE
  5
159
330
11A
100
AcDbEntity
  8
hidden
100
AcDbLine
 10
18.15000000000002
 20
3.400000000000014
 30
0.0
 11
21.65000000000002
 21
-0.099999999999989
 31
0.0
  0
LINE
  5
15A
330
11A
100
AcDbEntity
  8
hidden
100
AcDbLine
 10
31.35000000000002
 20
3.400000000000014
 30
0.0
 11
31.35000000000002
 21
7.000000000000006
 31
0.0
  0
LINE
  5
15B
330
11A
100
AcDbEntity
  8
hidden
100
AcDbLine
 10
48.00000000000002
 20
-80.21983935678195
 30
0.0
 11
48.00000000000002
 21
-71.69999999999999
 31
0.0
  0
LINE
  5
15C
330
11A
100
AcDbEntity
  8
hidden
100
AcDbLine
 10
48.00000000000002
 20
-148.5
 30
0.0
 11
48.00000000000002
 21
-80.41627940587958
 31
0.0
  0
LINE
  5
15D
330
11A
100
AcDbEntity
  8
hidden
100
AcDbLine
 10
48.00000000000002
 20
-75.69999999999999
 30
0.0
 11
45.35875715828563
 21
-75.69999999999999
 31
0.0
  0
LINE
  5
15E
330
11A
100
AcDbEntity
  8
hidden
100
AcDbLine
 10
4.141242841714389
 20
-75.69999999999999
 30
0.0
 11
1.400000000000019
 21
-75.69999999999999
 31
0.0
  0
LINE
  5
15F
330
11A
100
AcDbEntity
  8
hidden
100
AcDbLine
 10
1.400000000000019
 20
-148.5
 30
0.0
 11
48.00000000000002
 21
-148.5
 31
0.0
  0
LINE
  5
160
330
11A
100
AcDbEntity
  8
hidden
100
AcDbLine
 10
36.77832778548715
 20
-0.9668386905429995
 30
0.0
 11
36.86485521201151
 21
-2.025846319999997
 31
0.0
  0
LINE
  5
161
330
11A
100
AcDbEntity
  8
hidden
100
AcDbLine
 10
12.63514478798855
 20
-2.025846319999997
 30
0.0
 11
12.72167221451292
 21
-0.9668386905429363
 31
0.0
  0
LINE
  5
162
330
11A
100
AcDbEntity
  8
hidden
100
AcDbLine
 10
34.09339122098756
 20
1.703351251130747
 30
0.0
 11
34.22614038962582
 21
1.674869135814855
 31
0.0
  0
LWPOLYLINE
  5
163
330
11A
100
AcDbEntity
  8
hidden
100
AcDbPolyline
 90
        9
 70
     0
 43
0.0
 10
15.40638693182095
 20
1.70330400301727
 10
17.6043133223477
 20
2.114386856380102
 10
19.95550079483906
 20
2.430289613893744
 10
22.34908834350624
 20
2.622910969418607
 10
24.75000000000004
 20
2.687264391170341
 10
27.12256960513833
 20
2.624423572703205
 10
29.48807019481293
 20
2.436319879633747
 10
31.86768134015134
 20
2.118894704420421
 10
34.09339122098756
 20
1.703351251130747
  0
LINE
  5
164
330
11A
100
AcDbEntity
  8
hidden
100
AcDbLine
 10
15.27385961037025
 20
1.674869135814466
 30
0.0
 11
15.40638693182095
 21
1.70330400301727
 31
0.0
  0
LWPOLYLINE
  5
165
330
11A
100
AcDbEntity
  8
hidden
100
AcDbPolyline
 90
        9
 70
     0
 43
0.0
 10
12.72167221451292
 20
-0.966838690542926
 10
12.80292023457881
 20
-0.4840339026216112
 10
12.96341240549805
 20
-0.0223985868288146
 10
13.19920992967125
 20
0.4046544897696458
 10
13.50276308667414
 20
0.7862873162441941
 10
13.86971716763782
 20
1.113673564210216
 10
14.28716330662285
 20
1.375131053504258
 10
14.76671935474618
 20
1.5687441452302
 10
15.27385961037025
 20
1.674869135814466
  0
LWPOLYLINE
  5
166
330
11A
100
AcDbEntity
  8
hidden
100
AcDbPolyline
 90
        9
 70
     0
 43
0.0
 10
34.22614038962582
 20
1.674869135814855
 10
34.70032149151695
 20
1.578644826043529
 10
35.15133911388574
 20
1.405752620129708
 10
35.56589765443204
 20
1.16067873832057
 10
35.93389032853572
 20
0.8512995985394678
 10
36.24900290758974
 20
0.4797131828769008
 10
36.49789544349157
 20
0.060764428672172
 10
36.6852122496629
 20
-0.4396651918475714
 10
36.77832778548715
 20
-0.9668386905430093
  0
LINE
  5
167
330
11A
100
AcDbEntity
  8
hidden
100
AcDbLine
 10
12.32267693809909
 20
-2.025846319999997
 30
0.0
 11
12.40897344449495
 21
-0.912620500963772
 31
0.0
  0
LINE
  5
168
330
11A
100
AcDbEntity
  8
hidden
100
AcDbLine
 10
37.09102655550511
 20
-0.9126205009637117
 30
0.0
 11
37.17732306190096
 21
-2.025846320000003
 31
0.0
  0
LWPOLYLINE
  5
169
330
11A
100
AcDbEntity
  8
hidden
100
AcDbPolyline
 90
        9
 70
     0
 43
0.0
 10
15.3417688153776
 20
1.854951961614643
 10
17.65617629671467
 20
2.286741302828577
 10
19.99081688312604
 20
2.597066432589945
 10
22.36683413491155
 20
2.786238981236144
 10
24.75000000000001
 20
2.849438830000079
 10
27.10550971033402
 20
2.787699425155721
 10
29.45411559231075
 20
2.602888937161374
 10
31.81649058707265
 20
2.291093958018242
 10
34.15823118462148
 20
1.854951961614726
  0
LWPOLYLINE
  5
16A
330
11A
100
AcDbEntity
  8
hidden
100
AcDbPolyline
 90
       10
 70
     0
 43
0.0
 10
12.40897344449495
 20
-0.9126205009637733
 10
12.4910486922521
 20
-0.4122338659657554
 10
12.65527269414634
 20
0.0664969354302047
 10
12.89758191904816
 20
0.5096674053863548
 10
13.21021283634982
 20
0.9060859049857539
 10
13.58899616438753
 20
1.246848335338946
 10
14.02045105819891
 20
1.519507534827769
 10
14.49023394026728
 20
1.713902805458994
 10
14.98695029652298
 20
1.826946099493104
 10
15.3417688153776
 20
1.854951961614643
  0
LWPOLYLINE
  5
16B
330
11A
100
AcDbEntity
  8
hidden
100
AcDbPolyline
 90
       10
 70
     0
 43
0.0
 10
34.15823118462148
 20
1.854951961614726
 10
34.65388023751256
 20
1.803630684905605
 10
35.13373301784733
 20
1.671790592714301
 10
35.5836450052666
 20
1.462649221463524
 10
35.99242718712953
 20
1.183331444132907
 10
36.35357498234275
 20
0.8353559536836419
 10
36.65201359240518
 20
0.4326115212160142
 10
36.88177648175338
 20
-0.0220252560205192
 10
37.03204607916195
 20
-0.5095767133393991
 10
37.09102655550511
 20
-0.9126205009637178
  0
LINE
  5
16C
330
11A
100
AcDbEntity
  8
hidden
100
AcDbLine
 10
5.150000000000019
 20
8.01597944457863
 30
0.0
 11
44.35000000000002
 21
8.01597944457863
 31
0.0
  0
LINE
  5
16D
330
11A
100
AcDbEntity
  8
hidden
100
AcDbLine
 10
43.83089270010375
 20
-72.49999999999999
 30
0.0
 11
5.669107299896284
 21
-72.49999999999999
 31
0.0
  0
LINE
  5
16E
330
11A
100
AcDbEntity
  8
hidden
100
AcDbLine
 10
2.250000000000023
 20
-81.99999999999999
 30
0.0
 11
2.250000000000023
 21
-145.9134250000001
 31
0.0
  0
LINE
  5
16F
330
11A
100
AcDbEntity
  8
hidden
100
AcDbLine
 10
47.25000000000002
 20
-81.99999999999999
 30
0.0
 11
47.25000000000002
 21
-145.913425
 31
0.0
  0
LINE
  5
170
330
11A
100
AcDbEntity
  8
hidden
100
AcDbLine
 10
0.3176481976030765
 20
-81.99999999999999
 30
0.0
 11
2.250000000000023
 21
-81.99999999999999
 31
0.0
  0
LINE
  5
171
330
11A
100
AcDbEntity
  8
hidden
100
AcDbLine
 10
49.18235180239697
 20
-81.99999999999999
 30
0.0
 11
47.25000000000002
 21
-81.99999999999999
 31
0.0
  0
LINE
  5
172
330
11A
100
AcDbEntity
  8
hidden
100
AcDbLine
 10
44.35000000000002
 20
14.00000000000001
 30
0.0
 11
44.35000000000002
 21
-2.025846319999997
 31
0.0
  0
LINE
  5
173
330
11A
100
AcDbEntity
  8
hidden
100
AcDbLine
 10
37.12752507205072
 20
-1.383451739353891
 30
0.0
 11
44.35000000000002
 21
-1.383451739353891
 31
0.0
  0
LINE
  5
174
330
11A
100
AcDbEntity
  8
hidden
100
AcDbLine
 10
12.68763237007047
 20
-1.383451739353891
 30
0.0
 11
36.8123676299296
 21
-1.383451739353864
 31
0.0
  0
LINE
  5
175
330
11A
100
AcDbEntity
  8
hidden
100
AcDbLine
 10
5.150000000000019
 20
14.00000000000001
 30
0.0
 11
5.150000000000019
 21
-2.025846319999997
 31
0.0
  0
LINE
  5
176
330
11A
100
AcDbEntity
  8
hidden
100
AcDbLine
 10
5.150000000000019
 20
-1.383451739353891
 30
0.0
 11
12.37247492794933
 21
-1.383451739353891
 31
0.0
  0
LINE
  5
177
330
11A
100
AcDbEntity
  8
hidden
100
AcDbLine
 10
19.20000000000002
 20
-121.3
 30
0.0
 11
19.20000000000002
 21
-85.29999999999998
 31
0.0
  0
LINE
  5
178
330
11A
100
AcDbEntity
  8
hidden
100
AcDbLine
 10
43.50000000000002
 20
-133.4
 30
0.0
 11
40.00000000000002
 21
-129.9
 31
0.0
  0
LINE
  5
179
330
11A
100
AcDbEntity
  8
hidden
100
AcDbLine
 10
40.00000000000002
 20
-129.9
 30
0.0
 11
40.00000000000002
 21
-123.3
 31
0.0
  0
LINE
  5
17A
330
11A
100
AcDbEntity
  8
hidden
100
AcDbLine
 10
40.00000000000002
 20
-81.79999999999998
 30
0.0
 11
40.00000000000002
 21
-75.79999999999998
 31
0.0
  0
LINE
  5
17B
330
11A
100
AcDbEntity
  8
hidden
100
AcDbLine
 10
40.00000000000002
 20
-123.3
 30
0.0
 11
33.80000000000003
 21
-123.3
 31
0.0
  0
LINE
  5
17C
330
11A
100
AcDbEntity
  8
hidden
100
AcDbLine
 10
43.50000000000002
 20
-85.3
 30
0.0
 11
40.00000000000002
 21
-81.79999999999998
 31
0.0
  0
LINE
  5
17D
330
11A
100
AcDbEntity
  8
hidden
100
AcDbLine
 10
15.70000000000002
 20
-123.3
 30
0.0
 11
9.500000000000023
 21
-123.3
 31
0.0
  0
LINE
  5
17E
330
11A
100
AcDbEntity
  8
hidden
100
AcDbLine
 10
40.00000000000002
 20
-75.79999999999998
 30
0.0
 11
33.80000000000003
 21
-75.79999999999998
 31
0.0
  0
LINE
  5
17F
330
11A
100
AcDbEntity
  8
hidden
100
AcDbLine
 10
33.80000000000003
 20
-75.79999999999998
 30
0.0
 11
33.80000000000003
 21
-81.79999999999998
 31
0.0
  0
LINE
  5
180
330
11A
100
AcDbEntity
  8
hidden
100
AcDbLine
 10
33.80000000000003
 20
-81.79999999999998
 30
0.0
 11
30.30000000000002
 21
-85.29999999999998
 31
0.0
  0
LINE
  5
181
330
11A
100
AcDbEntity
  8
hidden
100
AcDbLine
 10
33.80000000000003
 20
-123.3
 30
0.0
 11
33.80000000000003
 21
-129.9
 31
0.0
  0
LINE
  5
182
330
11A
100
AcDbEntity
  8
hidden
100
AcDbLine
 10
19.20000000000002
 20
-133.4
 30
0.0
 11
15.70000000000002
 21
-129.9
 31
0.0
  0
LINE
  5
183
330
11A
100
AcDbEntity
  8
hidden
100
AcDbLine
 10
43.50000000000002
 20
-148.5
 30
0.0
 11
43.50000000000002
 21
-145.9677770062902
 31
0.0
  0
LINE
  5
184
330
11A
100
AcDbEntity
  8
hidden
100
AcDbLine
 10
30.30000000000002
 20
-138.5
 30
0.0
 11
30.30000000000002
 21
-148.5
 31
0.0
  0
LINE
  5
185
330
11A
100
AcDbEntity
  8
hidden
100
AcDbLine
 10
15.70000000000002
 20
-129.9
 30
0.0
 11
15.70000000000002
 21
-123.3
 31
0.0
  0
LINE
  5
186
330
11A
100
AcDbEntity
  8
hidden
100
AcDbLine
 10
30.30000000000002
 20
-85.29999999999998
 30
0.0
 11
30.30000000000002
 21
-121.3
 31
0.0
  0
LINE
  5
187
330
11A
100
AcDbEntity
  8
hidden
100
AcDbLine
 10
19.20000000000002
 20
-148.5
 30
0.0
 11
19.20000000000002
 21
-138.5
 31
0.0
  0
LINE
  5
188
330
11A
100
AcDbEntity
  8
hidden
100
AcDbLine
 10
19.20000000000002
 20
-85.29999999999998
 30
0.0
 11
15.70000000000002
 21
-81.79999999999998
 31
0.0
  0
LINE
  5
189
330
11A
100
AcDbEntity
  8
hidden
100
AcDbLine
 10
6.000000000000023
 20
-145.9677770062902
 30
0.0
 11
6.000000000000023
 21
-148.5
 31
0.0
  0
LINE
  5
18A
330
11A
100
AcDbEntity
  8
hidden
100
AcDbLine
 10
33.80000000000003
 20
-129.9
 30
0.0
 11
30.30000000000002
 21
-133.4
 31
0.0
  0
LINE
  5
18B
330
11A
100
AcDbEntity
  8
hidden
100
AcDbLine
 10
15.70000000000002
 20
-81.79999999999998
 30
0.0
 11
15.70000000000002
 21
-75.79999999999998
 31
0.0
  0
LINE
  5
18C
330
11A
100
AcDbEntity
  8
hidden
100
AcDbLine
 10
43.50000000000002
 20
-145.8827253313474
 30
0.0
 11
43.50000000000002
 21
-133.4
 31
0.0
  0
LINE
  5
18D
330
11A
100
AcDbEntity
  8
hidden
100
AcDbLine
 10
15.70000000000002
 20
-75.79999999999998
 30
0.0
 11
9.500000000000023
 21
-75.79999999999998
 31
0.0
  0
LINE
  5
18E
330
11A
100
AcDbEntity
  8
hidden
100
AcDbLine
 10
30.30000000000002
 20
-121.3
 30
0.0
 11
43.50000000000002
 21
-121.3
 31
0.0
  0
LINE
  5
18F
330
11A
100
AcDbEntity
  8
hidden
100
AcDbLine
 10
43.50000000000002
 20
-121.3
 30
0.0
 11
43.50000000000002
 21
-85.3
 31
0.0
  0
LINE
  5
190
330
11A
100
AcDbEntity
  8
hidden
100
AcDbLine
 10
6.000000000000023
 20
-121.3
 30
0.0
 11
19.20000000000002
 21
-121.3
 31
0.0
  0
LINE
  5
191
330
11A
100
AcDbEntity
  8
hidden
100
AcDbLine
 10
9.500000000000023
 20
-81.79999999999998
 30
0.0
 11
6.000000000000023
 21
-85.3
 31
0.0
  0
LINE
  5
192
330
11A
100
AcDbEntity
  8
hidden
100
AcDbLine
 10
9.500000000000023
 20
-75.79999999999998
 30
0.0
 11
9.500000000000023
 21
-81.79999999999998
 31
0.0
  0
LINE
  5
193
330
11A
100
AcDbEntity
  8
hidden
100
AcDbLine
 10
6.000000000000023
 20
-85.3
 30
0.0
 11
6.000000000000023
 21
-121.3
 31
0.0
  0
LINE
  5
194
330
11A
100
AcDbEntity
  8
hidden
100
AcDbLine
 10
19.20000000000002
 20
-138.4209250000001
 30
0.0
 11
19.20000000000002
 21
-133.4
 31
0.0
  0
LINE
  5
195
330
11A
100
AcDbEntity
  8
hidden
100
AcDbLine
 10
9.500000000000023
 20
-123.3
 30
0.0
 11
9.500000000000023
 21
-129.9
 31
0.0
  0
LINE
  5
196
330
11A
100
AcDbEntity
  8
hidden
100
AcDbLine
 10
6.000000000000023
 20
-133.4
 30
0.0
 11
6.000000000000023
 21
-145.8827253313474
 31
0.0
  0
LINE
  5
197
330
11A
100
AcDbEntity
  8
hidden
100
AcDbLine
 10
9.500000000000023
 20
-129.9
 30
0.0
 11
6.000000000000023
 21
-133.4
 31
0.0
  0
LINE
  5
198
330
11A
100
AcDbEntity
  8
hidden
100
AcDbLine
 10
30.30000000000002
 20
-133.4
 30
0.0
 11
30.30000000000002
 21
-138.420925
 31
0.0
  0
LINE
  5
19B
330
11A
100
AcDbEntity
  8
center
100
AcDbLine
 10
49.81250000000002
 20
-65.99999999999999
 30
0.0
 11
42.93750000000002
 21
-65.99999999999999
 31
0.0
  0
LINE
  5
19C
330
11A
100
AcDbEntity
  8
center
100
AcDbLine
 10
-0.3124999999999792
 20
-65.99999999999999
 30
0.0
 11
6.56250000000002
 21
-65.99999999999999
 31
0.0
  0
LINE
  5
19E
330
11A
100
AcDbEntity
  8
bold
100
AcDbLine
 10
45.20844557755574
 20
-75.69999999999999
 30
0.0
 11
45.35875715828563
 21
-75.69999999999999
 31
0.0
  0
LINE
  5
19F
330
11A
100
AcDbEntity
  8
bold
100
AcDbLine
 10
4.141242841714389
 20
-75.69999999999999
 30
0.0
 11
4.291103545549054
 21
-75.69999999999999
 31
0.0
  0
LINE
  5
1A0
330
11A
100
AcDbEntity
  8
bold
100
AcDbLine
 10
1.400000000000026
 20
-80.55769161735965
 30
0.0
 11
1.400000000000026
 21
-80.36414712864705
 31
0.0
  0
LINE
  5
1A1
330
11A
100
AcDbEntity
  8
bold
100
AcDbLine
 10
48.00000000000002
 20
-80.21983935678195
 30
0.0
 11
48.00000000000002
 21
-80.41627940587958
 31
0.0
  0
LINE
  5
1A2
330
11A
100
AcDbEntity
  8
bold
100
AcDbLine
 10
49.31159663916743
 20
-81.99999999999999
 30
0.0
 11
49.18235180239697
 21
-81.99999999999999
 31
0.0
  0
LINE
  5
1A3
330
11A
100
AcDbEntity
  8
bold
100
AcDbLine
 10
0.188403360832555
 20
-81.99999999999999
 30
0.0
 11
0.3176481976030765
 21
-81.99999999999999
 31
0.0
  0
LINE
  5
1A5
330
11A
100
AcDbEntity
  8
light
100
AcDbLine
 10
41.02548293850902
 20
-51.6671482606461
 30
0.0
 11
44.35000000000002
 21
-51.6671482606461
 31
0.0
  0
LINE
  5
1A6
330
11A
100
AcDbEntity
  8
light
100
AcDbLine
 10
5.150000000000019
 20
-51.6671482606461
 30
0.0
 11
8.474517061491014
 21
-51.6671482606461
 31
0.0
  0
LINE
  5
1A7
330
11A
100
AcDbEntity
  8
light
100
AcDbLine
 10
8.579145580083557
 20
-51.6671482606461
 30
0.0
 11
40.92085441991651
 21
-51.6671482606461
 31
0.0
  0
LINE
  5
1A8
330
11A
100
AcDbEntity
  8
bold
100
AcDbLine
 10
47.25000000000002
 20
-146.0
 30
0.0
 11
47.25000000000002
 21
-145.913425
 31
0.0
  0
LINE
  5
1A9
330
11A
100
AcDbEntity
  8
bold
100
AcDbLine
 10
49.50000000000002
 20
-135.6
 30
0.0
 11
49.47525000000002
 21
-135.6
 31
0.0
  0
LINE
  5
1AA
330
11A
100
AcDbEntity
  8
bold
100
AcDbLine
 10
0.0000000000000208
 20
-135.6
 30
0.0
 11
0.0247500000000213
 21
-135.6
 31
0.0
  0
LINE
  5
1AB
330
11A
100
AcDbEntity
  8
bold
100
AcDbLine
 10
2.250000000000023
 20
-146.0
 30
0.0
 11
2.250000000000023
 21
-145.9134250000001
 31
0.0
  0
LWPOLYLINE
  5
1AC
330
11A
100
AcDbEntity
  8
bold
100
AcDbPolyline
 90
        4
 70
     0
 43
0.0
 10
6.273135006025707
 20
-70.20605768537445
 10
7.008368376400329
 20
-67.23355505306868
 10
7.481733287089669
 20
-64.20828388021408
 10
7.595010699409544
 20
-63.01278936672428
  0
LINE
  5
1AD
330
11A
100
AcDbEntity
  8
light
100
AcDbLine
 10
5.150000000000019
 20
-59.15454231462554
 30
0.0
 11
7.894099379994107
 21
-59.15454231462554
 31
0.0
  0
LINE
  5
1AE
330
11A
100
AcDbEntity
  8
bold
100
AcDbLine
 10
12.32267693809909
 20
-2.025846319999997
 30
0.0
 11
7.595010699409544
 21
-63.01278936672428
 31
0.0
  0
LWPOLYLINE
  5
1AF
330
11A
100
AcDbEntity
  8
bold
100
AcDbPolyline
 90
        4
 70
     0
 43
0.0
 10
41.90498930059049
 20
-63.01278936672432
 10
42.27459105375915
 20
-66.05248253413971
 10
42.90771307640225
 20
-69.04839583602639
 10
43.22686499397432
 20
-70.20605768537445
  0
LINE
  5
1B0
330
11A
100
AcDbEntity
  8
light
100
AcDbLine
 10
41.60590062000593
 20
-59.15454231462554
 30
0.0
 11
44.35000000000002
 21
-59.15454231462554
 31
0.0
  0
LINE
  5
1B1
330
11A
100
AcDbEntity
  8
bold
100
AcDbLine
 10
41.90498930059049
 20
-63.01278936672433
 30
0.0
 11
37.17732306190096
 21
-2.025846320000003
 31
0.0
  0
LWPOLYLINE
  5
1B2
330
11A
100
AcDbEntity
  8
bold
100
AcDbPolyline
 90
        4
 70
     0
 43
0.0
 10
41.85945197565574
 20
-63.15462699939845
 10
42.24131473123529
 20
-66.18971802607331
 10
42.88624999647894
 20
-69.17997808298243
 10
43.17160160818337
 20
-70.20605768537445
  0
LWPOLYLINE
  5
1B3
330
11A
100
AcDbEntity
  8
bold
100
AcDbPolyline
 90
        4
 70
     0
 43
0.0
 10
6.328398391816682
 20
-70.20605768537445
 10
7.063848235957564
 20
-67.23676311745868
 10
7.537708397899828
 20
-64.21466893440862
 10
7.640548024344302
 20
-63.15462699939842
  0
LINE
  5
1B4
330
11A
100
AcDbEntity
  8
bold
100
AcDbLine
 10
41.85945197565577
 20
-63.15462699939845
 30
0.0
 11
36.86485521201151
 21
-2.025846319999997
 31
0.0
  0
LINE
  5
1B5
330
11A
100
AcDbEntity
  8
light
100
AcDbLine
 10
7.967379506975243
 20
-59.15454231462555
 30
0.0
 11
41.53262049302482
 21
-59.15454231462554
 31
0.0
  0
LINE
  5
1B6
330
11A
100
AcDbEntity
  8
bold
100
AcDbLine
 10
12.63514478798855
 20
-2.025846319999997
 30
0.0
 11
7.640548024344302
 21
-63.15462699939842
 31
0.0
  0
ARC
  5
1B7
330
11A
100
AcDbEntity
  8
bold
100
AcDbCircle
 10
76.90000000000313
 20
-60.29999999999784
 30
0.0
 40
35.10000000000375
100
AcDbArc
 50
210.6764000744646
 51
218.6820012806073
  0
ARC
  5
1B8
330
11A
100
AcDbEntity
  8
bold
100
AcDbCircle
 10
-27.40000000000467
 20
-60.29999999999658
 30
0.0
 40
35.10000000000573
100
AcDbArc
 50
321.3179987193928
 51
329.3235999255349
  0
LINE
  5
1B9
330
11A
100
AcDbEntity
  8
bold
100
AcDbLine
 10
0.0000000000000208
 20
-150.0
 30
0.0
 11
49.50000000000002
 21
-150.0
 31
0.0
  0
ARC
  5
1BA
330
11A
100
AcDbEntity
  8
bold
100
AcDbCircle
 10
31.41735930999996
 20
-141.5000000000001
 30
0.0
 40
3.000000000000145
100
AcDbArc
 50
44.99999999340431
 51
89.99999999999892
  0
LINE
  5
1BB
330
11A
100
AcDbEntity
  8
bold
100
AcDbLine
 10
49.50000000000002
 20
-146.0
 30
0.0
 11
44.30213562000003
 21
-146.0
 31
0.0
  0
LINE
  5
1BC
330
11A
100
AcDbEntity
  8
bold
100
AcDbLine
 10
31.41735931000002
 20
-138.5
 30
0.0
 11
18.08264069000003
 21
-138.5
 31
0.0
  0
ARC
  5
1BD
330
11A
100
AcDbEntity
  8
bold
100
AcDbCircle
 10
18.0826406900001
 20
-141.4999999999999
 30
0.0
 40
2.999999999999886
100
AcDbArc
 50
90.00000000000136
 51
135.0000000065976
  0
ARC
  5
1BE
330
11A
100
AcDbEntity
  8
bold
100
AcDbCircle
 10
5.197864379999803
 20
-135.9999999999997
 30
0.0
 40
10.00000000000026
100
AcDbArc
 50
270.0000000000013
 51
315.0000000065947
  0
LINE
  5
1BF
330
11A
100
AcDbEntity
  8
bold
100
AcDbLine
 10
5.197864380000021
 20
-146.0
 30
0.0
 11
0.0000000000000208
 21
-146.0
 31
0.0
  0
ARC
  5
1C0
330
11A
100
AcDbEntity
  8
bold
100
AcDbCircle
 10
44.30213562000009
 20
-135.9999999999999
 30
0.0
 40
10.00000000000015
100
AcDbArc
 50
224.9999999934037
 51
269.9999999999997
  0
LINE
  5
1C1
330
11A
100
AcDbEntity
  8
bold
100
AcDbLine
 10
37.23106780732044
 20
-143.0710678110514
 30
0.0
 11
33.5386796538039
 21
-139.3786796566846
 31
0.0
  0
LINE
  5
1C2
330
11A
100
AcDbEntity
  8
bold
100
AcDbLine
 10
15.96132034619627
 20
-139.3786796566846
 30
0.0
 11
12.26893219267934
 21
-143.0710678110515
 31
0.0
  0
LWPOLYLINE
  5
1C3
330
11A
100
AcDbEntity
  8
bold
100
AcDbPolyline
 90
        7
 70
     0
 43
0.0
 10
46.71180662058136
 20
-78.20762352984956
 10
45.92978255646133
 20
-76.81813443156324
 10
45.21553957405654
 20
-75.40314429239223
 10
44.55616269330176
 20
-73.93368059876371
 10
43.97434732880786
 20
-72.46188292066718
 10
43.57793155864699
 20
-71.32949476584417
 10
43.2268649939743
 20
-70.20605768537445
  0
LINE
  5
1C4
330
11A
100
AcDbEntity
  8
bold
100
AcDbLine
 10
44.35000000000002
 20
-71.69999999999999
 30
0.0
 11
49.50000000000002
 21
-71.69999999999999
 31
0.0
  0
LINE
  5
1C5
330
11A
100
AcDbEntity
  8
bold
100
AcDbLine
 10
44.35000000000002
 20
-71.69999999999999
 30
0.0
 11
44.35000000000002
 21
-2.025846319999997
 31
0.0
  0
LINE
  5
1C6
330
11A
100
AcDbEntity
  8
light
100
AcDbLine
 10
43.2268649939743
 20
-70.20605768537445
 30
0.0
 11
44.35000000000002
 21
-70.20605768537445
 31
0.0
  0
LINE
  5
1C7
330
11A
100
AcDbEntity
  8
bold
100
AcDbLine
 10
49.50000000000002
 20
-78.20762352984956
 30
0.0
 11
46.71180662058136
 21
-78.20762352984956
 31
0.0
  0
LINE
  5
1C8
330
11A
100
AcDbEntity
  8
bold
100
AcDbLine
 10
49.50000000000002
 20
-71.69999999999999
 30
0.0
 11
49.50000000000002
 21
-150.0
 31
0.0
  0
LWPOLYLINE
  5
1C9
330
11A
100
AcDbEntity
  8
bold
100
AcDbPolyline
 90
        7
 70
     0
 43
0.0
 10
6.27313500602572
 20
-70.20605768537445
 10
5.827549522730385
 20
-71.61070795943746
 10
5.308185958448015
 20
-73.03517064304926
 10
4.694835622681272
 20
-74.50994988699702
 10
4.004484659633379
 20
-75.97700045489731
 10
3.41891441874792
 20
-77.09894383733365
 10
2.788193379418658
 20
-78.20762352984956
  0
LINE
  5
1CA
330
11A
100
AcDbEntity
  8
bold
100
AcDbLine
 10
5.150000000000019
 20
-71.69999999999999
 30
0.0
 11
5.150000000000019
 21
-2.025846319999997
 31
0.0
  0
LINE
  5
1CB
330
11A
100
AcDbEntity
  8
bold
100
AcDbLine
 10
5.150000000000019
 20
-71.69999999999999
 30
0.0
 11
0.0000000000000208
 21
-71.69999999999999
 31
0.0
  0
LINE
  5
1CC
330
11A
100
AcDbEntity
  8
bold
100
AcDbLine
 10
0.0000000000000208
 20
-150.0
 30
0.0
 11
0.0000000000000208
 21
-71.69999999999999
 31
0.0
  0
LINE
  5
1CD
330
11A
100
AcDbEntity
  8
bold
100
AcDbLine
 10
2.788193379418658
 20
-78.20762352984956
 30
0.0
 11
0.0000000000000208
 21
-78.20762352984956
 31
0.0
  0
LINE
  5
1CE
330
11A
100
AcDbEntity
  8
light
100
AcDbLine
 10
5.150000000000019
 20
-70.20605768537445
 30
0.0
 11
6.27313500602572
 21
-70.20605768537445
 31
0.0
  0
LINE
  5
1CF
330
11A
100
AcDbEntity
  8
bold
100
AcDbLine
 10
0.0247500000000213
 20
-82.36498625392571
 30
0.0
 11
0.0247500000000213
 21
-145.9134250000001
 31
0.0
  0
LINE
  5
1D0
330
11A
100
AcDbEntity
  8
bold
100
AcDbLine
 10
0.0247500000000213
 20
-145.9134250000001
 30
0.0
 11
5.217416515620021
 21
-145.9134250000001
 31
0.0
  0
LINE
  5
1D1
330
11A
100
AcDbEntity
  8
bold
100
AcDbLine
 10
33.52989097415009
 20
-139.2987259770279
 30
0.0
 11
37.21858673951313
 21
-142.9874217432403
 31
0.0
  0
LINE
  5
1D2
330
11A
100
AcDbEntity
  8
bold
100
AcDbLine
 10
44.28258348438002
 20
-145.913425
 30
0.0
 11
49.47525000000002
 21
-145.913425
 31
0.0
  0
LINE
  5
1D3
330
11A
100
AcDbEntity
  8
bold
100
AcDbLine
 10
18.08930804931002
 20
-138.4209250000001
 30
0.0
 11
31.41069195069001
 21
-138.420925
 31
0.0
  0
LINE
  5
1D4
330
11A
100
AcDbEntity
  8
bold
100
AcDbLine
 10
12.28141326048665
 20
-142.9874217432406
 30
0.0
 11
15.97010902585008
 21
-139.298725977028
 31
0.0
  0
ARC
  5
1D5
330
11A
100
AcDbEntity
  8
bold
100
AcDbCircle
 10
5.217416515620003
 20
-135.9234250000003
 30
0.0
 40
9.989999999999753
100
AcDbArc
 50
270.0000000000001
 51
315.0000000065958
  0
ARC
  5
1D6
330
11A
100
AcDbEntity
  8
bold
100
AcDbCircle
 10
44.28258348437996
 20
-135.9234250000002
 30
0.0
 40
9.98999999999981
100
AcDbArc
 50
224.999999993403
 51
270.0000000000004
  0
ARC
  5
1D7
330
11A
100
AcDbEntity
  8
bold
100
AcDbCircle
 10
76.59809999998876
 20
-60.29912500000802
 30
0.0
 40
34.9649999999862
100
AcDbArc
 50
212.023669399685
 51
219.1301628681694
  0
ARC
  5
1D8
330
11A
100
AcDbEntity
  8
bold
100
AcDbCircle
 10
-27.09809999999597
 20
-60.29912500000295
 30
0.0
 40
34.96499999999503
100
AcDbArc
 50
320.8698371318316
 51
327.9763306003143
  0
ARC
  5
1D9
330
11A
100
AcDbEntity
  8
bold
100
AcDbCircle
 10
18.08930804931017
 20
-141.4179250000001
 30
0.0
 40
2.997000000000071
100
AcDbArc
 50
90.00000000000284
 51
135.0000000065959
  0
ARC
  5
1DA
330
11A
100
AcDbEntity
  8
bold
100
AcDbCircle
 10
31.41069195068989
 20
-141.4179250000002
 30
0.0
 40
2.997000000000219
100
AcDbArc
 50
44.99999999340428
 51
89.99999999999771
  0
LINE
  5
1DB
330
11A
100
AcDbEntity
  8
bold
100
AcDbLine
 10
49.47525000000002
 20
-145.913425
 30
0.0
 11
49.47525000000002
 21
-82.36498625392571
 31
0.0
  0
LWPOLYLINE
  5
1DC
330
11A
100
AcDbEntity
  8
bold
100
AcDbPolyline
 90
        3
 70
     0
 43
0.0
 10
43.93410315935183
 20
-72.49999999999999
 10
43.52940039334147
 20
-71.34852957714888
 10
43.17160160818337
 20
-70.20605768537445
  0
LINE
  5
1DD
330
11A
100
AcDbEntity
  8
light
100
AcDbLine
 10
6.328398391816682
 20
-70.20605768537445
 30
0.0
 11
43.17160160818337
 21
-70.20605768537445
 31
0.0
  0
LWPOLYLINE
  5
1DE
330
11A
100
AcDbEntity
  8
bold
100
AcDbPolyline
 90
        3
 70
     0
 43
0.0
 10
6.328398391816682
 20
-70.20605768537445
 10
5.972527396116874
 20
-71.3427217850263
 10
5.565896840648232
 20
-72.49999999999999
  0
LINE
  5
1DF
330
11A
100
AcDbEntity
  8
bold
100
AcDbLine
 10
5.669107299896284
 20
-72.49999999999999
 30
0.0
 11
5.565896840648232
 21
-72.49999999999999
 31
0.0
  0
LWPOLYLINE
  5
1E0
330
11A
100
AcDbEntity
  8
bold
100
AcDbPolyline
 90
        7
 70
     0
 43
0.0
 10
2.546244810340745
 20
-78.83999999999997
 10
3.153281936636776
 20
-77.83187674324171
 10
3.725464720412172
 20
-76.80522555842703
 10
4.260233304216505
 20
-75.76541600274743
 10
4.772114098298644
 20
-74.68070807736004
 10
5.242331629353839
 20
-73.58961024670002
 10
5.669107299896284
 20
-72.49999999999999
  0
LINE
  5
1E1
330
11A
100
AcDbEntity
  8
light
100
AcDbLine
 10
2.546244810340745
 20
-78.83999999999997
 30
0.0
 11
46.95375518965929
 21
-78.83999999999997
 31
0.0
  0
LWPOLYLINE
  5
1E2
330
11A
100
AcDbEntity
  8
bold
100
AcDbPolyline
 90
        7
 70
     0
 43
0.0
 10
43.83089270010375
 20
-72.49999999999997
 10
44.2429730099367
 20
-73.55384467011866
 10
44.6957032978011
 20
-74.6092224240872
 10
45.18749581637562
 20
-75.65898078772395
 10
45.73707382604012
 20
-76.73504350972074
 10
46.32676621813456
 20
-77.79737344577057
 10
46.95375518965929
 20
-78.83999999999997
  0
LINE
  5
1E3
330
11A
100
AcDbEntity
  8
bold
100
AcDbLine
 10
43.93410315935183
 20
-72.49999999999999
 30
0.0
 11
43.83089270010375
 21
-72.49999999999997
 31
0.0
  0
ENDBLK
  5
11D
330
11A
100
AcDbEntity
  8
0
100
AcDbBlockEnd
  0
BLOCK
  5
1E6
330
1E4
100
AcDbEntity
  8
0
100
AcDbBlockBegin
  2
8_Housing_0_in_33801_0
 70
     2
 10
0.0
 20
0.0
 30
0.0
  3
8_Housing_0_in_33801_0
  1

  0
ATTDEF
  5
1E8
330
1E4
100
AcDbEntity
  8
attrib
100
AcDbText
 10
55.60000000000002
 20
15.50000000000001
 30
0.0
 40
0.5
  1
Housing
100
AcDbAttributeDefinition
  3

  2
NB
 70
     8
280
     0
  0
ATTDEF
  5
1E9
330
1E4
100
AcDbEntity
  8
attrib
100
AcDbText
 10
55.60000000000002
 20
15.00000000000001
 30
0.0
 40
0.5
  1
33800 Housing
100
AcDbAttributeDefinition
  3

  2
NN
 70
     8
280
     0
  0
ATTDEF
  5
1EA
330
1E4
100
AcDbEntity
  8
attrib
100
AcDbText
 10
55.60000000000002
 20
14.50000000000001
 30
0.0
 40
0.5
  1
NH fuse switch-disconnector size 000, 125 A
100
AcDbAttributeDefinition
  3

  2
NT
 70
     8
280
     0
  0
ATTDEF
  5
1EB
330
1E4
100
AcDbEntity
  8
attrib
100
AcDbText
 10
55.60000000000002
 20
14.00000000000001
 30
0.0
 40
0.5
  1
$MODEL.
100
AcDbAttributeDefinition
  3

  2
NBSYN
 70
     8
280
     0
  0
ATTDEF
  5
1EC
330
1E4
100
AcDbEntity
  8
attrib
100
AcDbText
 10
55.60000000000002
 20
13.50000000000001
 30
0.0
 40
0.5
  1
Housing
100
AcDbAttributeDefinition
  3

  2
LINA
 70
     8
280
     0
  0
ATTDEF
  5
1ED
330
1E4
100
AcDbEntity
  8
attrib
100
AcDbText
 10
55.60000000000002
 20
13.00000000000001
 30
0.0
 40
0.5
  1
Wöhner
100
AcDbAttributeDefinition
  3

  2
CATALOG
 70
     8
280
     0
  0
ATTDEF
  5
1EE
330
1E4
100
AcDbEntity
  8
attrib
100
AcDbText
 10
55.60000000000002
 20
12.50000000000001
 30
0.0
 40
0.5
  1
QUADRON®
100
AcDbAttributeDefinition
  3

  2
SYSTEM
 70
     8
280
     0
  0
ATTDEF
  5
1EF
330
1E4
100
AcDbEntity
  8
attrib
100
AcDbText
 10
55.60000000000002
 20
12.00000000000001
 30
0.0
 40
0.5
  1
Housing
100
AcDbAttributeDefinition
  3

  2
MODEL
 70
     8
280
     0
  0
ATTDEF
  5
1F0
330
1E4
100
AcDbEntity
  8
attrib
100
AcDbText
 10
55.60000000000002
 20
11.50000000000001
 30
0.0
 40
0.5
  1
woehner
100
AcDbAttributeDefinition
  3

  2
COMPANY
 70
     8
280
     0
  0
ATTDEF
  5
1F1
330
1E4
100
AcDbEntity
  8
attrib
100
AcDbText
 10
55.60000000000002
 20
11.00000000000001
 30
0.0
 40
0.5
  1
{$CADENAS_DATA/23d-libs/woehner/sys_crossboard/nh_fuse_sw_disc/parts/33800_housing.prj},174 {VTYP=3D},{NB=Housing},{LINA=Housing},{NN=33800 Housing},{DATE=09.03.2023 07:16:49},{GEOMDATE=13.01.2023 10:47:07},{VERSION=v220912111802},{LINEID=10},{WBVAR=},{WB
100
AcDbAttributeDefinition
  3

  2
PSOL_0
 70
     9
280
     0
  0
ATTDEF
  5
1F2
330
1E4
100
AcDbEntity
  8
attrib
100
AcDbText
 10
55.60000000000002
 20
10.50000000000001
 30
0.0
 40
0.5
  1
NUMERIC=}  {NB=Housing},{LINA=Housing},{KT=DUMMY},{SYSTEM=QUADRON},{MODEL=Housing}
100
AcDbAttributeDefinition
  3

  2
PSOL_1
 70
     9
280
     0
  0
LINE
  5
1F3
330
1E4
100
AcDbEntity
  8
hidden
100
AcDbLine
 10
14.75000000000002
 20
0.5000000000000282
 30
0.0
 11
14.75000000000002
 21
-12.49999999999996
 31
0.0
  0
LINE
  5
1F4
330
1E4
100
AcDbEntity
  8
hidden
100
AcDbLine
 10
16.75000000000002
 20
0.5000000000000282
 30
0.0
 11
14.75000000000002
 21
0.5000000000000282
 31
0.0
  0
LINE
  5
1F5
330
1E4
100
AcDbEntity
  8
hidden
100
AcDbLine
 10
14.75000000000002
 20
-12.49999999999996
 30
0.0
 11
16.75000000000002
 21
-12.49999999999996
 31
0.0
  0
LINE
  5
1F6
330
1E4
100
AcDbEntity
  8
hidden
100
AcDbLine
 10
37.25000000000002
 20
-12.49999999999996
 30
0.0
 11
39.25000000000002
 21
-12.49999999999996
 31
0.0
  0
LINE
  5
1F7
330
1E4
100
AcDbEntity
  8
hidden
100
AcDbLine
 10
28.25000000000002
 20
-59.49999999999997
 30
0.0
 11
28.25000000000002
 21
-72.49999999999996
 31
0.0
  0
LINE
  5
1F8
330
1E4
100
AcDbEntity
  8
hidden
100
AcDbLine
 10
30.25000000000002
 20
-59.49999999999997
 30
0.0
 11
28.25000000000002
 21
-59.49999999999997
 31
0.0
  0
LINE
  5
1F9
330
1E4
100
AcDbEntity
  8
hidden
100
AcDbLine
 10
37.25000000000002
 20
0.5000000000000282
 30
0.0
 11
37.25000000000002
 21
-12.49999999999996
 31
0.0
  0
LINE
  5
1FA
330
1E4
100
AcDbEntity
  8
hidden
100
AcDbLine
 10
39.25000000000002
 20
0.5000000000000282
 30
0.0
 11
37.25000000000002
 21
0.5000000000000282
 31
0.0
  0
LINE
  5
1FB
330
1E4
100
AcDbEntity
  8
hidden
100
AcDbLine
 10
39.25000000000002
 20
-12.49999999999996
 30
0.0
 11
39.25000000000002
 21
0.5000000000000282
 31
0.0
  0
LINE
  5
1FC
330
1E4
100
AcDbEntity
  8
hidden
100
AcDbLine
 10
28.25000000000002
 20
-119.5
 30
0.0
 11
28.25000000000002
 21
-132.5
 31
0.0
  0
LINE
  5
1FD
330
1E4
100
AcDbEntity
  8
hidden
100
AcDbLine
 10
30.25000000000002
 20
-119.5
 30
0.0
 11
28.25000000000002
 21
-119.5
 31
0.0
  0
LINE
  5
1FE
330
1E4
100
AcDbEntity
  8
hidden
100
AcDbLine
 10
30.25000000000002
 20
-132.5
 30
0.0
 11
30.25000000000002
 21
-119.5
 31
0.0
  0
LINE
  5
1FF
330
1E4
100
AcDbEntity
  8
hidden
100
AcDbLine
 10
16.75000000000002
 20
-12.49999999999996
 30
0.0
 11
16.75000000000002
 21
0.5000000000000282
 31
0.0
  0
LINE
  5
200
330
1E4
100
AcDbEntity
  8
hidden
100
AcDbLine
 10
5.750000000000022
 20
-119.5
 30
0.0
 11
5.750000000000022
 21
-132.5
 31
0.0
  0
LINE
  5
201
330
1E4
100
AcDbEntity
  8
hidden
100
AcDbLine
 10
7.75000000000002
 20
-132.5
 30
0.0
 11
7.75000000000002
 21
-119.5
 31
0.0
  0
LINE
  5
202
330
1E4
100
AcDbEntity
  8
hidden
100
AcDbLine
 10
39.25000000000002
 20
-72.49999999999996
 30
0.0
 11
39.25000000000002
 21
-59.49999999999997
 31
0.0
  0
LINE
  5
203
330
1E4
100
AcDbEntity
  8
hidden
100
AcDbLine
 10
14.75000000000002
 20
-59.49999999999997
 30
0.0
 11
14.75000000000002
 21
-72.49999999999996
 31
0.0
  0
LINE
  5
204
330
1E4
100
AcDbEntity
  8
hidden
100
AcDbLine
 10
16.75000000000002
 20
-72.49999999999996
 30
0.0
 11
16.75000000000002
 21
-59.49999999999997
 31
0.0
  0
LINE
  5
205
330
1E4
100
AcDbEntity
  8
hidden
100
AcDbLine
 10
30.25000000000002
 20
-72.49999999999996
 30
0.0
 11
30.25000000000002
 21
-59.49999999999997
 31
0.0
  0
LINE
  5
206
330
1E4
100
AcDbEntity
  8
hidden
100
AcDbLine
 10
37.25000000000002
 20
-119.5
 30
0.0
 11
37.25000000000002
 21
-132.5
 31
0.0
  0
LINE
  5
207
330
1E4
100
AcDbEntity
  8
hidden
100
AcDbLine
 10
39.25000000000002
 20
-132.5
 30
0.0
 11
39.25000000000002
 21
-119.5
 31
0.0
  0
LINE
  5
208
330
1E4
100
AcDbEntity
  8
hidden
100
AcDbLine
 10
37.25000000000002
 20
-132.5
 30
0.0
 11
39.25000000000002
 21
-132.5
 31
0.0
  0
LINE
  5
209
330
1E4
100
AcDbEntity
  8
hidden
100
AcDbLine
 10
14.75000000000002
 20
-119.5
 30
0.0
 11
14.75000000000002
 21
-132.5
 31
0.0
  0
LINE
  5
20A
330
1E4
100
AcDbEntity
  8
hidden
100
AcDbLine
 10
16.75000000000002
 20
-119.5
 30
0.0
 11
14.75000000000002
 21
-119.5
 31
0.0
  0
LINE
  5
20B
330
1E4
100
AcDbEntity
  8
hidden
100
AcDbLine
 10
16.75000000000002
 20
-132.5
 30
0.0
 11
16.75000000000002
 21
-119.5
 31
0.0
  0
LINE
  5
20C
330
1E4
100
AcDbEntity
  8
hidden
100
AcDbLine
 10
14.75000000000002
 20
-132.5
 30
0.0
 11
16.75000000000002
 21
-132.5
 31
0.0
  0
LINE
  5
20D
330
1E4
100
AcDbEntity
  8
hidden
100
AcDbLine
 10
28.25000000000002
 20
-132.5
 30
0.0
 11
30.25000000000002
 21
-132.5
 31
0.0
  0
LINE
  5
20E
330
1E4
100
AcDbEntity
  8
hidden
100
AcDbLine
 10
28.25000000000002
 20
0.5000000000000282
 30
0.0
 11
28.25000000000002
 21
-12.49999999999996
 31
0.0
  0
LINE
  5
20F
330
1E4
100
AcDbEntity
  8
hidden
100
AcDbLine
 10
30.25000000000002
 20
0.5000000000000282
 30
0.0
 11
28.25000000000002
 21
0.5000000000000282
 31
0.0
  0
LINE
  5
210
330
1E4
100
AcDbEntity
  8
hidden
100
AcDbLine
 10
30.25000000000002
 20
-12.49999999999996
 30
0.0
 11
30.25000000000002
 21
0.5000000000000282
 31
0.0
  0
LINE
  5
211
330
1E4
100
AcDbEntity
  8
hidden
100
AcDbLine
 10
28.25000000000002
 20
-12.49999999999996
 30
0.0
 11
30.25000000000002
 21
-12.49999999999996
 31
0.0
  0
LINE
  5
212
330
1E4
100
AcDbEntity
  8
hidden
100
AcDbLine
 10
5.750000000000022
 20
-132.5
 30
0.0
 11
7.75000000000002
 21
-132.5
 31
0.0
  0
LINE
  5
213
330
1E4
100
AcDbEntity
  8
hidden
100
AcDbLine
 10
5.750000000000022
 20
0.5000000000000282
 30
0.0
 11
5.750000000000022
 21
-12.49999999999996
 31
0.0
  0
LINE
  5
214
330
1E4
100
AcDbEntity
  8
hidden
100
AcDbLine
 10
7.75000000000002
 20
0.5000000000000282
 30
0.0
 11
5.750000000000022
 21
0.5000000000000282
 31
0.0
  0
LINE
  5
215
330
1E4
100
AcDbEntity
  8
hidden
100
AcDbLine
 10
7.75000000000002
 20
-12.49999999999996
 30
0.0
 11
7.75000000000002
 21
0.5000000000000282
 31
0.0
  0
LINE
  5
216
330
1E4
100
AcDbEntity
  8
hidden
100
AcDbLine
 10
5.750000000000022
 20
-12.49999999999996
 30
0.0
 11
7.75000000000002
 21
-12.49999999999996
 31
0.0
  0
LINE
  5
217
330
1E4
100
AcDbEntity
  8
hidden
100
AcDbLine
 10
16.75000000000002
 20
-59.49999999999997
 30
0.0
 11
14.75000000000002
 21
-59.49999999999997
 31
0.0
  0
LINE
  5
218
330
1E4
100
AcDbEntity
  8
hidden
100
AcDbLine
 10
5.750000000000022
 20
-59.49999999999997
 30
0.0
 11
5.750000000000022
 21
-72.49999999999996
 31
0.0
  0
LINE
  5
219
330
1E4
100
AcDbEntity
  8
hidden
100
AcDbLine
 10
7.75000000000002
 20
-59.49999999999997
 30
0.0
 11
5.750000000000022
 21
-59.49999999999997
 31
0.0
  0
LINE
  5
21A
330
1E4
100
AcDbEntity
  8
hidden
100
AcDbLine
 10
7.75000000000002
 20
-72.49999999999996
 30
0.0
 11
7.75000000000002
 21
-59.49999999999997
 31
0.0
  0
LINE
  5
21B
330
1E4
100
AcDbEntity
  8
hidden
100
AcDbLine
 10
39.25000000000002
 20
-119.5
 30
0.0
 11
37.25000000000002
 21
-119.5
 31
0.0
  0
LINE
  5
21C
330
1E4
100
AcDbEntity
  8
hidden
100
AcDbLine
 10
7.75000000000002
 20
-119.5
 30
0.0
 11
5.750000000000022
 21
-119.5
 31
0.0
  0
LINE
  5
21D
330
1E4
100
AcDbEntity
  8
hidden
100
AcDbLine
 10
37.25000000000002
 20
-59.49999999999997
 30
0.0
 11
37.25000000000002
 21
-72.49999999999996
 31
0.0
  0
LINE
  5
21E
330
1E4
100
AcDbEntity
  8
hidden
100
AcDbLine
 10
39.25000000000002
 20
-59.49999999999997
 30
0.0
 11
37.25000000000002
 21
-59.49999999999997
 31
0.0
  0
LINE
  5
21F
330
1E4
100
AcDbEntity
  8
hidden
100
AcDbLine
 10
40.70000000000002
 20
-137.0
 30
0.0
 11
40.70000000000002
 21
-159.0
 31
0.0
  0
LINE
  5
220
330
1E4
100
AcDbEntity
  8
hidden
100
AcDbLine
 10
8.800000000000024
 20
-137.0
 30
0.0
 11
8.800000000000024
 21
-159.0
 31
0.0
  0
LINE
  5
221
330
1E4
100
AcDbEntity
  8
hidden
100
AcDbLine
 10
8.500000000000021
 20
11.15000000000002
 30
0.0
 11
37.00000000000002
 21
11.15000000000002
 31
0.0
  0
LINE
  5
222
330
1E4
100
AcDbEntity
  8
hidden
100
AcDbLine
 10
24.75000000000002
 20
-137.0
 30
0.0
 11
24.75000000000002
 21
-159.0
 31
0.0
  0
LINE
  5
223
330
1E4
100
AcDbEntity
  8
hidden
100
AcDbLine
 10
4.450000000000023
 20
-57.64999941
 30
0.0
 11
2.250000000000023
 21
-57.64999941
 31
0.0
  0
LINE
  5
224
330
1E4
100
AcDbEntity
  8
hidden
100
AcDbLine
 10
45.05000000000002
 20
-57.64999941
 30
0.0
 11
47.25000000000003
 21
-57.64999941
 31
0.0
  0
LINE
  5
225
330
1E4
100
AcDbEntity
  8
hidden
100
AcDbLine
 10
8.500000000000021
 20
11.15000000000002
 30
0.0
 11
8.500000000000021
 21
14.00000000000001
 31
0.0
  0
LINE
  5
226
330
1E4
100
AcDbEntity
  8
hidden
100
AcDbLine
 10
37.00000000000002
 20
11.15000000000002
 30
0.0
 11
37.00000000000003
 21
14.00000000000001
 31
0.0
  0
LINE
  5
227
330
1E4
100
AcDbEntity
  8
hidden
100
AcDbLine
 10
2.250000000000023
 20
-74.99166274701183
 30
0.0
 11
4.450000000000023
 21
-74.9916627479726
 31
0.0
  0
LINE
  5
228
330
1E4
100
AcDbEntity
  8
hidden
100
AcDbLine
 10
45.05000000000002
 20
-74.9916627479726
 30
0.0
 11
47.25000000000003
 21
-74.99166274701183
 31
0.0
  0
LINE
  5
229
330
1E4
100
AcDbEntity
  8
hidden
100
AcDbLine
 10
3.600000000000023
 20
-137.0
 30
0.0
 11
3.600000000000023
 21
-159.0
 31
0.0
  0
LINE
  5
22A
330
1E4
100
AcDbEntity
  8
hidden
100
AcDbLine
 10
14.00000000000002
 20
-137.0
 30
0.0
 11
14.00000000000002
 21
-159.0
 31
0.0
  0
LINE
  5
22B
330
1E4
100
AcDbEntity
  8
hidden
100
AcDbLine
 10
14.00000000000002
 20
-137.0
 30
0.0
 11
3.600000000000023
 21
-137.0
 31
0.0
  0
LINE
  5
22C
330
1E4
100
AcDbEntity
  8
hidden
100
AcDbLine
 10
45.90000000000003
 20
-137.0
 30
0.0
 11
35.50000000000001
 21
-137.0
 31
0.0
  0
LINE
  5
22D
330
1E4
100
AcDbEntity
  8
hidden
100
AcDbLine
 10
45.90000000000003
 20
-137.0
 30
0.0
 11
45.90000000000003
 21
-159.0
 31
0.0
  0
LINE
  5
22E
330
1E4
100
AcDbEntity
  8
hidden
100
AcDbLine
 10
35.50000000000001
 20
-137.0
 30
0.0
 11
35.50000000000001
 21
-159.0
 31
0.0
  0
LINE
  5
22F
330
1E4
100
AcDbEntity
  8
hidden
100
AcDbLine
 10
4.450000000000022
 20
-66.17368590173736
 30
0.0
 11
0.1000000000000237
 21
-66.17368590173736
 31
0.0
  0
LINE
  5
230
330
1E4
100
AcDbEntity
  8
hidden
100
AcDbLine
 10
4.450000000000022
 20
-17.57011625541966
 30
0.0
 11
0.2500000000000206
 21
-17.57011625541966
 31
0.0
  0
LINE
  5
231
330
1E4
100
AcDbEntity
  8
hidden
100
AcDbLine
 10
45.05000000000002
 20
-66.17368590173736
 30
0.0
 11
49.40000000000002
 21
-66.17368590173736
 31
0.0
  0
LINE
  5
232
330
1E4
100
AcDbEntity
  8
hidden
100
AcDbLine
 10
45.05000000000002
 20
-17.57011625541966
 30
0.0
 11
49.25000000000002
 21
-17.57011625541966
 31
0.0
  0
LINE
  5
233
330
1E4
100
AcDbEntity
  8
hidden
100
AcDbLine
 10
29.95000000000002
 20
-137.0
 30
0.0
 11
19.55000000000002
 21
-137.0
 31
0.0
  0
LINE
  5
234
330
1E4
100
AcDbEntity
  8
hidden
100
AcDbLine
 10
29.95000000000002
 20
-137.0
 30
0.0
 11
29.95000000000002
 21
-159.0
 31
0.0
  0
LINE
  5
235
330
1E4
100
AcDbEntity
  8
hidden
100
AcDbLine
 10
19.55000000000002
 20
-137.0
 30
0.0
 11
19.55000000000002
 21
-159.0
 31
0.0
  0
LINE
  5
236
330
1E4
100
AcDbEntity
  8
hidden
100
AcDbLine
 10
44.35000000000002
 20
14.00000000000001
 30
0.0
 11
49.50000000000002
 21
14.00000000000001
 31
0.0
  0
LINE
  5
237
330
1E4
100
AcDbEntity
  8
hidden
100
AcDbLine
 10
0.0000000000000208
 20
14.00000000000001
 30
0.0
 11
5.15000000000002
 21
14.00000000000001
 31
0.0
  0
LINE
  5
238
330
1E4
100
AcDbEntity
  8
hidden
100
AcDbLine
 10
45.05000000000002
 20
-17.52344429126249
 30
0.0
 11
49.25000000000002
 21
-17.52344429126249
 31
0.0
  0
LINE
  5
239
330
1E4
100
AcDbEntity
  8
hidden
100
AcDbLine
 10
4.450000000000022
 20
-17.52344429126249
 30
0.0
 11
0.2500000000000206
 21
-17.52344429126249
 31
0.0
  0
LINE
  5
23A
330
1E4
100
AcDbEntity
  8
hidden
100
AcDbLine
 10
45.05000000000002
 20
-7.39999999999999
 30
0.0
 11
49.25000000000002
 21
-7.39999999999999
 31
0.0
  0
LINE
  5
23B
330
1E4
100
AcDbEntity
  8
hidden
100
AcDbLine
 10
4.450000000000023
 20
-7.39999999999999
 30
0.0
 11
0.250000000000021
 21
-7.39999999999999
 31
0.0
  0
LINE
  5
23C
330
1E4
100
AcDbEntity
  8
hidden
100
AcDbLine
 10
5.150000000000019
 20
14.00000000000001
 30
0.0
 11
5.150000000000019
 21
14.1970525
 31
0.0
  0
LINE
  5
23D
330
1E4
100
AcDbEntity
  8
hidden
100
AcDbLine
 10
44.35000000000002
 20
14.00000000000001
 30
0.0
 11
44.35000000000002
 21
14.1970525
 31
0.0
  0
LINE
  5
23E
330
1E4
100
AcDbEntity
  8
hidden
100
AcDbLine
 10
47.25000000000002
 20
-75.56273262990234
 30
0.0
 11
49.40000000000002
 21
-75.56273262990234
 31
0.0
  0
LINE
  5
23F
330
1E4
100
AcDbEntity
  8
hidden
100
AcDbLine
 10
0.1000000000000237
 20
-75.56273262990234
 30
0.0
 11
2.250000000000023
 21
-75.56273262990234
 31
0.0
  0
LINE
  5
240
330
1E4
100
AcDbEntity
  8
hidden
100
AcDbLine
 10
47.25000000000003
 20
-76.66467892417207
 30
0.0
 11
49.50000000000002
 21
-76.66467892417208
 31
0.0
  0
LINE
  5
241
330
1E4
100
AcDbEntity
  8
hidden
100
AcDbLine
 10
44.35000000000003
 20
-76.66467892417208
 30
0.0
 11
45.05000000000002
 21
-76.66467892417208
 31
0.0
  0
LINE
  5
242
330
1E4
100
AcDbEntity
  8
hidden
100
AcDbLine
 10
2.250000000000023
 20
-76.66467892417207
 30
0.0
 11
0.0000000000000208
 21
-76.66467892417208
 31
0.0
  0
LINE
  5
243
330
1E4
100
AcDbEntity
  8
hidden
100
AcDbLine
 10
5.150000000000019
 20
-76.66467892417208
 30
0.0
 11
4.450000000000023
 21
-76.66467892417208
 31
0.0
  0
LINE
  5
244
330
1E4
100
AcDbEntity
  8
hidden
100
AcDbLine
 10
44.35000000000003
 20
-77.2165051756205
 30
0.0
 11
45.05000000000002
 21
-77.2165051756205
 31
0.0
  0
LINE
  5
245
330
1E4
100
AcDbEntity
  8
hidden
100
AcDbLine
 10
5.150000000000019
 20
-77.2165051756205
 30
0.0
 11
4.450000000000023
 21
-77.2165051756205
 31
0.0
  0
LINE
  5
246
330
1E4
100
AcDbEntity
  8
hidden
100
AcDbLine
 10
47.25000000000003
 20
-77.2165051756205
 30
0.0
 11
49.50000000000002
 21
-77.2165051756205
 31
0.0
  0
LINE
  5
247
330
1E4
100
AcDbEntity
  8
hidden
100
AcDbLine
 10
2.250000000000023
 20
-77.2165051756205
 30
0.0
 11
0.0000000000000208
 21
-77.2165051756205
 31
0.0
  0
LINE
  5
248
330
1E4
100
AcDbEntity
  8
hidden
100
AcDbLine
 10
1.250000000000022
 20
-111.45
 30
0.0
 11
1.250000000000022
 21
-105.45
 31
0.0
  0
LINE
  5
249
330
1E4
100
AcDbEntity
  8
hidden
100
AcDbLine
 10
1.250000000000022
 20
-111.45
 30
0.0
 11
2.250000000000023
 21
-111.45
 31
0.0
  0
LINE
  5
24A
330
1E4
100
AcDbEntity
  8
hidden
100
AcDbLine
 10
2.250000000000023
 20
-105.45
 30
0.0
 11
1.250000000000022
 21
-105.45
 31
0.0
  0
LINE
  5
24B
330
1E4
100
AcDbEntity
  8
hidden
100
AcDbLine
 10
48.25000000000002
 20
-111.45
 30
0.0
 11
48.25000000000002
 21
-105.45
 31
0.0
  0
LINE
  5
24C
330
1E4
100
AcDbEntity
  8
hidden
100
AcDbLine
 10
47.25000000000002
 20
-111.45
 30
0.0
 11
48.25000000000002
 21
-111.45
 31
0.0
  0
LINE
  5
24D
330
1E4
100
AcDbEntity
  8
hidden
100
AcDbLine
 10
48.25000000000002
 20
-105.45
 30
0.0
 11
47.25000000000002
 21
-105.45
 31
0.0
  0
LINE
  5
24E
330
1E4
100
AcDbEntity
  8
hidden
100
AcDbLine
 10
2.250000000000023
 20
-111.4080398915498
 30
0.0
 11
1.250000000000022
 21
-111.4080398915498
 31
0.0
  0
LINE
  5
24F
330
1E4
100
AcDbEntity
  8
hidden
100
AcDbLine
 10
1.250000000000022
 20
-105.4919601084502
 30
0.0
 11
2.250000000000023
 21
-105.4919601084502
 31
0.0
  0
LINE
  5
250
330
1E4
100
AcDbEntity
  8
hidden
100
AcDbLine
 10
2.250000000000023
 20
-82.19999999999999
 30
0.0
 11
0.0000000000000208
 21
-82.19999999999996
 31
0.0
  0
LINE
  5
251
330
1E4
100
AcDbEntity
  8
hidden
100
AcDbLine
 10
47.25000000000003
 20
-82.19999999999999
 30
0.0
 11
49.50000000000002
 21
-82.19999999999999
 31
0.0
  0
LINE
  5
252
330
1E4
100
AcDbEntity
  8
hidden
100
AcDbLine
 10
47.25000000000002
 20
-105.4919601084502
 30
0.0
 11
48.25000000000002
 21
-105.4919601084502
 31
0.0
  0
LINE
  5
253
330
1E4
100
AcDbEntity
  8
hidden
100
AcDbLine
 10
48.25000000000002
 20
-111.4080398915498
 30
0.0
 11
47.25000000000002
 21
-111.4080398915498
 31
0.0
  0
LINE
  5
254
330
1E4
100
AcDbEntity
  8
hidden
100
AcDbLine
 10
44.35000000000003
 20
-82.19999999999996
 30
0.0
 11
45.05000000000002
 21
-82.19999999999999
 31
0.0
  0
LINE
  5
255
330
1E4
100
AcDbEntity
  8
hidden
100
AcDbLine
 10
5.150000000000019
 20
-82.19999999999996
 30
0.0
 11
4.450000000000023
 21
-82.19999999999999
 31
0.0
  0
LINE
  5
256
330
1E4
100
AcDbEntity
  8
hidden
100
AcDbLine
 10
4.450000000000023
 20
-105.4919601084502
 30
0.0
 11
45.05000000000002
 21
-105.4919601084502
 31
0.0
  0
LINE
  5
257
330
1E4
100
AcDbEntity
  8
hidden
100
AcDbLine
 10
45.05000000000002
 20
-111.4080398915498
 30
0.0
 11
4.450000000000023
 21
-111.4080398915498
 31
0.0
  0
LINE
  5
258
330
1E4
100
AcDbEntity
  8
hidden
100
AcDbLine
 10
4.450000000000023
 20
-112.45
 30
0.0
 11
4.450000000000023
 21
-71.69999999999999
 31
0.0
  0
LINE
  5
259
330
1E4
100
AcDbEntity
  8
hidden
100
AcDbLine
 10
2.250000000000023
 20
-79.30544635343395
 30
0.0
 11
2.250000000000023
 21
-81.99999999999999
 31
0.0
  0
LINE
  5
25A
330
1E4
100
AcDbEntity
  8
hidden
100
AcDbLine
 10
2.250000000000023
 20
-73.74999999999999
 30
0.0
 11
2.250000000000023
 21
-79.08530010407064
 31
0.0
  0
LINE
  5
25B
330
1E4
100
AcDbEntity
  8
hidden
100
AcDbLine
 10
4.450000000000023
 20
-112.45
 30
0.0
 11
2.250000000000023
 21
-112.45
 31
0.0
  0
LINE
  5
25C
330
1E4
100
AcDbEntity
  8
hidden
100
AcDbLine
 10
45.05000000000002
 20
-112.45
 30
0.0
 11
45.05000000000002
 21
-71.69999999999999
 31
0.0
  0
LINE
  5
25D
330
1E4
100
AcDbEntity
  8
hidden
100
AcDbLine
 10
45.05000000000002
 20
-112.45
 30
0.0
 11
47.25000000000003
 21
-112.45
 31
0.0
  0
LINE
  5
25E
330
1E4
100
AcDbEntity
  8
hidden
100
AcDbLine
 10
47.25000000000003
 20
-79.08530010407073
 30
0.0
 11
47.25000000000002
 21
-73.74999999999999
 31
0.0
  0
LINE
  5
25F
330
1E4
100
AcDbEntity
  8
hidden
100
AcDbLine
 10
47.25000000000003
 20
-81.99999999999999
 30
0.0
 11
47.25000000000003
 21
-79.30544635343398
 31
0.0
  0
LINE
  5
260
330
1E4
100
AcDbEntity
  8
hidden
100
AcDbLine
 10
7.645299461620774
 20
-140.5
 30
0.0
 11
6.490598923241515
 21
-142.5
 31
0.0
  0
LINE
  5
261
330
1E4
100
AcDbEntity
  8
hidden
100
AcDbLine
 10
11.10940107675852
 20
-142.5
 30
0.0
 11
9.95470053837928
 21
-140.5
 31
0.0
  0
LINE
  5
262
330
1E4
100
AcDbEntity
  8
hidden
100
AcDbLine
 10
9.95470053837928
 20
-140.5
 30
0.0
 11
7.645299461620774
 21
-140.5
 31
0.0
  0
LINE
  5
263
330
1E4
100
AcDbEntity
  8
hidden
100
AcDbLine
 10
9.954700538379264
 20
-144.5
 30
0.0
 11
11.10940107675852
 21
-142.5
 31
0.0
  0
LINE
  5
264
330
1E4
100
AcDbEntity
  8
hidden
100
AcDbLine
 10
7.64529946162076
 20
-144.5
 30
0.0
 11
9.954700538379264
 21
-144.5
 31
0.0
  0
LINE
  5
265
330
1E4
100
AcDbEntity
  8
hidden
100
AcDbLine
 10
6.490598923241515
 20
-142.5
 30
0.0
 11
7.64529946162076
 21
-144.5
 31
0.0
  0
LINE
  5
266
330
1E4
100
AcDbEntity
  8
hidden
100
AcDbLine
 10
41.85470053837928
 20
-140.5
 30
0.0
 11
39.54529946162078
 21
-140.5
 31
0.0
  0
LINE
  5
267
330
1E4
100
AcDbEntity
  8
hidden
100
AcDbLine
 10
39.54529946162076
 20
-144.5
 30
0.0
 11
41.85470053837927
 21
-144.5
 31
0.0
  0
LINE
  5
268
330
1E4
100
AcDbEntity
  8
hidden
100
AcDbLine
 10
38.39059892324152
 20
-142.5
 30
0.0
 11
39.54529946162076
 21
-144.5
 31
0.0
  0
LINE
  5
269
330
1E4
100
AcDbEntity
  8
hidden
100
AcDbLine
 10
41.85470053837927
 20
-144.5
 30
0.0
 11
43.00940107675854
 21
-142.5
 31
0.0
  0
LINE
  5
26A
330
1E4
100
AcDbEntity
  8
hidden
100
AcDbLine
 10
39.54529946162078
 20
-140.5
 30
0.0
 11
38.39059892324152
 21
-142.5
 31
0.0
  0
LINE
  5
26B
330
1E4
100
AcDbEntity
  8
hidden
100
AcDbLine
 10
43.00940107675854
 20
-142.5
 30
0.0
 11
41.85470053837928
 21
-140.5
 31
0.0
  0
LINE
  5
26C
330
1E4
100
AcDbEntity
  8
hidden
100
AcDbLine
 10
25.90470053837927
 20
-142.5
 30
0.0
 11
27.05940107675853
 21
-140.5
 31
0.0
  0
LINE
  5
26D
330
1E4
100
AcDbEntity
  8
hidden
100
AcDbLine
 10
23.59529946162076
 20
-142.5
 30
0.0
 11
25.90470053837927
 21
-142.5
 31
0.0
  0
LINE
  5
26E
330
1E4
100
AcDbEntity
  8
hidden
100
AcDbLine
 10
22.44059892324152
 20
-140.5
 30
0.0
 11
23.59529946162076
 21
-142.5
 31
0.0
  0
LINE
  5
26F
330
1E4
100
AcDbEntity
  8
hidden
100
AcDbLine
 10
23.59529946162078
 20
-138.5
 30
0.0
 11
22.44059892324152
 21
-140.5
 31
0.0
  0
LINE
  5
270
330
1E4
100
AcDbEntity
  8
hidden
100
AcDbLine
 10
27.05940107675853
 20
-140.5
 30
0.0
 11
25.90470053837928
 21
-138.5
 31
0.0
  0
ARC
  5
271
330
1E4
100
AcDbEntity
  8
hidden
100
AcDbCircle
 10
40.70000000000003
 20
-142.5
 30
0.0
 40
3.500000000000015
100
AcDbArc
 50
189.7054885624993
 51
292.3062881327908
  0
ARC
  5
272
330
1E4
100
AcDbEntity
  8
hidden
100
AcDbCircle
 10
40.70000000000005
 20
-142.5
 30
0.0
 40
3.499999999999983
100
AcDbArc
 50
294.5374910645677
 51
188.3039077380178
  0
ARC
  5
273
330
1E4
100
AcDbEntity
  8
hidden
100
AcDbCircle
 10
8.80000000000003
 20
-142.5000000000001
 30
0.0
 40
3.499999999999985
100
AcDbArc
 50
351.6960922619699
 51
245.4625089354532
  0
ARC
  5
274
330
1E4
100
AcDbEntity
  8
hidden
100
AcDbCircle
 10
8.799999999999981
 20
-142.5
 30
0.0
 40
3.500000000000042
100
AcDbArc
 50
247.6937118672476
 51
350.2945114374899
  0
LINE
  5
275
330
1E4
100
AcDbEntity
  8
hidden
100
AcDbLine
 10
45.05000000000002
 20
-0.9499939288842574
 30
0.0
 11
49.25000000000002
 21
-0.9499939288842574
 31
0.0
  0
LINE
  5
276
330
1E4
100
AcDbEntity
  8
hidden
100
AcDbLine
 10
4.450000000000023
 20
-0.9499939288842574
 30
0.0
 11
0.250000000000021
 21
-0.9499939288842574
 31
0.0
  0
LINE
  5
277
330
1E4
100
AcDbEntity
  8
hidden
100
AcDbLine
 10
2.250000000000023
 20
-32.06637664999999
 30
0.0
 11
2.250000000000023
 21
-27.41262102366715
 31
0.0
  0
LINE
  5
278
330
1E4
100
AcDbEntity
  8
hidden
100
AcDbLine
 10
47.25000000000003
 20
-27.41262114971521
 30
0.0
 11
47.25000000000003
 21
-32.06637664999999
 31
0.0
  0
LINE
  5
279
330
1E4
100
AcDbEntity
  8
hidden
100
AcDbLine
 10
42.95000000000002
 20
-41.79999999999998
 30
0.0
 11
44.35000000000003
 21
-41.79999999999998
 31
0.0
  0
LINE
  5
27A
330
1E4
100
AcDbEntity
  8
hidden
100
AcDbLine
 10
42.95000000000002
 20
-42.89999999999999
 30
0.0
 11
44.35000000000003
 21
-42.89999999999999
 31
0.0
  0
LINE
  5
27B
330
1E4
100
AcDbEntity
  8
hidden
100
AcDbLine
 10
5.150000000000019
 20
-41.79999999999998
 30
0.0
 11
6.550000000000021
 21
-41.79999999999998
 31
0.0
  0
LINE
  5
27C
330
1E4
100
AcDbEntity
  8
hidden
100
AcDbLine
 10
5.150000000000019
 20
-42.89999999999999
 30
0.0
 11
6.550000000000021
 21
-42.89999999999999
 31
0.0
  0
LINE
  5
27D
330
1E4
100
AcDbEntity
  8
hidden
100
AcDbLine
 10
5.150000000000019
 20
-17.9
 30
0.0
 11
6.550000000000021
 21
-17.9
 31
0.0
  0
LINE
  5
27E
330
1E4
100
AcDbEntity
  8
hidden
100
AcDbLine
 10
6.550000000000021
 20
-16.79999999999995
 30
0.0
 11
5.150000000000019
 21
-16.79999999999995
 31
0.0
  0
LINE
  5
27F
330
1E4
100
AcDbEntity
  8
hidden
100
AcDbLine
 10
42.95000000000002
 20
-17.9
 30
0.0
 11
44.35000000000003
 21
-17.9
 31
0.0
  0
LINE
  5
280
330
1E4
100
AcDbEntity
  8
hidden
100
AcDbLine
 10
44.35000000000003
 20
-16.79999999999995
 30
0.0
 11
42.95000000000002
 21
-16.79999999999995
 31
0.0
  0
LINE
  5
281
330
1E4
100
AcDbEntity
  8
hidden
100
AcDbLine
 10
42.95000000000002
 20
-55.99999999999999
 30
0.0
 11
42.95000000000002
 21
-0.9999999999999731
 31
0.0
  0
LINE
  5
282
330
1E4
100
AcDbEntity
  8
hidden
100
AcDbLine
 10
5.150000000000019
 20
-82.19999999999996
 30
0.0
 11
5.150000000000019
 21
-71.7
 31
0.0
  0
LINE
  5
283
330
1E4
100
AcDbEntity
  8
hidden
100
AcDbLine
 10
21.00000000000002
 20
-68.99999999999999
 30
0.0
 11
28.50000000000002
 21
-68.99999999999999
 31
0.0
  0
LINE
  5
284
330
1E4
100
AcDbEntity
  8
hidden
100
AcDbLine
 10
44.35000000000003
 20
-82.19999999999996
 30
0.0
 11
44.35000000000003
 21
-71.69999999999999
 31
0.0
  0
LINE
  5
285
330
1E4
100
AcDbEntity
  8
hidden
100
AcDbLine
 10
21.00000000000002
 20
12.50000000000001
 30
0.0
 11
21.00000000000002
 21
-0.9999999999999731
 31
0.0
  0
LINE
  5
286
330
1E4
100
AcDbEntity
  8
hidden
100
AcDbLine
 10
28.50000000000002
 20
-0.9999999999999731
 30
0.0
 11
28.50000000000002
 21
12.50000000000001
 31
0.0
  0
LINE
  5
287
330
1E4
100
AcDbEntity
  8
hidden
100
AcDbLine
 10
42.95000000000002
 20
-0.9999999999999731
 30
0.0
 11
6.550000000000021
 21
-0.9999999999999731
 31
0.0
  0
LINE
  5
288
330
1E4
100
AcDbEntity
  8
hidden
100
AcDbLine
 10
28.50000000000002
 20
-68.99999999999999
 30
0.0
 11
28.50000000000002
 21
-55.99999999999999
 31
0.0
  0
LINE
  5
289
330
1E4
100
AcDbEntity
  8
hidden
100
AcDbLine
 10
21.00000000000002
 20
-55.99999999999999
 30
0.0
 11
21.00000000000002
 21
-68.99999999999999
 31
0.0
  0
LINE
  5
28A
330
1E4
100
AcDbEntity
  8
hidden
100
AcDbLine
 10
6.550000000000021
 20
-55.99999999999999
 30
0.0
 11
42.95000000000002
 21
-55.99999999999999
 31
0.0
  0
LINE
  5
28B
330
1E4
100
AcDbEntity
  8
hidden
100
AcDbLine
 10
6.550000000000021
 20
-0.9999999999999731
 30
0.0
 11
6.550000000000021
 21
-55.99999999999999
 31
0.0
  0
LINE
  5
28C
330
1E4
100
AcDbEntity
  8
hidden
100
AcDbLine
 10
41.00000000000002
 20
-73.99999999999997
 30
0.0
 11
41.00000000000002
 21
-60.99999999999999
 31
0.0
  0
LINE
  5
28D
330
1E4
100
AcDbEntity
  8
hidden
100
AcDbLine
 10
5.150000000000019
 20
-73.99999999999997
 30
0.0
 11
44.35000000000002
 21
-73.99999999999997
 31
0.0
  0
LINE
  5
28E
330
1E4
100
AcDbEntity
  8
hidden
100
AcDbLine
 10
8.500000000000021
 20
-60.99999999999999
 30
0.0
 11
8.500000000000021
 21
-73.99999999999997
 31
0.0
  0
LINE
  5
28F
330
1E4
100
AcDbEntity
  8
hidden
100
AcDbLine
 10
16.50000000000002
 20
-60.99999999999999
 30
0.0
 11
8.500000000000021
 21
-60.99999999999999
 31
0.0
  0
LINE
  5
290
330
1E4
100
AcDbEntity
  8
hidden
100
AcDbLine
 10
16.50000000000002
 20
-73.99999999999999
 30
0.0
 11
16.50000000000002
 21
-60.99999999999999
 31
0.0
  0
LINE
  5
291
330
1E4
100
AcDbEntity
  8
hidden
100
AcDbLine
 10
33.00000000000002
 20
-60.99999999999999
 30
0.0
 11
33.00000000000002
 21
-73.99999999999999
 31
0.0
  0
LINE
  5
292
330
1E4
100
AcDbEntity
  8
hidden
100
AcDbLine
 10
41.00000000000002
 20
-60.99999999999999
 30
0.0
 11
33.00000000000002
 21
-60.99999999999999
 31
0.0
  0
LINE
  5
293
330
1E4
100
AcDbEntity
  8
hidden
100
AcDbLine
 10
0.1000000000000237
 20
-74.31805976516598
 30
0.0
 11
2.250000000000023
 21
-74.31805976516598
 31
0.0
  0
LINE
  5
294
330
1E4
100
AcDbEntity
  8
hidden
100
AcDbLine
 10
2.250000000000023
 20
-67.67980442993557
 30
0.0
 11
0.1000000000000237
 21
-67.67980442993557
 31
0.0
  0
LINE
  5
295
330
1E4
100
AcDbEntity
  8
hidden
100
AcDbLine
 10
49.40000000000002
 20
-74.31805976516598
 30
0.0
 11
47.25000000000002
 21
-74.31805976516598
 31
0.0
  0
LINE
  5
296
330
1E4
100
AcDbEntity
  8
hidden
100
AcDbLine
 10
49.40000000000002
 20
-67.67980442993557
 30
0.0
 11
47.25000000000002
 21
-67.67980442993557
 31
0.0
  0
LINE
  5
297
330
1E4
100
AcDbEntity
  8
hidden
100
AcDbLine
 10
47.25000000000003
 20
-27.41262114971521
 30
0.0
 11
49.25000000000002
 21
-27.41262102366715
 31
0.0
  0
LINE
  5
298
330
1E4
100
AcDbEntity
  8
hidden
100
AcDbLine
 10
45.05000000000002
 20
-31.71100136279237
 30
0.0
 11
47.25000000000003
 21
-31.71100136279237
 31
0.0
  0
LINE
  5
299
330
1E4
100
AcDbEntity
  8
hidden
100
AcDbLine
 10
49.25000000000002
 20
-27.35306326678236
 30
0.0
 11
45.05000000000002
 21
-27.35306326678236
 31
0.0
  0
LINE
  5
29A
330
1E4
100
AcDbEntity
  8
hidden
100
AcDbLine
 10
2.250000000000023
 20
-27.41262102366715
 30
0.0
 11
0.250000000000021
 21
-27.41262102366715
 31
0.0
  0
LINE
  5
29B
330
1E4
100
AcDbEntity
  8
hidden
100
AcDbLine
 10
4.450000000000023
 20
-31.71100136279237
 30
0.0
 11
2.250000000000023
 21
-31.71100136279237
 31
0.0
  0
LINE
  5
29C
330
1E4
100
AcDbEntity
  8
hidden
100
AcDbLine
 10
4.450000000000023
 20
-27.35306326678236
 30
0.0
 11
0.250000000000021
 21
-27.35306326678236
 31
0.0
  0
LINE
  5
29D
330
1E4
100
AcDbEntity
  8
hidden
100
AcDbLine
 10
0.1000000000000237
 20
-61.58388484241535
 30
0.0
 11
2.250000000000023
 21
-61.58388484241535
 31
0.0
  0
LINE
  5
29E
330
1E4
100
AcDbEntity
  8
hidden
100
AcDbLine
 10
49.40000000000002
 20
-61.58388484241535
 30
0.0
 11
47.25000000000003
 21
-61.58388484241535
 31
0.0
  0
LINE
  5
29F
330
1E4
100
AcDbEntity
  8
hidden
100
AcDbLine
 10
48.30000000000003
 20
-129.119
 30
0.0
 11
48.30000000000003
 21
-126.0
 31
0.0
  0
LINE
  5
2A0
330
1E4
100
AcDbEntity
  8
hidden
100
AcDbLine
 10
48.30000000000003
 20
-126.0
 30
0.0
 11
49.50000000000002
 21
-126.0
 31
0.0
  0
LINE
  5
2A1
330
1E4
100
AcDbEntity
  8
hidden
100
AcDbLine
 10
48.30000000000003
 20
-128.9369261016274
 30
0.0
 11
49.50000000000002
 21
-128.9369261016274
 31
0.0
  0
LINE
  5
2A2
330
1E4
100
AcDbEntity
  8
hidden
100
AcDbLine
 10
1.200000000000021
 20
-126.0
 30
0.0
 11
1.200000000000021
 21
-129.119
 31
0.0
  0
LINE
  5
2A3
330
1E4
100
AcDbEntity
  8
hidden
100
AcDbLine
 10
0.0000000000000208
 20
-126.0
 30
0.0
 11
1.200000000000021
 21
-126.0
 31
0.0
  0
LINE
  5
2A4
330
1E4
100
AcDbEntity
  8
hidden
100
AcDbLine
 10
1.200000000000021
 20
-129.119
 30
0.0
 11
48.30000000000003
 21
-129.119
 31
0.0
  0
LINE
  5
2A5
330
1E4
100
AcDbEntity
  8
hidden
100
AcDbLine
 10
0.0000000000000208
 20
-128.9369261016274
 30
0.0
 11
1.200000000000021
 21
-128.9369261016274
 31
0.0
  0
LINE
  5
2A6
330
1E4
100
AcDbEntity
  8
hidden
100
AcDbLine
 10
33.00000000000002
 20
-138.951422269901
 30
0.0
 11
33.00000000000002
 21
-145.5
 31
0.0
  0
LINE
  5
2A7
330
1E4
100
AcDbEntity
  8
hidden
100
AcDbLine
 10
33.00000000000002
 20
-129.119
 30
0.0
 11
33.00000000000002
 21
-138.8770375714825
 31
0.0
  0
LINE
  5
2A8
330
1E4
100
AcDbEntity
  8
hidden
100
AcDbLine
 10
41.00000000000002
 20
-139.0128808451675
 30
0.0
 11
41.00000000000002
 21
-129.119
 31
0.0
  0
LINE
  5
2A9
330
1E4
100
AcDbEntity
  8
hidden
100
AcDbLine
 10
16.50000000000002
 20
-138.8770375714826
 30
0.0
 11
16.50000000000002
 21
-129.119
 31
0.0
  0
LINE
  5
2AA
330
1E4
100
AcDbEntity
  8
hidden
100
AcDbLine
 10
16.50000000000002
 20
-145.5
 30
0.0
 11
16.50000000000002
 21
-138.9514222699011
 31
0.0
  0
ARC
  5
2AB
330
1E4
100
AcDbEntity
  8
hidden
100
AcDbCircle
 10
24.75000000000002
 20
-140.4999999999999
 30
0.0
 40
3.499999999999984
100
AcDbArc
 50
145.1500954209539
 51
34.84990457904614
  0
ARC
  5
2AC
330
1E4
100
AcDbEntity
  8
hidden
100
AcDbCircle
 10
24.75000000000002
 20
-140.4999999999999
 30
0.0
 40
3.499999999999969
100
AcDbArc
 50
36.44290335846661
 51
143.5570966415334
  0
LINE
  5
2AD
330
1E4
100
AcDbEntity
  8
hidden
100
AcDbLine
 10
4.050000000000022
 20
-146.0
 30
0.0
 11
4.050000000000022
 21
-150.0
 31
0.0
  0
LINE
  5
2AE
330
1E4
100
AcDbEntity
  8
hidden
100
AcDbLine
 10
4.050000000000022
 20
-129.119
 30
0.0
 11
4.050000000000022
 21
-145.9134250000001
 31
0.0
  0
LINE
  5
2AF
330
1E4
100
AcDbEntity
  8
hidden
100
AcDbLine
 10
45.45000000000002
 20
-145.913425
 30
0.0
 11
45.45000000000002
 21
-129.119
 31
0.0
  0
LINE
  5
2B0
330
1E4
100
AcDbEntity
  8
hidden
100
AcDbLine
 10
45.45000000000002
 20
-150.0
 30
0.0
 11
45.45000000000002
 21
-146.0
 31
0.0
  0
LINE
  5
2B1
330
1E4
100
AcDbEntity
  8
hidden
100
AcDbLine
 10
8.500000000000021
 20
-129.119
 30
0.0
 11
8.500000000000021
 21
-139.0128808451675
 31
0.0
  0
LINE
  5
2B2
330
1E4
100
AcDbEntity
  8
hidden
100
AcDbLine
 10
33.00000000000002
 20
-145.5
 30
0.0
 11
38.89722436226803
 21
-145.5
 31
0.0
  0
LINE
  5
2B3
330
1E4
100
AcDbEntity
  8
hidden
100
AcDbLine
 10
10.60277563773202
 20
-145.5
 30
0.0
 11
16.50000000000002
 21
-145.5
 31
0.0
  0
LINE
  5
2B4
330
1E4
100
AcDbEntity
  8
hidden
100
AcDbLine
 10
49.40000000000002
 20
-72.58092858363311
 30
0.0
 11
47.25000000000002
 21
-72.58092858363311
 31
0.0
  0
LINE
  5
2B5
330
1E4
100
AcDbEntity
  8
hidden
100
AcDbLine
 10
47.25000000000002
 20
-73.50000000000018
 30
0.0
 11
49.40000000000002
 21
-73.50000000000018
 31
0.0
  0
LINE
  5
2B6
330
1E4
100
AcDbEntity
  8
hidden
100
AcDbLine
 10
49.40000000000002
 20
-75.56273262990234
 30
0.0
 11
49.40000000000002
 21
-71.69999999999999
 31
0.0
  0
LINE
  5
2B7
330
1E4
100
AcDbEntity
  8
hidden
100
AcDbLine
 10
0.1000000000000237
 20
-72.58092858363311
 30
0.0
 11
2.250000000000023
 21
-72.58092858363311
 31
0.0
  0
LINE
  5
2B8
330
1E4
100
AcDbEntity
  8
hidden
100
AcDbLine
 10
0.1000000000000237
 20
-73.50000000000018
 30
0.0
 11
2.250000000000023
 21
-73.50000000000018
 31
0.0
  0
LINE
  5
2B9
330
1E4
100
AcDbEntity
  8
hidden
100
AcDbLine
 10
0.1000000000000237
 20
-75.56273262990234
 30
0.0
 11
0.1000000000000237
 21
-71.69999999999999
 31
0.0
  0
LINE
  5
2BA
330
1E4
100
AcDbEntity
  8
hidden
100
AcDbLine
 10
45.05000000000002
 20
14.1970525
 30
0.0
 11
45.05000000000002
 21
-2.02584632
 31
0.0
  0
LINE
  5
2BB
330
1E4
100
AcDbEntity
  8
hidden
100
AcDbLine
 10
4.45000000000002
 20
14.1970525
 30
0.0
 11
4.450000000000023
 21
-2.02584632
 31
0.0
  0
LINE
  5
2BC
330
1E4
100
AcDbEntity
  8
hidden
100
AcDbLine
 10
49.25000000000002
 20
1.699999995908141
 30
0.0
 11
0.250000000000021
 21
1.699999995908141
 31
0.0
  0
LINE
  5
2BD
330
1E4
100
AcDbEntity
  8
center
100
AcDbLine
 10
50.60000000000002
 20
-108.45
 30
0.0
 11
-1.099999999999978
 21
-108.45
 31
0.0
  0
LINE
  5
2BE
330
1E4
100
AcDbEntity
  8
center
100
AcDbLine
 10
37.02500000000008
 20
-142.5
 30
0.0
 11
44.37500000000003
 21
-142.5
 31
0.0
  0
LINE
  5
2BF
330
1E4
100
AcDbEntity
  8
center
100
AcDbLine
 10
40.70000000000005
 20
-146.175
 30
0.0
 11
40.70000000000005
 21
-138.825
 31
0.0
  0
LINE
  5
2C0
330
1E4
100
AcDbEntity
  8
center
100
AcDbLine
 10
21.07500000000003
 20
-140.4999999999999
 30
0.0
 11
28.42500000000002
 21
-140.4999999999999
 31
0.0
  0
LINE
  5
2C1
330
1E4
100
AcDbEntity
  8
center
100
AcDbLine
 10
24.75000000000002
 20
-144.1749999999999
 30
0.0
 11
24.75000000000002
 21
-136.825
 31
0.0
  0
LINE
  5
2C2
330
1E4
100
AcDbEntity
  8
center
100
AcDbLine
 10
5.12499999999984
 20
-142.4999999999999
 30
0.0
 11
12.47500000000016
 21
-142.4999999999999
 31
0.0
  0
LINE
  5
2C3
330
1E4
100
AcDbEntity
  8
center
100
AcDbLine
 10
8.8
 20
-146.175
 30
0.0
 11
8.8
 21
-138.8249999999997
 31
0.0
  0
LINE
  5
2C4
330
1E4
100
AcDbEntity
  8
light
100
AcDbLine
 10
0.1000000000000237
 20
-66.17368590173736
 30
0.0
 11
0.0000000000000208
 21
-66.17368590173736
 31
0.0
  0
LINE
  5
2C5
330
1E4
100
AcDbEntity
  8
light
100
AcDbLine
 10
5.150000000000019
 20
-66.17368590173736
 30
0.0
 11
4.450000000000022
 21
-66.17368590173736
 31
0.0
  0
LINE
  5
2C6
330
1E4
100
AcDbEntity
  8
bold
100
AcDbLine
 10
0.2500000000000206
 20
-17.57011625541966
 30
0.0
 11
0.0000000000000208
 21
-17.57011625541966
 31
0.0
  0
LINE
  5
2C7
330
1E4
100
AcDbEntity
  8
bold
100
AcDbLine
 10
5.150000000000019
 20
-17.57011625541966
 30
0.0
 11
4.450000000000022
 21
-17.57011625541966
 31
0.0
  0
LINE
  5
2C8
330
1E4
100
AcDbEntity
  8
light
100
AcDbLine
 10
49.40000000000002
 20
-66.17368590173736
 30
0.0
 11
49.50000000000002
 21
-66.17368590173736
 31
0.0
  0
LINE
  5
2C9
330
1E4
100
AcDbEntity
  8
light
100
AcDbLine
 10
44.35000000000003
 20
-66.17368590173736
 30
0.0
 11
45.05000000000002
 21
-66.17368590173736
 31
0.0
  0
LINE
  5
2CA
330
1E4
100
AcDbEntity
  8
bold
100
AcDbLine
 10
49.25000000000002
 20
-17.57011625541966
 30
0.0
 11
49.50000000000002
 21
-17.57011625541966
 31
0.0
  0
LINE
  5
2CB
330
1E4
100
AcDbEntity
  8
bold
100
AcDbLine
 10
44.35000000000003
 20
-17.57011625541966
 30
0.0
 11
45.05000000000002
 21
-17.57011625541966
 31
0.0
  0
LINE
  5
2CC
330
1E4
100
AcDbEntity
  8
bold
100
AcDbLine
 10
49.25000000000002
 20
-17.52344429126249
 30
0.0
 11
49.50000000000002
 21
-17.52344429126249
 31
0.0
  0
LINE
  5
2CD
330
1E4
100
AcDbEntity
  8
bold
100
AcDbLine
 10
44.35000000000003
 20
-17.52344429126249
 30
0.0
 11
45.05000000000002
 21
-17.52344429126249
 31
0.0
  0
LINE
  5
2CE
330
1E4
100
AcDbEntity
  8
bold
100
AcDbLine
 10
0.2500000000000206
 20
-17.52344429126249
 30
0.0
 11
0.0000000000000208
 21
-17.52344429126249
 31
0.0
  0
LINE
  5
2CF
330
1E4
100
AcDbEntity
  8
bold
100
AcDbLine
 10
5.150000000000019
 20
-17.52344429126249
 30
0.0
 11
4.450000000000022
 21
-17.52344429126249
 31
0.0
  0
LINE
  5
2D0
330
1E4
100
AcDbEntity
  8
bold
100
AcDbLine
 10
49.50000000000002
 20
15.50000000000001
 30
0.0
 11
49.50000000000002
 21
-71.69999999999999
 31
0.0
  0
LINE
  5
2D1
330
1E4
100
AcDbEntity
  8
light
100
AcDbLine
 10
49.25000000000002
 20
-7.39999999999999
 30
0.0
 11
49.50000000000002
 21
-7.39999999999999
 31
0.0
  0
LINE
  5
2D2
330
1E4
100
AcDbEntity
  8
light
100
AcDbLine
 10
44.35000000000003
 20
-7.39999999999999
 30
0.0
 11
45.05000000000002
 21
-7.39999999999999
 31
0.0
  0
LINE
  5
2D3
330
1E4
100
AcDbEntity
  8
bold
100
AcDbLine
 10
0.0000000000000208
 20
15.50000000000001
 30
0.0
 11
0.0000000000000208
 21
-71.69999999999999
 31
0.0
  0
LINE
  5
2D4
330
1E4
100
AcDbEntity
  8
bold
100
AcDbLine
 10
49.50000000000002
 20
15.50000000000001
 30
0.0
 11
0.0000000000000208
 21
15.50000000000001
 31
0.0
  0
LINE
  5
2D5
330
1E4
100
AcDbEntity
  8
light
100
AcDbLine
 10
0.250000000000021
 20
-7.39999999999999
 30
0.0
 11
0.0000000000000208
 21
-7.39999999999999
 31
0.0
  0
LINE
  5
2D6
330
1E4
100
AcDbEntity
  8
light
100
AcDbLine
 10
5.150000000000019
 20
-7.39999999999999
 30
0.0
 11
4.450000000000023
 21
-7.39999999999999
 31
0.0
  0
LINE
  5
2D7
330
1E4
100
AcDbEntity
  8
bold
100
AcDbLine
 10
5.150000000000019
 20
14.1970525
 30
0.0
 11
5.150000000000019
 21
15.50000000000001
 31
0.0
  0
LINE
  5
2D8
330
1E4
100
AcDbEntity
  8
bold
100
AcDbLine
 10
44.35000000000002
 20
14.1970525
 30
0.0
 11
44.35000000000003
 21
15.50000000000001
 31
0.0
  0
LINE
  5
2D9
330
1E4
100
AcDbEntity
  8
bold
100
AcDbLine
 10
0.0000000000000208
 20
-159.0
 30
0.0
 11
0.0000000000000208
 21
-150.0
 31
0.0
  0
LINE
  5
2DA
330
1E4
100
AcDbEntity
  8
bold
100
AcDbLine
 10
49.50000000000002
 20
-159.0
 30
0.0
 11
49.50000000000002
 21
-150.0
 31
0.0
  0
LINE
  5
2DB
330
1E4
100
AcDbEntity
  8
bold
100
AcDbLine
 10
0.0000000000000208
 20
-159.0
 30
0.0
 11
49.50000000000002
 21
-159.0
 31
0.0
  0
LINE
  5
2DC
330
1E4
100
AcDbEntity
  8
bold
100
AcDbLine
 10
2.250000000000023
 20
-79.08530010407064
 30
0.0
 11
2.250000000000023
 21
-79.30544635343395
 31
0.0
  0
LINE
  5
2DD
330
1E4
100
AcDbEntity
  8
bold
100
AcDbLine
 10
47.25000000000003
 20
-79.30544635343398
 30
0.0
 11
47.25000000000003
 21
-79.08530010407073
 31
0.0
  0
ARC
  5
2DE
330
1E4
100
AcDbEntity
  8
bold
100
AcDbCircle
 10
40.700000000058
 20
-142.4999999999911
 30
0.0
 40
3.500000000058649
100
AcDbArc
 50
188.3039077380244
 51
189.7054885624819
  0
ARC
  5
2DF
330
1E4
100
AcDbEntity
  8
bold
100
AcDbCircle
 10
8.79999999998616
 20
-142.499999999998
 30
0.0
 40
3.500000000014011
100
AcDbArc
 50
350.2945114374955
 51
351.6960922619686
  0
LINE
  5
2E0
330
1E4
100
AcDbEntity
  8
light
100
AcDbLine
 10
4.450000000000023
 20
-61.74999999999999
 30
0.0
 11
2.250000000000023
 21
-61.74999999999999
 31
0.0
  0
LINE
  5
2E1
330
1E4
100
AcDbEntity
  8
light
100
AcDbLine
 10
45.05000000000002
 20
-61.74999999999999
 30
0.0
 11
47.25000000000002
 21
-61.74999999999999
 31
0.0
  0
LINE
  5
2E2
330
1E4
100
AcDbEntity
  8
bold
100
AcDbLine
 10
47.25000000000003
 20
-51.42681721541345
 30
0.0
 11
49.25000000000002
 21
-51.42681721541345
 31
0.0
  0
LINE
  5
2E3
330
1E4
100
AcDbEntity
  8
bold
100
AcDbLine
 10
2.250000000000023
 20
-51.42681721541345
 30
0.0
 11
0.250000000000021
 21
-51.42681721541345
 31
0.0
  0
LINE
  5
2E4
330
1E4
100
AcDbEntity
  8
bold
100
AcDbLine
 10
0.1000000000000237
 20
-71.69999999999999
 30
0.0
 11
0.1000000000000237
 21
-53.41466721997043
 31
0.0
  0
LINE
  5
2E5
330
1E4
100
AcDbEntity
  8
bold
100
AcDbLine
 10
2.250000000000023
 20
-53.41466721997043
 30
0.0
 11
0.1000000000000237
 21
-53.41466721997043
 31
0.0
  0
LINE
  5
2E6
330
1E4
100
AcDbEntity
  8
bold
100
AcDbLine
 10
49.40000000000002
 20
-71.69999999999999
 30
0.0
 11
49.40000000000002
 21
-53.41466721997043
 31
0.0
  0
LINE
  5
2E7
330
1E4
100
AcDbEntity
  8
bold
100
AcDbLine
 10
49.40000000000002
 20
-53.41466721997043
 30
0.0
 11
47.25000000000002
 21
-53.41466721997043
 31
0.0
  0
LINE
  5
2E8
330
1E4
100
AcDbEntity
  8
bold
100
AcDbLine
 10
4.450000000000023
 20
-71.69999999999999
 30
0.0
 11
4.450000000000023
 21
-2.02584632
 31
0.0
  0
LINE
  5
2E9
330
1E4
100
AcDbEntity
  8
bold
100
AcDbLine
 10
4.450000000000023
 20
-32.06637664999998
 30
0.0
 11
0.250000000000021
 21
-32.06637664999998
 31
0.0
  0
LINE
  5
2EA
330
1E4
100
AcDbEntity
  8
bold
100
AcDbLine
 10
45.05000000000002
 20
-71.69999999999999
 30
0.0
 11
45.05000000000002
 21
-2.02584632
 31
0.0
  0
LINE
  5
2EB
330
1E4
100
AcDbEntity
  8
bold
100
AcDbLine
 10
45.05000000000002
 20
-32.06637664999998
 30
0.0
 11
49.25000000000002
 21
-32.06637664999998
 31
0.0
  0
LINE
  5
2EC
330
1E4
100
AcDbEntity
  8
bold
100
AcDbLine
 10
45.05000000000002
 20
-22.60086464
 30
0.0
 11
49.25000000000002
 21
-22.60086464
 31
0.0
  0
LINE
  5
2ED
330
1E4
100
AcDbEntity
  8
bold
100
AcDbLine
 10
45.05000000000002
 20
-30.23127651999999
 30
0.0
 11
49.25000000000002
 21
-30.23127651999999
 31
0.0
  0
LINE
  5
2EE
330
1E4
100
AcDbEntity
  8
bold
100
AcDbLine
 10
4.450000000000023
 20
-30.23127651999999
 30
0.0
 11
0.250000000000021
 21
-30.23127651999999
 31
0.0
  0
LINE
  5
2EF
330
1E4
100
AcDbEntity
  8
bold
100
AcDbLine
 10
4.450000000000023
 20
-22.60086464
 30
0.0
 11
0.250000000000021
 21
-22.60086464
 31
0.0
  0
LINE
  5
2F0
330
1E4
100
AcDbEntity
  8
bold
100
AcDbLine
 10
33.00000000000002
 20
-138.8770375714825
 30
0.0
 11
33.00000000000002
 21
-138.951422269901
 31
0.0
  0
LINE
  5
2F1
330
1E4
100
AcDbEntity
  8
bold
100
AcDbLine
 10
16.50000000000002
 20
-138.9514222699011
 30
0.0
 11
16.50000000000002
 21
-138.8770375714826
 31
0.0
  0
ARC
  5
2F2
330
1E4
100
AcDbEntity
  8
bold
100
AcDbCircle
 10
24.74999999995915
 20
-140.4999999999712
 30
0.0
 40
3.49999999995004
100
AcDbArc
 50
143.557096641514
 51
145.1500954209572
  0
ARC
  5
2F3
330
1E4
100
AcDbEntity
  8
bold
100
AcDbCircle
 10
24.75000000004065
 20
-140.4999999999714
 30
0.0
 40
3.499999999950352
100
AcDbArc
 50
34.84990457904319
 51
36.44290335848632
  0
LINE
  5
2F4
330
1E4
100
AcDbEntity
  8
bold
100
AcDbLine
 10
4.050000000000022
 20
-145.9134250000001
 30
0.0
 11
4.050000000000022
 21
-146.0
 31
0.0
  0
LINE
  5
2F5
330
1E4
100
AcDbEntity
  8
bold
100
AcDbLine
 10
45.45000000000002
 20
-146.0
 30
0.0
 11
45.45000000000002
 21
-145.913425
 31
0.0
  0
ARC
  5
2F6
330
1E4
100
AcDbEntity
  8
bold
100
AcDbCircle
 10
40.70000000002881
 20
-142.5000000000667
 30
0.0
 40
3.499999999927359
100
AcDbArc
 50
292.3062881327696
 51
294.537491064593
  0
ARC
  5
2F7
330
1E4
100
AcDbEntity
  8
bold
100
AcDbCircle
 10
8.800000000030172
 20
-142.4999999999297
 30
0.0
 40
3.500000000076524
100
AcDbArc
 50
245.4625089354828
 51
247.6937118672271
  0
LINE
  5
2F8
330
1E4
100
AcDbEntity
  8
light
100
AcDbLine
 10
49.40000000000002
 20
-59.22637951569806
 30
0.0
 11
47.25000000000002
 21
-59.22637951569806
 31
0.0
  0
LINE
  5
2F9
330
1E4
100
AcDbEntity
  8
bold
100
AcDbLine
 10
47.25000000000002
 20
-71.69999999999999
 30
0.0
 11
47.25000000000003
 21
-32.06637664999999
 31
0.0
  0
LINE
  5
2FA
330
1E4
100
AcDbEntity
  8
light
100
AcDbLine
 10
0.1000000000000237
 20
-59.22637951569806
 30
0.0
 11
2.250000000000023
 21
-59.22637951569806
 31
0.0
  0
LINE
  5
2FB
330
1E4
100
AcDbEntity
  8
bold
100
AcDbLine
 10
2.250000000000023
 20
-71.69999999999999
 30
0.0
 11
2.250000000000023
 21
-32.06637664999999
 31
0.0
  0
LINE
  5
2FC
330
1E4
100
AcDbEntity
  8
light
100
AcDbLine
 10
45.05000000000002
 20
-12.19655609391265
 30
0.0
 11
49.25000000000002
 21
-12.19655609391265
 31
0.0
  0
LINE
  5
2FD
330
1E4
100
AcDbEntity
  8
light
100
AcDbLine
 10
4.450000000000023
 20
-12.19655609391265
 30
0.0
 11
0.250000000000021
 21
-12.19655609391265
 31
0.0
  0
LINE
  5
2FE
330
1E4
100
AcDbEntity
  8
bold
100
AcDbLine
 10
49.25000000000002
 20
-2.025846319999997
 30
0.0
 11
0.250000000000021
 21
-2.025846319999997
 31
0.0
  0
LINE
  5
2FF
330
1E4
100
AcDbEntity
  8
bold
100
AcDbLine
 10
0.250000000000021
 20
-51.42681721541345
 30
0.0
 11
0.250000000000021
 21
14.1970525
 31
0.0
  0
LINE
  5
300
330
1E4
100
AcDbEntity
  8
bold
100
AcDbLine
 10
49.25000000000002
 20
0.8970525000000784
 30
0.0
 11
0.250000000000021
 21
0.8970525000000784
 31
0.0
  0
LINE
  5
301
330
1E4
100
AcDbEntity
  8
bold
100
AcDbLine
 10
49.25000000000002
 20
-51.42681721541345
 30
0.0
 11
49.25000000000002
 21
14.1970525
 31
0.0
  0
LINE
  5
302
330
1E4
100
AcDbEntity
  8
bold
100
AcDbLine
 10
49.25000000000002
 20
14.1970525
 30
0.0
 11
0.250000000000021
 21
14.1970525
 31
0.0
  0
ENDBLK
  5
1E7
330
1E4
100
AcDbEntity
  8
0
100
AcDbBlockEnd
  0
BLOCK
  5
305
330
303
100
AcDbEntity
  8
0
100
AcDbBlockBegin
  2
9_32619_old_0_in_33801_0
 70
     2
 10
0.0
 20
0.0
 30
0.0
  3
9_32619_old_0_in_33801_0
  1

  0
ATTDEF
  5
307
330
303
100
AcDbEntity
  8
attrib
100
AcDbText
 10
54.5
 20
10.50000000000001
 30
0.0
 40
0.5
  1
32619_old
100
AcDbAttributeDefinition
  3

  2
NB
 70
     8
280
     0
  0
ATTDEF
  5
308
330
303
100
AcDbEntity
  8
attrib
100
AcDbText
 10
54.5
 20
10.00000000000001
 30
0.0
 40
0.5
  1
Busbar adapter base 125 A
100
AcDbAttributeDefinition
  3

  2
NN
 70
     8
280
     0
  0
ATTDEF
  5
309
330
303
100
AcDbEntity
  8
attrib
100
AcDbText
 10
54.5
 20
9.500000000000009
 30
0.0
 40
0.5
  1

100
AcDbAttributeDefinition
  3

  2
NT
 70
     8
280
     0
  0
ATTDEF
  5
30A
330
303
100
AcDbEntity
  8
attrib
100
AcDbText
 10
54.5
 20
9.000000000000009
 30
0.0
 40
0.5
  1
$ARTNR._old
100
AcDbAttributeDefinition
  3

  2
NBSYN
 70
     8
280
     0
  0
ATTDEF
  5
30B
330
303
100
AcDbEntity
  8
attrib
100
AcDbText
 10
54.5
 20
8.500000000000009
 30
0.0
 40
0.5
  1
32619000A_old
100
AcDbAttributeDefinition
  3

  2
LINA
 70
     8
280
     0
  0
ATTDEF
  5
30C
330
303
100
AcDbEntity
  8
attrib
100
AcDbText
 10
54.5
 20
8.000000000000009
 30
0.0
 40
0.5
  1
Wöhner
100
AcDbAttributeDefinition
  3

  2
CATALOG
 70
     8
280
     0
  0
ATTDEF
  5
30D
330
303
100
AcDbEntity
  8
attrib
100
AcDbText
 10
54.5
 20
7.500000000000009
 30
0.0
 40
0.5
  1
32619
100
AcDbAttributeDefinition
  3

  2
ARTNR
 70
     8
280
     0
  0
ATTDEF
  5
30E
330
303
100
AcDbEntity
  8
attrib
100
AcDbText
 10
54.5
 20
7.000000000000009
 30
0.0
 40
0.5
  1
2
100
AcDbAttributeDefinition
  3

  2
QNT
 70
     8
280
     0
  0
ATTDEF
  5
30F
330
303
100
AcDbEntity
  8
attrib
100
AcDbText
 10
54.5
 20
6.500000000000009
 30
0.0
 40
0.5
  1
49
100
AcDbAttributeDefinition
  3

  2
W
 70
     8
280
     0
  0
ATTDEF
  5
310
330
303
100
AcDbEntity
  8
attrib
100
AcDbText
 10
54.5
 20
6.000000000000009
 30
0.0
 40
0.5
  1
160
100
AcDbAttributeDefinition
  3

  2
H
 70
     8
280
     0
  0
ATTDEF
  5
311
330
303
100
AcDbEntity
  8
attrib
100
AcDbText
 10
54.5
 20
5.500000000000009
 30
0.0
 40
0.5
  1
45
100
AcDbAttributeDefinition
  3

  2
D
 70
     8
280
     0
  0
ATTDEF
  5
312
330
303
100
AcDbEntity
  8
attrib
100
AcDbText
 10
54.5
 20
5.000000000000009
 30
0.0
 40
0.5
  1
IP20
100
AcDbAttributeDefinition
  3

  2
IPRF
 70
     8
280
     0
  0
ATTDEF
  5
313
330
303
100
AcDbEntity
  8
attrib
100
AcDbText
 10
54.5
 20
4.500000000000009
 30
0.0
 40
0.5
  1
Product link
100
AcDbAttributeDefinition
  3

  2
LINK
 70
     8
280
     0
  0
ATTDEF
  5
314
330
303
100
AcDbEntity
  8
attrib
100
AcDbText
 10
54.5
 20
4.000000000000009
 30
0.0
 40
0.5
  1
woehner
100
AcDbAttributeDefinition
  3

  2
COMPANY
 70
     8
280
     0
  0
ATTDEF
  5
315
330
303
100
AcDbEntity
  8
attrib
100
AcDbText
 10
54.5
 20
3.500000000000009
 30
0.0
 40
0.5
  1
{$CADENAS_DATA/23d-libs/woehner/sys_30_c_3pole/accessories_system30/busbar_adapter_base125a.prj},193 {VTYP=3D},{NB=32619_old},{LINA=32619000A_old},{NN=Sammelschienenadapter-Unterteil 125 A},{DATE=16.03.2023 14:46:35},{GEOMDATE=15.03.2023 07:14:16},{VERSIO
100
AcDbAttributeDefinition
  3

  2
PSOL_0
 70
     9
280
     0
  0
ATTDEF
  5
316
330
303
100
AcDbEntity
  8
attrib
100
AcDbText
 10
54.5
 20
3.000000000000009
 30
0.0
 40
0.5
  1
N=},{LINEID=10},{WBVAR=},{WBNUMERIC=}  {NB=32619_old},{LINA=32619000A_old},{KT=DUMMY},{BOM=32619000A},{ARTNR=32619},{BUSB=},{POF=CrossLink®30Compact},{TYPE=QCB-NH000},{QNT=2},{W=49},{H=160},{D=45},{CONCA=},{SCR=},{IPR=},{IPRF=IP20},{SEARCH=},{EDZ=},{IODD=
100
AcDbAttributeDefinition
  3

  2
PSOL_1
 70
     9
280
     0
  0
ATTDEF
  5
317
330
303
100
AcDbEntity
  8
attrib
100
AcDbText
 10
54.5
 20
2.500000000000009
 30
0.0
 40
0.5
  1
},{DIST=7},{LINK=Product link},{LINKX=https://www.woehner.de/de/produkte/32619.html}
100
AcDbAttributeDefinition
  3

  2
PSOL_2
 70
     9
280
     0
  0
LINE
  5
318
330
303
100
AcDbEntity
  8
hidden
100
AcDbLine
 10
21.05
 20
-7.300000000000001
 30
0.0
 11
24.25
 21
-7.300000000000001
 31
0.0
  0
LINE
  5
319
330
303
100
AcDbEntity
  8
hidden
100
AcDbLine
 10
24.25
 20
0.0
 30
0.0
 11
24.25
 21
-7.300000000000001
 31
0.0
  0
LINE
  5
31A
330
303
100
AcDbEntity
  8
hidden
100
AcDbLine
 10
37.35
 20
-7.300000000000001
 30
0.0
 11
41.3
 21
-7.300000000000001
 31
0.0
  0
LINE
  5
31B
330
303
100
AcDbEntity
  8
hidden
100
AcDbLine
 10
37.35
 20
0.0
 30
0.0
 11
37.35
 21
-7.300000000000001
 31
0.0
  0
LINE
  5
31C
330
303
100
AcDbEntity
  8
hidden
100
AcDbLine
 10
7.65
 20
0.0
 30
0.0
 11
7.65
 21
-7.300000000000001
 31
0.0
  0
LINE
  5
31D
330
303
100
AcDbEntity
  8
hidden
100
AcDbLine
 10
7.65
 20
-59.99999999999999
 30
0.0
 11
7.65
 21
-67.29999999999998
 31
0.0
  0
LINE
  5
31E
330
303
100
AcDbEntity
  8
hidden
100
AcDbLine
 10
37.35
 20
-59.99999999999999
 30
0.0
 11
37.35
 21
-67.29999999999998
 31
0.0
  0
LINE
  5
31F
330
303
100
AcDbEntity
  8
hidden
100
AcDbLine
 10
21.05
 20
-67.29999999999998
 30
0.0
 11
24.25
 21
-67.29999999999998
 31
0.0
  0
LINE
  5
320
330
303
100
AcDbEntity
  8
hidden
100
AcDbLine
 10
24.25
 20
-60.0
 30
0.0
 11
24.25
 21
-67.29999999999998
 31
0.0
  0
LINE
  5
321
330
303
100
AcDbEntity
  8
hidden
100
AcDbLine
 10
37.35
 20
-120.0
 30
0.0
 11
37.35
 21
-127.3
 31
0.0
  0
LINE
  5
322
330
303
100
AcDbEntity
  8
hidden
100
AcDbLine
 10
21.05
 20
-127.3
 30
0.0
 11
24.25
 21
-127.3
 31
0.0
  0
LINE
  5
323
330
303
100
AcDbEntity
  8
hidden
100
AcDbLine
 10
24.25
 20
-120.0
 30
0.0
 11
24.25
 21
-127.3
 31
0.0
  0
LINE
  5
324
330
303
100
AcDbEntity
  8
hidden
100
AcDbLine
 10
7.65
 20
-120.0
 30
0.0
 11
7.65
 21
-127.3
 31
0.0
  0
LINE
  5
325
330
303
100
AcDbEntity
  8
hidden
100
AcDbLine
 10
39.35
 20
0.0
 30
0.0
 11
39.35
 21
-7.300000000000001
 31
0.0
  0
LINE
  5
326
330
303
100
AcDbEntity
  8
hidden
100
AcDbLine
 10
3.699999999999998
 20
-7.300000000000001
 30
0.0
 11
7.65
 21
-7.300000000000001
 31
0.0
  0
LINE
  5
327
330
303
100
AcDbEntity
  8
hidden
100
AcDbLine
 10
5.649999999999999
 20
0.0
 30
0.0
 11
5.649999999999999
 21
-7.300000000000001
 31
0.0
  0
LINE
  5
328
330
303
100
AcDbEntity
  8
hidden
100
AcDbLine
 10
22.65
 20
0.0
 30
0.0
 11
22.65
 21
-7.300000000000001
 31
0.0
  0
LINE
  5
329
330
303
100
AcDbEntity
  8
hidden
100
AcDbLine
 10
21.05
 20
0.0
 30
0.0
 11
21.05
 21
-7.300000000000001
 31
0.0
  0
LINE
  5
32A
330
303
100
AcDbEntity
  8
hidden
100
AcDbLine
 10
39.35
 20
-59.99999999999999
 30
0.0
 11
39.35
 21
-67.29999999999998
 31
0.0
  0
LINE
  5
32B
330
303
100
AcDbEntity
  8
hidden
100
AcDbLine
 10
37.35
 20
-67.29999999999998
 30
0.0
 11
41.3
 21
-67.29999999999998
 31
0.0
  0
LINE
  5
32C
330
303
100
AcDbEntity
  8
hidden
100
AcDbLine
 10
22.65
 20
-60.0
 30
0.0
 11
22.65
 21
-67.29999999999998
 31
0.0
  0
LINE
  5
32D
330
303
100
AcDbEntity
  8
hidden
100
AcDbLine
 10
21.05
 20
-60.0
 30
0.0
 11
21.05
 21
-67.29999999999998
 31
0.0
  0
LINE
  5
32E
330
303
100
AcDbEntity
  8
hidden
100
AcDbLine
 10
3.699999999999998
 20
-50.99999999999999
 30
0.0
 11
3.699999999999998
 21
-67.29999999999998
 31
0.0
  0
LINE
  5
32F
330
303
100
AcDbEntity
  8
hidden
100
AcDbLine
 10
3.699999999999998
 20
-67.29999999999998
 30
0.0
 11
7.65
 21
-67.29999999999998
 31
0.0
  0
LINE
  5
330
330
303
100
AcDbEntity
  8
hidden
100
AcDbLine
 10
5.649999999999999
 20
-59.99999999999999
 30
0.0
 11
5.649999999999999
 21
-67.29999999999998
 31
0.0
  0
LINE
  5
331
330
303
100
AcDbEntity
  8
hidden
100
AcDbLine
 10
37.35
 20
-127.3
 30
0.0
 11
41.3
 21
-127.3
 31
0.0
  0
LINE
  5
332
330
303
100
AcDbEntity
  8
hidden
100
AcDbLine
 10
39.35
 20
-120.0
 30
0.0
 11
39.35
 21
-127.3
 31
0.0
  0
LINE
  5
333
330
303
100
AcDbEntity
  8
hidden
100
AcDbLine
 10
22.65
 20
-120.0
 30
0.0
 11
22.65
 21
-127.3
 31
0.0
  0
LINE
  5
334
330
303
100
AcDbEntity
  8
hidden
100
AcDbLine
 10
21.05
 20
-120.0
 30
0.0
 11
21.05
 21
-127.3
 31
0.0
  0
LINE
  5
335
330
303
100
AcDbEntity
  8
hidden
100
AcDbLine
 10
3.699999999999998
 20
-127.3
 30
0.0
 11
7.65
 21
-127.3
 31
0.0
  0
LINE
  5
336
330
303
100
AcDbEntity
  8
hidden
100
AcDbLine
 10
5.649999999999999
 20
-120.0
 30
0.0
 11
5.649999999999999
 21
-127.3
 31
0.0
  0
LINE
  5
337
330
303
100
AcDbEntity
  8
hidden
100
AcDbLine
 10
3.699999999999998
 20
-120.0
 30
0.0
 11
3.699999999999998
 21
-127.3
 31
0.0
  0
LINE
  5
338
330
303
100
AcDbEntity
  8
hidden
100
AcDbLine
 10
3.699999999999998
 20
-7.300000000000001
 30
0.0
 11
3.699999999999998
 21
9.000000000000007
 31
0.0
  0
LINE
  5
339
330
303
100
AcDbEntity
  8
hidden
100
AcDbLine
 10
4.199999999999999
 20
10.50000000000001
 30
0.0
 11
4.199999999999999
 21
9.000000000000007
 31
0.0
  0
LINE
  5
33A
330
303
100
AcDbEntity
  8
hidden
100
AcDbLine
 10
5.7
 20
10.50000000000001
 30
0.0
 11
5.7
 21
9.000000000000007
 31
0.0
  0
LINE
  5
33B
330
303
100
AcDbEntity
  8
hidden
100
AcDbLine
 10
4.199999999999999
 20
-44.49999999999999
 30
0.0
 11
4.199999999999999
 21
-50.99999999999999
 31
0.0
  0
LINE
  5
33C
330
303
100
AcDbEntity
  8
hidden
100
AcDbLine
 10
39.3
 20
10.50000000000001
 30
0.0
 11
39.3
 21
9.000000000000007
 31
0.0
  0
LINE
  5
33D
330
303
100
AcDbEntity
  8
hidden
100
AcDbLine
 10
40.8
 20
10.50000000000001
 30
0.0
 11
40.8
 21
9.000000000000007
 31
0.0
  0
LINE
  5
33E
330
303
100
AcDbEntity
  8
hidden
100
AcDbLine
 10
49.5
 20
10.50000000000001
 30
0.0
 11
0.0
 21
10.50000000000001
 31
0.0
  0
LINE
  5
33F
330
303
100
AcDbEntity
  8
hidden
100
AcDbLine
 10
4.199999999999999
 20
-44.49999999999999
 30
0.0
 11
5.7
 21
-44.49999999999999
 31
0.0
  0
LINE
  5
340
330
303
100
AcDbEntity
  8
hidden
100
AcDbLine
 10
5.7
 20
-44.49999999999999
 30
0.0
 11
5.7
 21
-50.99999999999999
 31
0.0
  0
LINE
  5
341
330
303
100
AcDbEntity
  8
hidden
100
AcDbLine
 10
3.699999999999998
 20
9.000000000000007
 30
0.0
 11
41.3
 21
9.000000000000007
 31
0.0
  0
LINE
  5
342
330
303
100
AcDbEntity
  8
hidden
100
AcDbLine
 10
6.650000000000003
 20
-99.74999999999999
 30
0.0
 11
0.0
 21
-99.74999999999999
 31
0.0
  0
LINE
  5
343
330
303
100
AcDbEntity
  8
hidden
100
AcDbLine
 10
41.3
 20
9.000000000000007
 30
0.0
 11
41.3
 21
-7.300000000000001
 31
0.0
  0
LINE
  5
344
330
303
100
AcDbEntity
  8
hidden
100
AcDbLine
 10
3.699999999999998
 20
-50.99999999999999
 30
0.0
 11
41.3
 21
-50.99999999999999
 31
0.0
  0
LINE
  5
345
330
303
100
AcDbEntity
  8
hidden
100
AcDbLine
 10
6.650000000000003
 20
-99.74999999999999
 30
0.0
 11
6.649999999999996
 21
-111.0
 31
0.0
  0
LINE
  5
346
330
303
100
AcDbEntity
  8
hidden
100
AcDbLine
 10
41.3
 20
-50.99999999999999
 30
0.0
 11
41.3
 21
-67.29999999999998
 31
0.0
  0
LINE
  5
347
330
303
100
AcDbEntity
  8
hidden
100
AcDbLine
 10
40.8
 20
-44.49999999999999
 30
0.0
 11
40.8
 21
-50.99999999999999
 31
0.0
  0
LINE
  5
348
330
303
100
AcDbEntity
  8
hidden
100
AcDbLine
 10
39.3
 20
-44.49999999999999
 30
0.0
 11
40.8
 21
-44.49999999999999
 31
0.0
  0
LINE
  5
349
330
303
100
AcDbEntity
  8
hidden
100
AcDbLine
 10
39.3
 20
-44.49999999999999
 30
0.0
 11
39.3
 21
-50.99999999999999
 31
0.0
  0
LINE
  5
34A
330
303
100
AcDbEntity
  8
hidden
100
AcDbLine
 10
0.0000000000000104
 20
-111.0
 30
0.0
 11
41.3
 21
-111.0
 31
0.0
  0
LINE
  5
34B
330
303
100
AcDbEntity
  8
hidden
100
AcDbLine
 10
23.59529946162076
 20
-142.5
 30
0.0
 11
0.0
 21
-142.5
 31
0.0
  0
LINE
  5
34C
330
303
100
AcDbEntity
  8
hidden
100
AcDbLine
 10
49.5
 20
-142.5
 30
0.0
 11
25.90470053837927
 21
-142.5
 31
0.0
  0
LINE
  5
34D
330
303
100
AcDbEntity
  8
hidden
100
AcDbLine
 10
39.3
 20
-104.5
 30
0.0
 11
39.3
 21
-111.0
 31
0.0
  0
LINE
  5
34E
330
303
100
AcDbEntity
  8
hidden
100
AcDbLine
 10
39.3
 20
-104.5
 30
0.0
 11
40.8
 21
-104.5
 31
0.0
  0
LINE
  5
34F
330
303
100
AcDbEntity
  8
hidden
100
AcDbLine
 10
41.3
 20
-111.0
 30
0.0
 11
41.3
 21
-127.3
 31
0.0
  0
LINE
  5
350
330
303
100
AcDbEntity
  8
hidden
100
AcDbLine
 10
40.8
 20
-104.5
 30
0.0
 11
40.8
 21
-111.0
 31
0.0
  0
LINE
  5
351
330
303
100
AcDbEntity
  8
hidden
100
AcDbLine
 10
3.699999999999998
 20
-60.0
 30
0.0
 11
41.3
 21
-60.0
 31
0.0
  0
LINE
  5
352
330
303
100
AcDbEntity
  8
hidden
100
AcDbLine
 10
3.699999999999998
 20
0.0
 30
0.0
 11
41.3
 21
0.0
 31
0.0
  0
LINE
  5
353
330
303
100
AcDbEntity
  8
hidden
100
AcDbLine
 10
44.30213562000003
 20
-146.0
 30
0.0
 11
5.19786438000002
 21
-146.0
 31
0.0
  0
LINE
  5
354
330
303
100
AcDbEntity
  8
hidden
100
AcDbLine
 10
37.25000000000001
 20
-120.0
 30
0.0
 11
37.25000000000001
 21
-132.5
 31
0.0
  0
LINE
  5
355
330
303
100
AcDbEntity
  8
hidden
100
AcDbLine
 10
39.25
 20
-132.5
 30
0.0
 11
39.25
 21
-120.0
 31
0.0
  0
LINE
  5
356
330
303
100
AcDbEntity
  8
hidden
100
AcDbLine
 10
37.25000000000001
 20
-132.5
 30
0.0
 11
39.25
 21
-132.5
 31
0.0
  0
LINE
  5
357
330
303
100
AcDbEntity
  8
hidden
100
AcDbLine
 10
28.25
 20
-60.0
 30
0.0
 11
28.25
 21
-72.5
 31
0.0
  0
LINE
  5
358
330
303
100
AcDbEntity
  8
hidden
100
AcDbLine
 10
30.25
 20
-72.5
 30
0.0
 11
30.25
 21
-60.0
 31
0.0
  0
LINE
  5
359
330
303
100
AcDbEntity
  8
hidden
100
AcDbLine
 10
37.25000000000001
 20
-60.0
 30
0.0
 11
37.25000000000001
 21
-72.5
 31
0.0
  0
LINE
  5
35A
330
303
100
AcDbEntity
  8
hidden
100
AcDbLine
 10
39.25
 20
-72.5
 30
0.0
 11
39.25
 21
-60.0
 31
0.0
  0
LINE
  5
35B
330
303
100
AcDbEntity
  8
hidden
100
AcDbLine
 10
28.25
 20
0.0
 30
0.0
 11
28.25
 21
-12.49999999999998
 31
0.0
  0
LINE
  5
35C
330
303
100
AcDbEntity
  8
hidden
100
AcDbLine
 10
30.25
 20
-12.49999999999998
 30
0.0
 11
30.25
 21
0.0
 31
0.0
  0
LINE
  5
35D
330
303
100
AcDbEntity
  8
hidden
100
AcDbLine
 10
28.25
 20
-12.49999999999998
 30
0.0
 11
30.25
 21
-12.49999999999998
 31
0.0
  0
LINE
  5
35E
330
303
100
AcDbEntity
  8
hidden
100
AcDbLine
 10
37.25000000000001
 20
0.0
 30
0.0
 11
37.25000000000001
 21
-12.49999999999998
 31
0.0
  0
LINE
  5
35F
330
303
100
AcDbEntity
  8
hidden
100
AcDbLine
 10
39.25
 20
-12.49999999999998
 30
0.0
 11
39.25
 21
0.0
 31
0.0
  0
LINE
  5
360
330
303
100
AcDbEntity
  8
hidden
100
AcDbLine
 10
37.25000000000001
 20
-12.49999999999998
 30
0.0
 11
39.25
 21
-12.49999999999998
 31
0.0
  0
LINE
  5
361
330
303
100
AcDbEntity
  8
hidden
100
AcDbLine
 10
28.25
 20
-120.0
 30
0.0
 11
28.25
 21
-132.5
 31
0.0
  0
LINE
  5
362
330
303
100
AcDbEntity
  8
hidden
100
AcDbLine
 10
30.25
 20
-132.5
 30
0.0
 11
30.25
 21
-120.0
 31
0.0
  0
LINE
  5
363
330
303
100
AcDbEntity
  8
hidden
100
AcDbLine
 10
28.25
 20
-132.5
 30
0.0
 11
30.25
 21
-132.5
 31
0.0
  0
LINE
  5
364
330
303
100
AcDbEntity
  8
hidden
100
AcDbLine
 10
14.75
 20
-120.0
 30
0.0
 11
14.75
 21
-132.5
 31
0.0
  0
LINE
  5
365
330
303
100
AcDbEntity
  8
hidden
100
AcDbLine
 10
41.3
 20
-120.0
 30
0.0
 11
0.0
 21
-120.0
 31
0.0
  0
LINE
  5
366
330
303
100
AcDbEntity
  8
hidden
100
AcDbLine
 10
16.75
 20
-132.5
 30
0.0
 11
16.75
 21
-120.0
 31
0.0
  0
LINE
  5
367
330
303
100
AcDbEntity
  8
hidden
100
AcDbLine
 10
14.75
 20
-132.5
 30
0.0
 11
16.75
 21
-132.5
 31
0.0
  0
LINE
  5
368
330
303
100
AcDbEntity
  8
hidden
100
AcDbLine
 10
5.750000000000002
 20
-60.0
 30
0.0
 11
5.750000000000002
 21
-72.5
 31
0.0
  0
LINE
  5
369
330
303
100
AcDbEntity
  8
hidden
100
AcDbLine
 10
7.75
 20
-72.5
 30
0.0
 11
7.75
 21
-60.0
 31
0.0
  0
LINE
  5
36A
330
303
100
AcDbEntity
  8
hidden
100
AcDbLine
 10
14.75
 20
-60.0
 30
0.0
 11
14.75
 21
-72.5
 31
0.0
  0
LINE
  5
36B
330
303
100
AcDbEntity
  8
hidden
100
AcDbLine
 10
16.75
 20
-72.5
 30
0.0
 11
16.75
 21
-60.0
 31
0.0
  0
LINE
  5
36C
330
303
100
AcDbEntity
  8
hidden
100
AcDbLine
 10
5.750000000000002
 20
0.0
 30
0.0
 11
5.750000000000002
 21
-12.49999999999998
 31
0.0
  0
LINE
  5
36D
330
303
100
AcDbEntity
  8
hidden
100
AcDbLine
 10
7.75
 20
-12.49999999999998
 30
0.0
 11
7.75
 21
0.0
 31
0.0
  0
LINE
  5
36E
330
303
100
AcDbEntity
  8
hidden
100
AcDbLine
 10
5.750000000000002
 20
-12.49999999999998
 30
0.0
 11
7.75
 21
-12.49999999999998
 31
0.0
  0
LINE
  5
36F
330
303
100
AcDbEntity
  8
hidden
100
AcDbLine
 10
14.75
 20
0.0
 30
0.0
 11
14.75
 21
-12.49999999999998
 31
0.0
  0
LINE
  5
370
330
303
100
AcDbEntity
  8
hidden
100
AcDbLine
 10
16.75
 20
-12.49999999999998
 30
0.0
 11
16.75
 21
0.0
 31
0.0
  0
LINE
  5
371
330
303
100
AcDbEntity
  8
hidden
100
AcDbLine
 10
14.75
 20
-12.49999999999998
 30
0.0
 11
16.75
 21
-12.49999999999998
 31
0.0
  0
LINE
  5
372
330
303
100
AcDbEntity
  8
hidden
100
AcDbLine
 10
5.750000000000002
 20
-120.0
 30
0.0
 11
5.750000000000002
 21
-132.5
 31
0.0
  0
LINE
  5
373
330
303
100
AcDbEntity
  8
hidden
100
AcDbLine
 10
7.75
 20
-132.5
 30
0.0
 11
7.75
 21
-120.0
 31
0.0
  0
LINE
  5
374
330
303
100
AcDbEntity
  8
hidden
100
AcDbLine
 10
5.750000000000002
 20
-132.5
 30
0.0
 11
7.75
 21
-132.5
 31
0.0
  0
ENDBLK
  5
306
330
303
100
AcDbEntity
  8
0
100
AcDbBlockEnd
  0
BLOCK
  5
379
330
378
100
AcDbEntity
  8
0
100
AcDbBlockBegin
  2
*D10
 70
     1
 10
0.0
 20
0.0
 30
0.0
  3
*D10
  1

  0
LINE
  5
37B
330
378
100
AcDbEntity
  8
dimension
 62
     0
370
    -2
100
AcDbLine
 10
0.0000000000000213
 20
-159.0
 30
0.0
 11
0.0000000000000213
 21
-204.5
 31
0.0
  0
LINE
  5
37C
330
378
100
AcDbEntity
  8
dimension
 62
     0
370
    -2
100
AcDbLine
 10
49.50000000000002
 20
-159.0
 30
0.0
 11
49.50000000000002
 21
-204.5
 31
0.0
  0
LINE
  5
37D
330
378
100
AcDbEntity
  8
dimension
 62
     0
370
    -2
100
AcDbLine
 10
7.000000000000021
 20
-204.5
 30
0.0
 11
42.50000000000002
 21
-204.5
 31
0.0
  0
SOLID
  5
37E
330
378
100
AcDbEntity
  8
dimension
 62
     0
100
AcDbTrace
 10
7.000000000000021
 20
-203.3333333333333
 30
0.0
 11
7.000000000000021
 21
-205.6666666666667
 31
0.0
 12
0.0000000000000213
 22
-204.5
 32
0.0
 13
0.0000000000000213
 23
-204.5
 33
0.0
  0
SOLID
  5
37F
330
378
100
AcDbEntity
  8
dimension
 62
     0
100
AcDbTrace
 10
42.50000000000002
 20
-205.6666666666667
 30
0.0
 11
42.50000000000002
 21
-203.3333333333333
 31
0.0
 12
49.50000000000002
 22
-204.5
 32
0.0
 13
49.50000000000002
 23
-204.5
 33
0.0
  0
MTEXT
  5
380
330
378
100
AcDbEntity
  8
dimension
 62
     0
100
AcDbMText
 10
24.75000000000002
 20
-198.9
 30
0.0
 40
7.0
 41
0.0
 46
0.0
 71
     5
 72
     1
  1
49.5
 73
     1
 44
1.0
  0
POINT
  5
381
330
378
100
AcDbEntity
  8
Defpoints
 62
     0
100
AcDbPoint
 10
0.0000000000000213
 20
-159.0
 30
0.0
  0
POINT
  5
382
330
378
100
AcDbEntity
  8
Defpoints
 62
     0
100
AcDbPoint
 10
49.50000000000002
 20
-159.0
 30
0.0
  0
POINT
  5
383
330
378
100
AcDbEntity
  8
Defpoints
 62
     0
100
AcDbPoint
 10
49.50000000000002
 20
-201.0
 30
0.0
  0
ENDBLK
  5
37A
330
378
100
AcDbEntity
  8
0
100
AcDbBlockEnd
  0
BLOCK
  5
386
330
385
100
AcDbEntity
  8
0
100
AcDbBlockBegin
  2
*D11
 70
     1
 10
0.0
 20
0.0
 30
0.0
  3
*D11
  1

  0
LINE
  5
388
330
385
100
AcDbEntity
  8
dimension
 62
     0
370
    -2
100
AcDbLine
 10
24.75000000000002
 20
-159.0
 30
0.0
 11
24.75000000000002
 21
-183.5
 31
0.0
  0
LINE
  5
389
330
385
100
AcDbEntity
  8
dimension
 62
     0
370
    -2
100
AcDbLine
 10
40.75000000000002
 20
-159.0
 30
0.0
 11
40.75000000000002
 21
-183.5
 31
0.0
  0
LINE
  5
38A
330
385
100
AcDbEntity
  8
dimension
 62
     0
370
    -2
100
AcDbLine
 10
24.75000000000002
 20
-183.5
 30
0.0
 11
40.75000000000002
 21
-183.5
 31
0.0
  0
LINE
  5
38B
330
385
100
AcDbEntity
  8
dimension
 62
     0
370
    -2
100
AcDbLine
 10
17.75000000000002
 20
-183.5
 30
0.0
 11
10.75000000000002
 21
-183.5
 31
0.0
  0
LINE
  5
38C
330
385
100
AcDbEntity
  8
dimension
 62
     0
370
    -2
100
AcDbLine
 10
47.75000000000002
 20
-183.5
 30
0.0
 11
54.75000000000002
 21
-183.5
 31
0.0
  0
SOLID
  5
38D
330
385
100
AcDbEntity
  8
dimension
 62
     0
100
AcDbTrace
 10
17.75000000000002
 20
-184.6666666666667
 30
0.0
 11
17.75000000000002
 21
-182.3333333333333
 31
0.0
 12
24.75000000000002
 22
-183.5
 32
0.0
 13
24.75000000000002
 23
-183.5
 33
0.0
  0
SOLID
  5
38E
330
385
100
AcDbEntity
  8
dimension
 62
     0
100
AcDbTrace
 10
47.75000000000002
 20
-182.3333333333333
 30
0.0
 11
47.75000000000002
 21
-184.6666666666667
 31
0.0
 12
40.75000000000002
 22
-183.5
 32
0.0
 13
40.75000000000002
 23
-183.5
 33
0.0
  0
MTEXT
  5
38F
330
385
100
AcDbEntity
  8
dimension
 62
     0
100
AcDbMText
 10
32.75000000000002
 20
-177.9
 30
0.0
 40
7.0
 41
0.0
 46
0.0
 71
     5
 72
     1
  1
16
 73
     1
 44
1.0
  0
POINT
  5
390
330
385
100
AcDbEntity
  8
Defpoints
 62
     0
100
AcDbPoint
 10
24.75000000000002
 20
-159.0
 30
0.0
  0
POINT
  5
391
330
385
100
AcDbEntity
  8
Defpoints
 62
     0
100
AcDbPoint
 10
40.75000000000002
 20
-159.0
 30
0.0
  0
POINT
  5
392
330
385
100
AcDbEntity
  8
Defpoints
 62
     0
100
AcDbPoint
 10
40.75000000000002
 20
-180.0
 30
0.0
  0
ENDBLK
  5
387
330
385
100
AcDbEntity
  8
0
100
AcDbBlockEnd
  0
BLOCK
  5
395
330
394
100
AcDbEntity
  8
0
100
AcDbBlockBegin
  2
*D12
 70
     1
 10
0.0
 20
0.0
 30
0.0
  3
*D12
  1

  0
LINE
  5
397
330
394
100
AcDbEntity
  8
dimension
 62
     0
370
    -2
100
AcDbLine
 10
24.75000000000002
 20
-159.0
 30
0.0
 11
24.75000000000002
 21
-183.5
 31
0.0
  0
LINE
  5
398
330
394
100
AcDbEntity
  8
dimension
 62
     0
370
    -2
100
AcDbLine
 10
8.750000000000021
 20
-159.0
 30
0.0
 11
8.750000000000021
 21
-183.5
 31
0.0
  0
LINE
  5
399
330
394
100
AcDbEntity
  8
dimension
 62
     0
370
    -2
100
AcDbLine
 10
24.75000000000002
 20
-183.5
 30
0.0
 11
8.750000000000021
 21
-183.5
 31
0.0
  0
LINE
  5
39A
330
394
100
AcDbEntity
  8
dimension
 62
     0
370
    -2
100
AcDbLine
 10
31.75000000000002
 20
-183.5
 30
0.0
 11
38.75000000000002
 21
-183.5
 31
0.0
  0
LINE
  5
39B
330
394
100
AcDbEntity
  8
dimension
 62
     0
370
    -2
100
AcDbLine
 10
1.750000000000021
 20
-183.5
 30
0.0
 11
-5.249999999999979
 21
-183.5
 31
0.0
  0
SOLID
  5
39C
330
394
100
AcDbEntity
  8
dimension
 62
     0
100
AcDbTrace
 10
31.75000000000002
 20
-182.3333333333333
 30
0.0
 11
31.75000000000002
 21
-184.6666666666667
 31
0.0
 12
24.75000000000002
 22
-183.5
 32
0.0
 13
24.75000000000002
 23
-183.5
 33
0.0
  0
SOLID
  5
39D
330
394
100
AcDbEntity
  8
dimension
 62
     0
100
AcDbTrace
 10
1.750000000000021
 20
-184.6666666666667
 30
0.0
 11
1.750000000000021
 21
-182.3333333333333
 31
0.0
 12
8.750000000000021
 22
-183.5
 32
0.0
 13
8.750000000000021
 23
-183.5
 33
0.0
  0
MTEXT
  5
39E
330
394
100
AcDbEntity
  8
dimension
 62
     0
100
AcDbMText
 10
16.75000000000002
 20
-177.9
 30
0.0
 40
7.0
 41
0.0
 46
0.0
 71
     5
 72
     1
  1
16
 73
     1
 44
1.0
  0
POINT
  5
39F
330
394
100
AcDbEntity
  8
Defpoints
 62
     0
100
AcDbPoint
 10
24.75000000000002
 20
-159.0
 30
0.0
  0
POINT
  5
3A0
330
394
100
AcDbEntity
  8
Defpoints
 62
     0
100
AcDbPoint
 10
8.750000000000021
 20
-159.0
 30
0.0
  0
POINT
  5
3A1
330
394
100
AcDbEntity
  8
Defpoints
 62
     0
100
AcDbPoint
 10
8.750000000000021
 20
-180.0
 30
0.0
  0
ENDBLK
  5
396
330
394
100
AcDbEntity
  8
0
100
AcDbBlockEnd
  0
BLOCK
  5
3A4
330
3A3
100
AcDbEntity
  8
0
100
AcDbBlockBegin
  2
*D13
 70
     1
 10
0.0
 20
0.0
 30
0.0
  3
*D13
  1

  0
LINE
  5
3A6
330
3A3
100
AcDbEntity
  8
dimension
 62
     0
370
    -2
100
AcDbLine
 10
24.75000000000002
 20
15.5
 30
0.0
 11
-24.49999999999999
 21
15.5
 31
0.0
  0
LINE
  5
3A7
330
3A3
100
AcDbEntity
  8
dimension
 62
     0
370
    -2
100
AcDbLine
 10
0.0000000000000213
 20
-159.0
 30
0.0
 11
-24.50000000000001
 21
-159.0
 31
0.0
  0
LINE
  5
3A8
330
3A3
100
AcDbEntity
  8
dimension
 62
     0
370
    -2
100
AcDbLine
 10
-24.49999999999999
 20
8.5
 30
0.0
 11
-24.5
 21
-56.14999999999999
 31
0.0
  0
LINE
  5
3A9
330
3A3
100
AcDbEntity
  8
dimension
 62
     0
370
    -2
100
AcDbLine
 10
-24.50000000000001
 20
-152.0
 30
0.0
 11
-24.5
 21
-87.34999999999998
 31
0.0
  0
SOLID
  5
3AA
330
3A3
100
AcDbEntity
  8
dimension
 62
     0
100
AcDbTrace
 10
-23.33333333333333
 20
8.5
 30
0.0
 11
-25.66666666666666
 21
8.5
 31
0.0
 12
-24.49999999999999
 22
15.5
 32
0.0
 13
-24.49999999999999
 23
15.5
 33
0.0
  0
SOLID
  5
3AB
330
3A3
100
AcDbEntity
  8
dimension
 62
     0
100
AcDbTrace
 10
-25.66666666666667
 20
-152.0
 30
0.0
 11
-23.33333333333334
 21
-152.0
 31
0.0
 12
-24.50000000000001
 22
-159.0
 32
0.0
 13
-24.50000000000001
 23
-159.0
 33
0.0
  0
MTEXT
  5
3AC
330
3A3
100
AcDbEntity
  8
dimension
 62
     0
100
AcDbMText
 10
-24.5
 20
-71.75
 30
0.0
 40
7.0
 41
0.0
 46
0.0
 71
     5
 72
     1
  1
174.5
 11
6.123233995736766E-17
 21
1.0
 31
0.0
 73
     1
 44
1.0
  0
POINT
  5
3AD
330
3A3
100
AcDbEntity
  8
Defpoints
 62
     0
100
AcDbPoint
 10
24.75000000000002
 20
15.5
 30
0.0
  0
POINT
  5
3AE
330
3A3
100
AcDbEntity
  8
Defpoints
 62
     0
100
AcDbPoint
 10
0.0000000000000213
 20
-159.0
 30
0.0
  0
POINT
  5
3AF
330
3A3
100
AcDbEntity
  8
Defpoints
 62
     0
100
AcDbPoint
 10
-21.00000000000001
 20
-159.0
 30
0.0
  0
ENDBLK
  5
3A5
330
3A3
100
AcDbEntity
  8
0
100
AcDbBlockEnd
  0
ENDSEC
  0
SECTION
  2
ENTITIES
  0
ATTDEF
  5
5F
330
1F
100
AcDbEntity
  8
attrib
100
AcDbText
 10
55.60000000000002
 20
15.50000000000001
 30
0.0
 40
0.5
  1
33801
100
AcDbAttributeDefinition
  3

  2
NB
 70
     8
280
     0
  0
ATTDEF
  5
60
330
1F
100
AcDbEntity
  8
attrib
100
AcDbText
 10
55.60000000000002
 20
15.00000000000001
 30
0.0
 40
0.5
  1
Size 000
100
AcDbAttributeDefinition
  3

  2
NN
 70
     8
280
     0
  0
ATTDEF
  5
61
330
1F
100
AcDbEntity
  8
attrib
100
AcDbText
 10
55.60000000000002
 20
14.50000000000001
 30
0.0
 40
0.5
  1

100
AcDbAttributeDefinition
  3

  2
NT
 70
     8
280
     0
  0
ATTDEF
  5
62
330
1F
100
AcDbEntity
  8
attrib
100
AcDbText
 10
55.60000000000002
 20
14.00000000000001
 30
0.0
 40
0.5
  1
$ARTNR.
100
AcDbAttributeDefinition
  3

  2
NBSYN
 70
     8
280
     0
  0
ATTDEF
  5
63
330
1F
100
AcDbEntity
  8
attrib
100
AcDbText
 10
55.60000000000002
 20
13.50000000000001
 30
0.0
 40
0.5
  1
33801000A
100
AcDbAttributeDefinition
  3

  2
LINA
 70
     8
280
     0
  0
ATTDEF
  5
64
330
1F
100
AcDbEntity
  8
attrib
100
AcDbText
 10
55.60000000000002
 20
13.00000000000001
 30
0.0
 40
0.5
  1
Wöhner
100
AcDbAttributeDefinition
  3

  2
CATALOG
 70
     8
280
     0
  0
ATTDEF
  5
65
330
1F
100
AcDbEntity
  8
attrib
100
AcDbText
 10
55.60000000000002
 20
12.50000000000001
 30
0.0
 40
0.5
  1
33801
100
AcDbAttributeDefinition
  3

  2
ARTNR
 70
     8
280
     0
  0
ATTDEF
  5
66
330
1F
100
AcDbEntity
  8
attrib
100
AcDbText
 10
55.60000000000002
 20
12.00000000000001
 30
0.0
 40
0.5
  1
12 x 5, 10
100
AcDbAttributeDefinition
  3

  2
BUSB
 70
     8
280
     0
  0
ATTDEF
  5
67
330
1F
100
AcDbEntity
  8
attrib
100
AcDbText
 10
55.60000000000002
 20
11.50000000000001
 30
0.0
 40
0.5
  1
QUADRON®30Compact
100
AcDbAttributeDefinition
  3

  2
POF
 70
     8
280
     0
  0
ATTDEF
  5
68
330
1F
100
AcDbEntity
  8
attrib
100
AcDbText
 10
55.60000000000002
 20
11.00000000000001
 30
0.0
 40
0.5
  1
QU-NH000
100
AcDbAttributeDefinition
  3

  2
TYPE
 70
     8
280
     0
  0
ATTDEF
  5
69
330
1F
100
AcDbEntity
  8
attrib
100
AcDbText
 10
55.60000000000002
 20
10.50000000000001
 30
0.0
 40
0.5
  1
1
100
AcDbAttributeDefinition
  3

  2
QNT
 70
     8
280
     0
  0
ATTDEF
  5
6A
330
1F
100
AcDbEntity
  8
attrib
100
AcDbText
 10
55.60000000000002
 20
10.00000000000001
 30
0.0
 40
0.5
  1
49
100
AcDbAttributeDefinition
  3

  2
W
 70
     8
280
     0
  0
ATTDEF
  5
6B
330
1F
100
AcDbEntity
  8
attrib
100
AcDbText
 10
55.60000000000002
 20
9.500000000000014
 30
0.0
 40
0.5
  1
175
100
AcDbAttributeDefinition
  3

  2
H
 70
     8
280
     0
  0
ATTDEF
  5
6C
330
1F
100
AcDbEntity
  8
attrib
100
AcDbText
 10
55.60000000000002
 20
9.000000000000014
 30
0.0
 40
0.5
  1
127
100
AcDbAttributeDefinition
  3

  2
D
 70
     8
280
     0
  0
ATTDEF
  5
6D
330
1F
100
AcDbEntity
  8
attrib
100
AcDbText
 10
55.60000000000002
 20
8.500000000000014
 30
0.0
 40
0.5
  1
Box terminal
100
AcDbAttributeDefinition
  3

  2
CONCA
 70
     8
280
     0
  0
ATTDEF
  5
6E
330
1F
100
AcDbEntity
  8
attrib
100
AcDbText
 10
55.60000000000002
 20
8.000000000000014
 30
0.0
 40
0.5
  1
IP30
100
AcDbAttributeDefinition
  3

  2
IPRF
 70
     8
280
     0
  0
ATTDEF
  5
6F
330
1F
100
AcDbEntity
  8
attrib
100
AcDbText
 10
55.60000000000002
 20
7.500000000000014
 30
0.0
 40
0.5
  1
Product link
100
AcDbAttributeDefinition
  3

  2
LINK
 70
     8
280
     0
  0
ATTDEF
  5
70
330
1F
100
AcDbEntity
  8
attrib
100
AcDbText
 10
55.60000000000002
 20
7.000000000000014
 30
0.0
 40
0.5
  1
woehner
100
AcDbAttributeDefinition
  3

  2
COMPANY
 70
     8
280
     0
  0
ATTDEF
  5
71
330
1F
100
AcDbEntity
  8
attrib
100
AcDbText
 10
55.60000000000002
 20
6.500000000000014
 30
0.0
 40
0.5
  1
{$CADENAS_DATA/23d-libs/woehner/sys_30_c_3pole/nh_inline_fuse_switch/size000_asmtab.prj},169 {VTYP=3D},{STYP=ASSTAB},{NB=33801},{LINA=33801000A},{NN=Gr.000},{DATE=09.12.2022 12:44:30},{GEOMDATE=19.09.2022 12:30:02},{VERSION=},{LINEID=370},{WBVAR=},{WBNUME
100
AcDbAttributeDefinition
  3

  2
PSOL_0
 70
     9
280
     0
  0
ATTDEF
  5
72
330
1F
100
AcDbEntity
  8
attrib
100
AcDbText
 10
55.60000000000002
 20
6.000000000000014
 30
0.0
 40
0.5
  1
RIC=}  {NB=33801},{LINA=33801000A},{KT=DUMMY},{BOM=33801000A},{ARTNR=33801},{BUSB=12 x 5, 10},{POF=QUADRON®30Compact},{TYPE=QU-NH000},{QNT=1},{W=49},{H=175},{D=127},{CONCA=Frame clamp},{SCR=},{IPR=},{IPRF=IP30},{SEARCH=},{EDZ=},{IODD=},{DIST=7},{LINK=Prod
100
AcDbAttributeDefinition
  3

  2
PSOL_1
 70
     9
280
     0
  0
ATTDEF
  5
73
330
1F
100
AcDbEntity
  8
attrib
100
AcDbText
 10
55.60000000000002
 20
5.500000000000014
 30
0.0
 40
0.5
  1
uct link},{LINKX=https://www.woehner.de/de/produkte/33801.html},{PPATH=parts/size000_asmtpl.prj}
100
AcDbAttributeDefinition
  3

  2
PSOL_2
 70
     9
280
     0
  0
INSERT
  5
75
330
1F
100
AcDbEntity
  8
0
100
AcDbBlockReference
  2
1_77009ACrossBoardSnap_in_1_0_in_33801_0
 10
0.0
 20
0.0
 30
0.0
  0
INSERT
  5
8E
330
1F
100
AcDbEntity
  8
0
100
AcDbBlockReference
  2
2_77009ACrossBoardSnap_in_2_0_in_33801_0
 10
0.0
 20
0.0
 30
0.0
  0
INSERT
  5
A5
330
1F
100
AcDbEntity
  8
0
100
AcDbBlockReference
  2
3_77009ACrossBoardSnap_in_3_0_in_33801_0
 10
0.0
 20
0.0
 30
0.0
  0
INSERT
  5
BC
330
1F
100
AcDbEntity
  8
0
100
AcDbBlockReference
  2
4_77009ACrossBoardSnap_in_4_0_in_33801_0
 10
0.0
 20
0.0
 30
0.0
  0
INSERT
  5
D3
330
1F
100
AcDbEntity
  8
0
100
AcDbBlockReference
  2
5_77009ACrossBoardSnap_in_Box_1_0_in_33801_0
 10
0.0
 20
0.0
 30
0.0
  0
INSERT
  5
F7
330
1F
100
AcDbEntity
  8
0
100
AcDbBlockReference
  2
6_77009ACrossBoardSnap_in_Box_2_0_in_33801_0
 10
0.0
 20
0.0
 30
0.0
  0
INSERT
  5
11B
330
1F
100
AcDbEntity
  8
0
100
AcDbBlockReference
  2
7_Cover_0_in_33801_0
 10
0.0
 20
0.0
 30
0.0
  0
INSERT
  5
1E5
330
1F
100
AcDbEntity
  8
0
100
AcDbBlockReference
  2
8_Housing_0_in_33801_0
 10
0.0
 20
0.0
 30
0.0
  0
INSERT
  5
304
330
1F
100
AcDbEntity
  8
0
100
AcDbBlockReference
  2
9_32619_old_0_in_33801_0
 10
0.0
 20
0.0
 30
0.0
  0
DIMENSION
  5
376
330
1F
100
AcDbEntity
  8
dimension
100
AcDbDimension
280
     0
  2
*D10
 10
49.50000000000002
 20
-204.5
 30
0.0
 11
24.75000000000002
 21
-204.5
 31
0.0
 70
   160
  1
49.5
 71
     5
 42
49.5
 73
     0
 74
     0
 75
     0
  3
ISO-25
100
AcDbAlignedDimension
 13
0.0000000000000213
 23
-159.0
 33
0.0
 14
49.50000000000002
 24
-159.0
 34
0.0
100
AcDbRotatedDimension
1001
ACAD
1000
DSTYLE
1002
{
1070
   147
1040
2.1
1070
    42
1040
0.0
1070
    44
1040
0.0
1070
    41
1040
7.0
1070
   140
1040
7.0
1002
}
  0
DIMENSION
  5
384
330
1F
100
AcDbEntity
  8
dimension
100
AcDbDimension
280
     0
  2
*D11
 10
40.75000000000002
 20
-183.5
 30
0.0
 11
32.75000000000002
 21
-183.5
 31
0.0
 70
   160
  1
16
 71
     5
 42
16.0
 73
     0
 74
     0
 75
     0
  3
ISO-25
100
AcDbAlignedDimension
 13
24.75000000000002
 23
-159.0
 33
0.0
 14
40.75000000000002
 24
-159.0
 34
0.0
100
AcDbRotatedDimension
1001
ACAD
1000
DSTYLE
1002
{
1070
   147
1040
2.1
1070
    42
1040
0.0
1070
    44
1040
0.0
1070
    41
1040
7.0
1070
   140
1040
7.0
1002
}
  0
DIMENSION
  5
393
330
1F
100
AcDbEntity
  8
dimension
100
AcDbDimension
280
     0
  2
*D12
 10
8.750000000000021
 20
-183.5
 30
0.0
 11
16.75000000000002
 21
-183.5
 31
0.0
 70
   160
  1
16
 71
     5
 42
16.0
 73
     0
 74
     0
 75
     0
  3
ISO-25
100
AcDbAlignedDimension
 13
24.75000000000002
 23
-159.0
 33
0.0
 14
8.750000000000021
 24
-159.0
 34
0.0
100
AcDbRotatedDimension
1001
ACAD
1000
DSTYLE
1002
{
1070
   147
1040
2.1
1070
    42
1040
0.0
1070
    44
1040
0.0
1070
    41
1040
7.0
1070
   140
1040
7.0
1002
}
  0
DIMENSION
  5
3A2
330
1F
100
AcDbEntity
  8
dimension
100
AcDbDimension
280
     0
  2
*D13
 10
-24.50000000000001
 20
-159.0
 30
0.0
 11
-24.5
 21
-71.75
 31
0.0
 70
   160
  1
174.5
 71
     5
 42
174.5
 73
     0
 74
     0
 75
     0
 53
90.0
  3
ISO-25
100
AcDbAlignedDimension
 13
24.75000000000002
 23
15.5
 33
0.0
 14
0.0000000000000213
 24
-159.0
 34
0.0
 50
90.0
100
AcDbRotatedDimension
1001
ACAD
1000
DSTYLE
1002
{
1070
   147
1040
2.1
1070
    42
1040
0.0
1070
    44
1040
0.0
1070
    41
1040
7.0
1070
   140
1040
7.0
1002
}
  0
POINT
  5
3B1
330
1F
100
AcDbEntity
  8
connection
100
AcDbPoint
 10
11.25000000000002
 20
-38.75
 30
0.0
  0
POINT
  5
3B2
330
1F
100
AcDbEntity
  8
connection
100
AcDbPoint
 10
33.75000000000002
 20
-96.65
 30
0.0
  0
POINT
  5
3B3
330
1F
100
AcDbEntity
  8
connection
100
AcDbPoint
 10
33.75000000000002
 20
-38.75
 30
0.0
  0
POINT
  5
3B4
330
1F
100
AcDbEntity
  8
connection
100
AcDbPoint
 10
15.25000000000002
 20
13.69999999999999
 30
0.0
  0
POINT
  5
3B5
330
1F
100
AcDbEntity
  8
connection
100
AcDbPoint
 10
29.75000000000002
 20
13.69999999999999
 30
0.0
  0
POINT
  5
3B6
330
1F
100
AcDbEntity
  8
connection
100
AcDbPoint
 10
24.75000000000002
 20
14.0
 30
0.0
  0
POINT
  5
3B7
330
1F
100
AcDbEntity
  8
connection
100
AcDbPoint
 10
24.75000000000002
 20
14.0
 30
0.0
  0
POINT
  5
3B8
330
1F
100
AcDbEntity
  8
connection
100
AcDbPoint
 10
8.800000000000022
 20
-152.0
 30
0.0
  0
POINT
  5
3B9
330
1F
100
AcDbEntity
  8
connection
100
AcDbPoint
 10
24.75000000000002
 20
-152.0
 30
0.0
  0
POINT
  5
3BA
330
1F
100
AcDbEntity
  8
connection
100
AcDbPoint
 10
40.70000000000002
 20
-152.0
 30
0.0
  0
POINT
  5
3BB
330
1F
100
AcDbEntity
  8
connection
100
AcDbPoint
 10
24.75000000000002
 20
-126.0
 30
0.0
  0
POINT
  5
3BC
330
1F
100
AcDbEntity
  8
connection
100
AcDbPoint
 10
24.75000000000002
 20
-66.0
 30
0.0
  0
POINT
  5
3BD
330
1F
100
AcDbEntity
  8
connection
100
AcDbPoint
 10
24.75000000000002
 20
-6.0
 30
0.0
  0
POINT
  5
3BE
330
1F
100
AcDbEntity
  8
connection
100
AcDbPoint
 10
24.75000000000002
 20
14.0
 30
0.0
  0
POINT
  5
3BF
330
1F
100
AcDbEntity
  8
connection
100
AcDbPoint
 10
29.75000000000002
 20
13.69999999999999
 30
0.0
  0
POINT
  5
3C0
330
1F
100
AcDbEntity
  8
connection
100
AcDbPoint
 10
15.25000000000002
 20
13.69999999999999
 30
0.0
  0
POINT
  5
3C1
330
1F
100
AcDbEntity
  8
connection
100
AcDbPoint
 10
33.75000000000002
 20
-38.75
 30
0.0
  0
POINT
  5
3C2
330
1F
100
AcDbEntity
  8
connection
100
AcDbPoint
 10
33.75000000000002
 20
-96.65
 30
0.0
  0
POINT
  5
3C3
330
1F
100
AcDbEntity
  8
connection
100
AcDbPoint
 10
11.25000000000002
 20
-38.75
 30
0.0
  0
POINT
  5
3C4
330
1F
100
AcDbEntity
  8
connection
100
AcDbPoint
 10
11.25000000000002
 20
-96.65
 30
0.0
  0
POINT
  5
3C5
330
1F
100
AcDbEntity
  8
connection
100
AcDbPoint
 10
0.0000000000000213
 20
-66.0
 30
0.0
  0
POINT
  5
3C6
330
1F
100
AcDbEntity
  8
connection
100
AcDbPoint
 10
0.0000000000000213
 20
-159.0
 30
0.0
  0
POINT
  5
3C7
330
1F
100
AcDbEntity
  8
connection
100
AcDbPoint
 10
24.75000000000002
 20
-166.0
 30
0.0
  0
POINT
  5
3C8
330
1F
100
AcDbEntity
  8
connection
100
AcDbPoint
 10
24.75000000000002
 20
34.0
 30
0.0
  0
POINT
  5
3C9
330
1F
100
AcDbEntity
  8
connection
100
AcDbPoint
 10
0.0
 20
0.0
 30
0.0
  0
POINT
  5
3CA
330
1F
100
AcDbEntity
  8
connection
100
AcDbPoint
 10
24.75
 20
14.0
 30
0.0
  0
ENDSEC
  0
SECTION
  2
OBJECTS
  0
DICTIONARY
  5
C
330
0
100
AcDbDictionary
281
     1
  3
ACAD_DETAILVIEWSTYLE
350
3D2
  3
ACAD_GROUP
350
D
  3
ACAD_LAYOUT
350
1A
  3
ACAD_MATERIAL
350
43
  3
ACAD_MLEADERSTYLE
350
5B
  3
ACAD_MLINESTYLE
350
17
  3
ACAD_PLOTSETTINGS
350
19
  3
ACAD_PLOTSTYLENAME
350
E
  3
ACAD_SCALELIST
350
47
  3
ACAD_SECTIONVIEWSTYLE
350
3D3
  3
ACAD_TABLESTYLE
350
59
  3
ACAD_VISUALSTYLE
350
2A
  3
ACDB_RECOMPOSE_DATA
350
3CF
  3
AcDbVariableDictionary
350
3CB
  0
SUN
  5
5D
330
29
100
AcDbSun
 90
        1
290
     0
 63
     7
421
 16777215
 40
1.0
291
     1
 91
  2455826
 92
 54000000
292
     0
 70
     2
 71
   256
280
     1
  0
DICTIONARY
  5
3D2
102
{ACAD_REACTORS
330
C
102
}
330
C
100
AcDbDictionary
281
     1
  0
DICTIONARY
  5
D
102
{ACAD_REACTORS
330
C
102
}
330
C
100
AcDbDictionary
281
     1
  0
DICTIONARY
  5
1A
102
{ACAD_REACTORS
330
C
102
}
330
C
100
AcDbDictionary
281
     1
  3
Layout1
350
1E
  3
Layout2
350
26
  3
Model
350
22
  0
DICTIONARY
  5
43
102
{ACAD_REACTORS
330
C
102
}
330
C
100
AcDbDictionary
281
     1
  3
ByBlock
350
45
  3
ByLayer
350
44
  3
Global
350
46
  0
DICTIONARY
  5
5B
102
{ACAD_REACTORS
330
C
102
}
330
C
100
AcDbDictionary
281
     1
  3
Standard
350
5C
  0
DICTIONARY
  5
17
102
{ACAD_REACTORS
330
C
102
}
330
C
100
AcDbDictionary
281
     1
  3
Standard
350
18
  0
DICTIONARY
  5
19
102
{ACAD_REACTORS
330
C
102
}
330
C
100
AcDbDictionary
281
     1
  0
ACDBDICTIONARYWDFLT
  5
E
102
{ACAD_REACTORS
330
C
102
}
330
C
100
AcDbDictionary
281
     1
  3
Normal
350
F
100
AcDbDictionaryWithDefault
340
F
  0
DICTIONARY
  5
47
102
{ACAD_REACTORS
330
C
102
}
330
C
100
AcDbDictionary
281
     1
  3
A0
350
48
  3
A1
350
49
  3
A2
350
4A
  3
A3
350
4B
  3
A4
350
4C
  3
A5
350
4D
  3
A6
350
4E
  3
A7
350
4F
  3
A8
350
50
  3
A9
350
51
  3
B0
350
52
  3
B1
350
53
  3
B2
350
54
  3
B3
350
55
  3
B4
350
56
  3
B5
350
57
  3
B6
350
58
  0
DICTIONARY
  5
3D3
102
{ACAD_REACTORS
330
C
102
}
330
C
100
AcDbDictionary
281
     1
  0
DICTIONARY
  5
59
102
{ACAD_REACTORS
330
C
102
}
330
C
100
AcDbDictionary
281
     1
  3
Standard
350
5A
  0
DICTIONARY
  5
2A
102
{ACAD_REACTORS
330
C
102
}
330
C
100
AcDbDictionary
281
     1
  3
2dWireframe
350
2F
  3
Basic
350
32
  3
Brighten
350
36
  3
ColorChange
350
3A
  3
Conceptual
350
34
  3
Dim
350
35
  3
EdgeColorOff
350
3D
  3
Facepattern
350
39
  3
Flat
350
2B
  3
FlatWithEdges
350
2C
  3
Gouraud
350
2D
  3
GouraudWithEdges
350
2E
  3
Hidden
350
31
  3
JitterOff
350
3B
  3
Linepattern
350
38
  3
OverhangOff
350
3C
  3
Realistic
350
33
  3
Shaded
350
42
  3
Shaded with edges
350
41
  3
Shades of Gray
350
3E
  3
Sketchy
350
3F
  3
Thicken
350
37
  3
Wireframe
350
30
  3
X-Ray
350
40
  0
XRECORD
  5
3CF
102
{ACAD_REACTORS
330
C
102
}
330
C
100
AcDbXrecord
280
     1
 90
        1
330
5A
  0
DICTIONARY
  5
3CB
102
{ACAD_REACTORS
330
C
102
}
330
C
100
AcDbDictionary
281
     1
  3
CANNOSCALE
350
3CC
  3
CENTEREXE
350
3D4
  3
CENTERLTYPEFILE
350
3D5
  3
CMLEADERSTYLE
350
3D1
  3
CTABLESTYLE
350
3D0
  0
LAYOUT
  5
1E
102
{ACAD_REACTORS
330
1A
102
}
330
1A
100
AcDbPlotSettings
  1

  2
none_device
  4

  6

 40
0.0
 41
0.0
 42
0.0
 43
0.0
 44
0.0
 45
0.0
 46
0.0
 47
0.0
 48
0.0
 49
0.0
140
0.0
141
0.0
142
1.0
143
1.0
 70
   688
 72
     1
 73
     0
 74
     5
  7

 75
    16
 76
     0
 77
     2
 78
   300
147
1.0
148
0.0
149
0.0
100
AcDbLayout
  1
Layout1
 70
     1
 71
     1
 10
0.0
 20
0.0
 11
420.0
 21
297.0
 12
0.0
 22
0.0
 32
0.0
 14
1.000000000000000E+20
 24
1.000000000000000E+20
 34
1.000000000000000E+20
 15
-1.000000000000000E+20
 25
-1.000000000000000E+20
 35
-1.000000000000000E+20
146
0.0
 13
0.0
 23
0.0
 33
0.0
 16
1.0
 26
0.0
 36
0.0
 17
0.0
 27
1.0
 37
0.0
 76
     0
330
1B
  0
LAYOUT
  5
26
102
{ACAD_REACTORS
330
1A
102
}
330
1A
100
AcDbPlotSettings
  1

  2
none_device
  4

  6

 40
0.0
 41
0.0
 42
0.0
 43
0.0
 44
0.0
 45
0.0
 46
0.0
 47
0.0
 48
0.0
 49
0.0
140
0.0
141
0.0
142
1.0
143
1.0
 70
   688
 72
     1
 73
     0
 74
     5
  7

 75
    16
 76
     0
 77
     2
 78
   300
147
1.0
148
0.0
149
0.0
100
AcDbLayout
  1
Layout2
 70
     1
 71
     2
 10
0.0
 20
0.0
 11
0.0
 21
0.0
 12
0.0
 22
0.0
 32
0.0
 14
0.0
 24
0.0
 34
0.0
 15
0.0
 25
0.0
 35
0.0
146
0.0
 13
0.0
 23
0.0
 33
0.0
 16
1.0
 26
0.0
 36
0.0
 17
0.0
 27
1.0
 37
0.0
 76
     0
330
23
  0
LAYOUT
  5
22
102
{ACAD_REACTORS
330
1A
102
}
330
1A
100
AcDbPlotSettings
  1

  2
none_device
  4
Letter_(8.50_x_11.00_Inches)
  6

 40
6.35
 41
6.35
 42
6.35000508
 43
6.35000508
 44
215.9
 45
279.4
 46
0.0
 47
0.0
 48
0.0
 49
0.0
140
0.0
141
0.0
142
1.0
143
1.0
 70
  1712
 72
     1
 73
     0
 74
     0
  7

 75
     0
 76
     0
 77
     2
 78
   300
147
1.0
148
0.0
149
0.0
100
AcDbLayout
  1
Model
 70
     1
 71
     0
 10
0.0
 20
0.0
 11
420.0
 21
297.0
 12
0.0
 22
0.0
 32
0.0
 14
-28.0
 24
-205.6666666666667
 34
0.0
 15
59.05238095238097
 25
34.0
 35
0.0
146
0.0
 13
0.0
 23
0.0
 33
0.0
 16
1.0
 26
0.0
 36
0.0
 17
0.0
 27
1.0
 37
0.0
 76
     0
330
1F
331
29
  0
MATERIAL
  5
45
102
{ACAD_REACTORS
330
43
102
}
330
43
100
AcDbMaterial
  1
ByBlock
 72
     1
 94
      127
  0
MATERIAL
  5
44
102
{ACAD_REACTORS
330
43
102
}
330
43
100
AcDbMaterial
  1
ByLayer
 72
     1
 94
      127
  0
MATERIAL
  5
46
102
{ACAD_REACTORS
330
43
102
}
330
43
100
AcDbMaterial
  1
Global
 72
     1
 94
      127
  0
MLEADERSTYLE
  5
5C
102
{ACAD_REACTORS
330
5B
102
}
330
5B
100
AcDbMLeaderStyle
179
     2
170
     2
171
     1
172
     0
 90
        2
 40
0.0
 41
0.0
173
     1
 91
-1056964608
340
14
 92
       -2
290
     1
 42
2.0
291
     1
 43
8.0
  3
Standard
341
0
 44
4.0
300

342
11
174
     1
178
     6
175
     1
176
     0
 93
-1056964608
 45
4.0
292
     0
297
     0
 46
4.0
343
0
 94
-1056964608
 47
1.0
 49
1.0
140
1.0
293
     1
141
0.0
294
     1
177
     0
142
1.0
295
     0
296
     0
143
3.75
271
     0
272
     9
273
     9
298
     0
  0
MLINESTYLE
  5
18
102
{ACAD_REACTORS
330
17
102
}
330
17
100
AcDbMlineStyle
  2
Standard
 70
     0
  3

 62
   256
 51
90.0
 52
90.0
 71
     2
 49
0.5
 62
   256
  6
BYLAYER
 49
-0.5
 62
   256
  6
BYLAYER
  0
ACDBPLACEHOLDER
  5
F
102
{ACAD_REACTORS
330
E
102
}
330
E
  0
SCALE
  5
48
102
{ACAD_REACTORS
330
47
102
}
330
47
100
AcDbScale
 70
     0
300
1:1
140
1.0
141
1.0
290
     1
  0
SCALE
  5
49
102
{ACAD_REACTORS
330
47
102
}
330
47
100
AcDbScale
 70
     0
300
1:2
140
1.0
141
2.0
290
     0
  0
SCALE
  5
4A
102
{ACAD_REACTORS
330
47
102
}
330
47
100
AcDbScale
 70
     0
300
1:4
140
1.0
141
4.0
290
     0
  0
SCALE
  5
4B
102
{ACAD_REACTORS
330
47
102
}
330
47
100
AcDbScale
 70
     0
300
1:5
140
1.0
141
5.0
290
     0
  0
SCALE
  5
4C
102
{ACAD_REACTORS
330
47
102
}
330
47
100
AcDbScale
 70
     0
300
1:8
140
1.0
141
8.0
290
     0
  0
SCALE
  5
4D
102
{ACAD_REACTORS
330
47
102
}
330
47
100
AcDbScale
 70
     0
300
1:10
140
1.0
141
10.0
290
     0
  0
SCALE
  5
4E
102
{ACAD_REACTORS
330
47
102
}
330
47
100
AcDbScale
 70
     0
300
1:16
140
1.0
141
16.0
290
     0
  0
SCALE
  5
4F
102
{ACAD_REACTORS
330
47
102
}
330
47
100
AcDbScale
 70
     0
300
1:20
140
1.0
141
20.0
290
     0
  0
SCALE
  5
50
102
{ACAD_REACTORS
330
47
102
}
330
47
100
AcDbScale
 70
     0
300
1:30
140
1.0
141
30.0
290
     0
  0
SCALE
  5
51
102
{ACAD_REACTORS
330
47
102
}
330
47
100
AcDbScale
 70
     0
300
1:40
140
1.0
141
40.0
290
     0
  0
SCALE
  5
52
102
{ACAD_REACTORS
330
47
102
}
330
47
100
AcDbScale
 70
     0
300
1:50
140
1.0
141
50.0
290
     0
  0
SCALE
  5
53
102
{ACAD_REACTORS
330
47
102
}
330
47
100
AcDbScale
 70
     0
300
1:100
140
1.0
141
100.0
290
     0
  0
SCALE
  5
54
102
{ACAD_REACTORS
330
47
102
}
330
47
100
AcDbScale
 70
     0
300
2:1
140
2.0
141
1.0
290
     0
  0
SCALE
  5
55
102
{ACAD_REACTORS
330
47
102
}
330
47
100
AcDbScale
 70
     0
300
4:1
140
4.0
141
1.0
290
     0
  0
SCALE
  5
56
102
{ACAD_REACTORS
330
47
102
}
330
47
100
AcDbScale
 70
     0
300
8:1
140
8.0
141
1.0
290
     0
  0
SCALE
  5
57
102
{ACAD_REACTORS
330
47
102
}
330
47
100
AcDbScale
 70
     0
300
10:1
140
10.0
141
1.0
290
     0
  0
SCALE
  5
58
102
{ACAD_REACTORS
330
47
102
}
330
47
100
AcDbScale
 70
     0
300
100:1
140
100.0
141
1.0
290
     0
  0
TABLESTYLE
  5
5A
102
{ACAD_REACTORS
330
59
102
}
102
{ACAD_XDICTIONARY
360
3CD
102
}
330
59
100
AcDbTableStyle
  3
Standard
 70
     0
 71
     0
 40
0.06
 41
0.06
280
     0
281
     0
  7
Standard
140
4.5
170
     2
 62
     0
 63
   257
283
     0
 90
        4
 91
        0
  1

274
    -2
284
     1
 64
     0
275
    -2
285
     1
 65
     0
276
    -2
286
     1
 66
     0
277
    -2
287
     1
 67
     0
278
    -2
288
     1
 68
     0
279
    -2
289
     1
 69
     0
  7
Standard
140
6.0
170
     5
 62
     0
 63
   257
283
     0
 90
        4
 91
        0
  1

274
    -2
284
     1
 64
     0
275
    -2
285
     1
 65
     0
276
    -2
286
     1
 66
     0
277
    -2
287
     1
 67
     0
278
    -2
288
     1
 68
     0
279
    -2
289
     1
 69
     0
  7
Standard
140
4.5
170
     5
 62
     0
 63
   257
283
     0
 90
        4
 91
        0
  1

274
    -2
284
     1
 64
     0
275
    -2
285
     1
 65
     0
276
    -2
286
     1
 66
     0
277
    -2
287
     1
 67
     0
278
    -2
288
     1
 68
     0
279
    -2
289
     1
 69
     0
  0
VISUALSTYLE
  5
2F
102
{ACAD_REACTORS
330
2A
102
}
330
2A
100
AcDbVisualStyle
  2
2dWireframe
 70
     4
177
     3
291
     0
 70
    58
 90
        0
176
     1
 90
        2
176
     1
 90
        0
176
     1
 90
        0
176
     1
 40
0.6
176
     1
 40
30.0
176
     1
 62
     7
420
 16777215
176
     1
 90
        1
176
     1
 90
        4
176
     1
 62
     7
176
     1
 62
   257
176
     1
 90
        1
176
     1
 90
        1
176
     1
 40
1.0
176
     1
 90
        0
176
     1
 62
   257
176
     1
 40
1.0
176
     1
 90
        1
176
     1
 90
        6
176
     1
 90
        2
176
     1
 62
     7
176
     1
 90
        5
176
     1
 90
        0
176
     1
 90
        0
176
     1
290
     0
176
     1
 90
        1
176
     1
 40
0.0
176
     1
 90
        0
176
     1
290
     1
176
     1
290
     1
176
     1
290
     0
176
     1
290
     0
176
     1
290
     0
176
     1
290
     0
176
     1
290
     0
176
     1
290
     0
176
     1
290
     0
176
     1
 90
       50
176
     1
 40
0.0
176
     1
 40
1.0
176
     1
 90
        0
176
     1
 62
    18
420
        0
176
     1
 90
       50
176
     1
 90
        3
176
     1
 62
     5
420
      255
176
     1
290
     0
176
     1
 90
       50
176
     1
 90
       50
176
     1
 90
       50
176
     1
290
     0
176
     1
 90
       50
176
     1
 62
   256
176
     0
 40
1.0
176
     0
 90
        2
176
     1
  1
strokes_ogs.tif
176
     1
290
     0
176
     1
 40
1.0
176
     1
 40
1.0
176
     1
  0
VISUALSTYLE
  5
32
102
{ACAD_REACTORS
330
2A
102
}
330
2A
100
AcDbVisualStyle
  2
Basic
 70
     7
177
     3
291
     1
 70
    58
 90
        1
176
     1
 90
        0
176
     1
 90
        1
176
     1
 90
        0
176
     1
 40
0.6
176
     1
 40
30.0
176
     1
 62
     7
420
 16777215
176
     1
 90
        0
176
     1
 90
        4
176
     1
 62
     7
176
     1
 62
   257
176
     1
 90
        1
176
     1
 90
        1
176
     1
 40
1.0
176
     1
 90
        8
176
     1
 62
     7
176
     1
 40
1.0
176
     1
 90
        1
176
     1
 90
        6
176
     1
 90
        2
176
     1
 62
     7
176
     1
 90
        5
176
     1
 90
        0
176
     1
 90
        0
176
     1
290
     0
176
     1
 90
        1
176
     1
 40
0.0
176
     1
 90
        0
176
     1
290
     0
176
     1
290
     1
176
     1
290
     1
176
     1
290
     0
176
     1
290
     0
176
     1
290
     0
176
     1
290
     0
176
     1
290
     0
176
     1
290
     0
176
     1
 90
       50
176
     1
 40
0.0
176
     1
 40
1.0
176
     1
 90
        0
176
     1
 62
    18
420
        0
176
     1
 90
       50
176
     1
 90
        3
176
     1
 62
     5
420
      255
176
     1
290
     0
176
     1
 90
       50
176
     1
 90
       50
176
     1
 90
       50
176
     1
290
     0
176
     1
 90
       50
176
     1
 62
   256
176
     0
 40
1.0
176
     0
 90
        2
176
     1
  1
strokes_ogs.tif
176
     1
290
     0
176
     1
 40
1.0
176
     1
 40
1.0
176
     1
  0
VISUALSTYLE
  5
36
102
{ACAD_REACTORS
330
2A
102
}
330
2A
100
AcDbVisualStyle
  2
Brighten
 70
    12
177
     3
291
     1
 70
    58
 90
        2
176
     1
 90
        2
176
     1
 90
        0
176
     1
 90
        0
176
     1
 40
0.6
176
     1
 40
30.0
176
     1
 62
     7
420
 16777215
176
     1
 90
        1
176
     1
 90
        4
176
     1
 62
     7
176
     1
 62
   257
176
     1
 90
        1
176
     1
 90
        1
176
     1
 40
1.0
176
     1
 90
        8
176
     1
 62
     7
176
     1
 40
1.0
176
     1
 90
        1
176
     1
 90
        6
176
     1
 90
        2
176
     1
 62
     7
176
     1
 90
        5
176
     1
 90
        0
176
     1
 90
        0
176
     1
290
     0
176
     1
 90
        1
176
     1
 40
50.0
176
     1
 90
        0
176
     1
290
     0
176
     1
290
     1
176
     1
290
     1
176
     1
290
     0
176
     1
290
     0
176
     1
290
     0
176
     1
290
     0
176
     1
290
     0
176
     1
290
     0
176
     1
 90
       50
176
     1
 40
0.0
176
     1
 40
1.0
176
     1
 90
        0
176
     1
 62
    18
420
        0
176
     1
 90
       50
176
     1
 90
        3
176
     1
 62
     5
420
      255
176
     1
290
     0
176
     1
 90
       50
176
     1
 90
       50
176
     1
 90
       50
176
     1
290
     0
176
     1
 90
       50
176
     1
 62
   256
176
     0
 40
1.0
176
     0
 90
        2
176
     1
  1
strokes_ogs.tif
176
     1
290
     0
176
     1
 40
1.0
176
     1
 40
1.0
176
     1
  0
VISUALSTYLE
  5
3A
102
{ACAD_REACTORS
330
2A
102
}
330
2A
100
AcDbVisualStyle
  2
ColorChange
 70
    16
177
     3
291
     1
 70
    58
 90
        2
176
     1
 90
        2
176
     1
 90
        3
176
     1
 90
        0
176
     1
 40
0.6
176
     1
 40
30.0
176
     1
 62
     8
420
  8421504
176
     1
 90
        1
176
     1
 90
        4
176
     1
 62
     7
176
     1
 62
   257
176
     1
 90
        1
176
     1
 90
        1
176
     1
 40
1.0
176
     1
 90
        8
176
     1
 62
     8
420
  8421504
176
     1
 40
1.0
176
     1
 90
        1
176
     1
 90
        6
176
     1
 90
        2
176
     1
 62
     7
176
     1
 90
        5
176
     1
 90
        0
176
     1
 90
        0
176
     1
290
     0
176
     1
 90
        1
176
     1
 40
0.0
176
     1
 90
        0
176
     1
290
     0
176
     1
290
     1
176
     1
290
     1
176
     1
290
     0
176
     1
290
     0
176
     1
290
     0
176
     1
290
     0
176
     1
290
     0
176
     1
290
     0
176
     1
 90
       50
176
     1
 40
0.0
176
     1
 40
1.0
176
     1
 90
        0
176
     1
 62
    18
420
        0
176
     1
 90
       50
176
     1
 90
        3
176
     1
 62
     5
420
      255
176
     1
290
     0
176
     1
 90
       50
176
     1
 90
       50
176
     1
 90
       50
176
     1
290
     0
176
     1
 90
       50
176
     1
 62
   256
176
     0
 40
1.0
176
     0
 90
        2
176
     1
  1
strokes_ogs.tif
176
     1
290
     0
176
     1
 40
1.0
176
     1
 40
1.0
176
     1
  0
VISUALSTYLE
  5
34
102
{ACAD_REACTORS
330
2A
102
}
330
2A
100
AcDbVisualStyle
  2
Conceptual
 70
     9
177
     3
291
     0
 70
    58
 90
        3
176
     1
 90
        2
176
     1
 90
        0
176
     1
 90
        0
176
     1
 40
0.6
176
     1
 40
30.0
176
     1
 62
     7
420
 16777215
176
     1
 90
        2
176
     1
 90
        2
176
     1
 62
     7
176
     1
 62
   257
176
     1
 90
        1
176
     1
 90
        1
176
     1
 40
179.0
176
     1
 90
        8
176
     1
 62
     7
176
     1
 40
1.0
176
     1
 90
        1
176
     1
 90
        6
176
     1
 90
        2
176
     1
 62
     7
176
     1
 90
        3
176
     1
 90
        0
176
     1
 90
        0
176
     1
290
     0
176
     1
 90
        1
176
     1
 40
0.0
176
     1
 90
        0
176
     1
290
     0
176
     1
290
     1
176
     1
290
     1
176
     1
290
     0
176
     1
290
     0
176
     1
290
     0
176
     1
290
     0
176
     1
290
     0
176
     1
290
     0
176
     1
 90
       50
176
     1
 40
0.0
176
     1
 40
1.0
176
     1
 90
        0
176
     1
 62
    18
420
        0
176
     1
 90
       50
176
     1
 90
        3
176
     1
 62
     5
420
      255
176
     1
290
     0
176
     1
 90
       50
176
     1
 90
       50
176
     1
 90
       50
176
     1
290
     0
176
     1
 90
       50
176
     1
 62
   256
176
     0
 40
1.0
176
     0
 90
        2
176
     1
  1
strokes_ogs.tif
176
     1
290
     0
176
     1
 40
1.0
176
     1
 40
1.0
176
     1
  0
VISUALSTYLE
  5
35
102
{ACAD_REACTORS
330
2A
102
}
330
2A
100
AcDbVisualStyle
  2
Dim
 70
    11
177
     3
291
     1
 70
    58
 90
        2
176
     1
 90
        2
176
     1
 90
        0
176
     1
 90
        0
176
     1
 40
0.6
176
     1
 40
30.0
176
     1
 62
     7
420
 16777215
176
     1
 90
        1
176
     1
 90
        4
176
     1
 62
     7
176
     1
 62
   257
176
     1
 90
        1
176
     1
 90
        1
176
     1
 40
1.0
176
     1
 90
        8
176
     1
 62
     7
176
     1
 40
1.0
176
     1
 90
        1
176
     1
 90
        6
176
     1
 90
        2
176
     1
 62
     7
176
     1
 90
        5
176
     1
 90
        0
176
     1
 90
        0
176
     1
290
     0
176
     1
 90
        1
176
     1
 40
-50.0
176
     1
 90
        0
176
     1
290
     0
176
     1
290
     1
176
     1
290
     1
176
     1
290
     0
176
     1
290
     0
176
     1
290
     0
176
     1
290
     0
176
     1
290
     0
176
     1
290
     0
176
     1
 90
       50
176
     1
 40
0.0
176
     1
 40
1.0
176
     1
 90
        0
176
     1
 62
    18
420
        0
176
     1
 90
       50
176
     1
 90
        3
176
     1
 62
     5
420
      255
176
     1
290
     0
176
     1
 90
       50
176
     1
 90
       50
176
     1
 90
       50
176
     1
290
     0
176
     1
 90
       50
176
     1
 62
   256
176
     0
 40
1.0
176
     0
 90
        2
176
     1
  1
strokes_ogs.tif
176
     1
290
     0
176
     1
 40
1.0
176
     1
 40
1.0
176
     1
  0
VISUALSTYLE
  5
3D
102
{ACAD_REACTORS
330
2A
102
}
330
2A
100
AcDbVisualStyle
  2
EdgeColorOff
 70
    22
177
     3
291
     1
 70
    58
 90
        2
176
     0
 90
        2
176
     0
 90
        0
176
     0
 90
        0
176
     0
 40
0.6
176
     0
 40
30.0
176
     0
 62
     7
420
 16777215
176
     0
 90
        1
176
     0
 90
        4
176
     0
 62
     7
176
     0
 62
   257
176
     0
 90
        1
176
     0
 90
        1
176
     0
 40
1.0
176
     0
 90
        8
176
     2
 62
     7
176
     0
 40
1.0
176
     0
 90
        1
176
     0
 90
        6
176
     0
 90
        2
176
     0
 62
     7
176
     0
 90
        5
176
     0
 90
        0
176
     0
 90
        0
176
     0
290
     0
176
     0
 90
        1
176
     0
 40
0.0
176
     0
 90
        0
176
     0
290
     0
176
     0
290
     1
176
     0
290
     1
176
     0
290
     0
176
     0
290
     0
176
     0
290
     0
176
     0
290
     0
176
     0
290
     0
176
     0
290
     0
176
     0
 90
       50
176
     0
 40
0.0
176
     0
 40
1.0
176
     0
 90
        0
176
     0
 62
    18
420
        0
176
     0
 90
       50
176
     0
 90
        3
176
     0
 62
     5
420
      255
176
     0
290
     0
176
     0
 90
       50
176
     0
 90
       50
176
     0
 90
       50
176
     0
290
     0
176
     0
 90
       50
176
     0
 62
   256
176
     0
 40
1.0
176
     0
 90
        2
176
     0
  1
strokes_ogs.tif
176
     0
290
     0
176
     0
 40
1.0
176
     0
 40
1.0
176
     0
  0
VISUALSTYLE
  5
39
102
{ACAD_REACTORS
330
2A
102
}
330
2A
100
AcDbVisualStyle
  2
Facepattern
 70
    15
177
     3
291
     1
 70
    58
 90
        2
176
     1
 90
        2
176
     1
 90
        0
176
     1
 90
        0
176
     1
 40
0.6
176
     1
 40
30.0
176
     1
 62
     7
420
 16777215
176
     1
 90
        1
176
     1
 90
        4
176
     1
 62
     7
176
     1
 62
   257
176
     1
 90
        1
176
     1
 90
        1
176
     1
 40
1.0
176
     1
 90
        8
176
     1
 62
     7
176
     1
 40
1.0
176
     1
 90
        1
176
     1
 90
        6
176
     1
 90
        2
176
     1
 62
     7
176
     1
 90
        5
176
     1
 90
        0
176
     1
 90
        0
176
     1
290
     0
176
     1
 90
        1
176
     1
 40
0.0
176
     1
 90
        0
176
     1
290
     0
176
     1
290
     1
176
     1
290
     1
176
     1
290
     0
176
     1
290
     0
176
     1
290
     0
176
     1
290
     0
176
     1
290
     0
176
     1
290
     0
176
     1
 90
       50
176
     1
 40
0.0
176
     1
 40
1.0
176
     1
 90
        0
176
     1
 62
    18
420
        0
176
     1
 90
       50
176
     1
 90
        3
176
     1
 62
     5
420
      255
176
     1
290
     0
176
     1
 90
       50
176
     1
 90
       50
176
     1
 90
       50
176
     1
290
     0
176
     1
 90
       50
176
     1
 62
   256
176
     0
 40
1.0
176
     0
 90
        2
176
     1
  1
strokes_ogs.tif
176
     1
290
     0
176
     1
 40
1.0
176
     1
 40
1.0
176
     1
  0
VISUALSTYLE
  5
2B
102
{ACAD_REACTORS
330
2A
102
}
330
2A
100
AcDbVisualStyle
  2
Flat
 70
     0
177
     3
291
     1
 70
    58
 90
        2
176
     1
 90
        1
176
     1
 90
        1
176
     1
 90
        2
176
     1
 40
0.6
176
     1
 40
30.0
176
     1
 62
     7
420
 16777215
176
     1
 90
        0
176
     1
 90
        0
176
     1
 62
     7
176
     1
 62
   257
176
     1
 90
        1
176
     1
 90
        1
176
     1
 40
1.0
176
     1
 90
        8
176
     1
 62
     7
176
     1
 40
1.0
176
     1
 90
        1
176
     1
 90
        6
176
     1
 90
        2
176
     1
 62
     7
176
     1
 90
        5
176
     1
 90
        0
176
     1
 90
        0
176
     1
290
     0
176
     1
 90
       13
176
     1
 40
0.0
176
     1
 90
        0
176
     1
290
     0
176
     1
290
     1
176
     1
290
     1
176
     1
290
     0
176
     1
290
     0
176
     1
290
     0
176
     1
290
     0
176
     1
290
     0
176
     1
290
     0
176
     1
 90
       50
176
     1
 40
0.0
176
     1
 40
1.0
176
     1
 90
        0
176
     1
 62
    18
420
        0
176
     1
 90
       50
176
     1
 90
        3
176
     1
 62
     5
420
      255
176
     1
290
     0
176
     1
 90
       50
176
     1
 90
       50
176
     1
 90
       50
176
     1
290
     0
176
     1
 90
       50
176
     1
 62
   256
176
     0
 40
1.0
176
     0
 90
        2
176
     1
  1
strokes_ogs.tif
176
     1
290
     0
176
     1
 40
1.0
176
     1
 40
1.0
176
     1
  0
VISUALSTYLE
  5
2C
102
{ACAD_REACTORS
330
2A
102
}
330
2A
100
AcDbVisualStyle
  2
FlatWithEdges
 70
     1
177
     3
291
     1
 70
    58
 90
        2
176
     1
 90
        1
176
     1
 90
        1
176
     1
 90
        2
176
     1
 40
0.6
176
     1
 40
30.0
176
     1
 62
     7
420
 16777215
176
     1
 90
        1
176
     1
 90
        0
176
     1
 62
     7
176
     1
 62
   257
176
     1
 90
        1
176
     1
 90
        1
176
     1
 40
1.0
176
     1
 90
        0
176
     1
 62
   257
176
     1
 40
1.0
176
     1
 90
        1
176
     1
 90
        6
176
     1
 90
        2
176
     1
 62
     7
176
     1
 90
        5
176
     1
 90
        0
176
     1
 90
        0
176
     1
290
     0
176
     1
 90
       13
176
     1
 40
0.0
176
     1
 90
        0
176
     1
290
     0
176
     1
290
     1
176
     1
290
     1
176
     1
290
     0
176
     1
290
     0
176
     1
290
     0
176
     1
290
     0
176
     1
290
     0
176
     1
290
     0
176
     1
 90
       50
176
     1
 40
0.0
176
     1
 40
1.0
176
     1
 90
        0
176
     1
 62
    18
420
        0
176
     1
 90
       50
176
     1
 90
        3
176
     1
 62
     5
420
      255
176
     1
290
     0
176
     1
 90
       50
176
     1
 90
       50
176
     1
 90
       50
176
     1
290
     0
176
     1
 90
       50
176
     1
 62
   256
176
     0
 40
1.0
176
     0
 90
        2
176
     1
  1
strokes_ogs.tif
176
     1
290
     0
176
     1
 40
1.0
176
     1
 40
1.0
176
     1
  0
VISUALSTYLE
  5
2D
102
{ACAD_REACTORS
330
2A
102
}
330
2A
100
AcDbVisualStyle
  2
Gouraud
 70
     2
177
     3
291
     1
 70
    58
 90
        2
176
     1
 90
        2
176
     1
 90
        1
176
     1
 90
        2
176
     1
 40
0.6
176
     1
 40
30.0
176
     1
 62
     7
420
 16777215
176
     1
 90
        0
176
     1
 90
        0
176
     1
 62
     7
176
     1
 62
   257
176
     1
 90
        1
176
     1
 90
        1
176
     1
 40
1.0
176
     1
 90
        0
176
     1
 62
     7
176
     1
 40
1.0
176
     1
 90
        1
176
     1
 90
        6
176
     1
 90
        2
176
     1
 62
     7
176
     1
 90
        5
176
     1
 90
        0
176
     1
 90
        0
176
     1
290
     0
176
     1
 90
       13
176
     1
 40
0.0
176
     1
 90
        0
176
     1
290
     0
176
     1
290
     1
176
     1
290
     1
176
     1
290
     0
176
     1
290
     0
176
     1
290
     0
176
     1
290
     0
176
     1
290
     0
176
     1
290
     0
176
     1
 90
       50
176
     1
 40
0.0
176
     1
 40
1.0
176
     1
 90
        0
176
     1
 62
    18
420
        0
176
     1
 90
       50
176
     1
 90
        3
176
     1
 62
     5
420
      255
176
     1
290
     0
176
     1
 90
       50
176
     1
 90
       50
176
     1
 90
       50
176
     1
290
     0
176
     1
 90
       50
176
     1
 62
   256
176
     0
 40
1.0
176
     0
 90
        2
176
     1
  1
strokes_ogs.tif
176
     1
290
     0
176
     1
 40
1.0
176
     1
 40
1.0
176
     1
  0
VISUALSTYLE
  5
2E
102
{ACAD_REACTORS
330
2A
102
}
330
2A
100
AcDbVisualStyle
  2
GouraudWithEdges
 70
     3
177
     3
291
     1
 70
    58
 90
        2
176
     1
 90
        2
176
     1
 90
        1
176
     1
 90
        2
176
     1
 40
0.6
176
     1
 40
30.0
176
     1
 62
     7
420
 16777215
176
     1
 90
        1
176
     1
 90
        0
176
     1
 62
     7
176
     1
 62
   257
176
     1
 90
        1
176
     1
 90
        1
176
     1
 40
1.0
176
     1
 90
        0
176
     1
 62
   257
176
     1
 40
1.0
176
     1
 90
        1
176
     1
 90
        6
176
     1
 90
        2
176
     1
 62
     7
176
     1
 90
        5
176
     1
 90
        0
176
     1
 90
        0
176
     1
290
     0
176
     1
 90
       13
176
     1
 40
0.0
176
     1
 90
        0
176
     1
290
     0
176
     1
290
     1
176
     1
290
     1
176
     1
290
     0
176
     1
290
     0
176
     1
290
     0
176
     1
290
     0
176
     1
290
     0
176
     1
290
     0
176
     1
 90
       50
176
     1
 40
0.0
176
     1
 40
1.0
176
     1
 90
        0
176
     1
 62
    18
420
        0
176
     1
 90
       50
176
     1
 90
        3
176
     1
 62
     5
420
      255
176
     1
290
     0
176
     1
 90
       50
176
     1
 90
       50
176
     1
 90
       50
176
     1
290
     0
176
     1
 90
       50
176
     1
 62
   256
176
     0
 40
1.0
176
     0
 90
        2
176
     1
  1
strokes_ogs.tif
176
     1
290
     0
176
     1
 40
1.0
176
     1
 40
1.0
176
     1
  0
VISUALSTYLE
  5
31
102
{ACAD_REACTORS
330
2A
102
}
330
2A
100
AcDbVisualStyle
  2
Hidden
 70
     6
177
     3
291
     0
 70
    58
 90
        1
176
     1
 90
        2
176
     1
 90
        2
176
     1
 90
        0
176
     1
 40
0.6
176
     1
 40
30.0
176
     1
 62
     7
420
 16777215
176
     1
 90
        2
176
     1
 90
        2
176
     1
 62
     7
176
     1
 62
   257
176
     1
 90
        2
176
     1
 90
        1
176
     1
 40
40.0
176
     1
 90
        0
176
     1
 62
   257
176
     1
 40
1.0
176
     1
 90
        1
176
     1
 90
        6
176
     1
 90
        2
176
     1
 62
     7
176
     1
 90
        3
176
     1
 90
        0
176
     1
 90
        0
176
     1
290
     0
176
     1
 90
        1
176
     1
 40
0.0
176
     1
 90
        0
176
     1
290
     0
176
     1
290
     1
176
     1
290
     1
176
     1
290
     0
176
     1
290
     0
176
     1
290
     0
176
     1
290
     0
176
     1
290
     0
176
     1
290
     0
176
     1
 90
       50
176
     1
 40
0.0
176
     1
 40
1.0
176
     1
 90
        0
176
     1
 62
    18
420
        0
176
     1
 90
       50
176
     1
 90
        3
176
     1
 62
     5
420
      255
176
     1
290
     0
176
     1
 90
       50
176
     1
 90
       50
176
     1
 90
       50
176
     1
290
     0
176
     1
 90
       50
176
     1
 62
   256
176
     0
 40
1.0
176
     0
 90
        2
176
     1
  1
strokes_ogs.tif
176
     1
290
     0
176
     1
 40
1.0
176
     1
 40
1.0
176
     1
  0
VISUALSTYLE
  5
3B
102
{ACAD_REACTORS
330
2A
102
}
330
2A
100
AcDbVisualStyle
  2
JitterOff
 70
    20
177
     3
291
     1
 70
    58
 90
        2
176
     0
 90
        2
176
     0
 90
        0
176
     0
 90
        0
176
     0
 40
0.6
176
     0
 40
30.0
176
     0
 62
     7
420
 16777215
176
     0
 90
        1
176
     0
 90
        4
176
     0
 62
     7
176
     0
 62
   257
176
     0
 90
        1
176
     0
 90
        1
176
     0
 40
1.0
176
     0
 90
       10
176
     2
 62
     7
176
     0
 40
1.0
176
     0
 90
        1
176
     0
 90
        6
176
     0
 90
        2
176
     0
 62
     7
176
     0
 90
        5
176
     0
 90
        0
176
     0
 90
        0
176
     0
290
     0
176
     0
 90
        1
176
     0
 40
0.0
176
     0
 90
        0
176
     0
290
     0
176
     0
290
     1
176
     0
290
     1
176
     0
290
     0
176
     0
290
     0
176
     0
290
     0
176
     0
290
     0
176
     0
290
     0
176
     0
290
     0
176
     0
 90
       50
176
     0
 40
0.0
176
     0
 40
1.0
176
     0
 90
        0
176
     0
 62
    18
420
        0
176
     0
 90
       50
176
     0
 90
        3
176
     0
 62
     5
420
      255
176
     0
290
     0
176
     0
 90
       50
176
     0
 90
       50
176
     0
 90
       50
176
     0
290
     0
176
     0
 90
       50
176
     0
 62
   256
176
     0
 40
1.0
176
     0
 90
        2
176
     0
  1
strokes_ogs.tif
176
     0
290
     0
176
     0
 40
1.0
176
     0
 40
1.0
176
     0
  0
VISUALSTYLE
  5
38
102
{ACAD_REACTORS
330
2A
102
}
330
2A
100
AcDbVisualStyle
  2
Linepattern
 70
    14
177
     3
291
     1
 70
    58
 90
        2
176
     1
 90
        2
176
     1
 90
        0
176
     1
 90
        0
176
     1
 40
0.6
176
     1
 40
30.0
176
     1
 62
     7
420
 16777215
176
     1
 90
        1
176
     1
 90
        4
176
     1
 62
     7
176
     1
 62
   257
176
     1
 90
        7
176
     1
 90
        7
176
     1
 40
1.0
176
     1
 90
        8
176
     1
 62
     7
176
     1
 40
1.0
176
     1
 90
        1
176
     1
 90
        6
176
     1
 90
        2
176
     1
 62
     7
176
     1
 90
        5
176
     1
 90
        0
176
     1
 90
        0
176
     1
290
     0
176
     1
 90
        1
176
     1
 40
0.0
176
     1
 90
        0
176
     1
290
     0
176
     1
290
     1
176
     1
290
     1
176
     1
290
     0
176
     1
290
     0
176
     1
290
     0
176
     1
290
     0
176
     1
290
     0
176
     1
290
     0
176
     1
 90
       50
176
     1
 40
0.0
176
     1
 40
1.0
176
     1
 90
        0
176
     1
 62
    18
420
        0
176
     1
 90
       50
176
     1
 90
        3
176
     1
 62
     5
420
      255
176
     1
290
     0
176
     1
 90
       50
176
     1
 90
       50
176
     1
 90
       50
176
     1
290
     0
176
     1
 90
       50
176
     1
 62
   256
176
     0
 40
1.0
176
     0
 90
        2
176
     1
  1
strokes_ogs.tif
176
     1
290
     0
176
     1
 40
1.0
176
     1
 40
1.0
176
     1
  0
VISUALSTYLE
  5
3C
102
{ACAD_REACTORS
330
2A
102
}
330
2A
100
AcDbVisualStyle
  2
OverhangOff
 70
    21
177
     3
291
     1
 70
    58
 90
        2
176
     0
 90
        2
176
     0
 90
        0
176
     0
 90
        0
176
     0
 40
0.6
176
     0
 40
30.0
176
     0
 62
     7
420
 16777215
176
     0
 90
        1
176
     0
 90
        4
176
     0
 62
     7
176
     0
 62
   257
176
     0
 90
        1
176
     0
 90
        1
176
     0
 40
1.0
176
     0
 90
        9
176
     2
 62
     7
176
     0
 40
1.0
176
     0
 90
        1
176
     0
 90
        6
176
     0
 90
        2
176
     0
 62
     7
176
     0
 90
        5
176
     0
 90
        0
176
     0
 90
        0
176
     0
290
     0
176
     0
 90
        1
176
     0
 40
0.0
176
     0
 90
        0
176
     0
290
     0
176
     0
290
     1
176
     0
290
     1
176
     0
290
     0
176
     0
290
     0
176
     0
290
     0
176
     0
290
     0
176
     0
290
     0
176
     0
290
     0
176
     0
 90
       50
176
     0
 40
0.0
176
     0
 40
1.0
176
     0
 90
        0
176
     0
 62
    18
420
        0
176
     0
 90
       50
176
     0
 90
        3
176
     0
 62
     5
420
      255
176
     0
290
     0
176
     0
 90
       50
176
     0
 90
       50
176
     0
 90
       50
176
     0
290
     0
176
     0
 90
       50
176
     0
 62
   256
176
     0
 40
1.0
176
     0
 90
        2
176
     0
  1
strokes_ogs.tif
176
     0
290
     0
176
     0
 40
1.0
176
     0
 40
1.0
176
     0
  0
VISUALSTYLE
  5
33
102
{ACAD_REACTORS
330
2A
102
}
330
2A
100
AcDbVisualStyle
  2
Realistic
 70
     8
177
     3
291
     0
 70
    58
 90
        2
176
     1
 90
        3
176
     1
 90
        0
176
     1
 90
        2
176
     1
 40
0.6
176
     1
 40
30.0
176
     1
 62
     7
420
 16777215
176
     1
 90
        0
176
     1
 90
        0
176
     1
 62
     7
176
     1
 62
   257
176
     1
 90
        1
176
     1
 90
        1
176
     1
 40
1.0
176
     1
 90
        8
176
     1
 62
   257
176
     1
 40
1.0
176
     1
 90
        1
176
     1
 90
        6
176
     1
 90
        2
176
     1
 62
     7
176
     1
 90
        3
176
     1
 90
        0
176
     1
 90
        0
176
     1
290
     0
176
     1
 90
       13
176
     1
 40
0.0
176
     1
 90
        0
176
     1
290
     0
176
     1
290
     1
176
     1
290
     1
176
     1
290
     0
176
     1
290
     0
176
     1
290
     0
176
     1
290
     0
176
     1
290
     0
176
     1
290
     0
176
     1
 90
       50
176
     1
 40
0.0
176
     1
 40
1.0
176
     1
 90
        0
176
     1
 62
    18
420
        0
176
     1
 90
       50
176
     1
 90
        3
176
     1
 62
     5
420
      255
176
     1
290
     0
176
     1
 90
       50
176
     1
 90
       50
176
     1
 90
       50
176
     1
290
     0
176
     1
 90
       50
176
     1
 62
   256
176
     0
 40
1.0
176
     0
 90
        2
176
     1
  1
strokes_ogs.tif
176
     1
290
     0
176
     1
 40
1.0
176
     1
 40
1.0
176
     1
  0
VISUALSTYLE
  5
42
102
{ACAD_REACTORS
330
2A
102
}
330
2A
100
AcDbVisualStyle
  2
Shaded
 70
    27
177
     3
291
     0
 70
    58
 90
        2
176
     1
 90
        2
176
     1
 90
        1
176
     1
 90
        2
176
     1
 40
0.6
176
     1
 40
30.0
176
     1
 62
     7
420
 16777215
176
     1
 90
        0
176
     1
 90
        4
176
     1
 62
     7
176
     1
 62
   257
176
     1
 90
        1
176
     1
 90
        1
176
     1
 40
1.0
176
     1
 90
        8
176
     1
 62
   257
176
     1
 40
1.0
176
     1
 90
        1
176
     1
 90
        6
176
     1
 90
        2
176
     1
 62
     8
420
  7895160
176
     1
 90
        3
176
     1
 90
        0
176
     1
 90
        0
176
     1
290
     0
176
     1
 90
        5
176
     1
 40
0.0
176
     1
 90
        0
176
     1
290
     0
176
     1
290
     1
176
     1
290
     1
176
     1
290
     0
176
     1
290
     0
176
     1
290
     0
176
     1
290
     0
176
     1
290
     0
176
     1
290
     0
176
     1
 90
       50
176
     1
 40
0.0
176
     1
 40
1.0
176
     1
 90
        0
176
     1
 62
    18
420
        0
176
     1
 90
       50
176
     1
 90
        3
176
     1
 62
     5
420
      255
176
     1
290
     0
176
     1
 90
       50
176
     1
 90
       50
176
     1
 90
       50
176
     1
290
     0
176
     1
 90
       50
176
     1
 62
   256
176
     0
 40
1.0
176
     0
 90
        2
176
     1
  1
strokes_ogs.tif
176
     1
290
     0
176
     1
 40
1.0
176
     1
 40
1.0
176
     1
  0
VISUALSTYLE
  5
41
102
{ACAD_REACTORS
330
2A
102
}
330
2A
100
AcDbVisualStyle
  2
Shaded with edges
 70
    26
177
     3
291
     0
 70
    58
 90
        2
176
     1
 90
        2
176
     1
 90
        1
176
     1
 90
        2
176
     1
 40
0.6
176
     1
 40
30.0
176
     1
 62
     7
420
 16777215
176
     1
 90
        1
176
     1
 90
       10
176
     1
 62
     7
176
     1
 62
   257
176
     1
 90
        2
176
     1
 90
        1
176
     1
 40
1.0
176
     1
 90
        8
176
     1
 62
   257
176
     1
 40
1.0
176
     1
 90
        1
176
     1
 90
        6
176
     1
 90
        2
176
     1
 62
     7
176
     1
 90
        3
176
     1
 90
        0
176
     1
 90
        0
176
     1
290
     0
176
     1
 90
        5
176
     1
 40
0.0
176
     1
 90
        0
176
     1
290
     0
176
     1
290
     1
176
     1
290
     1
176
     1
290
     0
176
     1
290
     0
176
     1
290
     0
176
     1
290
     0
176
     1
290
     0
176
     1
290
     0
176
     1
 90
       50
176
     1
 40
0.0
176
     1
 40
1.0
176
     1
 90
        0
176
     1
 62
    18
420
        0
176
     1
 90
       50
176
     1
 90
        3
176
     1
 62
     5
420
      255
176
     1
290
     0
176
     1
 90
       50
176
     1
 90
       50
176
     1
 90
       50
176
     1
290
     0
176
     1
 90
       50
176
     1
 62
   256
176
     0
 40
1.0
176
     0
 90
        2
176
     1
  1
strokes_ogs.tif
176
     1
290
     0
176
     1
 40
1.0
176
     1
 40
1.0
176
     1
  0
VISUALSTYLE
  5
3E
102
{ACAD_REACTORS
330
2A
102
}
330
2A
100
AcDbVisualStyle
  2
Shades of Gray
 70
    23
177
     3
291
     0
 70
    58
 90
        2
176
     1
 90
        2
176
     1
 90
        3
176
     1
 90
        0
176
     1
 40
0.6
176
     1
 40
30.0
176
     1
 62
     7
420
 16777215
176
     1
 90
        2
176
     1
 90
        2
176
     1
 62
     7
176
     1
 62
     7
176
     1
 90
        1
176
     1
 90
        1
176
     1
 40
40.0
176
     1
 90
        8
176
     1
 62
     7
176
     1
 40
1.0
176
     1
 90
        1
176
     1
 90
        6
176
     1
 90
        2
176
     1
 62
     7
176
     1
 90
        3
176
     1
 90
        0
176
     1
 90
        0
176
     1
290
     0
176
     1
 90
        1
176
     1
 40
0.0
176
     1
 90
        0
176
     1
290
     0
176
     1
290
     1
176
     1
290
     1
176
     1
290
     0
176
     1
290
     0
176
     1
290
     0
176
     1
290
     0
176
     1
290
     0
176
     1
290
     0
176
     1
 90
       50
176
     1
 40
0.0
176
     1
 40
1.0
176
     1
 90
        0
176
     1
 62
    18
420
        0
176
     1
 90
       50
176
     1
 90
        3
176
     1
 62
     5
420
      255
176
     1
290
     0
176
     1
 90
       50
176
     1
 90
       50
176
     1
 90
       50
176
     1
290
     0
176
     1
 90
       50
176
     1
 62
   256
176
     0
 40
1.0
176
     0
 90
        2
176
     1
  1
strokes_ogs.tif
176
     1
290
     0
176
     1
 40
1.0
176
     1
 40
1.0
176
     1
  0
VISUALSTYLE
  5
3F
102
{ACAD_REACTORS
330
2A
102
}
330
2A
100
AcDbVisualStyle
  2
Sketchy
 70
    24
177
     3
291
     0
 70
    58
 90
        1
176
     1
 90
        2
176
     1
 90
        2
176
     1
 90
        0
176
     1
 40
0.6
176
     1
 40
30.0
176
     1
 62
     7
420
 16777215
176
     1
 90
        2
176
     1
 90
        2
176
     1
 62
     7
176
     1
 62
     7
176
     1
 90
        1
176
     1
 90
        1
176
     1
 40
40.0
176
     1
 90
       11
176
     1
 62
     7
176
     1
 40
1.0
176
     1
 90
        1
176
     1
 90
        6
176
     1
 90
        2
176
     1
 62
     7
176
     1
 90
        6
176
     1
 90
        0
176
     1
 90
        0
176
     1
290
     0
176
     1
 90
        1
176
     1
 40
0.0
176
     1
 90
        0
176
     1
290
     0
176
     1
290
     1
176
     1
290
     1
176
     1
290
     0
176
     1
290
     0
176
     1
290
     0
176
     1
290
     0
176
     1
290
     0
176
     1
290
     0
176
     1
 90
       50
176
     1
 40
0.0
176
     1
 40
1.0
176
     1
 90
        0
176
     1
 62
    18
420
        0
176
     1
 90
       50
176
     1
 90
        3
176
     1
 62
     5
420
      255
176
     1
290
     0
176
     1
 90
       50
176
     1
 90
       50
176
     1
 90
       50
176
     1
290
     0
176
     1
 90
       50
176
     1
 62
   256
176
     0
 40
1.0
176
     0
 90
        2
176
     1
  1
strokes_ogs.tif
176
     1
290
     0
176
     1
 40
1.0
176
     1
 40
1.0
176
     1
  0
VISUALSTYLE
  5
37
102
{ACAD_REACTORS
330
2A
102
}
330
2A
100
AcDbVisualStyle
  2
Thicken
 70
    13
177
     3
291
     1
 70
    58
 90
        2
176
     1
 90
        2
176
     1
 90
        0
176
     1
 90
        0
176
     1
 40
0.6
176
     1
 40
30.0
176
     1
 62
     7
420
 16777215
176
     1
 90
        1
176
     1
 90
        4
176
     1
 62
     7
176
     1
 62
   257
176
     1
 90
        1
176
     1
 90
        1
176
     1
 40
1.0
176
     1
 90
       12
176
     1
 62
     7
176
     1
 40
1.0
176
     1
 90
        1
176
     1
 90
        6
176
     1
 90
        2
176
     1
 62
     7
176
     1
 90
        5
176
     1
 90
        0
176
     1
 90
        0
176
     1
290
     0
176
     1
 90
        1
176
     1
 40
0.0
176
     1
 90
        0
176
     1
290
     0
176
     1
290
     1
176
     1
290
     1
176
     1
290
     0
176
     1
290
     0
176
     1
290
     0
176
     1
290
     0
176
     1
290
     0
176
     1
290
     0
176
     1
 90
       50
176
     1
 40
0.0
176
     1
 40
1.0
176
     1
 90
        0
176
     1
 62
    18
420
        0
176
     1
 90
       50
176
     1
 90
        3
176
     1
 62
     5
420
      255
176
     1
290
     0
176
     1
 90
       50
176
     1
 90
       50
176
     1
 90
       50
176
     1
290
     0
176
     1
 90
       50
176
     1
 62
   256
176
     0
 40
1.0
176
     0
 90
        2
176
     1
  1
strokes_ogs.tif
176
     1
290
     0
176
     1
 40
1.0
176
     1
 40
1.0
176
     1
  0
VISUALSTYLE
  5
30
102
{ACAD_REACTORS
330
2A
102
}
330
2A
100
AcDbVisualStyle
  2
Wireframe
 70
     5
177
     3
291
     0
 70
    58
 90
        0
176
     1
 90
        2
176
     1
 90
        0
176
     1
 90
        0
176
     1
 40
0.6
176
     1
 40
30.0
176
     1
 62
     7
420
 16777215
176
     1
 90
        1
176
     1
 90
        4
176
     1
 62
     7
176
     1
 62
   257
176
     1
 90
        1
176
     1
 90
        1
176
     1
 40
1.0
176
     1
 90
        0
176
     1
 62
   257
176
     1
 40
1.0
176
     1
 90
        1
176
     1
 90
        6
176
     1
 90
        2
176
     1
 62
     7
176
     1
 90
        3
176
     1
 90
        0
176
     1
 90
        0
176
     1
290
     0
176
     1
 90
        1
176
     1
 40
0.0
176
     1
 90
        0
176
     1
290
     0
176
     1
290
     1
176
     1
290
     1
176
     1
290
     0
176
     1
290
     0
176
     1
290
     0
176
     1
290
     0
176
     1
290
     0
176
     1
290
     0
176
     1
 90
       50
176
     1
 40
0.0
176
     1
 40
1.0
176
     1
 90
        0
176
     1
 62
    18
420
        0
176
     1
 90
       50
176
     1
 90
        3
176
     1
 62
     5
420
      255
176
     1
290
     0
176
     1
 90
       50
176
     1
 90
       50
176
     1
 90
       50
176
     1
290
     0
176
     1
 90
       50
176
     1
 62
   256
176
     0
 40
1.0
176
     0
 90
        2
176
     1
  1
strokes_ogs.tif
176
     1
290
     0
176
     1
 40
1.0
176
     1
 40
1.0
176
     1
  0
VISUALSTYLE
  5
40
102
{ACAD_REACTORS
330
2A
102
}
330
2A
100
AcDbVisualStyle
  2
X-Ray
 70
    25
177
     3
291
     0
 70
    58
 90
        2
176
     1
 90
        2
176
     1
 90
        1
176
     1
 90
        1
176
     1
 40
0.5
176
     1
 40
30.0
176
     1
 62
     7
420
 16777215
176
     1
 90
        1
176
     1
 90
        0
176
     1
 62
     7
176
     1
 62
   257
176
     1
 90
        1
176
     1
 90
        1
176
     1
 40
1.0
176
     1
 90
        8
176
     1
 62
     7
176
     1
 40
1.0
176
     1
 90
        1
176
     1
 90
        6
176
     1
 90
        2
176
     1
 62
     7
176
     1
 90
        3
176
     1
 90
        0
176
     1
 90
        0
176
     1
290
     0
176
     1
 90
       13
176
     1
 40
0.0
176
     1
 90
        0
176
     1
290
     0
176
     1
290
     1
176
     1
290
     1
176
     1
290
     0
176
     1
290
     0
176
     1
290
     0
176
     1
290
     0
176
     1
290
     0
176
     1
290
     0
176
     1
 90
       50
176
     1
 40
0.0
176
     1
 40
1.0
176
     1
 90
        0
176
     1
 62
    18
420
        0
176
     1
 90
       50
176
     1
 90
        3
176
     1
 62
     5
420
      255
176
     1
290
     0
176
     1
 90
       50
176
     1
 90
       50
176
     1
 90
       50
176
     1
290
     0
176
     1
 90
       50
176
     1
 62
   256
176
     0
 40
1.0
176
     0
 90
        2
176
     1
  1
strokes_ogs.tif
176
     1
290
     0
176
     1
 40
1.0
176
     1
 40
1.0
176
     1
  0
DICTIONARYVAR
  5
3CC
102
{ACAD_REACTORS
330
3CB
102
}
330
3CB
100
DictionaryVariables
280
     0
  1
1:1
  0
DICTIONARYVAR
  5
3D4
102
{ACAD_REACTORS
330
3CB
102
}
330
3CB
100
DictionaryVariables
280
     0
  1
3.500000
  0
DICTIONARYVAR
  5
3D5
102
{ACAD_REACTORS
330
3CB
102
}
330
3CB
100
DictionaryVariables
280
     0
  1
acadiso.lin
  0
DICTIONARYVAR
  5
3D1
102
{ACAD_REACTORS
330
3CB
102
}
330
3CB
100
DictionaryVariables
280
     0
  1
Standard
  0
DICTIONARYVAR
  5
3D0
102
{ACAD_REACTORS
330
3CB
102
}
330
3CB
100
DictionaryVariables
280
     0
  1
Standard
  0
DICTIONARY
  5
3CD
330
5A
100
AcDbDictionary
280
     1
281
     1
  3
ACAD_ROUNDTRIP_2008_TABLESTYLE_CELLSTYLEMAP
360
3CE
  0
CELLSTYLEMAP
  5
3CE
102
{ACAD_REACTORS
330
3CD
102
}
330
3CD
100
AcDbCellStyleMap
 90
        3
300
CELLSTYLE
  1
TABLEFORMAT_BEGIN
 90
        5
170
     1
 91
        0
 92
    32768
 62
   257
 93
        1
300
CONTENTFORMAT
  1
CONTENTFORMAT_BEGIN
 90
        0
 91
        0
 92
        4
 93
        0
300

 40
0.0
140
1.0
 94
        5
 62
     0
340
11
144
6.0
309
CONTENTFORMAT_END
171
     1
301
MARGIN
  1
CELLMARGIN_BEGIN
 40
1.5
 40
1.5
 40
1.5
 40
1.5
 40
1.5
 40
1.5
309
CELLMARGIN_END
 94
        6
 95
        1
302
GRIDFORMAT
  1
GRIDFORMAT_BEGIN
 90
        0
 91
        1
 62
     0
 92
       -2
340
14
 93
        0
 40
0.045
309
GRIDFORMAT_END
 95
        2
302
GRIDFORMAT
  1
GRIDFORMAT_BEGIN
 90
        0
 91
        1
 62
     0
 92
       -2
340
14
 93
        0
 40
0.045
309
GRIDFORMAT_END
 95
        4
302
GRIDFORMAT
  1
GRIDFORMAT_BEGIN
 90
        0
 91
        1
 62
     0
 92
       -2
340
14
 93
        0
 40
0.045
309
GRIDFORMAT_END
 95
        8
302
GRIDFORMAT
  1
GRIDFORMAT_BEGIN
 90
        0
 91
        1
 62
     0
 92
       -2
340
14
 93
        0
 40
0.045
309
GRIDFORMAT_END
 95
       16
302
GRIDFORMAT
  1
GRIDFORMAT_BEGIN
 90
        0
 91
        1
 62
     0
 92
       -2
340
14
 93
        0
 40
0.045
309
GRIDFORMAT_END
 95
       32
302
GRIDFORMAT
  1
GRIDFORMAT_BEGIN
 90
        0
 91
        1
 62
     0
 92
       -2
340
14
 93
        0
 40
0.045
309
GRIDFORMAT_END
309
TABLEFORMAT_END
  1
CELLSTYLE_BEGIN
 90
        1
 91
        1
300
_TITLE
309
CELLSTYLE_END
300
CELLSTYLE
  1
TABLEFORMAT_BEGIN
 90
        5
170
     1
 91
        0
 92
        0
 62
   257
 93
        1
300
CONTENTFORMAT
  1
CONTENTFORMAT_BEGIN
 90
        0
 91
        0
 92
        4
 93
        0
300

 40
0.0
140
1.0
 94
        5
 62
     0
340
11
144
4.5
309
CONTENTFORMAT_END
171
     1
301
MARGIN
  1
CELLMARGIN_BEGIN
 40
1.5
 40
1.5
 40
1.5
 40
1.5
 40
1.5
 40
1.5
309
CELLMARGIN_END
 94
        6
 95
        1
302
GRIDFORMAT
  1
GRIDFORMAT_BEGIN
 90
        0
 91
        1
 62
     0
 92
       -2
340
14
 93
        0
 40
0.045
309
GRIDFORMAT_END
 95
        2
302
GRIDFORMAT
  1
GRIDFORMAT_BEGIN
 90
        0
 91
        1
 62
     0
 92
       -2
340
14
 93
        0
 40
0.045
309
GRIDFORMAT_END
 95
        4
302
GRIDFORMAT
  1
GRIDFORMAT_BEGIN
 90
        0
 91
        1
 62
     0
 92
       -2
340
14
 93
        0
 40
0.045
309
GRIDFORMAT_END
 95
        8
302
GRIDFORMAT
  1
GRIDFORMAT_BEGIN
 90
        0
 91
        1
 62
     0
 92
       -2
340
14
 93
        0
 40
0.045
309
GRIDFORMAT_END
 95
       16
302
GRIDFORMAT
  1
GRIDFORMAT_BEGIN
 90
        0
 91
        1
 62
     0
 92
       -2
340
14
 93
        0
 40
0.045
309
GRIDFORMAT_END
 95
       32
302
GRIDFORMAT
  1
GRIDFORMAT_BEGIN
 90
        0
 91
        1
 62
     0
 92
       -2
340
14
 93
        0
 40
0.045
309
GRIDFORMAT_END
309
TABLEFORMAT_END
  1
CELLSTYLE_BEGIN
 90
        2
 91
        1
300
_HEADER
309
CELLSTYLE_END
300
CELLSTYLE
  1
TABLEFORMAT_BEGIN
 90
        5
170
     1
 91
        0
 92
        0
 62
   257
 93
        1
300
CONTENTFORMAT
  1
CONTENTFORMAT_BEGIN
 90
        0
 91
        0
 92
        4
 93
        0
300

 40
0.0
140
1.0
 94
        2
 62
     0
340
11
144
4.5
309
CONTENTFORMAT_END
171
     1
301
MARGIN
  1
CELLMARGIN_BEGIN
 40
1.5
 40
1.5
 40
1.5
 40
1.5
 40
1.5
 40
1.5
309
CELLMARGIN_END
 94
        6
 95
        1
302
GRIDFORMAT
  1
GRIDFORMAT_BEGIN
 90
        0
 91
        1
 62
     0
 92
       -2
340
14
 93
        0
 40
0.045
309
GRIDFORMAT_END
 95
        2
302
GRIDFORMAT
  1
GRIDFORMAT_BEGIN
 90
        0
 91
        1
 62
     0
 92
       -2
340
14
 93
        0
 40
0.045
309
GRIDFORMAT_END
 95
        4
302
GRIDFORMAT
  1
GRIDFORMAT_BEGIN
 90
        0
 91
        1
 62
     0
 92
       -2
340
14
 93
        0
 40
0.045
309
GRIDFORMAT_END
 95
        8
302
GRIDFORMAT
  1
GRIDFORMAT_BEGIN
 90
        0
 91
        1
 62
     0
 92
       -2
340
14
 93
        0
 40
0.045
309
GRIDFORMAT_END
 95
       16
302
GRIDFORMAT
  1
GRIDFORMAT_BEGIN
 90
        0
 91
        1
 62
     0
 92
       -2
340
14
 93
        0
 40
0.045
309
GRIDFORMAT_END
 95
       32
302
GRIDFORMAT
  1
GRIDFORMAT_BEGIN
 90
        0
 91
        1
 62
     0
 92
       -2
340
14
 93
        0
 40
0.045
309
GRIDFORMAT_END
309
TABLEFORMAT_END
  1
CELLSTYLE_BEGIN
 90
        3
 91
        2
300
_DATA
309
CELLSTYLE_END
  0
ENDSEC
  0
EOF
